  0
SECTION
  2
HEADER
  9
$ACADVER
  1
AC1014
  9
$ACADMAINTVER
 70
             0
  9
$DWGCODEPAGE
  3
ANSI_1252
  9
$INSBASE
 10
0.0
 20
0.0
 30
0.0
  9
$EXTMIN
 10
-4.25220785607059
 20
2.06784423964035
 30
0.0
  9
$EXTMAX
 10
283.39947991062411
 20
165.50000000000031
 30
0.0
  9
$LIMMIN
 10
0.0
 20
0.0
  9
$LIMMAX
 10
0.0
 20
0.0
  9
$ORTHOMODE
 70
             0
  9
$REGENMODE
 70
             1
  9
$FILLMODE
 70
             1
  9
$QTEXTMODE
 70
             0
  9
$MIRRTEXT
 70
             1
  9
$DRAGMODE
 70
             2
  9
$LTSCALE
 40
1.0
  9
$OSMODE
 70
             0
  9
$ATTMODE
 70
             1
  9
$TEXTSIZE
 40
0.2
  9
$TRACEWID
 40
0.05
  9
$TEXTSTYLE
  7
STANDARD
  9
$CLAYER
  8
0
  9
$CELTYPE
  6
CONTINUOUS
  9
$CECOLOR
 62
           256
  9
$CELTSCALE
 40
1.0
  9
$DELOBJ
 70
             1
  9
$DISPSILH
 70
             0
  9
$DIMSCALE
 40
1.0
  9
$DIMASZ
 40
0.18
  9
$DIMEXO
 40
0.0625
  9
$DIMDLI
 40
0.38
  9
$DIMRND
 40
0.0
  9
$DIMDLE
 40
0.0
  9
$DIMEXE
 40
0.18
  9
$DIMTP
 40
0.0
  9
$DIMTM
 40
0.0
  9
$DIMTXT
 40
0.18
  9
$DIMCEN
 40
0.09
  9
$DIMTSZ
 40
0.0
  9
$DIMTOL
 70
             0
  9
$DIMLIM
 70
             0
  9
$DIMTIH
 70
             1
  9
$DIMTOH
 70
             1
  9
$DIMSE1
 70
             0
  9
$DIMSE2
 70
             0
  9
$DIMTAD
 70
             0
  9
$DIMZIN
 70
             0
  9
$DIMBLK
  1

  9
$DIMASO
 70
             1
  9
$DIMSHO
 70
             1
  9
$DIMPOST
  1

  9
$DIMAPOST
  1

  9
$DIMALT
 70
             0
  9
$DIMALTD
 70
             2
  9
$DIMALTF
 40
25.4
  9
$DIMLFAC
 40
1.0
  9
$DIMTOFL
 70
             0
  9
$DIMTVP
 40
0.0
  9
$DIMTIX
 70
             0
  9
$DIMSOXD
 70
             0
  9
$DIMSAH
 70
             0
  9
$DIMBLK1
  1

  9
$DIMBLK2
  1

  9
$DIMSTYLE
  2
STANDARD
  9
$DIMCLRD
 70
             0
  9
$DIMCLRE
 70
             0
  9
$DIMCLRT
 70
             0
  9
$DIMTFAC
 40
1.0
  9
$DIMGAP
 40
0.09
  9
$DIMJUST
 70
             0
  9
$DIMSD1
 70
             0
  9
$DIMSD2
 70
             0
  9
$DIMTOLJ
 70
             1
  9
$DIMTZIN
 70
             0
  9
$DIMALTZ
 70
             0
  9
$DIMALTTZ
 70
             0
  9
$DIMFIT
 70
             3
  9
$DIMUPT
 70
             0
  9
$DIMUNIT
 70
             2
  9
$DIMDEC
 70
             4
  9
$DIMTDEC
 70
             4
  9
$DIMALTU
 70
             2
  9
$DIMALTTD
 70
             2
  9
$DIMTXSTY
  7
STANDARD
  9
$DIMAUNIT
 70
             0
  9
$LUNITS
 70
             2
  9
$LUPREC
 70
             4
  9
$SKETCHINC
 40
0.1
  9
$FILLETRAD
 40
0.0
  9
$AUNITS
 70
             0
  9
$AUPREC
 70
             0
  9
$MENU
  1
acad
  9
$ELEVATION
 40
0.0
  9
$PELEVATION
 40
0.0
  9
$THICKNESS
 40
0.0
  9
$LIMCHECK
 70
             0
  9
$BLIPMODE
 70
             1
  9
$CHAMFERA
 40
0.0
  9
$CHAMFERB
 40
0.0
  9
$CHAMFERC
 40
0.0
  9
$CHAMFERD
 40
0.0
  9
$SKPOLY
 70
             0
  9
$TDCREATE
 40
0.000000000
  9
$TDUPDATE
 40
0.000000000
  9
$TDINDWG
 40
0.0000000000
  9
$TDUSRTIMER
 40
0.0000000000
  9
$USRTIMER
 70
             1
  9
$ANGBASE
 50
0.0
  9
$ANGDIR
 70
             0
  9
$PDMODE
 70
             0
  9
$PDSIZE
 40
0.0
  9
$PLINEWID
 40
0.0
  9
$COORDS
 70
             0
  9
$SPLFRAME
 70
             0
  9
$SPLINETYPE
 70
             6
  9
$SPLINESEGS
 70
             8
  9
$ATTDIA
 70
             0
  9
$ATTREQ
 70
             1
  9
$HANDLING
 70
             1
  9
$HANDSEED
  5
2F9
  9
$SURFTAB1
 70
             6
  9
$SURFTAB2
 70
             6
  9
$SURFTYPE
 70
             6
  9
$SURFU
 70
             6
  9
$SURFV
 70
             6
  9
$UCSNAME
  2

  9
$UCSORG
 10
0.0
 20
0.0
 30
0.0
  9
$UCSXDIR
 10
1.0
 20
0.0
 30
0.0
  9
$UCSYDIR
 10
0.0
 20
1.0
 30
0.0
  9
$PUCSNAME
  2

  9
$PUCSORG
 10
0.0
 20
0.0
 30
0.0
  9
$PUCSXDIR
 10
1.0
 20
0.0
 30
0.0
  9
$PUCSYDIR
 10
0.0
 20
1.0
 30
0.0
  9
$USERI1
 70
             0
  9
$USERI2
 70
             0
  9
$USERI3
 70
             0
  9
$USERI4
 70
             0
  9
$USERI5
 70
             0
  9
$USERR1
 40
12.01
  9
$USERR2
 40
0.0
  9
$USERR3
 40
0.0
  9
$USERR4
 40
0.0
  9
$USERR5
 40
0.0
  9
$WORLDVIEW
 70
             1
  9
$SHADEDGE
 70
             3
  9
$SHADEDIF
 70
            70
  9
$TILEMODE
 70
             1
  9
$MAXACTVP
 70
            16
  9
$PINSBASE
 10
0.0
 20
0.0
 30
0.0
  9
$PLIMCHECK
 70
             0
  9
$PEXTMIN
 10
1.00000000000000E+20
 20
1.00000000000000E+20
 30
1.00000000000000E+20
  9
$PEXTMAX
 10
-1.00000000000000E+20
 20
-1.00000000000000E+20
 30
-1.00000000000000E+20
  9
$PLIMMIN
 10
0.0
 20
0.0
  9
$PLIMMAX
 10
12.0
 20
9.0
  9
$UNITMODE
 70
             0
  9
$VISRETAIN
 70
             0
  9
$PLINEGEN
 70
             1
  9
$PSLTSCALE
 70
             0
  9
$TREEDEPTH
 70
          3020
  9
$PICKSTYLE
 70
             1
  9
$CMLSTYLE
  2
STANDARD
  9
$CMLJUST
 70
             0
  9
$CMLSCALE
 40
1.0
  9
$PROXYGRAPHICS
 70
             0
  9
$MEASUREMENT
 70
             1
  0
ENDSEC
  0
SECTION
  2
CLASSES
  0
CLASS
  1
LWPOLYLINE
  2
AcDbPolyline
  3
"AutoCAD"
 90
        0
280
             0
281
             1
  0
CLASS
  1
IMAGE
  2
AcDbRasterImage
  3
ISM
 90
      127
280
             0
281
             1
  0
CLASS
  1
OLE2FRAME
  2
AcDbOle2Frame
  3
""
 90
        0
280
             0
281
             1
  0
CLASS
  1
HATCH
  2
AcDbHatch
  3
"ACAD_SEDONA"
 90
        0
280
             0
281
             1
  0
CLASS
  1
DICTIONARYVAR
  2
AcDbDictionaryVar
  3
"AutoCAD"
 90
        0
280
             0
281
             0
  0
CLASS
  1
RASTERVARIABLES
  2
AcDbRasterVariables
  3
ISM
 90
        0
280
             0
281
             0
  0
CLASS
  1
IMAGEDEF
  2
AcDbRasterImageDef
  3
ISM
 90
        0
280
             0
281
             0
  0
CLASS
  1
IMAGEDEF_REACTOR
  2
AcDbRasterImageDefReactor
  3
ISM
 90
        1
280
             0
281
             0
  0
CLASS
  1
IDBUFFER
  2
AcDbIdBuffer
  3
"Acad"
 90
        0
280
             0
281
             0
  0
CLASS
  1
SPATIAL_FILTER
  2
AcDbSpatialFilter
  3
"Acad"
 90
        0
280
             0
281
             0
  0
CLASS
  1
XRECORD
  2
AcDbXrecord
  3
"<Built In>"
 90
        0
280
             0
281
             0
  0
CLASS
  1
SORTENTSTABLE
  2
AcDbSortentsTable
  3
"AutoCAD"
 90
        0
280
             0
281
             0
  0
CLASS
  1
LAYER_INDEX
  2
AcDbLayerIndex
  3
"Acad"
 90
        0
280
             0
281
             0
  0
CLASS
  1
SPATIAL_INDEX
  2
AcDbSpatialIndex
  3
"Acad"
 90
        0
280
             0
281
             0
  0
CLASS
  1
OBJECT_PTR
  2
CAseDLPNTableRecord
  3
"ASE-LPNTableRecord"
 90
        1
280
             0
281
             0
  0
CLASS
  1
LAYOUT
  2
AcDbLayout
  3
"AutoCAD 2000"
 90
        0
280
             0
281
             0
  0
CLASS
  1
PLOTSETTINGS
  2
AcDbPlotSettings
  3
"AutoCAD 2000"
 90
        0
280
             0
281
             0
  0
CLASS
  1
ACDBDICTIONARYWDFLT
  2
AcDbDictionaryWithDefault
  3
"AutoCAD 2000"
 90
        0
280
             0
281
             0
  0
CLASS
  1
ACDBPLACEHOLDER
  2
AcDbPlaceHolder
  3
"AutoCAD 2000"
 90
        0
280
             0
281
             0
  0
ENDSEC
  0
SECTION
  2
TABLES
  0
TABLE
  2
VPORT
  5
7
100
AcDbSymbolTable
 70
             1
  0
VPORT
  5
15
100
AcDbSymbolTableRecord
100
AcDbViewportTableRecord
  2
*ACTIVE
 70
             0
 10
0.0
 20
0.0
 11
1.0
 21
1.0
 12
139.57363602727676
 22
83.78392211982033
 13
0.0
 23
0.0
 14
1.0
 24
1.0
 15
0.0
 25
0.0
 16
0.0
 26
0.0
 36
1.0
 17
0.0
 27
0.0
 37
0.0
 40
197.43001633903512
 41
1.60267857142857
 42
50.0
 43
0.0
 44
0.0
 50
0.0
 51
0.0
 71
             0
 72
           100
 73
             1
 74
             1
 75
             0
 76
             0
 77
             0
 78
             0
  0
ENDTAB
  0
TABLE
  2
LTYPE
  5
4
100
AcDbSymbolTable
 70
            10
  0
LTYPE
  5
11
100
AcDbSymbolTableRecord
100
AcDbLinetypeTableRecord
  2
BYBLOCK
 70
            64
  3

 72
            65
 73
             0
 40
0.0
  0
LTYPE
  5
12
100
AcDbSymbolTableRecord
100
AcDbLinetypeTableRecord
  2
BYLAYER
 70
            64
  3

 72
            65
 73
             0
 40
0.0
  0
LTYPE
  5
13
100
AcDbSymbolTableRecord
100
AcDbLinetypeTableRecord
  2
CONTINUOUS
 70
            64
  3
Solid line
 72
            65
 73
             0
 40
0.0
  0
LTYPE
  5
1D
100
AcDbSymbolTableRecord
100
AcDbLinetypeTableRecord
  2
DASHED
 70
            64
  3
Dashed
 72
            65
 73
             2
 40
15.0
 49
7.0
 74
             0
 49
-8.0
 74
             0
  0
LTYPE
  5
1E
100
AcDbSymbolTableRecord
100
AcDbLinetypeTableRecord
  2
DOTTED
 70
            64
  3
Dotted
 72
            65
 73
             2
 40
1.0
 49
0.0
 74
             0
 49
-1.0
 74
             0
  0
LTYPE
  5
1F
100
AcDbSymbolTableRecord
100
AcDbLinetypeTableRecord
  2
DOT_CENTER
 70
            64
  3
Dot_Center
 72
            65
 73
             4
 40
14.0
 49
12.0
 74
             0
 49
-1.0
 74
             0
 49
0.0
 74
             0
 49
-1.0
 74
             0
  0
LTYPE
  5
20
100
AcDbSymbolTableRecord
100
AcDbLinetypeTableRecord
  2
LONG_DASHED
 70
            64
  3
Long_Dashed
 72
            65
 73
             2
 40
15.0
 49
10.0
 74
             0
 49
-5.0
 74
             0
  0
LTYPE
  5
21
100
AcDbSymbolTableRecord
100
AcDbLinetypeTableRecord
  2
DASH_CENTER
 70
            64
  3
Dash_Center
 72
            65
 73
             4
 40
14.0
 49
11.0
 74
             0
 49
-1.0
 74
             0
 49
1.0
 74
             0
 49
-1.0
 74
             0
  0
LTYPE
  5
22
100
AcDbSymbolTableRecord
100
AcDbLinetypeTableRecord
  2
PHANTOM
 70
            64
  3
Phantom
 72
            65
 73
             6
 40
13.0
 49
10.0
 74
             0
 49
-1.0
 74
             0
 49
0.0
 74
             0
 49
-1.0
 74
             0
 49
0.0
 74
             0
 49
-1.0
 74
             0
  0
LTYPE
  5
23
100
AcDbSymbolTableRecord
100
AcDbLinetypeTableRecord
  2
CENTER_DASH_DASH
 70
            64
  3
Center_Dash_Dash
 72
            65
 73
             6
 40
14.0
 49
9.0
 74
             0
 49
-1.0
 74
             0
 49
1.0
 74
             0
 49
-1.0
 74
             0
 49
1.0
 74
             0
 49
-1.0
 74
             0
  0
ENDTAB
  0
TABLE
  2
LAYER
  5
2
100
AcDbSymbolTable
 70
             3
  0
LAYER
  5
14
100
AcDbSymbolTableRecord
100
AcDbLayerTableRecord
  2
0
 70
             0
 62
             7
  6
CONTINUOUS
  0
LAYER
  5
24
100
AcDbSymbolTableRecord
100
AcDbLayerTableRecord
  2
1
 70
             0
 62
             7
  6
CONTINUOUS
  0
LAYER
  5
25
100
AcDbSymbolTableRecord
100
AcDbLayerTableRecord
  2
___C_____1
 70
             0
 62
             7
  6
CONTINUOUS
  0
ENDTAB
  0
TABLE
  2
STYLE
  5
3
100
AcDbSymbolTable
 70
             2
  0
STYLE
  5
17
100
AcDbSymbolTableRecord
100
AcDbTextStyleTableRecord
  2
STANDARD
 70
             0
 40
0.0
 41
1.0
 50
0.0
 71
             0
 42
0.0
  3
txt
  4

  0
STYLE
  5
291
100
AcDbSymbolTableRecord
100
AcDbTextStyleTableRecord
  2
CONVERTER_1
 70
             0
 40
0.0
 41
0.9
 50
0.0
 71
             0
 42
0.0
  3
txt.shx
  4

  0
ENDTAB
  0
TABLE
  2
VIEW
  5
5
100
AcDbSymbolTable
 70
             0
  0
ENDTAB
  0
TABLE
  2
UCS
  5
6
100
AcDbSymbolTable
 70
             0
  0
ENDTAB
  0
TABLE
  2
APPID
  5
8
100
AcDbSymbolTable
 70
             1
  0
APPID
  5
16
100
AcDbSymbolTableRecord
100
AcDbRegAppTableRecord
  2
ACAD
 70
             0
  0
ENDTAB
  0
TABLE
  2
DIMSTYLE
  5
9
100
AcDbSymbolTable
 70
             7
  0
DIMSTYLE
105
18
100
AcDbSymbolTableRecord
100
AcDbDimStyleTableRecord
  2
STANDARD
 70
             0
  3

  4

  5

  6

  7

 40
1.0
 41
0.18
 42
0.0625
 43
0.38
 44
0.18
 45
0.0
 46
0.0
 47
0.0
 48
0.0
 71
             0
 72
             0
 73
             1
 74
             1
 75
             0
 76
             0
 77
             0
 78
             0
140
0.18
141
0.09
142
0.0
143
25.4
144
1.0
145
0.0
146
1.0
147
0.09
170
             0
171
             2
172
             0
173
             0
174
             0
175
             0
176
             0
177
             0
178
             0
270
             2
271
             4
272
             4
273
             2
274
             2
275
             0
280
             0
281
             0
282
             0
283
             1
284
             0
285
             0
286
             0
287
             3
288
             0
340
17
  0
DIMSTYLE
105
29D
100
AcDbSymbolTableRecord
100
AcDbDimStyleTableRecord
  2
ME10_DIM_0
 70
             0
  3

  4

  5

  6

  7

 40
1.0
 41
4.0
 42
1.0
 43
0.38
 44
1.5
 45
0.0
 46
0.0
 47
0.5
 48
0.5
 71
             1
 72
             0
 73
             1
 74
             1
 75
             0
 76
             0
 77
             1
 78
             8
140
4.0
141
0.09
142
0.0
143
25.4
144
1.0
145
0.0
146
0.625
147
0.625
170
             0
171
             2
172
             1
173
             1
174
             0
175
             0
176
             2
177
             2
178
             2
270
             2
271
             4
272
             1
273
             2
274
             2
275
             0
280
             0
281
             0
282
             0
283
             1
284
             0
285
             0
286
             0
287
             3
288
             0
340
291
  0
DIMSTYLE
105
2AA
100
AcDbSymbolTableRecord
100
AcDbDimStyleTableRecord
  2
ME10_DIM_1
 70
             0
  3

  4

  5

  6

  7

 40
1.0
 41
4.0
 42
1.0
 43
0.38
 44
1.5
 45
0.0
 46
0.0
 47
0.5
 48
0.5
 71
             1
 72
             0
 73
             1
 74
             1
 75
             0
 76
             0
 77
             1
 78
             8
140
4.0
141
0.09
142
0.0
143
25.4
144
1.0
145
0.0
146
0.625
147
0.625
170
             0
171
             2
172
             1
173
             1
174
             0
175
             0
176
             2
177
             2
178
             2
270
             2
271
             4
272
             1
273
             2
274
             2
275
             0
280
             0
281
             0
282
             0
283
             1
284
             0
285
             0
286
             0
287
             3
288
             0
340
291
  0
DIMSTYLE
105
2B7
100
AcDbSymbolTableRecord
100
AcDbDimStyleTableRecord
  2
ME10_DIM_2
 70
             0
  3

  4

  5

  6

  7

 40
1.0
 41
4.0
 42
1.0
 43
0.38
 44
1.5
 45
0.0
 46
0.0
 47
0.5
 48
0.5
 71
             1
 72
             0
 73
             1
 74
             1
 75
             0
 76
             0
 77
             1
 78
             8
140
4.0
141
0.09
142
0.0
143
25.4
144
1.0
145
0.0
146
0.625
147
0.625
170
             0
171
             2
172
             1
173
             1
174
             0
175
             0
176
             2
177
             2
178
             2
270
             2
271
             4
272
             1
273
             2
274
             2
275
             0
280
             0
281
             0
282
             0
283
             1
284
             0
285
             0
286
             0
287
             3
288
             0
340
291
  0
DIMSTYLE
105
2C2
100
AcDbSymbolTableRecord
100
AcDbDimStyleTableRecord
  2
ME10_DIM_3
 70
             0
  3
 <>
  4

  5

  6

  7

 40
1.0
 41
4.0
 42
1.0
 43
0.38
 44
1.5
 45
0.0
 46
0.0
 47
0.3
 48
0.3
 71
             1
 72
             0
 73
             1
 74
             1
 75
             0
 76
             0
 77
             1
 78
             8
140
4.0
141
0.09
142
0.0
143
25.4
144
1.0
145
0.0
146
0.625
147
0.625
170
             0
171
             2
172
             1
173
             1
174
             0
175
             0
176
             2
177
             2
178
             2
270
             2
271
             4
272
             1
273
             2
274
             2
275
             0
280
             0
281
             0
282
             0
283
             1
284
             0
285
             0
286
             0
287
             3
288
             0
340
291
  0
DIMSTYLE
105
2CD
100
AcDbSymbolTableRecord
100
AcDbDimStyleTableRecord
  2
ME10_DIM_4
 70
             0
  3
 <>
  4

  5

  6

  7

 40
1.0
 41
4.0
 42
1.0
 43
0.38
 44
1.5
 45
0.0
 46
0.0
 47
1.0
 48
1.0
 71
             1
 72
             0
 73
             1
 74
             1
 75
             0
 76
             0
 77
             1
 78
             8
140
4.0
141
0.09
142
0.0
143
25.4
144
1.0
145
0.0
146
0.625
147
0.625
170
             0
171
             2
172
             1
173
             1
174
             0
175
             0
176
             2
177
             2
178
             2
270
             2
271
             4
272
             0
273
             2
274
             2
275
             0
280
             0
281
             0
282
             0
283
             1
284
             0
285
             0
286
             0
287
             3
288
             0
340
291
  0
DIMSTYLE
105
2D8
100
AcDbSymbolTableRecord
100
AcDbDimStyleTableRecord
  2
ME10_DIM_5
 70
             0
  3

  4

  5

  6

  7

 40
1.0
 41
4.0
 42
1.0
 43
0.38
 44
1.5
 45
0.0
 46
0.0
 47
30.0
 48
30.0
 71
             1
 72
             0
 73
             1
 74
             1
 75
             0
 76
             0
 77
             1
 78
             8
140
4.0
141
0.09
142
0.0
143
25.4
144
1.0
145
0.0
146
0.625
147
0.625
170
             0
171
             2
172
             1
173
             1
174
             0
175
             0
176
             2
177
             2
178
             2
270
             2
271
             4
272
             0
273
             2
274
             2
275
             0
280
             0
281
             0
282
             0
283
             1
284
             0
285
             0
286
             0
287
             3
288
             0
340
291
  0
ENDTAB
  0
TABLE
  2
BLOCK_RECORD
  5
1
100
AcDbSymbolTable
 70
             9
  0
BLOCK_RECORD
  5
A
100
AcDbSymbolTableRecord
100
AcDbBlockTableRecord
  2
*MODEL_SPACE
  0
BLOCK_RECORD
  5
B
100
AcDbSymbolTableRecord
100
AcDbBlockTableRecord
  2
*PAPER_SPACE
  0
BLOCK_RECORD
  5
26
100
AcDbSymbolTableRecord
100
AcDbBlockTableRecord
  2
AS57694-01_DB
  0
BLOCK_RECORD
  5
294
100
AcDbSymbolTableRecord
100
AcDbBlockTableRecord
  2
*D1
  0
BLOCK_RECORD
  5
29F
100
AcDbSymbolTableRecord
100
AcDbBlockTableRecord
  2
*D2
  0
BLOCK_RECORD
  5
2AC
100
AcDbSymbolTableRecord
100
AcDbBlockTableRecord
  2
*D3
  0
BLOCK_RECORD
  5
2B9
100
AcDbSymbolTableRecord
100
AcDbBlockTableRecord
  2
*D4
  0
BLOCK_RECORD
  5
2C4
100
AcDbSymbolTableRecord
100
AcDbBlockTableRecord
  2
*D5
  0
BLOCK_RECORD
  5
2CF
100
AcDbSymbolTableRecord
100
AcDbBlockTableRecord
  2
*D6
  0
BLOCK_RECORD
  5
2DA
100
AcDbSymbolTableRecord
100
AcDbBlockTableRecord
  2
*D7
  0
BLOCK_RECORD
  5
2E2
100
AcDbSymbolTableRecord
100
AcDbBlockTableRecord
  2
*D8
  0
ENDTAB
  0
ENDSEC
  0
SECTION
  2
BLOCKS
  0
BLOCK
  5
D
100
AcDbEntity
  8
0
100
AcDbBlockBegin
  2
*MODEL_SPACE
 70
             0
 10
0.0
 20
0.0
 30
0.0
  3
*MODEL_SPACE
  1

  0
ENDBLK
  5
E
100
AcDbEntity
  8
0
100
AcDbBlockEnd
  0
BLOCK
  5
F
100
AcDbEntity
 67
             1
  8
0
100
AcDbBlockBegin
  2
*PAPER_SPACE
 70
             0
 10
0.0
 20
0.0
 30
0.0
  3
*PAPER_SPACE
  1

  0
ENDBLK
  5
10
100
AcDbEntity
 67
             1
  8
0
100
AcDbBlockEnd
  0
BLOCK
  5
27
100
AcDbEntity
  8
0
100
AcDbBlockBegin
  2
AS57694-01_DB
 70
             0
 10
-512.74651515544974
 20
-489.37712010111488
 30
0.0
  3
AS57694-01_DB
  1

  0
HATCH
  5
2F5
100
AcDbEntity
  8
1
  6
CONTINUOUS
 62
             2
100
AcDbHatch
 10
0.0
 20
0.0
 30
0.0
210
0.0
220
0.0
230
1.0
  2
USER
 70
             0
 71
             1
 91
        1
 92
        1
 93
        4
 72
             1
 10
93.948450412955054
 20
94.541073656771573
 11
93.336256876580563
 21
93.302239281582274
 72
             1
 10
93.336256876580563
 20
93.302239281582274
 11
90.99305697191221
 21
97.999243828146973
 72
             1
 10
90.99305697191221
 20
97.999243828146973
 11
92.211003960949711
 21
97.999243828146973
 72
             1
 10
92.211003960949711
 20
97.999243828146973
 11
93.948450412955054
 21
94.541073656771573
 97
        1
330
282
 75
             1
 76
             0
 52
45.0
 41
0.04
 77
             0
 78
             1
 53
45.0
 43
-479.43514979741349
 44
-1025.2827080660691
 45
-0.0282842712474619
 46
0.0282842712474619
 79
             0
 98
        1
 10
0.0
 20
0.0
  0
HATCH
  5
2F4
100
AcDbEntity
  8
1
  6
CONTINUOUS
 62
             2
100
AcDbHatch
 10
0.0
 20
0.0
 30
0.0
210
0.0
220
0.0
230
1.0
  2
USER
 70
             0
 71
             1
 91
        1
 92
        1
 93
        4
 72
             1
 10
94.421323714713267
 20
95.489052757837783
 11
94.161445185293857
 21
94.968394113450699
 72
             1
 10
94.161445185293857
 20
94.968394113450699
 11
92.655712637419583
 21
97.999243828146973
 72
             1
 10
92.655712637419583
 20
97.999243828146973
 11
93.170188793966162
 21
97.999243828146973
 72
             1
 10
93.170188793966162
 20
97.999243828146973
 11
94.421323714713267
 21
95.489052757837783
 97
        1
330
284
 75
             1
 76
             0
 52
45.0
 41
0.04
 77
             0
 78
             1
 53
45.0
 43
-479.43514979741349
 44
-1025.2827080660691
 45
-0.0282842712474619
 46
0.0282842712474619
 79
             0
 98
        1
 10
0.0
 20
0.0
  0
HATCH
  5
2F3
100
AcDbEntity
  8
1
  6
CONTINUOUS
 62
             2
100
AcDbHatch
 10
0.0
 20
0.0
 30
0.0
210
0.0
220
0.0
230
1.0
  2
USER
 70
             0
 71
             1
 91
        1
 92
        1
 93
        3
 72
             1
 10
95.679929040344959
 20
97.999243828146973
 11
95.297646174692062
 21
97.237898107539991
 72
             1
 10
95.297646174692062
 20
97.237898107539991
 11
94.92163166216956
 21
97.999243828146973
 72
             1
 10
94.92163166216956
 20
97.999243828146973
 11
95.679929040344959
 21
97.999243828146973
 97
        1
330
286
 75
             1
 76
             0
 52
45.0
 41
0.04
 77
             0
 78
             1
 53
45.0
 43
-479.43514979741349
 44
-1025.2827080660691
 45
-0.0282842712474619
 46
0.0282842712474619
 79
             0
 98
        1
 10
0.0
 20
0.0
  0
HATCH
  5
2F2
100
AcDbEntity
  8
1
  6
CONTINUOUS
 62
             2
100
AcDbHatch
 10
0.0
 20
0.0
 30
0.0
210
0.0
220
0.0
230
1.0
  2
USER
 70
             0
 71
             1
 91
        1
 92
        1
 93
        4
 72
             1
 10
95.138189906369959
 20
96.919651058053091
 11
94.931162958645061
 21
96.5068207741474
 72
             1
 10
94.931162958645061
 20
96.5068207741474
 11
94.193817272122061
 21
97.999243828146973
 72
             1
 10
94.193817272122061
 20
97.999243828146973
 11
94.604865820096762
 21
97.999243828146973
 72
             1
 10
94.604865820096762
 20
97.999243828146973
 11
95.138189906369959
 21
96.919651058053091
 97
        1
330
288
 75
             1
 76
             0
 52
45.0
 41
0.04
 77
             0
 78
             1
 53
45.0
 43
-479.43514979741349
 44
-1025.2827080660691
 45
-0.0282842712474619
 46
0.0282842712474619
 79
             0
 98
        1
 10
0.0
 20
0.0
  0
HATCH
  5
2F1
100
AcDbEntity
  8
1
  6
CONTINUOUS
 62
             2
100
AcDbHatch
 10
0.0
 20
0.0
 30
0.0
210
0.0
220
0.0
230
1.0
  2
USER
 70
             0
 71
             1
 91
        1
 92
        1
 93
        4
 72
             1
 10
94.771234431227157
 20
96.188917185821992
 11
94.611134173228066
 21
95.87097066485137
 72
             1
 10
94.611134173228066
 20
95.87097066485137
 11
93.55861121481486
 21
97.999243828146973
 72
             1
 10
93.55861121481486
 20
97.999243828146973
 11
93.876536238307366
 21
97.999243828146973
 72
             1
 10
93.876536238307366
 20
97.999243828146973
 11
94.771234431227157
 21
96.188917185821992
 97
        1
330
28A
 75
             1
 76
             0
 52
45.0
 41
0.04
 77
             0
 78
             1
 53
45.0
 43
-479.43514979741349
 44
-1025.2827080660691
 45
-0.0282842712474619
 46
0.0282842712474619
 79
             0
 98
        1
 10
0.0
 20
0.0
  0
HATCH
  5
2F0
100
AcDbEntity
  8
1
  6
CONTINUOUS
 62
             2
100
AcDbHatch
 10
0.0
 20
0.0
 30
0.0
210
0.0
220
0.0
230
1.0
  2
USER
 70
             0
 71
             1
 91
        1
 92
        1
 93
       12
 72
             1
 10
87.459763332773377
 20
98.004374435024715
 11
86.974052858547907
 21
97.203314896017901
 72
             1
 10
86.974052858547907
 20
97.203314896017901
 11
85.410220104060102
 21
97.203314896017901
 72
             1
 10
85.410220104060102
 20
97.203314896017901
 11
85.410220104060102
 21
96.404810005178263
 72
             1
 10
85.410220104060102
 20
96.404810005178263
 11
87.334611182623917
 21
96.404810005178263
 72
             1
 10
87.334611182623917
 20
96.404810005178263
 11
87.334611182623917
 21
95.604695046677193
 72
             1
 10
87.334611182623917
 20
95.604695046677193
 11
85.410220104060102
 21
95.604695046677193
 72
             1
 10
85.410220104060102
 20
95.604695046677193
 11
85.410220104060102
 21
94.80543874107957
 72
             1
 10
85.410220104060102
 20
94.80543874107957
 11
87.334611182623917
 21
94.80543874107957
 72
             1
 10
87.334611182623917
 20
94.80543874107957
 11
87.334611182623917
 21
94.005001818895266
 72
             1
 10
87.334611182623917
 20
94.005001818895266
 11
84.381793762604104
 21
94.002447233039675
 72
             1
 10
84.381793762604104
 20
94.002447233039675
 11
84.381793762604104
 21
98.002442403679993
 72
             1
 10
84.381793762604104
 20
98.002442403679993
 11
87.459763332773377
 21
98.004374435024715
 97
        1
330
28C
 75
             1
 76
             0
 52
45.0
 41
0.04
 77
             0
 78
             1
 53
45.0
 43
-479.43514979741349
 44
-1025.2827080660691
 45
-0.0282842712474619
 46
0.0282842712474619
 79
             0
 98
        1
 10
0.0
 20
0.0
  0
HATCH
  5
2EF
100
AcDbEntity
  8
1
  6
CONTINUOUS
 62
             2
100
AcDbHatch
 10
0.0
 20
0.0
 30
0.0
210
0.0
220
0.0
230
1.0
  2
USER
 70
             0
 71
             1
 91
        1
 92
        1
 93
        4
 72
             1
 10
90.250000000000455
 20
58.5
 11
89.750000000000455
 21
58.5
 72
             1
 10
89.750000000000455
 20
58.5
 11
89.750000000000455
 21
57.001358735786198
 72
             2
 10
90.0
 20
80.0
 40
22.999999999999947
 50
-90.62279247606509
 51
-89.37720752393264
 73
             1
 72
             1
 10
90.250000000000455
 20
57.001358735786198
 11
90.250000000000455
 21
58.5
 97
        4
330
9B
330
9C
330
18C
330
9A
 75
             1
 76
             0
 52
45.0
 41
0.1
 77
             0
 78
             1
 53
45.0
 43
-842.04546433138
 44
-1279.1008555581309
 45
-0.0707106781186548
 46
0.0707106781186548
 79
             0
 98
        1
 10
0.0
 20
0.0
  0
HATCH
  5
2EE
100
AcDbEntity
  8
1
  6
CONTINUOUS
 62
             2
100
AcDbHatch
 10
0.0
 20
0.0
 30
0.0
210
0.0
220
0.0
230
1.0
  2
USER
 70
             0
 71
             1
 91
        1
 92
        1
 93
        4
 72
             1
 10
68.500000000000512
 20
80.25
 11
67.00135873578671
 21
80.25
 72
             2
 10
90.0
 20
80.0
 40
22.999999999999442
 50
179.37720752393378
 51
-179.37720752393378
 73
             1
 72
             1
 10
67.00135873578671
 20
79.75
 11
68.500000000000512
 21
79.75
 72
             1
 10
68.500000000000512
 20
79.75
 11
68.500000000000512
 21
80.25
 97
        4
330
99
330
18B
330
97
330
98
 75
             1
 76
             0
 52
45.0
 41
0.1
 77
             0
 78
             1
 53
45.0
 43
-842.04546433138
 44
-1279.1008555581309
 45
-0.0707106781186548
 46
0.0707106781186548
 79
             0
 98
        1
 10
0.0
 20
0.0
  0
HATCH
  5
2ED
100
AcDbEntity
  8
1
  6
CONTINUOUS
 62
             2
100
AcDbHatch
 10
0.0
 20
0.0
 30
0.0
210
0.0
220
0.0
230
1.0
  2
USER
 70
             0
 71
             1
 91
        2
 92
        1
 93
        1
 72
             2
 10
97.466148348129565
 20
95.961732769225591
 40
2.2249386621610938
 50
0.0
 51
360.0
 73
             1
 97
        1
330
1F0
 92
       16
 93
        1
 72
             2
 10
97.466148348129565
 20
95.962205090634086
 40
1.2602368907717931
 50
0.0
 51
360.0
 73
             1
 97
        1
330
1EF
 75
             1
 76
             0
 52
45.0
 41
0.04
 77
             0
 78
             1
 53
45.0
 43
-479.43514979741349
 44
-1025.2827080660691
 45
-0.0282842712474619
 46
0.0282842712474619
 79
             0
 98
        1
 10
0.0
 20
0.0
  0
HATCH
  5
2EC
100
AcDbEntity
  8
1
  6
CONTINUOUS
 62
             2
100
AcDbHatch
 10
0.0
 20
0.0
 30
0.0
210
0.0
220
0.0
230
1.0
  2
USER
 70
             0
 71
             1
 91
        1
 92
        1
 93
        1
 72
             4
 94
        3
 73
             0
 74
             0
 95
       71
 96
       67
 40
0.0
 40
0.0
 40
0.0
 40
0.0
 40
0.54546021220714
 40
0.65715841500899
 40
0.78730782028321
 40
1.08713325339418
 40
1.42070810108738
 40
1.6521488851059
 40
1.91005077549808
 40
2.32982772248629
 40
2.83612134513883
 40
3.48020916904818
 40
4.17534101721511
 40
4.67616342109419
 40
5.05787631566454
 40
5.22203531401794
 40
5.40988197382992
 40
5.87949862335986
 40
6.49000026774877
 40
7.10050191213767
 40
7.57011856166761
 40
7.75796522147959
 40
7.88139999755981
 40
8.15295650493624
 40
8.42451301231268
 40
8.54794778839289
 40
8.76279144729061
 40
9.27511094158517
 40
9.88658904767871
 40
10.39890854197325
 40
10.61375220087097
 40
10.73165384064855
 40
10.97463787632644
 40
11.29602057552804
 40
11.61242548379473
 40
11.85171319002206
 40
11.96986589892817
 40
12.33199602745918
 40
12.75015883591894
 40
13.09552866855013
 40
13.23927986959548
 40
13.44190608713187
 40
13.79223718996688
 40
14.25732665602762
 40
14.94131828417162
 40
15.63128275462069
 40
16.14794376284437
 40
16.55034116381028
 40
16.72391396494455
 40
16.91421659914177
 40
17.38997318463482
 40
18.00845674577575
 40
18.6269403069167
 40
19.10269689240974
 40
19.29299952660695
 40
19.43979632498058
 40
19.76274928140254
 40
20.08570223782451
 40
20.23249903619813
 40
20.41413114104145
 40
20.84725385259091
 40
21.36420676637576
 40
21.79732947792521
 40
21.97896158276853
 40
22.08281999493506
 40
22.60371792373777
 40
22.60371792373777
 40
22.60371792373777
 40
22.60371792373777
 10
81.53406759283331
 20
96.824745816571465
 10
81.504346800862891
 20
96.61124363598276
 10
81.696233696138094
 20
96.434415256583065
 10
81.956704919432042
 20
96.394237937544148
 10
82.137605200597761
 20
96.403700813516778
 10
82.391953737897339
 20
96.401463341090647
 10
82.680121801277537
 20
96.401387041530313
 10
82.954928928821602
 20
96.405468410977534
 10
83.255351518310462
 20
96.354964762677199
 10
83.627628601033706
 20
96.210422856908679
 10
84.027645877216855
 20
95.838369203853148
 10
84.184802639168865
 20
95.21840570673038
 10
84.101190293257872
 20
94.5797323850868
 10
83.725759272089846
 20
94.173025550477973
 10
83.39746306174429
 20
94.039822891656485
 10
83.156189354064196
 20
93.992195077703471
 10
82.881482503841909
 20
94.00612352850095
 10
82.457987163584249
 20
93.995799039126027
 10
81.902032258706356
 20
94.007318479104271
 10
81.310407961644415
 20
93.978304804043461
 10
80.954821656506311
 20
94.045149129838975
 10
80.595383520894757
 20
93.946629697046461
 10
80.645328399204132
 20
94.189285809733434
 10
80.615900226236249
 20
94.394516209192474
 10
80.64403984218896
 20
94.60207879140286
 10
80.595746982847785
 20
94.851901189304272
 10
80.993746867942576
 20
94.738184373352297
 10
81.365237424262489
 20
94.812887296854868
 10
81.938864075907816
 20
94.782502228907816
 10
82.378578628975461
 20
94.795147043729656
 10
82.66153659555458
 20
94.784459714439947
 10
82.851967090993838
 20
94.805188745425724
 10
83.074023226012457
 20
94.903742280652551
 10
83.18466399968392
 20
95.210755346393071
 10
83.074248854151762
 20
95.519873068136434
 10
82.847823718679237
 20
95.606603466559363
 10
82.608974217140798
 20
95.614679032615669
 10
82.308945851816489
 20
95.610470309218073
 10
81.933793616814455
 20
95.610192317744179
 10
81.631711947440067
 20
95.615135197231226
 10
81.400413919856035
 20
95.605415767219455
 10
81.171968316957674
 20
95.656768979240368
 10
80.856214226689957
 20
95.799564873594079
 10
80.541763543376717
 20
96.220101471031853
 10
80.46137509834422
 20
96.843857679317807
 10
80.594575997449468
 20
97.493934845512513
 10
81.021525363626409
 20
97.864092620867709
 10
81.372167503602483
 20
97.978413065613296
 10
81.626533225779724
 20
98.009226561780338
 10
81.906523196851509
 20
98.000606782947742
 10
82.336630740542347
 20
98.007196251082334
 10
82.896225353114531
 20
97.998679629279792
 10
83.508006883148241
 20
98.021703300805854
 10
83.838758564748744
 20
97.968244902795334
 10
84.25766450369224
 20
98.049253272373662
 10
84.045516766137297
 20
97.812661857514954
 10
83.954866119083022
 20
97.607357480443881
 10
83.785383724978246
 20
97.402986906279097
 10
83.699689573086886
 20
97.168038488147999
 10
83.403957397674418
 20
97.242918586056106
 10
83.052515190863588
 20
97.196669947144983
 10
82.581798590877867
 20
97.214575671801555
 10
82.206511165773307
 20
97.209350851626169
 10
81.966987123536967
 20
97.211993982770437
 10
81.697496235335237
 20
97.204080430613658
 10
81.506661970408203
 20
97.023850078230282
 10
81.53406759283331
 20
96.824745816571465
 97
        1
330
216
 75
             1
 76
             0
 52
45.0
 41
0.04
 77
             0
 78
             1
 53
45.0
 43
-479.43514979741349
 44
-1025.2827080660691
 45
-0.0282842712474619
 46
0.0282842712474619
 79
             0
 98
        1
 10
0.0
 20
0.0
  0
HATCH
  5
2EB
100
AcDbEntity
  8
1
  6
CONTINUOUS
 62
             2
100
AcDbHatch
 10
0.0
 20
0.0
 30
0.0
210
0.0
220
0.0
230
1.0
  2
USER
 70
             0
 71
             1
 91
        1
 92
        1
 93
        1
 72
             4
 94
        3
 73
             0
 74
             0
 95
       69
 96
       65
 40
0.0
 40
0.0
 40
0.0
 40
0.0
 40
0.43561630869527
 40
0.80193002282539
 40
1.10884151304251
 40
1.23754633152066
 40
1.43107664519087
 40
1.91490242936641
 40
2.54387594879463
 40
3.17284946822282
 40
3.65667525239838
 40
3.85020556606859
 40
4.02017324020745
 40
4.39410212331294
 40
4.76803100641843
 40
4.93799868055729
 40
5.07037182586076
 40
5.34709071116834
 40
5.72283423149799
 40
6.08864635789184
 40
6.35019627703405
 40
6.5349292880474
 40
6.81871796308908
 40
7.25582813390709
 40
7.60129841879239
 40
7.77810652347971
 40
8.23408531977862
 40
8.85756653104449
 40
9.53688188063267
 40
10.16036309189851
 40
10.61634188819743
 40
10.79314999288475
 40
10.95378626628855
 40
11.3071860677769
 40
11.66058586926525
 40
11.82122214266905
 40
11.99309693441144
 40
12.44622138536865
 40
13.08684560913577
 40
13.8212197193078
 40
14.55559382947984
 40
15.19621805324694
 40
15.64934250420415
 40
15.82121729594654
 40
16.0053335381464
 40
16.46562414364601
 40
17.06400193079552
 40
17.66237971794503
 40
18.12267032344465
 40
18.3067865656445
 40
18.42413516643995
 40
18.71213126153768
 40
19.09731949872935
 40
19.56472511745654
 40
20.19131512567669
 40
20.85172278708408
 40
21.33112609673872
 40
21.72321302274292
 40
22.01858559726712
 40
22.13995517301789
 40
22.33443516995954
 40
22.79819516266655
 40
23.35171515396203
 40
24.00995514361069
 40
24.00995514361069
 40
24.00995514361069
 40
24.00995514361069
 10
91.254008802748572
 20
94.002447228604311
 10
91.108510308981053
 20
94.001910681752477
 10
90.843026275249102
 20
94.005253781367458
 10
90.468014627026065
 20
93.995371154580084
 10
90.213514196291186
 20
94.018823676034032
 10
89.97954073467416
 20
93.974410857853158
 10
89.880696851038678
 20
94.285369503523583
 10
89.61152685427362
 20
94.595073052135263
 10
89.321315879534467
 20
95.101369588800537
 10
88.963956919512654
 20
95.604225691020702
 10
88.822626356266468
 20
95.920479297518256
 10
88.523733974086781
 20
96.237365593500556
 10
88.882670322257468
 20
96.175862582841589
 10
89.130610612690759
 20
96.206038276703254
 10
89.453205160969219
 20
96.201905773489614
 10
89.677361261838797
 20
96.193763073895838
 10
89.868642813737765
 20
96.221571322356894
 10
90.119929245019435
 20
96.345081568343005
 10
90.231108195128456
 20
96.699012150534628
 10
90.140842187967365
 20
97.056072467854861
 10
89.878379103221263
 20
97.188813421532743
 10
89.636339852899013
 20
97.195330120189382
 10
89.325043422944162
 20
97.201584479537772
 10
89.022990529614702
 20
97.149511666054792
 10
88.556171958693142
 20
97.296240246451589
 10
88.627342211408887
 20
96.899028779662515
 10
88.588780144615683
 20
96.518813584749267
 10
88.607839624674298
 20
95.91348975597154
 10
88.594413712833628
 20
95.284888584640498
 10
88.621365368410167
 20
94.671459876078387
 10
88.563831309784021
 20
94.310727992544557
 10
88.650346159253701
 20
93.958998883352834
 10
88.351410993373634
 20
94.030209692738566
 10
88.087751023202429
 20
93.983235756161108
 10
87.824750374239926
 20
94.030572684304758
 10
87.526954602171813
 20
93.958904927220388
 10
87.611213512454313
 20
94.305739397024624
 10
87.554146442821818
 20
94.67023198550902
 10
87.581258026230856
 20
95.305921810332634
 10
87.570007012979971
 20
96.002295585307394
 10
87.580828450913373
 20
96.699526581189104
 10
87.555435778101014
 20
97.333177314578791
 10
87.608749291282564
 20
97.701956719353518
 10
87.527696160905464
 20
98.052638918540424
 10
87.887862063077492
 20
97.964843164659342
 10
88.246246555584065
 20
98.021077037790249
 10
88.822043712646931
 20
97.997643156133179
 10
89.367876691996145
 20
98.00613981808101
 10
89.783308368995932
 20
98.001582848579361
 10
90.037191231525753
 20
98.007272180200559
 10
90.23351321658393
 20
97.993870104794951
 10
90.491596048164098
 20
97.931164815288298
 10
90.833551496580014
 20
97.748938334554254
 10
91.144574720919422
 20
97.341499387697169
 10
91.241936480257749
 20
96.749165993588832
 10
91.170145057200799
 20
96.14990828120591
 10
90.872573623224355
 20
95.709706406522741
 10
90.503437302427912
 20
95.529436859801507
 10
90.282300782086594
 20
95.446358181760843
 10
89.998099776122785
 20
95.47476294501547
 10
90.327037327206014
 20
95.198774824218305
 10
90.475866694370524
 20
94.933464019390598
 10
90.873196872600744
 20
94.480123649071899
 10
91.113061787868503
 20
94.173705584435794
 10
91.254008802748558
 20
94.002447228604296
 97
        1
330
215
 75
             1
 76
             0
 52
45.0
 41
0.04
 77
             0
 78
             1
 53
45.0
 43
-479.43514979741349
 44
-1025.2827080660691
 45
-0.0282842712474619
 46
0.0282842712474619
 79
             0
 98
        1
 10
0.0
 20
0.0
  0
DIMENSION
  5
2D9
100
AcDbEntity
  8
1
100
AcDbDimension
  2
*D6
 10
198.1572863800456
 20
159.5000000000002
 11
177.57065825535599
 21
163.5000000000002
 31
0.0
 53
0.00013888888889
  1
300
  3
ME10_DIM_5
100
AcDbAlignedDimension
 13
149.5
 23
132.70436414567561
 14
198.1572863800456
 24
122.4000000000004
100
AcDbRotatedDimension
  0
DIMENSION
  5
2CE
100
AcDbEntity
  8
1
100
AcDbDimension
  2
*D5
 10
149.5
 20
159.5000000000002
 11
89.98438882922891
 21
163.5000000000002
 31
0.0
 53
0.00013888888889
  1
<>
  3
ME10_DIM_4
100
AcDbAlignedDimension
 13
30.50000000000051
 23
132.7043641456759
 14
149.5
 24
132.70436414567561
100
AcDbRotatedDimension
  0
DIMENSION
  5
2C3
100
AcDbEntity
  8
1
100
AcDbDimension
  2
*D4
 10
142.40000000000009
 20
149.5000000000002
 11
89.98438882922891
 21
153.5000000000002
 31
0.0
 53
0.00013888888889
  1
<>
  3
ME10_DIM_3
100
AcDbAlignedDimension
 13
37.59999999999991
 23
137.40000000000069
 14
142.40000000000009
 24
137.40000000000069
100
AcDbRotatedDimension
  0
DIMENSION
  5
2B8
100
AcDbEntity
  8
1
100
AcDbDimension
  2
*D3
 10
250.89852161261848
 20
149.50000000000031
 11
236.79020321145009
 21
153.50000000000031
 31
0.0
 53
0.00013888888889
  1
<>
  3
ME10_DIM_2
100
AcDbAlignedDimension
 13
245.89852161261851
 23
139.0
 14
250.89852161261851
 24
139.5
100
AcDbRotatedDimension
  0
DIMENSION
  5
2AB
100
AcDbEntity
  8
1
100
AcDbDimension
  2
*D2
 10
271.39852161261854
 20
149.50000000000031
 11
277.98072991062412
 21
153.50000000000031
 31
0.0
 53
0.00013888888889
  1
<>
  3
ME10_DIM_1
100
AcDbAlignedDimension
 13
266.39852161261848
 23
139.5
 14
271.39852161261848
 24
139.00000000000011
100
AcDbRotatedDimension
  0
DIMENSION
  5
29E
100
AcDbEntity
  8
1
100
AcDbDimension
  2
*D1
 10
271.39852161261848
 20
159.50000000000031
 11
258.64852161261848
 21
163.50000000000031
 31
0.0
 53
0.00013888888889
  1
<>
  3
ME10_DIM_0
100
AcDbAlignedDimension
 13
245.89852161261851
 23
139.0
 14
271.39852161261848
 24
139.00000000000011
100
AcDbRotatedDimension
  0
MTEXT
  5
293
100
AcDbEntity
  8
1
 62
             2
100
AcDbMText
 10
258.47816694696809
 20
8.53048887395393
 30
0.0
 40
4.0
 41
0.0
 71
             8
 72
             1
  1
%%d *
  7
CONVERTER_1
  0
MTEXT
  5
292
100
AcDbEntity
  8
1
 62
             2
100
AcDbMText
 10
89.99999999999997
 20
5.50000000000028
 30
0.0
 40
4.0
 41
0.0
 71
             8
 72
             1
  1
%%p]«*
  7
CONVERTER_1
  0
LEADER
  5
290
100
AcDbEntity
  8
1
  6
CONTINUOUS
 62
             2
100
AcDbLeader
  3
Standard
 71
             0
 73
             3
 74
             0
 75
             0
 40
0.0
 76
             2
 10
245.02388862947649
 20
5.5
 30
0.0
 10
269.71284769953712
 20
5.5
 30
0.0
 77
             2
  0
LEADER
  5
28E
100
AcDbEntity
  8
1
  6
CONTINUOUS
 62
             2
100
AcDbLeader
  3
Standard
 71
             0
 73
             3
 74
             0
 75
             0
 40
0.0
 76
             2
 10
74.9072435413361
 20
5.86536565069571
 30
0.0
 10
77.34736388322889
 20
4.83307045278361
 30
0.0
 77
             2
  0
LWPOLYLINE
  5
28C
102
{ACAD_REACTORS
330
2F0
330
2F0
330
2F0
330
2F0
330
2F0
330
2F0
330
2F0
330
2F0
330
2F0
330
2F0
330
2F0
330
2F0
102
}
100
AcDbEntity
  8
___C_____1
  6
CONTINUOUS
 62
             2
100
AcDbPolyline
 90
       24
 70
             1
 10
87.33461118262392
 20
94.00500181889527
 10
87.33461118262392
 20
94.80543874107957
 10
87.33461118262392
 20
94.80543874107957
 10
85.4102201040601
 20
94.80543874107957
 10
85.4102201040601
 20
94.80543874107957
 10
85.4102201040601
 20
95.60469504667719
 10
85.4102201040601
 20
95.60469504667719
 10
87.33461118262392
 20
95.60469504667719
 10
87.33461118262392
 20
95.60469504667719
 10
87.33461118262392
 20
96.40481000517826
 10
87.33461118262392
 20
96.40481000517826
 10
85.4102201040601
 20
96.40481000517826
 10
85.4102201040601
 20
96.40481000517826
 10
85.4102201040601
 20
97.2033148960179
 10
85.4102201040601
 20
97.2033148960179
 10
86.97405285854791
 20
97.2033148960179
 10
86.97405285854791
 20
97.2033148960179
 10
87.45976333277338
 20
98.00437443502472
 10
87.45976333277338
 20
98.00437443502472
 10
84.3817937626041
 20
98.00244240367999
 10
84.3817937626041
 20
98.00244240367999
 10
84.3817937626041
 20
94.00244723303968
 10
84.3817937626041
 20
94.00244723303968
 10
87.33461118262392
 20
94.00500181889527
  0
LWPOLYLINE
  5
28A
102
{ACAD_REACTORS
330
2F1
330
2F1
330
2F1
330
2F1
102
}
100
AcDbEntity
  8
___C_____1
  6
CONTINUOUS
 62
             2
100
AcDbPolyline
 90
        8
 70
             1
 10
94.77123443122716
 20
96.18891718582199
 10
93.87653623830737
 20
97.99924382814697
 10
93.87653623830737
 20
97.99924382814697
 10
93.55861121481486
 20
97.99924382814697
 10
93.55861121481486
 20
97.99924382814697
 10
94.61113417322807
 20
95.87097066485137
 10
94.61113417322807
 20
95.87097066485137
 10
94.77123443122716
 20
96.18891718582199
  0
LWPOLYLINE
  5
288
102
{ACAD_REACTORS
330
2F2
330
2F2
330
2F2
330
2F2
102
}
100
AcDbEntity
  8
___C_____1
  6
CONTINUOUS
 62
             2
100
AcDbPolyline
 90
        8
 70
             1
 10
94.19381727212206
 20
97.99924382814697
 10
94.93116295864506
 20
96.5068207741474
 10
94.93116295864506
 20
96.5068207741474
 10
95.13818990636996
 20
96.91965105805309
 10
95.13818990636996
 20
96.91965105805309
 10
94.60486582009676
 20
97.99924382814697
 10
94.60486582009676
 20
97.99924382814697
 10
94.19381727212206
 20
97.99924382814697
  0
LWPOLYLINE
  5
286
102
{ACAD_REACTORS
330
2F3
330
2F3
330
2F3
102
}
100
AcDbEntity
  8
___C_____1
  6
CONTINUOUS
 62
             2
100
AcDbPolyline
 90
        6
 70
             1
 10
94.92163166216956
 20
97.99924382814697
 10
95.29764617469206
 20
97.23789810753999
 10
95.29764617469206
 20
97.23789810753999
 10
95.67992904034496
 20
97.99924382814697
 10
95.67992904034496
 20
97.99924382814697
 10
94.92163166216956
 20
97.99924382814697
  0
LWPOLYLINE
  5
284
102
{ACAD_REACTORS
330
2F4
330
2F4
330
2F4
330
2F4
102
}
100
AcDbEntity
  8
___C_____1
  6
CONTINUOUS
 62
             2
100
AcDbPolyline
 90
        8
 70
             1
 10
92.65571263741958
 20
97.99924382814697
 10
94.16144518529386
 20
94.9683941134507
 10
94.16144518529386
 20
94.9683941134507
 10
94.42132371471327
 20
95.48905275783778
 10
94.42132371471327
 20
95.48905275783778
 10
93.17018879396616
 20
97.99924382814697
 10
93.17018879396616
 20
97.99924382814697
 10
92.65571263741958
 20
97.99924382814697
  0
LWPOLYLINE
  5
282
102
{ACAD_REACTORS
330
2F5
330
2F5
330
2F5
330
2F5
102
}
100
AcDbEntity
  8
___C_____1
  6
CONTINUOUS
 62
             2
100
AcDbPolyline
 90
        8
 70
             1
 10
93.94845041295505
 20
94.54107365677157
 10
92.21100396094971
 20
97.99924382814697
 10
92.21100396094971
 20
97.99924382814697
 10
90.99305697191221
 20
97.99924382814697
 10
90.99305697191221
 20
97.99924382814697
 10
93.33625687658056
 20
93.30223928158227
 10
93.33625687658056
 20
93.30223928158227
 10
93.94845041295505
 20
94.54107365677157
  0
ARC
  5
280
100
AcDbEntity
  8
1
  6
CONTINUOUS
 62
             3
100
AcDbCircle
 10
143.35897136924979
 20
115.1529895516103
 40
0.49999999999978
100
AcDbArc
 50
47.00000000001203
 51
137.00000000000384
  0
ARC
  5
27F
100
AcDbEntity
  8
1
  6
CONTINUOUS
 62
             3
100
AcDbCircle
 10
140.6529626732586
 20
117.67638348384141
 40
0.50000000000006
100
AcDbArc
 50
-42.9999999999868
 51
46.99999999998821
  0
ARC
  5
27E
100
AcDbEntity
  8
1
  6
CONTINUOUS
 62
             3
100
AcDbCircle
 10
140.0934550249147
 20
115.4634778845345
 40
0.50000000000013
100
AcDbArc
 50
137.00000000000486
 51
-133.0000000000029
  0
ARC
  5
27D
100
AcDbEntity
  8
1
  6
CONTINUOUS
 62
             3
100
AcDbCircle
 10
141.19048557734351
 20
114.440480344441
 40
0.50000000000021
100
AcDbArc
 50
-132.99999999995515
 51
-43.00000000002236
  0
ARC
  5
27C
100
AcDbEntity
  8
1
  6
CONTINUOUS
 62
             2
100
AcDbCircle
 10
113.75596322288681
 20
90.2844992734951
 40
2.48000000000005
100
AcDbArc
 50
-71.00000000000418
 51
-42.99999999999963
  0
ARC
  5
27B
100
AcDbEntity
  8
1
  6
CONTINUOUS
 62
             2
100
AcDbCircle
 10
113.75596322288681
 20
90.2844992734951
 40
1.50000000000013
100
AcDbArc
 50
-71.00000000001533
 51
-43.00000000001201
  0
ARC
  5
27A
100
AcDbEntity
  8
1
  6
CONTINUOUS
 62
             2
100
AcDbCircle
 10
147.561555606826
 20
118.560000000001
 40
3.94000000000006
100
AcDbArc
 50
90.89518273327255
 51
136.99999999999821
  0
ARC
  5
279
100
AcDbEntity
  8
1
  6
CONTINUOUS
 62
             2
100
AcDbCircle
 10
147.54290530510301
 20
118.5400000000011
 40
2.9599999999997
100
AcDbArc
 50
89.99999999999616
 51
136.99999999999983
  0
ARC
  5
278
100
AcDbEntity
  8
1
  6
CONTINUOUS
 62
             2
100
AcDbCircle
 10
147.5242550033804
 20
118.52000000000091
 40
1.98000000000011
100
AcDbArc
 50
90.70189095219136
 51
136.99999999999562
  0
ARC
  5
277
100
AcDbEntity
  8
1
  6
DASHED
 62
             2
100
AcDbCircle
 10
144.41990098767249
 20
137.3000000000001
 40
0.19999999999977
100
AcDbArc
 50
67.59733409949592
 51
90.0
  0
ARC
  5
276
100
AcDbEntity
  8
1
  6
DASHED
 62
             2
100
AcDbCircle
 10
147.30000000000021
 20
134.41990098767221
 40
0.19999999999979
100
AcDbArc
 50
0.0
 51
22.40266590051822
  0
ARC
  5
275
100
AcDbEntity
  8
1
  6
DASHED
 62
             2
100
AcDbCircle
 10
44.25434737398621
 20
117.260371251775
 40
0.50000000000029
100
AcDbArc
 50
-39.16322039881183
 51
44.99999999996316
  0
ARC
  5
274
100
AcDbEntity
  8
1
  6
DASHED
 62
             2
100
AcDbCircle
 10
46.89046295884771
 20
120.2811099164049
 40
0.49999999999993
100
AcDbArc
 50
-135.00000000001901
 51
-43.05739802573868
  0
ARC
  5
273
100
AcDbEntity
  8
1
  6
DASHED
 62
             2
100
AcDbCircle
 10
49.7188900835938
 20
123.1095370411513
 40
0.49999999999993
100
AcDbArc
 50
-46.942601974278
 51
44.99999999997525
  0
ARC
  5
272
100
AcDbEntity
  8
1
  6
DASHED
 62
             2
100
AcDbCircle
 10
147.29999999999981
 20
130.3800990123278
 40
0.2000000000004
100
AcDbArc
 50
-22.4026659004296
 51
0.0
  0
ARC
  5
271
100
AcDbEntity
  8
1
  6
DASHED
 62
             2
100
AcDbCircle
 10
136.91992244580439
 20
132.2939339828221
 40
0.19999999999965
100
AcDbArc
 50
45.00000000002304
 51
135.00000000007486
  0
ARC
  5
270
100
AcDbEntity
  8
1
  6
DASHED
 62
             2
100
AcDbCircle
 10
135.9653282912023
 20
131.33933982822009
 40
0.19999999999991
100
AcDbArc
 50
134.99999999993668
 51
-135.0
  0
ARC
  5
26F
100
AcDbEntity
  8
1
  6
DASHED
 62
             2
100
AcDbCircle
 10
40.19533188057761
 20
137.29999999999981
 40
0.20000000000013
100
AcDbArc
 50
45.00000000000144
 51
90.0
  0
ARC
  5
26E
100
AcDbEntity
  8
1
  6
DASHED
 62
             2
100
AcDbCircle
 10
32.69999999999982
 20
129.80466811942239
 40
0.19999999999982
100
AcDbArc
 50
180.0
 51
-134.99999999998417
  0
ARC
  5
26D
100
AcDbEntity
  8
1
  6
DASHED
 62
             2
100
AcDbCircle
 10
32.69999999999982
 20
129.80466811942239
 40
0.19999999999982
100
AcDbArc
 50
180.0
 51
-134.99999999998417
  0
ARC
  5
26C
100
AcDbEntity
  8
1
  6
DASHED
 62
             2
100
AcDbCircle
 10
32.69999999999982
 20
131.1769552621702
 40
0.19999999999985
100
AcDbArc
 50
134.99999999992085
 51
180.0
  0
ARC
  5
26B
100
AcDbEntity
  8
1
  6
DASHED
 62
             2
100
AcDbCircle
 10
32.96845058322776
 20
131.44540584539831
 40
0.20000000000007
100
AcDbArc
 50
44.99999999988917
 51
134.99999999992946
  0
ARC
  5
26A
100
AcDbEntity
  8
1
  6
DASHED
 62
             2
100
AcDbCircle
 10
40.19533188057761
 20
137.29999999999981
 40
0.20000000000013
100
AcDbArc
 50
45.00000000000144
 51
90.0
  0
ARC
  5
269
100
AcDbEntity
  8
1
  6
DASHED
 62
             2
100
AcDbCircle
 10
38.554594154602
 20
137.0315494167719
 40
0.20000000000023
100
AcDbArc
 50
135.00000000006332
 51
-135.00000000004604
  0
ARC
  5
268
100
AcDbEntity
  8
1
  6
DASHED
 62
             2
100
AcDbCircle
 10
38.82304473783012
 20
137.30000000000021
 40
0.19999999999999
100
AcDbArc
 50
90.0
 51
134.99999999996689
  0
ARC
  5
267
100
AcDbEntity
  8
1
  6
DASHED
 62
             2
100
AcDbCircle
 10
41.4279552743838
 20
132.39042134402331
 40
0.19999999999976
100
AcDbArc
 50
165.00000000001262
 51
-134.99999999996547
  0
ARC
  5
266
100
AcDbEntity
  8
1
  6
DASHED
 62
             2
100
AcDbCircle
 10
41.35538635912741
 20
133.66507178729739
 40
0.19999999999971
100
AcDbArc
 50
-15.00000000005036
 51
45.00000000008061
  0
ARC
  5
265
100
AcDbEntity
  8
1
  6
DASHED
 62
             2
100
AcDbCircle
 10
37.60957865597641
 20
128.57204472561611
 40
0.20000000000005
100
AcDbArc
 50
44.99999999997697
 51
104.99999999992747
  0
ARC
  5
264
100
AcDbEntity
  8
1
  6
DASHED
 62
             2
100
AcDbCircle
 10
36.33492821270227
 20
128.64461364087299
 40
0.19999999999982
100
AcDbArc
 50
-134.99999999995683
 51
-75.0000000000116
  0
ARC
  5
263
100
AcDbEntity
  8
1
  6
DASHED
 62
             2
100
AcDbCircle
 10
143.35459415460181
 20
137.0315494167717
 40
0.20000000000021
100
AcDbArc
 50
135.00000000002302
 51
-135.00000000006332
  0
ARC
  5
262
100
AcDbEntity
  8
1
  6
DASHED
 62
             2
100
AcDbCircle
 10
143.62304473782979
 20
137.3000000000001
 40
0.19999999999979
100
AcDbArc
 50
90.0
 51
134.99999999997121
  0
ARC
  5
261
100
AcDbEntity
  8
1
  6
DASHED
 62
             2
100
AcDbCircle
 10
146.15538635912711
 20
133.66507178729739
 40
0.19999999999979
100
AcDbArc
 50
-15.00000000001047
 51
45.00000000006333
  0
ARC
  5
260
100
AcDbEntity
  8
1
  6
DASHED
 62
             2
100
AcDbCircle
 10
145.09443871706119
 20
129.70556128293831
 40
0.19999999999992
100
AcDbArc
 50
-74.99999999984797
 51
-14.99999999998883
  0
ARC
  5
25F
100
AcDbEntity
  8
1
  6
DASHED
 62
             2
100
AcDbCircle
 10
141.13492821270259
 20
128.64461364087299
 40
0.20000000000011
100
AcDbArc
 50
-135.0000000000403
 51
-74.99999999998799
  0
ARC
  5
25E
100
AcDbEntity
  8
1
  6
DASHED
 62
             2
100
AcDbCircle
 10
143.66507178729771
 20
31.35538635912639
 40
0.19999999999976
100
AcDbArc
 50
45.00000000005614
 51
104.99999999999778
  0
ARC
  5
25D
100
AcDbEntity
  8
1
  6
DASHED
 62
             2
100
AcDbCircle
 10
142.39042134402331
 20
31.42795527438329
 40
0.19999999999993
100
AcDbArc
 50
-134.99999999994242
 51
-75.0000000000064
  0
ARC
  5
25C
100
AcDbEntity
  8
1
  6
DASHED
 62
             2
100
AcDbCircle
 10
138.6446136408731
 20
26.33492821270198
 40
0.20000000000018
100
AcDbArc
 50
165.00000000001705
 51
-135.00000000002376
  0
ARC
  5
25B
100
AcDbEntity
  8
1
  6
DASHED
 62
             2
100
AcDbCircle
 10
138.57204472561631
 20
27.60957865597607
 40
0.19999999999971
100
AcDbArc
 50
-15.00000000005331
 51
45.00000000000432
  0
ARC
  5
25A
100
AcDbEntity
  8
1
  6
DASHED
 62
             2
100
AcDbCircle
 10
141.17695526217
 20
22.69999999999908
 40
0.19999999999999
100
AcDbArc
 50
-90.0
 51
-44.99999999997625
  0
ARC
  5
259
100
AcDbEntity
  8
1
  6
DASHED
 62
             2
100
AcDbCircle
 10
141.44540584539851
 20
22.96845058322748
 40
0.19999999999999
100
AcDbArc
 50
-45.00000000008708
 51
45.00000000004102
  0
ARC
  5
258
100
AcDbEntity
  8
1
  6
DASHED
 62
             2
100
AcDbCircle
 10
139.80466811942279
 20
22.69999999999959
 40
0.20000000000027
100
AcDbArc
 50
-134.99999999999497
 51
-90.0
  0
ARC
  5
257
100
AcDbEntity
  8
1
  6
DASHED
 62
             2
100
AcDbCircle
 10
147.03154941677221
 20
28.55459415460109
 40
0.20000000000021
100
AcDbArc
 50
-135.00000000002302
 51
-45.00000000010508
  0
ARC
  5
256
100
AcDbEntity
  8
1
  6
DASHED
 62
             2
100
AcDbCircle
 10
147.30000000000021
 20
28.82304473782898
 40
0.19999999999983
100
AcDbArc
 50
-45.0000000000403
 51
0.0
  0
ARC
  5
255
100
AcDbEntity
  8
1
  6
DASHED
 62
             2
100
AcDbCircle
 10
147.30000000000021
 20
30.19533188057687
 40
0.19999999999979
100
AcDbArc
 50
0.0
 51
44.99999999998417
  0
ARC
  5
254
100
AcDbEntity
  8
1
  6
DASHED
 62
             2
100
AcDbCircle
 10
147.30000000000021
 20
30.19533188057687
 40
0.19999999999979
100
AcDbArc
 50
0.0
 51
44.99999999998417
  0
ARC
  5
253
100
AcDbEntity
  8
1
  6
DASHED
 62
             2
100
AcDbCircle
 10
139.80466811942279
 20
22.69999999999959
 40
0.20000000000027
100
AcDbArc
 50
-134.99999999999497
 51
-90.0
  0
ARC
  5
252
100
AcDbEntity
  8
1
  6
DASHED
 62
             2
100
AcDbCircle
 10
130.28110991640651
 20
36.89046295884787
 40
0.50000000000042
100
AcDbArc
 50
133.05739802574928
 51
-135.00000000002589
  0
ARC
  5
251
100
AcDbEntity
  8
1
  6
DASHED
 62
             2
100
AcDbCircle
 10
133.10953704115269
 20
39.71889008359437
 40
0.49999999999998
100
AcDbArc
 50
44.99999999999309
 51
136.94260197429358
  0
ARC
  5
250
100
AcDbEntity
  8
1
  6
DASHED
 62
             2
100
AcDbCircle
 10
135.74565262601351
 20
42.73962874822439
 40
0.50000000000004
100
AcDbArc
 50
140.83677960116555
 51
-135.00000000000691
  0
ARC
  5
24F
100
AcDbEntity
  8
1
  6
DASHED
 62
             2
100
AcDbCircle
 10
38.86507178729789
 20
31.35538635912639
 40
0.19999999999984
100
AcDbArc
 50
45.00000000003311
 51
105.00000000011241
  0
ARC
  5
24E
100
AcDbEntity
  8
1
  6
DASHED
 62
             2
100
AcDbCircle
 10
34.90556128293861
 20
30.29443871706087
 40
0.19999999999994
100
AcDbArc
 50
105.0000000000352
 51
164.99999999998863
  0
ARC
  5
24D
100
AcDbEntity
  8
1
  6
DASHED
 62
             2
100
AcDbCircle
 10
33.84461364087326
 20
26.33492821270187
 40
0.20000000000016
100
AcDbArc
 50
165.00000000003379
 51
-135.00000000001154
  0
ARC
  5
24C
100
AcDbEntity
  8
1
  6
DASHED
 62
             2
100
AcDbCircle
 10
36.37695526217021
 20
22.69999999999936
 40
0.19999999999998
100
AcDbArc
 50
-90.0
 51
-45.00000000005614
  0
ARC
  5
24B
100
AcDbEntity
  8
1
  6
DASHED
 62
             2
100
AcDbCircle
 10
36.64540584539821
 20
22.96845058322748
 40
0.20000000000009
100
AcDbArc
 50
-44.99999999996546
 51
44.99999999998849
  0
ARC
  5
24A
100
AcDbEntity
  8
1
  6
DASHED
 62
             2
100
AcDbCircle
 10
44.03467170879782
 20
28.66066017177917
 40
0.20000000000005
100
AcDbArc
 50
-44.99999999997913
 51
44.9999999999669
  0
ARC
  5
249
100
AcDbEntity
  8
1
  6
DASHED
 62
             2
100
AcDbCircle
 10
43.08007755419601
 20
27.70606601717736
 40
0.20000000000003
100
AcDbArc
 50
-135.0000000000216
 51
-45.00000000004462
  0
ARC
  5
248
100
AcDbEntity
  8
1
  6
DASHED
 62
             2
100
AcDbCircle
 10
32.70000000000022
 20
29.6199009876716
 40
0.20000000000004
100
AcDbArc
 50
157.59733409953853
 51
180.0
  0
ARC
  5
247
100
AcDbEntity
  8
1
  6
DASHED
 62
             2
100
AcDbCircle
 10
32.70000000000022
 20
25.58009901232697
 40
0.20000000000022
100
AcDbArc
 50
180.0
 51
-157.59733409958088
  0
ARC
  5
246
100
AcDbEntity
  8
1
  6
DASHED
 62
             2
100
AcDbCircle
 10
35.58009901232772
 20
22.69999999999936
 40
0.20000000000002
100
AcDbArc
 50
-112.40266590053771
 51
-90.0
  0
ARC
  5
245
100
AcDbEntity
  8
1
  6
CONTINUOUS
 62
             3
100
AcDbCircle
 10
147.0
 20
119.8639682796329
 40
0.50000000000006
100
AcDbArc
 50
-42.9999999999868
 51
0.0000000000228
  0
ARC
  5
244
100
AcDbEntity
  8
1
  6
CONTINUOUS
 62
             3
100
AcDbCircle
 10
112.9248631878641
 20
84.55453228842549
 40
2.00000000000012
100
AcDbArc
 50
-60.99999999999478
 51
-42.99999999998842
  0
ARC
  5
243
100
AcDbEntity
  8
1
  6
CONTINUOUS
 62
             3
100
AcDbCircle
 10
116.7684791835359
 20
95.50916682061489
 40
1.99999999999996
100
AcDbArc
 50
-80.99999999999301
 51
-42.99999999999945
  0
ARC
  5
242
100
AcDbEntity
  8
1
  6
CONTINUOUS
 62
             3
100
AcDbCircle
 10
141.2017016111181
 20
122.2237877520015
 40
0.19999999999991
100
AcDbArc
 50
46.99999999997052
 51
136.99999999999017
  0
ARC
  5
241
100
AcDbEntity
  8
1
  6
CONTINUOUS
 62
             3
100
AcDbCircle
 10
139.08750669492429
 20
119.9565912769818
 40
0.19999999999997
100
AcDbArc
 50
136.99999999999017
 51
-132.99999999997746
  0
ARC
  5
240
100
AcDbEntity
  8
1
  6
CONTINUOUS
 62
             3
100
AcDbCircle
 10
145.74282537965891
 20
113.75040620041329
 40
0.2000000000002
100
AcDbArc
 50
-132.99999999995174
 51
-43.00000000000984
  0
ARC
  5
23F
100
AcDbEntity
  8
1
  6
CONTINUOUS
 62
             3
100
AcDbCircle
 10
147.85702029585269
 20
116.0176026754328
 40
0.19999999999999
100
AcDbArc
 50
-43.00000000000429
 51
47.00000000001378
  0
ARC
  5
23E
100
AcDbEntity
  8
1
  6
CONTINUOUS
 62
             3
100
AcDbCircle
 10
147.6999999999999
 20
122.2500000000008
 40
0.1999999999999
100
AcDbArc
 50
180.0
 51
-90.0
  0
ARC
  5
23D
100
AcDbEntity
  8
1
  6
CONTINUOUS
 62
             3
100
AcDbCircle
 10
149.0
 20
122.55000000000059
 40
0.5
100
AcDbArc
 50
-90.0
 51
0.0
  0
ARC
  5
23C
100
AcDbEntity
  8
1
  6
CONTINUOUS
 62
             3
100
AcDbCircle
 10
149.0
 20
120.4500000000007
 40
0.5
100
AcDbArc
 50
0.0
 51
90.0
  0
ARC
  5
23B
100
AcDbEntity
  8
1
  6
CONTINUOUS
 62
             3
100
AcDbCircle
 10
147.6999999999999
 20
120.7500000000008
 40
0.1999999999999
100
AcDbArc
 50
90.0
 51
180.0
  0
ARC
  5
23A
100
AcDbEntity
  8
1
  6
CONTINUOUS
 62
             3
100
AcDbCircle
 10
41.38035067040016
 20
54.47477658592379
 40
0.99999999999969
100
AcDbArc
 50
-152.30061263064221
 51
-42.99999999999339
  0
ARC
  5
239
100
AcDbEntity
  8
1
  6
CONTINUOUS
 62
             3
100
AcDbCircle
 10
115.52522341407629
 20
31.38035067040028
 40
1.00000000000003
100
AcDbArc
 50
-62.30061263063242
 51
47.00000000000586
  0
ARC
  5
238
100
AcDbEntity
  8
1
  6
CONTINUOUS
 62
             3
100
AcDbCircle
 10
138.61964932960021
 20
105.5252234140758
 40
0.99999999999983
100
AcDbArc
 50
27.69938736938021
 51
136.99999999999625
  0
ARC
  5
237
100
AcDbEntity
  8
1
  6
CONTINUOUS
 62
             3
100
AcDbCircle
 10
64.47477658592442
 20
128.61964932959961
 40
1.00000000000023
100
AcDbArc
 50
117.69938736937466
 51
-133.00000000001069
  0
ARC
  5
236
100
AcDbEntity
  8
1
  6
CONTINUOUS
 62
             3
100
AcDbCircle
 10
32.50000000000051
 20
132.7043641456759
 40
2.00000000000019
100
AcDbArc
 50
137.49170217713475
 51
180.0
  0
ARC
  5
235
100
AcDbEntity
  8
1
  6
CONTINUOUS
 62
             3
100
AcDbCircle
 10
37.2956358543247
 20
137.5000000000002
 40
2.0
100
AcDbArc
 50
90.0
 51
132.50829782287965
  0
ARC
  5
234
100
AcDbEntity
  8
1
  6
CONTINUOUS
 62
             3
100
AcDbCircle
 10
142.70436414567601
 20
137.5000000000002
 40
1.99999999999971
100
AcDbArc
 50
47.49170217712665
 51
90.0
  0
ARC
  5
233
100
AcDbEntity
  8
1
  6
CONTINUOUS
 62
             3
100
AcDbCircle
 10
142.70436414567629
 20
22.5
 40
2.0
100
AcDbArc
 50
-90.0
 51
-47.49170217712997
  0
ARC
  5
232
100
AcDbEntity
  8
1
  6
CONTINUOUS
 62
             3
100
AcDbCircle
 10
147.5
 20
27.29563585432408
 40
2.00000000000015
100
AcDbArc
 50
-42.50829782287008
 51
-0.00000000000031
  0
ARC
  5
231
100
AcDbEntity
  8
1
  6
CONTINUOUS
 62
             3
100
AcDbCircle
 10
32.50000000000051
 20
27.29563585432408
 40
2.0
100
AcDbArc
 50
180.0
 51
-137.49170217713296
  0
ARC
  5
230
100
AcDbEntity
  8
1
  6
CONTINUOUS
 62
             3
100
AcDbCircle
 10
37.29563585432442
 20
22.5
 40
2.00000000000015
100
AcDbArc
 50
-132.50829782287857
 51
-90.0
  0
ARC
  5
22F
100
AcDbEntity
  8
1
  6
CONTINUOUS
 62
             3
100
AcDbCircle
 10
147.5
 20
132.70436414567561
 40
2.0
100
AcDbArc
 50
0.0
 51
42.50829782287406
  0
ARC
  5
22E
100
AcDbEntity
  8
1
  6
CONTINUOUS
 62
             3
100
AcDbCircle
 10
263.19852161261872
 20
28.1545941546018
 40
0.19999999999998
100
AcDbArc
 50
90.0
 51
180.0
  0
ARC
  5
22D
100
AcDbEntity
  8
1
  6
CONTINUOUS
 62
             3
100
AcDbCircle
 10
254.0985216126183
 20
28.1545941546018
 40
0.2000000000003
100
AcDbArc
 50
0.0
 51
90.0
  0
ARC
  5
22C
100
AcDbEntity
  8
1
  6
CONTINUOUS
 62
             3
100
AcDbCircle
 10
254.49852161261839
 20
27.67195814342659
 40
0.19999999999979
100
AcDbArc
 50
180.0
 51
-90.0
  0
ARC
  5
22B
100
AcDbEntity
  8
1
  6
CONTINUOUS
 62
             3
100
AcDbCircle
 10
262.79852161261857
 20
27.67195814342659
 40
0.2000000000001
100
AcDbArc
 50
-90.0
 51
0.0
  0
ARC
  5
22A
100
AcDbEntity
  8
1
  6
CONTINUOUS
 62
             3
100
AcDbCircle
 10
262.79852161261857
 20
23.65233405953018
 40
0.19999999999993
100
AcDbArc
 50
0.0
 51
90.0
  0
ARC
  5
229
100
AcDbEntity
  8
1
  6
CONTINUOUS
 62
             3
100
AcDbCircle
 10
263.19852161261872
 20
23.16845058322798
 40
0.20000000000022
100
AcDbArc
 50
180.0
 51
-90.0
  0
ARC
  5
228
100
AcDbEntity
  8
1
  6
CONTINUOUS
 62
             3
100
AcDbCircle
 10
254.0985216126183
 20
23.16845058322798
 40
0.19999999999999
100
AcDbArc
 50
-90.0
 51
0.0
  0
ARC
  5
227
100
AcDbEntity
  8
1
  6
CONTINUOUS
 62
             3
100
AcDbCircle
 10
254.49852161261839
 20
23.65233405953018
 40
0.2000000000001
100
AcDbArc
 50
90.0
 51
180.0
  0
ARC
  5
226
100
AcDbEntity
  8
1
  6
CONTINUOUS
 62
             3
100
AcDbCircle
 10
246.39852161261851
 20
122.55
 40
0.5
100
AcDbArc
 50
180.0
 51
-90.0
  0
ARC
  5
225
100
AcDbEntity
  8
1
  6
CONTINUOUS
 62
             3
100
AcDbCircle
 10
246.39852161261851
 20
120.4500000000001
 40
0.5
100
AcDbArc
 50
90.0
 51
180.0
  0
ARC
  5
224
100
AcDbEntity
  8
1
  6
CONTINUOUS
 62
             3
100
AcDbCircle
 10
270.89852161261848
 20
122.55
 40
0.5
100
AcDbArc
 50
-90.0
 51
0.0
  0
ARC
  5
223
100
AcDbEntity
  8
1
  6
CONTINUOUS
 62
             3
100
AcDbCircle
 10
270.89852161261848
 20
120.4500000000001
 40
0.5
100
AcDbArc
 50
0.0
 51
90.0
  0
ARC
  5
222
100
AcDbEntity
  8
1
  6
CONTINUOUS
 62
             3
100
AcDbCircle
 10
246.39852161261851
 20
139.0
 40
0.5
100
AcDbArc
 50
90.0
 51
180.0
  0
ARC
  5
221
100
AcDbEntity
  8
1
  6
CONTINUOUS
 62
             3
100
AcDbCircle
 10
270.89852161261848
 20
139.0
 40
0.5
100
AcDbArc
 50
0.00000000001303
 51
90.0
  0
ARC
  5
220
100
AcDbEntity
  8
1
  6
CONTINUOUS
 62
             3
100
AcDbCircle
 10
270.89852161261848
 20
20.99999999999989
 40
0.5
100
AcDbArc
 50
-90.0
 51
0.00000000001262
  0
ARC
  5
21F
100
AcDbEntity
  8
1
  6
CONTINUOUS
 62
             3
100
AcDbCircle
 10
246.39852161261851
 20
20.99999999999989
 40
0.5
100
AcDbArc
 50
180.0
 51
-90.0
  0
SPLINE
  5
21E
100
AcDbEntity
  8
1
  6
CONTINUOUS
 62
             2
100
AcDbSpline
210
0.0
220
0.0
230
1.0
 70
             0
 71
             3
 72
             8
 73
             4
 74
             3
 42
0.00000000001
 43
0.00000000001
 44
0.00000000001
 40
2.4398078258579639
 40
2.4398078258579639
 40
2.4398078258579639
 40
2.4398078258579639
 40
3.368895536838366
 40
3.368895536838366
 40
3.368895536838366
 40
3.368895536838366
 10
171.8251946310821
 20
121.55130975547181
 30
0.0
 10
171.7343044795943
 20
121.77760026363239
 30
0.0
 10
171.742089231683
 20
122.0633573351557
 30
0.0
 10
172.02197587956289
 20
122.55000000000059
 30
0.0
 11
171.8251946310821
 21
121.55130975547181
 31
0.0
 11
171.7845439555596
 21
121.95302281897958
 31
0.0
 11
172.02197587956289
 21
122.55000000000059
 31
0.0
  0
SPLINE
  5
21D
100
AcDbEntity
  8
1
  6
CONTINUOUS
 62
             2
100
AcDbSpline
210
0.0
220
0.0
230
1.0
 70
             0
 71
             3
 72
             9
 73
             5
 74
             5
 42
0.00000000001
 43
0.00000000001
 44
0.00000000001
 40
1.0958595158061299
 40
1.0958595158061299
 40
1.0958595158061299
 40
1.0958595158061299
 40
1.6035687737676121
 40
2.4398078258579639
 40
2.4398078258579639
 40
2.4398078258579639
 40
2.4398078258579639
 10
172.3333268673727
 20
120.5498514325208
 30
0.0
 10
172.30674522701801
 20
120.7059026568746
 30
0.0
 10
172.16694784656011
 20
121.09772228290269
 30
0.0
 10
171.90700164803641
 20
121.3476336570747
 30
0.0
 10
171.8251946310821
 20
121.55130975547181
 30
0.0
 11
172.3333268673727
 21
120.5498514325208
 31
0.0
 11
172.27491715573137
 21
120.7763768645836
 31
0.0
 11
172.18397462829014
 21
120.98168927794131
 31
0.0
 11
171.99205183631935
 21
121.2690371508621
 31
0.0
 11
171.8251946310821
 21
121.55130975547181
 31
0.0
  0
SPLINE
  5
21C
100
AcDbEntity
  8
1
  6
CONTINUOUS
 62
             2
100
AcDbSpline
210
0.0
220
0.0
230
1.0
 70
             0
 71
             3
 72
             8
 73
             4
 74
             3
 42
0.00000000001
 43
0.00000000001
 44
0.00000000001
 40
2.4380144167006512
 40
2.4380144167006512
 40
2.4380144167006512
 40
2.4380144167006512
 40
3.368895536838366
 40
3.368895536838366
 40
3.368895536838366
 40
3.368895536838366
 10
172.5427728832978
 20
121.5499999999395
 30
0.0
 10
172.45132625707441
 20
121.7764978238307
 30
0.0
 10
172.45859978644111
 20
122.06241797345579
 30
0.0
 10
172.73902669685091
 20
122.55000000000059
 30
0.0
 11
172.5427728832978
 21
121.5499999999395
 31
0.0
 11
172.50144721383691
 21
121.95209342397494
 31
0.0
 11
172.73902669685091
 21
122.55000000000059
 31
0.0
  0
SPLINE
  5
21B
100
AcDbEntity
  8
1
  6
CONTINUOUS
 62
             2
100
AcDbSpline
210
0.0
220
0.0
230
1.0
 70
             0
 71
             3
 72
             9
 73
             5
 74
             5
 42
0.00000000001
 43
0.00000000001
 44
0.00000000001
 40
1.095859515742335
 40
1.095859515742335
 40
1.095859515742335
 40
1.095859515742335
 40
1.6035687737676121
 40
2.4380144167006512
 40
2.4380144167006512
 40
2.4380144167006512
 40
2.4380144167006512
 10
173.05037768467091
 20
120.54985143246201
 30
0.0
 10
173.02379604431911
 20
120.7059026568373
 30
0.0
 10
172.88418521411731
 20
121.09719942579861
 30
0.0
 10
172.62474601301579
 20
121.3469664243398
 30
0.0
 10
172.5427728832978
 20
121.5499999999395
 30
0.0
 11
173.05037768467091
 21
120.54985143246201
 31
0.0
 11
172.99196797302886
 21
120.77637686455621
 31
0.0
 11
172.90102544557814
 21
120.98168927794124
 31
0.0
 11
172.70952133299707
 21
121.26845397449719
 31
0.0
 11
172.5427728832978
 21
121.5499999999395
 31
0.0
  0
SPLINE
  5
21A
100
AcDbEntity
  8
1
  6
CONTINUOUS
 62
             2
100
AcDbSpline
210
0.0
220
0.0
230
1.0
 70
             0
 71
             3
 72
             9
 73
             5
 74
             5
 42
0.00000000001
 43
0.00000000001
 44
0.00000000001
 40
1.2245474841749051
 40
1.2245474841749051
 40
1.2245474841749051
 40
1.2245474841749051
 40
1.4687405018857429
 40
1.692717462619638
 40
1.692717462619638
 40
1.692717462619638
 40
1.692717462619638
 10
137.80916896745961
 20
113.8789857113962
 30
0.0
 10
137.7235729005252
 20
113.9265336691852
 30
0.0
 10
137.52663489468981
 20
113.9750952033495
 30
0.0
 10
137.3604278681928
 20
113.9915539803703
 30
0.0
 10
137.28618716182839
 20
113.992644812424
 30
0.0
 11
137.80916896745961
 21
113.8789857113962
 31
0.0
 11
137.67111685805705
 21
113.9353292254511
 31
0.0
 11
137.52649147840935
 21
113.96845837102299
 31
0.0
 11
137.40172386323218
 21
113.98585062003691
 31
0.0
 11
137.28618716182839
 21
113.992644812424
 31
0.0
  0
SPLINE
  5
219
100
AcDbEntity
  8
1
  6
CONTINUOUS
 62
             3
100
AcDbSpline
210
0.0
220
0.0
230
1.0
 70
             0
 71
             2
 72
            15
 73
            12
 74
            21
 42
0.00000000001
 43
0.00000000001
 44
0.00000000001
 40
10.247861466494831
 40
10.247861466494831
 40
10.247861466494831
 40
10.443868108769349
 40
10.83514661948322
 40
11.22430189888974
 40
11.610182180699949
 40
11.99200784714294
 40
12.36947231333469
 40
12.74279364904252
 40
13.112704287189199
 40
13.480372274429
 40
13.663815288597929
 40
13.663815288597929
 40
13.663815288597929
 10
128.28402878742421
 20
27.891636064428891
 30
0.0
 10
128.35086716908819
 20
27.963311453554581
 30
0.0
 10
128.53359059192741
 20
28.194426329943379
 30
0.0
 10
128.7231458659613
 20
28.53702038877077
 30
0.0
 10
128.85279359009979
 20
28.90363968371258
 30
0.0
 10
128.91855507580209
 20
29.283229572593481
 30
0.0
 10
128.91835347379771
 20
29.66431512633898
 30
0.0
 10
128.85209192099279
 20
30.03533045659287
 30
0.0
 10
128.72168275486919
 20
30.384959158039461
 30
0.0
 10
128.53102175216009
 20
30.702483591669591
 30
0.0
 10
128.34711239871339
 20
30.90929643266929
 30
0.0
 10
128.280033165031
 20
30.971848830047861
 30
0.0
 11
128.28402878742421
 21
27.891636064428891
 31
0.0
 11
128.34940357656933
 21
27.96467627565853
 31
0.0
 11
128.41185118067673
 21
28.040446131096061
 31
0.0
 11
128.52691461086684
 21
28.198872044334273
 31
0.0
 11
128.62862607893584
 21
28.366189386354254
 31
0.0
 11
128.71579036480341
 21
28.540333698779307
 31
0.0
 11
128.78824364835509
 21
28.721104631221429
 31
0.0
 11
128.84491970503458
 21
28.905705255741147
 31
0.0
 11
128.8858479915836
 21
29.09443702431799
 31
0.0
 11
128.91035295975206
 21
29.28394073898999
 31
0.0
 11
128.91845369582046
 21
29.474866786455006
 31
0.0
 11
128.9100501280486
 21
29.663585883660993
 31
0.0
 11
128.88503986877845
 21
29.850846495511
 31
0.0
 11
128.84395295608351
 21
30.033113610121855
 31
0.0
 11
128.78658811357002
 21
30.210947031790678
 31
0.0
 11
128.71400400471589
 21
30.381267362130192
 31
0.0
 11
128.62606239555515
 21
30.544204100651157
 31
0.0
 11
128.52410860870015
 21
30.697406979252435
 31
0.0
 11
128.40832853492532
 21
30.840456633019407
 31
0.0
 11
128.34564662434576
 21
30.907724582101459
 31
0.0
 11
128.280033165031
 21
30.971848830047861
 31
0.0
  0
SPLINE
  5
218
100
AcDbEntity
  8
1
  6
CONTINUOUS
 62
             3
100
AcDbSpline
210
0.0
220
0.0
230
1.0
 70
             0
 71
             2
 72
            15
 73
            12
 74
            21
 42
0.00000000001
 43
0.00000000001
 44
0.00000000001
 40
10.247861466467681
 40
10.247861466467681
 40
10.247861466467681
 40
10.443868108769999
 40
10.83514661948387
 40
11.22430189889042
 40
11.61018218070064
 40
11.99200784714365
 40
12.3694723133354
 40
12.74279364904327
 40
13.112704287190059
 40
13.48037227442985
 40
13.663815288628451
 40
13.663815288628451
 40
13.663815288628451
 10
51.715971212595207
 20
132.1083639355935
 30
0.0
 10
51.649132830920173
 20
132.03668854645781
 30
0.0
 10
51.466409408073112
 20
131.80557367005861
 30
0.0
 10
51.276854134039411
 20
131.46297961122929
 30
0.0
 10
51.147206409900207
 20
131.09636031628801
 30
0.0
 10
51.08144492419791
 20
130.71677042740711
 30
0.0
 10
51.081646526202398
 20
130.33568487366171
 30
0.0
 10
51.147908079007607
 20
129.96466954340801
 30
0.0
 10
51.278317245130893
 20
129.61504084196139
 30
0.0
 10
51.468978247839907
 20
129.29751640833101
 30
0.0
 10
51.652887601297209
 20
129.09070356732099
 30
0.0
 10
51.719966834991169
 20
129.02815116993321
 30
0.0
 11
51.715971212595207
 21
132.1083639355935
 31
0.0
 11
51.650596423439701
 21
132.03532372435367
 31
0.0
 11
51.588148819323251
 21
131.95955386890557
 31
0.0
 11
51.473085389133558
 21
131.8011279556674
 31
0.0
 11
51.371373921064759
 21
131.63381061364677
 31
0.0
 11
51.284209635197215
 21
131.45966630122109
 31
0.0
 11
51.211756351645263
 21
131.2788953687789
 31
0.0
 11
51.155080294965522
 21
131.09429474425937
 31
0.0
 11
51.114152008416411
 21
130.90556297568261
 31
0.0
 11
51.089647040247947
 21
130.71605926101063
 31
0.0
 11
51.081546304179568
 21
130.52513321354564
 31
0.0
 11
51.089949871951539
 21
130.33641411633971
 31
0.0
 11
51.114960131221792
 21
130.14915350448979
 31
0.0
 11
51.156047043916807
 21
129.96688638987902
 31
0.0
 11
51.213411886430201
 21
129.7890529682102
 31
0.0
 11
51.285995995284232
 21
129.61873263787064
 31
0.0
 11
51.373937604444905
 21
129.45579589934954
 31
0.0
 11
51.475891391299967
 21
129.3025930207483
 31
0.0
 11
51.591671465075166
 21
129.15954336698175
 31
0.0
 11
51.654353375665181
 21
129.09227541788923
 31
0.0
 11
51.719966834991169
 21
129.02815116993321
 31
0.0
  0
SPLINE
  5
217
100
AcDbEntity
  8
1
  6
CONTINUOUS
 62
             3
100
AcDbSpline
210
0.0
220
0.0
230
1.0
 70
             0
 71
             2
 72
            15
 73
            12
 74
            21
 42
0.00000000001
 43
0.00000000001
 44
0.00000000001
 40
10.24786146650049
 40
10.24786146650049
 40
10.24786146650049
 40
10.4438681087655
 40
10.83514661947882
 40
11.22430189888532
 40
11.61018218069551
 40
11.9920078471384
 40
12.369472313329981
 40
12.742793649037621
 40
13.11270428718411
 40
13.480372274424131
 40
13.66381528864239
 40
13.66381528864239
 40
13.66381528864239
 10
37.891636064435708
 20
41.715971212571787
 30
0.0
 10
37.963311453558113
 20
41.649132830910787
 30
0.0
 10
38.194426329942416
 20
41.466409408074867
 30
0.0
 10
38.537020388771012
 20
41.276854134041692
 30
0.0
 10
38.903639683712299
 20
41.147206409901969
 30
0.0
 10
39.283229572592909
 20
41.0814449241999
 30
0.0
 10
39.664315126338408
 20
41.081646526203599
 30
0.0
 10
40.035330456592817
 20
41.147908079008687
 30
0.0
 10
40.384959158038669
 20
41.278317245131461
 30
0.0
 10
40.702483591669314
 20
41.46897824784088
 30
0.0
 10
40.909296432686517
 20
41.65288760130386
 30
0.0
 10
40.971848830081122
 20
41.719966835005494
 30
0.0
 11
37.891636064435708
 21
41.715971212571787
 31
0.0
 11
37.964676275661908
 21
41.650596423429661
 31
0.0
 11
38.040446131095678
 21
41.588148819325262
 31
0.0
 11
38.198872044333577
 21
41.473085389135463
 31
0.0
 11
38.366189386353781
 21
41.371373921066841
 31
0.0
 11
38.5403336987793
 21
41.284209635199375
 31
0.0
 11
38.721104631221408
 21
41.211756351647281
 31
0.0
 11
38.905705255740891
 21
41.155080294967377
 31
0.0
 11
39.094437024317585
 21
41.114152008418287
 31
0.0
 11
39.283940738989465
 21
41.089647040249808
 31
0.0
 11
39.474866786454456
 21
41.08154630418116
 31
0.0
 11
39.663585883660488
 21
41.089949871952818
 31
0.0
 11
39.850846495510694
 21
41.114960131222936
 31
0.0
 11
40.033113610121646
 21
41.15604704391783
 31
0.0
 11
40.210947031790255
 21
41.213411886431039
 31
0.0
 11
40.381267362129535
 21
41.285995995284893
 31
0.0
 11
40.544204100650532
 21
41.373937604445608
 31
0.0
 11
40.697406979251916
 21
41.475891391300742
 31
0.0
 11
40.840456633018484
 21
41.591671465075564
 31
0.0
 11
40.907724582118163
 21
41.654353375672201
 31
0.0
 11
40.971848830081122
 21
41.719966835005494
 31
0.0
  0
SPLINE
  5
216
102
{ACAD_REACTORS
330
2EC
102
}
100
AcDbEntity
  8
___C_____1
  6
CONTINUOUS
 62
             2
100
AcDbSpline
210
0.0
220
0.0
230
1.0
 70
             1
 71
             3
 72
            53
 73
            49
 74
            67
 42
0.00000000001
 43
0.00000000001
 44
0.00000000001
 40
0.0
 40
0.0
 40
0.0
 40
0.0
 40
1.0
 40
1.0
 40
1.0
 40
2.0
 40
2.0
 40
2.0
 40
3.0
 40
3.0
 40
3.0
 40
4.0
 40
4.0
 40
4.0
 40
5.0
 40
5.0
 40
5.0
 40
6.0
 40
6.0
 40
6.0
 40
7.0
 40
7.0
 40
7.0
 40
8.0
 40
8.0
 40
8.0
 40
9.0
 40
9.0
 40
9.0
 40
10.0
 40
10.0
 40
10.0
 40
11.0
 40
11.0
 40
11.0
 40
12.0
 40
12.0
 40
12.0
 40
13.0
 40
13.0
 40
13.0
 40
14.0
 40
14.0
 40
14.0
 40
15.0
 40
15.0
 40
15.0
 40
16.0
 40
16.0
 40
16.0
 40
16.0
 10
81.53406759283331
 20
96.824745816571465
 30
0.0
 10
81.52392447427701
 20
96.407386004997363
 30
0.0
 10
81.950761929962368
 20
96.398713370295695
 30
0.0
 10
81.950761929962368
 20
96.398713370295695
 30
0.0
 10
81.950761929962368
 20
96.398713370295695
 30
0.0
 10
82.765678321643918
 20
96.407386004997363
 30
0.0
 10
82.945710625921492
 20
96.398713370295695
 30
0.0
 10
83.125753663657974
 20
96.388409249857489
 30
0.0
 10
84.083199654606062
 20
96.265661415139789
 30
0.0
 10
84.140001118520104
 20
95.232093734456271
 30
0.0
 10
84.204337470505266
 20
94.067749591880101
 30
0.0
 10
83.163556905515065
 20
94.0
 30
0.0
 10
83.163556905515065
 20
94.0
 30
0.0
 10
83.163556905515065
 20
94.0
 30
0.0
 10
80.627626998053415
 20
94.0
 30
0.0
 10
80.627626998053415
 20
94.0
 30
0.0
 10
80.627626998053415
 20
94.0
 30
0.0
 10
80.627626998053415
 20
94.789982566913295
 30
0.0
 10
80.627626998053415
 20
94.789982566913295
 30
0.0
 10
80.627626998053415
 20
94.789982566913295
 30
0.0
 10
82.693431410531502
 20
94.789982566913295
 30
0.0
 10
82.693431410531502
 20
94.789982566913295
 30
0.0
 10
82.693431410531502
 20
94.789982566913295
 30
0.0
 10
83.144558683457376
 20
94.786419058595015
 30
0.0
 10
83.144558683457376
 20
95.213116979316169
 30
0.0
 10
83.144558683457376
 20
95.64140345193789
 30
0.0
 10
82.689900102589377
 20
95.611478568832695
 30
0.0
 10
82.689900102589377
 20
95.611478568832695
 30
0.0
 10
82.301670898170414
 20
95.611478568832695
 30
0.0
 10
81.420486131922075
 20
95.611478568832695
 30
0.0
 10
81.420486131922075
 20
95.611478568832695
 30
0.0
 10
81.296278546809276
 20
95.63079879465397
 30
0.0
 10
80.481855894232012
 20
95.696423161693474
 30
0.0
 10
80.500510645608301
 20
96.843422034865398
 30
0.0
 10
80.519648402629969
 20
97.990227705779375
 30
0.0
 10
81.621105210158305
 20
98.004374404464102
 30
0.0
 10
81.621105210158305
 20
98.004374404464102
 30
0.0
 10
81.621105210158305
 20
98.004374404464102
 30
0.0
 10
84.19019077182071
 20
98.004374404464102
 30
0.0
 10
84.19019077182071
 20
98.004374404464102
 30
0.0
 10
84.19019077182071
 20
98.004374404464102
 30
0.0
 10
83.687424828658095
 20
97.21072099464476
 30
0.0
 10
83.687424828658095
 20
97.21072099464476
 30
0.0
 10
83.687424828658095
 20
97.21072099464476
 30
0.0
 10
81.940962282087696
 20
97.21072099464476
 30
0.0
 10
81.940962282087696
 20
97.21072099464476
 30
0.0
 10
81.940962282087696
 20
97.21072099464476
 30
0.0
 10
81.542589959112206
 20
97.241933892804866
 30
0.0
 10
81.53406759283331
 20
96.824745816571465
 30
0.0
 11
81.53406759283331
 21
96.824745816571465
 31
0.0
 11
81.637591405323235
 21
96.528799710541108
 31
0.0
 11
81.840476038434915
 21
96.416419601943318
 31
0.0
 11
81.950761929962368
 21
96.398713370295695
 31
0.0
 11
82.080905620916951
 21
96.399932959550611
 31
0.0
 11
82.38072416383784
 21
96.401965608308828
 31
0.0
 11
82.714298763810774
 21
96.402372138060457
 31
0.0
 11
82.945710625921492
 21
96.398713370295695
 31
0.0
 11
83.200286466072185
 21
96.357427456482043
 31
0.0
 11
83.589071462404206
 21
96.199127387467982
 31
0.0
 11
83.954748663644523
 21
95.848965400907929
 31
0.0
 11
84.140001118520104
 21
95.232093734456271
 31
0.0
 11
84.014573608731808
 21
94.548371403298162
 31
0.0
 11
83.67590514401202
 21
94.179417813762072
 31
0.0
 11
83.325173613295021
 21
94.02877875095902
 31
0.0
 11
83.163556905515065
 21
94.0
 31
0.0
 11
82.975710245703084
 21
94.0
 31
0.0
 11
82.506093596173145
 21
94.0
 31
0.0
 11
81.89559195178424
 21
94.0
 31
0.0
 11
81.285090307395336
 21
94.0
 31
0.0
 11
80.815473657865397
 21
94.0
 31
0.0
 11
80.627626998053415
 21
94.0
 31
0.0
 11
80.627626998053415
 21
94.123434776080217
 31
0.0
 11
80.627626998053415
 21
94.394991283456648
 31
0.0
 11
80.627626998053415
 21
94.666547790833093
 31
0.0
 11
80.627626998053415
 21
94.789982566913295
 31
0.0
 11
80.842470656951136
 21
94.789982566913295
 31
0.0
 11
81.354790151245695
 21
94.789982566913309
 31
0.0
 11
81.966268257339237
 21
94.789982566913295
 31
0.0
 11
82.478587751633782
 21
94.789982566913295
 31
0.0
 11
82.693431410531502
 21
94.789982566913295
 31
0.0
 11
82.81039033314191
 21
94.804862321079725
 31
0.0
 11
83.027599760846968
 21
94.913771944668994
 31
0.0
 11
83.144558683457376
 21
95.213116979316169
 31
0.0
 11
83.026684236565671
 21
95.506745453318999
 31
0.0
 11
82.807774549481081
 21
95.603374409911012
 31
0.0
 11
82.689900102589377
 21
95.611478568832695
 31
0.0
 11
82.32776997405837
 21
95.61147856883268
 31
0.0
 11
81.909607165598615
 21
95.611478568832695
 31
0.0
 11
81.564237332967423
 21
95.611478568832695
 31
0.0
 11
81.420486131922075
 21
95.611478568832695
 31
0.0
 11
81.221716562803778
 21
95.650823739128853
 31
0.0
 11
80.90692501258178
 21
95.804570809092553
 31
0.0
 11
80.618920150451473
 21
96.169757625434499
 31
0.0
 11
80.500510645608301
 21
96.843422034865398
 31
0.0
 11
80.683677287562759
 21
97.508629485032031
 31
0.0
 11
81.067984586766414
 21
97.853950346257491
 31
0.0
 11
81.448703556528542
 21
97.984245144186588
 31
0.0
 11
81.621105210158305
 21
98.004374404464102
 31
0.0
 11
81.811407844355529
 21
98.004374404464116
 31
0.0
 11
82.287164429848573
 21
98.004374404464087
 31
0.0
 11
82.905647990989507
 21
98.004374404464102
 31
0.0
 11
83.524131552130456
 21
98.004374404464102
 31
0.0
 11
83.9998881376235
 21
98.004374404464102
 31
0.0
 11
84.19019077182071
 21
98.004374404464102
 31
0.0
 11
84.11163359320156
 21
97.880366059179821
 31
0.0
 11
83.938807800239402
 21
97.607547699554431
 31
0.0
 11
83.765982007277245
 21
97.334729339929041
 31
0.0
 11
83.687424828658095
 21
97.21072099464476
 31
0.0
 11
83.505792723814778
 21
97.21072099464476
 31
0.0
 11
83.07267001226532
 21
97.210720994644774
 31
0.0
 11
82.555717098480471
 21
97.21072099464476
 31
0.0
 11
82.122594386931013
 21
97.21072099464476
 31
0.0
 11
81.940962282087696
 21
97.21072099464476
 31
0.0
 11
81.837364925528163
 21
97.203361817270221
 31
0.0
 11
81.643346526912097
 21
97.110230378101619
 31
0.0
 11
81.53406759283331
 21
96.824745816571465
 31
0.0
  0
SPLINE
  5
215
102
{ACAD_REACTORS
330
2EB
102
}
100
AcDbEntity
  8
___C_____1
  6
CONTINUOUS
 62
             2
100
AcDbSpline
210
0.0
220
0.0
230
1.0
 70
             1
 71
             3
 72
            44
 73
            40
 74
            65
 42
0.00000000001
 43
0.00000000001
 44
0.00000000001
 40
0.0
 40
0.0
 40
0.0
 40
0.0
 40
1.0
 40
1.0
 40
1.0
 40
2.0
 40
2.0
 40
2.0
 40
3.0
 40
3.0
 40
3.0
 40
4.0
 40
4.0
 40
4.0
 40
5.0
 40
5.0
 40
5.0
 40
6.0
 40
6.0
 40
6.0
 40
7.0
 40
7.0
 40
7.0
 40
8.0
 40
8.0
 40
8.0
 40
9.0
 40
9.0
 40
9.0
 40
10.0
 40
10.0
 40
10.0
 40
11.0
 40
11.0
 40
11.0
 40
12.0
 40
12.0
 40
12.0
 40
13.0
 40
13.0
 40
13.0
 40
13.0
 10
91.254008802748558
 20
94.002447228604296
 30
0.0
 10
91.254008802748558
 20
94.002447228604296
 30
0.0
 10
90.016462471227896
 20
94.002447228604296
 30
0.0
 10
90.016462471227896
 20
94.002447228604296
 30
0.0
 10
90.016462471227896
 20
94.002447228604296
 30
0.0
 10
88.601921404266704
 20
96.199049569891599
 30
0.0
 10
88.601921404266704
 20
96.199049569891599
 30
0.0
 10
88.601921404266704
 20
96.199049569891599
 30
0.0
 10
89.689714518755409
 20
96.199049569891599
 30
0.0
 10
89.689714518755409
 20
96.199049569891599
 30
0.0
 10
89.689714518755409
 20
96.199049569891599
 30
0.0
 10
90.194272949536298
 20
96.206112185775396
 30
0.0
 10
90.194272949536298
 20
96.7040588059416
 30
0.0
 10
90.194272949536298
 20
97.201232617074766
 30
0.0
 10
89.775431920648316
 20
97.194298802696665
 30
0.0
 10
89.668290535011693
 20
97.194298802696665
 30
0.0
 10
89.542816401761229
 20
97.194298802696665
 30
0.0
 10
88.819917952282594
 20
97.194298802696665
 30
0.0
 10
88.601921404266704
 20
97.194298802696665
 30
0.0
 10
88.601921404266704
 20
97.194298802696665
 30
0.0
 10
88.601921404266704
 20
94.002447228604296
 30
0.0
 10
88.601921404266704
 20
94.002447228604296
 30
0.0
 10
88.601921404266704
 20
94.002447228604296
 30
0.0
 10
87.573849254482411
 20
94.002447228604296
 30
0.0
 10
87.573849254482411
 20
94.002447228604296
 30
0.0
 10
87.573849254482411
 20
94.002447228604296
 30
0.0
 10
87.573849254482411
 20
98.002442381881792
 30
0.0
 10
87.573849254482411
 20
98.002442381881792
 30
0.0
 10
87.573849254482411
 20
98.002442381881792
 30
0.0
 10
90.059417773303721
 20
98.004374404464102
 30
0.0
 10
90.059417773303721
 20
98.004374404464102
 30
0.0
 10
90.059417773303721
 20
98.004374404464102
 30
0.0
 10
91.182609834880623
 20
98.019036309170701
 30
0.0
 10
91.210731496909034
 20
96.760087460823115
 30
0.0
 10
91.240828115354816
 20
95.416966828647901
 30
0.0
 10
90.07345713740051
 20
95.45268777949957
 30
0.0
 10
90.07345713740051
 20
95.45268777949957
 30
0.0
 10
90.07345713740051
 20
95.45268777949957
 30
0.0
 10
91.254008802748558
 20
94.002447228604296
 30
0.0
 10
91.254008802748558
 20
94.002447228604296
 30
0.0
 11
91.254008802748558
 21
94.002447228604296
 31
0.0
 11
91.125303984270417
 21
94.002447228604296
 31
0.0
 11
90.818392494053285
 21
94.002447228604296
 31
0.0
 11
90.45207877992317
 21
94.002447228604296
 31
0.0
 11
90.145167289706052
 21
94.002447228604296
 31
0.0
 11
90.016462471227896
 21
94.002447228604296
 31
0.0
 11
89.91168165145298
 21
94.165158513144078
 31
0.0
 11
89.649729602015753
 21
94.571936724493597
 31
0.0
 11
89.3091919377473
 21
95.100748399247948
 31
0.0
 11
88.968654273478862
 21
95.629560074002285
 31
0.0
 11
88.706702224041607
 21
96.036338285351803
 31
0.0
 11
88.601921404266704
 21
96.199049569891599
 31
0.0
 11
88.771889078405565
 21
96.199049569891613
 31
0.0
 11
89.145817961511057
 21
96.199049569891599
 31
0.0
 11
89.519746844616549
 21
96.199049569891599
 31
0.0
 11
89.689714518755409
 21
96.199049569891599
 31
0.0
 11
89.820525963772667
 21
96.219323085867615
 31
0.0
 11
90.063461504519026
 21
96.35182087652143
 31
0.0
 11
90.194272949536298
 21
96.7040588059416
 31
0.0
 11
90.081716335171379
 21
97.052124202640982
 31
0.0
 11
89.852274739801018
 21
97.177682613419393
 31
0.0
 11
89.668290535011693
 21
97.194298802696665
 31
0.0
 11
89.384501859970015
 21
97.194298802696665
 31
0.0
 11
88.947391689151999
 21
97.194298802696665
 31
0.0
 11
88.601921404266704
 21
97.194298802696665
 31
0.0
 11
88.601921404266704
 21
97.01749069800934
 31
0.0
 11
88.601921404266719
 21
96.561511901710432
 31
0.0
 11
88.601921404266704
 21
95.938030690444563
 31
0.0
 11
88.601921404266719
 21
95.258715340856384
 31
0.0
 11
88.601921404266704
 21
94.635234129590543
 31
0.0
 11
88.601921404266704
 21
94.179255333291621
 31
0.0
 11
88.601921404266704
 21
94.002447228604296
 31
0.0
 11
88.441285130862909
 21
94.002447228604296
 31
0.0
 11
88.087885329374558
 21
94.002447228604296
 31
0.0
 11
87.734485527886207
 21
94.002447228604296
 31
0.0
 11
87.573849254482411
 21
94.002447228604296
 31
0.0
 11
87.573849254482411
 21
94.174322020346693
 31
0.0
 11
87.573849254482411
 21
94.627446471303898
 31
0.0
 11
87.573849254482411
 21
95.268070695071017
 31
0.0
 11
87.573849254482411
 21
96.002444805243044
 31
0.0
 11
87.573849254482411
 21
96.736818915415085
 31
0.0
 11
87.573849254482411
 21
97.377443139182191
 31
0.0
 11
87.573849254482411
 21
97.830567590139395
 31
0.0
 11
87.573849254482411
 21
98.002442381881792
 31
0.0
 11
87.757965441061771
 21
98.002585494665666
 31
0.0
 11
88.218255907510155
 21
98.002943276625345
 31
0.0
 11
88.816633513893066
 21
98.003408393172947
 31
0.0
 11
89.415011120275977
 21
98.003873509720535
 31
0.0
 11
89.875301586724362
 21
98.004231291680227
 31
0.0
 11
90.059417773303721
 21
98.004374404464102
 31
0.0
 11
90.176454721003935
 21
97.995827651766803
 31
0.0
 11
90.456581165348624
 21
97.928962668626582
 31
0.0
 11
90.793320508203692
 21
97.741942367470898
 31
0.0
 11
91.08019615143516
 21
97.372929660727252
 31
0.0
 11
91.210731496909034
 21
96.760087460823115
 31
0.0
 11
91.104012065003332
 21
96.108359571210201
 31
0.0
 11
90.823412661530611
 21
95.719654659897543
 31
0.0
 11
90.482445538059892
 21
95.52607372525901
 31
0.0
 11
90.194622946160194
 21
95.459717765668401
 31
0.0
 11
90.07345713740051
 21
95.45268777949957
 31
0.0
 11
90.19623451059671
 21
95.301862762206468
 31
0.0
 11
90.489011323603023
 21
94.94220310558444
 31
0.0
 11
90.838454616546059
 21
94.512931902519441
 31
0.0
 11
91.131231429552372
 21
94.153272245897412
 31
0.0
 11
91.254008802748558
 21
94.002447228604296
 31
0.0
  0
SPLINE
  5
214
100
AcDbEntity
  8
1
  6
CONTINUOUS
 62
             3
100
AcDbSpline
210
0.0
220
0.0
230
1.0
 70
             0
 71
             3
 72
             9
 73
             5
 74
             5
 42
0.00000000001
 43
0.00000000001
 44
0.00000000001
 40
42.541824636837212
 40
42.541824636837212
 40
42.541824636837212
 40
42.541824636837212
 40
43.257702248884812
 40
45.252274438613931
 40
45.252274438613931
 40
45.252274438613931
 40
45.252274438613931
 10
86.562308706946965
 20
130.38285699098091
 30
0.0
 10
86.762252373319711
 20
130.5137820040832
 30
0.0
 10
87.522960475837408
 20
131.00354349720089
 30
0.0
 10
88.297082177820585
 20
131.4706494969524
 30
0.0
 10
88.873532139848749
 20
131.80226846371281
 30
0.0
 11
86.562308706946965
 21
130.38285699098091
 31
0.0
 11
86.862949147691324
 21
130.57806548371738
 31
0.0
 11
87.165020942420156
 21
130.77091090125435
 31
0.0
 11
88.014007330037145
 21
131.29573389424149
 31
0.0
 11
88.873532139848749
 21
131.80226846371281
 31
0.0
  0
SPLINE
  5
213
100
AcDbEntity
  8
1
  6
CONTINUOUS
 62
             3
100
AcDbSpline
210
0.0
220
0.0
230
1.0
 70
             0
 71
             3
 72
             9
 73
             5
 74
             5
 42
0.00000000001
 43
0.00000000001
 44
0.00000000001
 40
42.541824636837212
 40
42.541824636837212
 40
42.541824636837212
 40
42.541824636837212
 40
43.257702248884812
 40
45.252274438613931
 40
45.252274438613931
 40
45.252274438613931
 40
45.252274438613931
 10
48.465730763894101
 20
108.72550224143311
 30
0.0
 10
48.488032303731813
 20
108.9634549050016
 30
0.0
 10
48.579415093600517
 20
109.8635617448227
 30
0.0
 10
48.696873903906457
 20
110.7600302899298
 30
0.0
 10
48.797014428099722
 20
111.4174780621919
 30
0.0
 11
48.465730763894101
 21
108.72550224143311
 31
0.0
 11
48.500556867449042
 21
109.0822629073685
 31
0.0
 11
48.538122932202612
 21
109.43866929762356
 31
0.0
 11
48.657134148133409
 21
110.42965536756074
 31
0.0
 11
48.797014428099722
 21
111.4174780621919
 31
0.0
  0
SPLINE
  5
212
100
AcDbEntity
  8
1
  6
CONTINUOUS
 62
             3
100
AcDbSpline
210
0.0
220
0.0
230
1.0
 70
             0
 71
             3
 72
             9
 73
             5
 74
             5
 42
0.00000000001
 43
0.00000000001
 44
0.00000000001
 40
42.541824636837212
 40
42.541824636837212
 40
42.541824636837212
 40
42.541824636837212
 40
43.257702248884812
 40
45.252274438613931
 40
45.252274438613931
 40
45.252274438613931
 40
45.252274438613931
 10
41.645304701937498
 20
65.43725840950799
 30
0.0
 10
41.473170600873402
 20
65.6030555145162
 30
0.0
 10
40.826414973449118
 20
66.235708891786999
 30
0.0
 10
40.198762012190002
 20
66.886480883123284
 30
0.0
 10
39.747185241332602
 20
67.374685878857179
 30
0.0
 11
41.645304701937498
 21
65.43725840950799
 31
0.0
 11
41.388091702002079
 21
65.686923190587393
 31
0.0
 11
41.13286402381145
 21
65.938509272319109
 31
0.0
 11
40.43228219506922
 21
66.649425696073095
 31
0.0
 11
39.747185241332602
 21
67.374685878857179
 31
0.0
  0
SPLINE
  5
211
100
AcDbEntity
  8
1
  6
CONTINUOUS
 62
             3
100
AcDbSpline
210
0.0
220
0.0
230
1.0
 70
             0
 71
             3
 72
             9
 73
             5
 74
             5
 42
0.00000000001
 43
0.00000000001
 44
0.00000000001
 40
42.541824636837212
 40
42.541824636837212
 40
42.541824636837212
 40
42.541824636837212
 40
43.257702248884812
 40
45.252274438613931
 40
45.252274438613931
 40
45.252274438613931
 40
45.252274438613931
 10
71.236950457333705
 20
33.115056021582291
 30
0.0
 10
71.000001204371017
 20
33.083848966308672
 30
0.0
 10
70.102127338540072
 20
32.972647984142377
 30
0.0
 10
69.201998087355605
 20
32.887678838876703
 30
0.0
 10
68.538750540407818
 20
32.839012738709187
 30
0.0
 11
71.236950457333705
 21
33.115056021582291
 31
0.0
 11
70.881384989057906
 21
33.069622245410343
 31
0.0
 11
70.525555215306383
 21
33.026938567644152
 31
0.0
 11
69.532932748226273
 21
32.922450778048137
 31
0.0
 11
68.538750540407818
 21
32.839012738709187
 31
0.0
  0
SPLINE
  5
210
100
AcDbEntity
  8
1
  6
CONTINUOUS
 62
             3
100
AcDbSpline
210
0.0
220
0.0
230
1.0
 70
             0
 71
             3
 72
             9
 73
             5
 74
             5
 42
0.00000000001
 43
0.00000000001
 44
0.00000000001
 40
42.541824636837212
 40
42.541824636837212
 40
42.541824636837212
 40
42.541824636837212
 40
43.257702248884812
 40
45.252274438613931
 40
45.252274438613931
 40
45.252274438613931
 40
45.252274438613931
 10
139.88461185413561
 20
72.140260808258063
 30
0.0
 10
139.9677626524595
 20
71.916196590863763
 30
0.0
 10
140.27597132507759
 20
71.065578843870298
 30
0.0
 10
140.55910771816889
 20
70.206925125895395
 30
0.0
 10
140.75414012122209
 20
69.571135805760775
 30
0.0
 11
139.88461185413561
 21
72.140260808258063
 31
0.0
 11
140.00802727078158
 21
71.803720074941069
 31
0.0
 11
140.12882035323184
 21
71.466309708372549
 31
0.0
 11
140.45156769427894
 21
70.52182507950134
 31
0.0
 11
140.75414012122209
 21
69.571135805760775
 31
0.0
  0
SPLINE
  5
20F
100
AcDbEntity
  8
1
  6
CONTINUOUS
 62
             3
100
AcDbSpline
210
0.0
220
0.0
230
1.0
 70
             0
 71
             3
 72
            10
 73
             6
 74
             8
 42
0.00000000001
 43
0.00000000001
 44
0.00000000001
 40
37.303221556709538
 40
37.303221556709538
 40
37.303221556709538
 40
37.303221556709538
 40
38.121830935711799
 40
42.227286709429109
 40
45.022375888473107
 40
45.022375888473107
 40
45.022375888473107
 40
45.022375888473107
 10
70.824577022455173
 20
126.71780339048949
 30
0.0
 10
71.015511529743776
 20
126.9271818619455
 30
0.0
 10
72.209707085930006
 20
128.1638483012953
 30
0.0
 10
74.545920702627313
 20
129.87087156496921
 30
0.0
 10
74.027040241350562
 20
132.3907620856842
 30
0.0
 10
73.924380565059778
 20
133.31050060259969
 30
0.0
 11
70.824577022455173
 21
126.71780339048949
 31
0.0
 11
71.116749485564412
 21
127.02899389520856
 31
0.0
 11
71.420756620343454
 21
127.3342816089943
 31
0.0
 11
72.484262292448321
 21
128.3274738118038
 31
0.0
 11
73.434154388190962
 21
129.35319530874969
 31
0.0
 11
74.019606986344769
 21
130.51244835809422
 31
0.0
 11
74.092093985127093
 21
131.88818135288938
 31
0.0
 11
73.924380565059778
 21
133.31050060259969
 31
0.0
  0
SPLINE
  5
20E
100
AcDbEntity
  8
1
  6
CONTINUOUS
 62
             3
100
AcDbSpline
210
0.0
220
0.0
230
1.0
 70
             0
 71
             3
 72
            10
 73
             6
 74
             8
 42
0.00000000001
 43
0.00000000001
 44
0.00000000001
 40
37.303221556690417
 40
37.303221556690417
 40
37.303221556690417
 40
37.303221556690417
 40
38.121830935711799
 40
42.227286709429109
 40
45.022375888472112
 40
45.022375888472112
 40
45.022375888472112
 40
45.022375888472112
 10
41.518869844387609
 20
94.136124604497866
 30
0.0
 10
41.474216881761613
 20
94.415948555072589
 30
0.0
 10
41.251920876828713
 20
96.120657150358397
 30
0.0
 10
41.373921712885817
 20
99.011494102109168
 30
0.0
 10
39.080275295399467
 20
100.1769430632545
 30
0.0
 10
38.297187505994998
 20
100.6701280820043
 30
0.0
 11
41.518869844387609
 21
94.136124604497866
 31
0.0
 11
41.457737861873611
 21
94.55857834060275
 31
0.0
 11
41.408599664240292
 21
94.986604465654779
 31
0.0
 11
41.295175672682142
 21
96.437331891624225
 31
0.0
 11
41.085482348652889
 21
97.8195143299112
 31
0.0
 11
40.544165542919394
 21
99.000022056667007
 31
0.0
 11
39.513769080604128
 21
99.914450166694024
 31
0.0
 11
38.297187505994998
 21
100.6701280820043
 31
0.0
  0
SPLINE
  5
20D
100
AcDbEntity
  8
1
  6
CONTINUOUS
 62
             3
100
AcDbSpline
210
0.0
220
0.0
230
1.0
 70
             0
 71
             3
 72
            10
 73
             6
 74
             7
 42
0.00000000001
 43
0.00000000001
 44
0.00000000001
 40
37.303221556716018
 40
37.303221556716018
 40
37.303221556716018
 40
37.303221556716018
 40
38.121830935711799
 40
42.227286709429109
 40
45.022375888486302
 40
45.022375888486302
 40
45.022375888486302
 40
45.022375888486302
 10
87.006363916968894
 20
29.58880934749908
 30
0.0
 10
86.743491956016896
 20
29.48300924103836
 30
0.0
 10
85.130989479006303
 20
28.886953312240681
 30
0.0
 10
82.285484105225407
 20
28.362623594062089
 30
0.0
 10
81.659639725893214
 20
25.86714688962627
 30
0.0
 10
81.353073311553601
 20
24.99394875504299
 30
0.0
 11
87.006363916968894
 21
29.58880934749908
 31
0.0
 11
86.608105123897815
 21
29.435205271492855
 31
0.0
 11
86.201744785091634
 21
29.292054297945931
 31
0.0
 11
84.139779555122075
 21
28.624971354246842
 31
0.0
 11
82.481306640479147
 21
27.55622391393381
 31
0.0
 11
81.819089935527444
 21
26.348182245090459
 31
0.0
 11
81.353073311553601
 21
24.99394875504299
 31
0.0
  0
SPLINE
  5
20C
100
AcDbEntity
  8
1
  6
CONTINUOUS
 62
             3
100
AcDbSpline
210
0.0
220
0.0
230
1.0
 70
             0
 71
             3
 72
            10
 73
             6
 74
             8
 42
0.00000000001
 43
0.00000000001
 44
0.00000000001
 40
37.303221556720061
 40
37.303221556720061
 40
37.303221556720061
 40
37.303221556720061
 40
38.121830935711799
 40
42.227286709429109
 40
45.02237588851154
 40
45.02237588851154
 40
45.02237588851154
 40
45.02237588851154
 10
127.5465543534183
 20
46.228617792775587
 30
0.0
 10
127.4653742206565
 20
45.957130930430878
 30
0.0
 10
126.92601066125511
 20
44.324790935391377
 30
0.0
 10
125.5618045604938
 20
41.773171018500591
 30
0.0
 10
127.1226392237902
 20
39.727961903653473
 30
0.0
 10
127.61419198292791
 20
38.943848497546703
 30
0.0
 11
127.5465543534183
 21
46.228617792775587
 31
0.0
 11
127.41833655990554
 21
45.821475955268077
 31
0.0
 11
127.27689497065575
 21
45.414517477028831
 31
0.0
 11
126.74963941600433
 21
44.058244404815994
 31
0.0
 11
126.33886008839501
 21
42.721958534629501
 31
0.0
 11
126.31436657158835
 21
41.42348926478364
 31
0.0
 11
126.84596621830374
 21
40.152545735893931
 31
0.0
 11
127.61419198292791
 21
38.943848497546703
 31
0.0
  0
SPLINE
  5
20B
100
AcDbEntity
  8
1
  6
CONTINUOUS
 62
             3
100
AcDbSpline
210
0.0
220
0.0
230
1.0
 70
             0
 71
             3
 72
            10
 73
             6
 74
             8
 42
0.00000000001
 43
0.00000000001
 44
0.00000000001
 40
37.303221556699967
 40
37.303221556699967
 40
37.303221556699967
 40
37.303221556699967
 40
38.121830935711799
 40
42.227286709429109
 40
45.022375888447783
 40
45.022375888447783
 40
45.022375888447783
 40
45.022375888447783
 10
139.81342355014121
 20
88.2989658520803
 30
0.0
 10
139.9750655413182
 20
88.0662273785249
 30
0.0
 10
140.91499266079111
 20
86.626788627233964
 30
0.0
 10
142.05936085171069
 20
83.969300352726691
 30
0.0
 10
144.6315342208448
 20
83.914443005686394
 30
0.0
 10
145.5510568999494
 20
83.809867715894882
 30
0.0
 11
139.81342355014121
 21
88.2989658520803
 31
0.0
 11
140.05179736987731
 21
87.944872360901613
 31
0.0
 11
140.2817829317809
 21
87.58055441253066
 31
0.0
 11
141.01342145719329
 21
86.322706991555918
 31
0.0
 11
141.80205509853226
 21
85.168386168474385
 31
0.0
 11
142.80196779479513
 21
84.339654018167678
 31
0.0
 11
144.12707841649578
 21
83.9628550290752
 31
0.0
 11
145.5510568999494
 21
83.809867715894882
 31
0.0
  0
SPLINE
  5
20A
100
AcDbEntity
  8
1
  6
CONTINUOUS
 62
             3
100
AcDbSpline
210
0.0
220
0.0
230
1.0
 70
             0
 71
             3
 72
             9
 73
             5
 74
             5
 42
0.00000000001
 43
0.00000000001
 44
0.00000000001
 40
42.541824636837212
 40
42.541824636837212
 40
42.541824636837212
 40
42.541824636837212
 40
43.257702248884812
 40
45.252274438613931
 40
45.252274438613931
 40
45.252274438613931
 40
45.252274438613931
 10
127.2475383039769
 20
114.1008928078686
 30
0.0
 10
127.4745624380035
 20
114.0262009652896
 30
0.0
 10
128.33176713637801
 20
113.736816718203
 30
0.0
 10
129.17962229926439
 20
113.42281982769011
 30
0.0
 10
129.79830312030421
 20
113.17889414327919
 30
0.0
 11
127.2475383039769
 21
114.1008928078686
 31
0.0
 11
127.58760469809069
 21
113.98755315089976
 31
0.0
 11
127.92671600023075
 21
113.87162106303535
 31
0.0
 11
128.86637349351764
 21
113.53507856105877
 31
0.0
 11
129.79830312030421
 21
113.17889414327919
 31
0.0
  0
SPLINE
  5
209
100
AcDbEntity
  8
1
  6
CONTINUOUS
 62
             3
100
AcDbSpline
210
0.0
220
0.0
230
1.0
 70
             0
 71
             3
 72
            10
 73
             6
 74
             8
 42
0.00000000001
 43
0.00000000001
 44
0.00000000001
 40
37.303221556681542
 40
37.303221556681542
 40
37.303221556681542
 40
37.303221556681542
 40
38.121830935711799
 40
42.227286709429109
 40
45.022375888442312
 40
45.022375888442312
 40
45.022375888442312
 40
45.022375888442312
 10
114.5697688106807
 20
124.12002335208621
 30
0.0
 10
114.85251320954239
 20
124.1012900848732
 30
0.0
 10
116.56394671584989
 20
123.9386793160171
 30
0.0
 10
119.3551566096499
 20
123.1764655570795
 30
0.0
 10
121.00176967517341
 20
125.15326867874791
 30
0.0
 10
121.6568429421168
 20
125.8069788313054
 30
0.0
 11
114.5697688106807
 21
124.12002335208621
 31
0.0
 11
114.99523389546118
 21
124.08561782823388
 31
0.0
 11
115.42346278954996
 21
124.03827925553487
 31
0.0
 11
116.86305666261913
 21
123.8260422490013
 31
0.0
 11
118.25724605573485
 21
123.7229135964604
 31
0.0
 11
119.52861031028669
 21
123.98797077773932
 31
0.0
 11
120.64939658160409
 21
124.78905365231832
 31
0.0
 11
121.6568429421168
 21
125.8069788313054
 31
0.0
  0
SPLINE
  5
208
100
AcDbEntity
  8
1
  6
CONTINUOUS
 62
             3
100
AcDbSpline
210
0.0
220
0.0
230
1.0
 70
             0
 71
             3
 72
            12
 73
             8
 74
            11
 42
0.00000000001
 43
0.00000000001
 44
0.00000000001
 40
1.3342007838097569
 40
1.3342007838097569
 40
1.3342007838097569
 40
1.3342007838097569
 40
4.6522683671295262
 40
12.978475270725379
 40
22.151176956999979
 40
32.233758511061652
 40
37.016410038039183
 40
37.016410038039183
 40
37.016410038039183
 40
37.016410038039183
 10
115.5383016491724
 20
75.121972850057091
 30
0.0
 10
116.1997410083307
 20
74.235910437883888
 30
0.0
 10
118.2648327585587
 20
70.935845967944601
 30
0.0
 10
120.76014850657521
 20
64.356391613345068
 30
0.0
 10
121.4506689439925
 20
55.070379127578178
 30
0.0
 10
119.95211419043601
 20
47.113021264759603
 30
0.0
 10
118.17346237284789
 20
42.46420353284617
 30
0.0
 10
117.5216796719028
 20
41.004175764389402
 30
0.0
 11
115.5383016491724
 21
75.121972850057091
 31
0.0
 11
116.47805127900914
 21
73.755082368856407
 31
0.0
 11
117.32230205449963
 21
72.324310425591108
 31
0.0
 11
119.07185618989641
 21
68.536821994950415
 31
0.0
 11
120.28297582626826
 21
64.542271347132925
 31
0.0
 11
120.97869963964746
 21
59.999742029175067
 31
0.0
 11
121.04608486386414
 21
55.401367626924461
 31
0.0
 11
120.45789657678624
 21
50.384442748754147
 31
0.0
 11
119.2297819099398
 21
45.483732103581723
 31
0.0
 11
118.43862429194907
 21
43.220022228207881
 31
0.0
 11
117.5216796719028
 21
41.004175764389402
 31
0.0
  0
SPLINE
  5
207
100
AcDbEntity
  8
1
  6
CONTINUOUS
 62
             3
100
AcDbSpline
210
0.0
220
0.0
230
1.0
 70
             0
 71
             3
 72
            11
 73
             7
 74
             9
 42
0.00000000001
 43
0.00000000001
 44
0.00000000001
 40
1.3342007838097569
 40
1.3342007838097569
 40
1.3342007838097569
 40
1.3342007838097569
 40
4.6522683671295262
 40
12.978475270725379
 40
22.151176956999979
 40
26.59103303834933
 40
26.59103303834933
 40
26.59103303834933
 40
26.59103303834933
 10
79.561468439320265
 20
56.187460050293282
 30
0.0
 10
78.550437357779913
 20
55.739771792385
 30
0.0
 10
74.873586249006507
 20
54.460789632021601
 30
0.0
 10
67.903832560968397
 20
53.492102987829469
 30
0.0
 10
60.58055629950951
 20
54.60021683199227
 30
0.0
 10
56.27665788127041
 20
56.095479240458872
 30
0.0
 10
54.905060811865212
 20
56.661507394409568
 30
0.0
 11
79.561468439320265
 21
56.187460050293282
 31
0.0
 11
78.019734790955297
 21
55.575433652272586
 31
0.0
 11
76.436971816418676
 21
55.070726715538576
 31
0.0
 11
72.355131208062659
 21
54.207833018205569
 31
0.0
 11
68.191232812248558
 21
53.915949820810937
 31
0.0
 11
63.607781075554932
 21
54.248477122562434
 31
0.0
 11
59.109702897158527
 21
55.206015953498756
 31
0.0
 11
56.985746821527471
 21
55.872164952838908
 31
0.0
 11
54.905060811865212
 21
56.661507394409568
 31
0.0
  0
SPLINE
  5
206
100
AcDbEntity
  8
1
  6
CONTINUOUS
 62
             3
100
AcDbSpline
210
0.0
220
0.0
230
1.0
 70
             0
 71
             3
 72
            10
 73
             6
 74
             7
 42
0.00000000001
 43
0.00000000001
 44
0.00000000001
 40
1.1114127392053299
 40
1.1114127392053299
 40
1.1114127392053299
 40
1.1114127392053299
 40
3.8856378314676312
 40
10.98283151262514
 40
15.667597558105539
 40
15.667597558105539
 40
15.667597558105539
 40
15.667597558105539
 10
107.3469450913059
 20
99.367072468481297
 30
0.0
 10
108.21285203137251
 20
99.69063024846389
 30
0.0
 10
111.4044769414773
 20
100.54515458956411
 30
0.0
 10
116.3155436664652
 20
100.8078489663925
 30
0.0
 10
120.2177348696533
 20
100.1311194964145
 30
0.0
 10
121.7342929451216
 20
99.734640729111277
 30
0.0
 11
107.3469450913059
 21
99.367072468481297
 31
0.0
 11
108.66658575813652
 21
99.793603019473892
 31
0.0
 11
110.01774327640528
 21
100.11751361674521
 31
0.0
 11
113.54338093406106
 21
100.57522003885276
 31
0.0
 11
117.10301709801205
 21
100.52867419452278
 31
0.0
 11
119.43611604900111
 21
100.23215992732715
 31
0.0
 11
121.7342929451216
 21
99.734640729111277
 31
0.0
  0
SPLINE
  5
205
100
AcDbEntity
  8
1
  6
CONTINUOUS
 62
             3
100
AcDbSpline
210
0.0
220
0.0
230
1.0
 70
             0
 71
             3
 72
            12
 73
             8
 74
            11
 42
0.00000000001
 43
0.00000000001
 44
0.00000000001
 40
1.1114127392053299
 40
1.1114127392053299
 40
1.1114127392053299
 40
1.1114127392053299
 40
3.8856378314676312
 40
10.98283151262514
 40
19.012259668633739
 40
28.048744011192088
 40
35.232420334198672
 40
35.232420334198672
 40
35.232420334198672
 40
35.232420334198672
 10
115.95743033689411
 20
78.512784378282788
 30
0.0
 10
116.7502821421599
 20
78.037526047762583
 30
0.0
 10
119.4083217573275
 20
76.075000424863276
 30
0.0
 10
123.42647069220359
 20
71.554541410239494
 30
0.0
 10
126.89979569858269
 20
64.142694373412667
 30
0.0
 10
128.0371737558863
 20
56.0815313880139
 30
0.0
 10
128.38281654160531
 20
50.677777926551073
 30
0.0
 10
128.01033278829581
 20
48.290938182848663
 30
0.0
 11
115.95743033689411
 21
78.512784378282788
 31
0.0
 11
117.11368784776211
 21
77.746985208105755
 31
0.0
 11
118.20936428353798
 21
76.892562676635194
 31
0.0
 11
120.76541269860557
 21
74.42148344647066
 31
0.0
 11
122.94841853861128
 21
71.609426968049007
 31
0.0
 11
124.93501425061145
 21
68.105037466012519
 31
0.0
 11
126.38918613581272
 21
64.354577910036554
 31
0.0
 11
127.41429105260305
 21
59.955720935277434
 31
0.0
 11
127.99522906953993
 21
55.461958758834257
 31
0.0
 11
128.23040255286162
 21
51.874912377152981
 31
0.0
 11
128.01033278829581
 21
48.290938182848663
 31
0.0
  0
SPLINE
  5
204
100
AcDbEntity
  8
1
  6
CONTINUOUS
 62
             3
100
AcDbSpline
210
0.0
220
0.0
230
1.0
 70
             0
 71
             3
 72
            12
 73
             8
 74
            11
 42
0.00000000001
 43
0.00000000001
 44
0.00000000001
 40
1.1114127392053299
 40
1.1114127392053299
 40
1.1114127392053299
 40
1.1114127392053299
 40
3.8856378314676312
 40
10.98283151262514
 40
19.012259668633739
 40
28.048744011192088
 40
35.232420334193293
 40
35.232420334193293
 40
35.232420334193293
 40
35.232420334193293
 10
82.774000336037716
 20
55.02431324554658
 30
0.0
 10
82.134231599886675
 20
54.357094817978691
 30
0.0
 10
79.629441133982709
 20
52.202400840112489
 30
0.0
 10
74.328197210842518
 20
49.290892050307889
 30
0.0
 10
66.329293129378016
 20
47.553941678884598
 30
0.0
 10
58.217149902729382
 20
48.238857580805593
 30
0.0
 10
52.871967067151502
 20
49.104329048744489
 30
0.0
 10
50.627855811827203
 20
49.998595665763901
 30
0.0
 11
82.774000336037716
 21
55.02431324554658
 31
0.0
 11
81.770109848646385
 21
54.067451871152052
 31
0.0
 11
80.693298530072113
 21
53.189373230944092
 31
0.0
 11
77.715400134716674
 21
51.247277144531402
 31
0.0
 11
74.488083284846539
 21
49.744745252731164
 31
0.0
 11
70.629497010868604
 21
48.58775766801373
 31
0.0
 11
66.649485620181551
 21
48.004600671380523
 31
0.0
 11
62.132809870304854
 21
47.984035037675717
 31
0.0
 11
57.622444823705635
 21
48.41761850642105
 31
0.0
 11
54.073002160794239
 21
48.986534224498612
 31
0.0
 11
50.627855811827203
 21
49.998595665763901
 31
0.0
  0
SPLINE
  5
203
100
AcDbEntity
  8
1
  6
CONTINUOUS
 62
             3
100
AcDbSpline
210
0.0
220
0.0
230
1.0
 70
             0
 71
             3
 72
            11
 73
             7
 74
             9
 42
0.00000000001
 43
0.00000000001
 44
0.00000000001
 40
1.1114127392053299
 40
1.1114127392053299
 40
1.1114127392053299
 40
1.1114127392053299
 40
3.8856378314676312
 40
10.98283151262514
 40
19.012259668633739
 40
25.446222818867469
 40
25.446222818867469
 40
25.446222818867469
 40
25.446222818867469
 10
67.258442051794702
 20
92.602441909748961
 30
0.0
 10
66.750314119959512
 20
93.37464037564456
 30
0.0
 10
65.207011132711273
 20
96.296095031442974
 30
0.0
 10
63.548137696165497
 20
102.11229735660881
 30
0.0
 10
63.625340908635792
 20
109.41559793381511
 30
0.0
 10
64.883229648089014
 20
114.0834232154979
 30
0.0
 10
65.554005255692516
 20
116.1277016404142
 30
0.0
 11
67.258442051794702
 21
92.602441909748961
 31
0.0
 11
66.548957838712383
 21
93.794084453412964
 31
0.0
 11
65.932507523648965
 21
95.039288743181245
 31
0.0
 11
64.701748573194024
 21
98.374682043497572
 31
0.0
 11
63.955033852714259
 21
101.85542812179051
 31
0.0
 11
63.68567058396242
 21
105.87472553979396
 31
0.0
 11
64.002770402772938
 21
109.88471437489454
 31
0.0
 11
64.647182260285405
 21
113.03544788990772
 31
0.0
 11
65.554005255692516
 21
116.1277016404142
 31
0.0
  0
SPLINE
  5
202
100
AcDbEntity
  8
1
  6
CONTINUOUS
 62
             3
100
AcDbSpline
210
0.0
220
0.0
230
1.0
 70
             0
 71
             3
 72
            10
 73
             6
 74
             7
 42
0.00000000001
 43
0.00000000001
 44
0.00000000001
 40
1.3342007838097569
 40
1.3342007838097569
 40
1.3342007838097569
 40
1.3342007838097569
 40
4.6522683671295262
 40
12.978475270725379
 40
17.4120619792503
 40
17.4120619792503
 40
17.4120619792503
 40
17.4120619792503
 10
69.107281935872606
 20
95.475604411220502
 30
0.0
 10
68.895793737859094
 20
96.560906841979261
 30
0.0
 10
68.467054673473797
 20
100.4301719217182
 30
0.0
 10
68.935493857963195
 20
105.8447344005799
 30
0.0
 10
70.185439968379796
 20
109.93182964148561
 30
0.0
 10
70.712167264070104
 20
111.3176377508665
 30
0.0
 11
69.107281935872606
 21
95.475604411220502
 31
0.0
 11
68.85366832887793
 21
97.114872263867682
 31
0.0
 11
68.71381334419209
 21
98.770259925054674
 31
0.0
 11
68.78084917805667
 21
102.94177217865042
 31
0.0
 11
69.422838661961208
 21
107.06622306987708
 31
0.0
 11
69.993088335618552
 21
109.21430827513639
 31
0.0
 11
70.712167264070104
 21
111.3176377508665
 31
0.0
  0
SPLINE
  5
201
100
AcDbEntity
  8
1
  6
CONTINUOUS
 62
             3
100
AcDbSpline
210
0.0
220
0.0
230
1.0
 70
             0
 71
             3
 72
            12
 73
             8
 74
            11
 42
0.00000000001
 43
0.00000000001
 44
0.00000000001
 40
1.4820569475096119
 40
1.4820569475096119
 40
1.4820569475096119
 40
1.4820569475096119
 40
4.6522683671295262
 40
12.978475270725379
 40
22.151176956999979
 40
32.233758511061652
 40
40.519144625080187
 40
40.519144625080187
 40
40.519144625080187
 40
40.519144625080187
 10
89.169133288315152
 20
106.09567950215489
 30
0.0
 10
89.859700463393665
 20
106.8951757854195
 30
0.0
 10
92.588995999114559
 20
109.6008162415249
 30
0.0
 10
98.406613487404655
 20
113.4699577109828
 30
0.0
 10
107.3061509998611
 20
116.20949753085959
 30
0.0
 10
116.5765021351481
 20
116.5643213123786
 30
0.0
 10
122.6437277216487
 20
115.4404218008992
 30
0.0
 10
125.30901842376829
 20
114.691832150387
 30
0.0
 11
89.169133288315152
 21
106.09567950215489
 31
0.0
 11
90.248582298864719
 21
107.25628801088781
 31
0.0
 11
91.403459838917215
 21
108.34527651092085
 31
0.0
 11
94.706675606671865
 21
110.89376113449185
 31
0.0
 11
98.331575057131587
 21
112.96338661405119
 31
0.0
 11
102.60540056829996
 21
114.6524750454532
 31
0.0
 11
107.07348950063465
 21
115.74140534830315
 31
0.0
 11
112.09551380463806
 21
116.28433497934218
 31
0.0
 11
117.14663462482079
 21
116.17752242133906
 31
0.0
 11
121.26345542935879
 21
115.62909805094758
 31
0.0
 11
125.30901842376829
 21
114.691832150387
 31
0.0
  0
SPLINE
  5
200
100
AcDbEntity
  8
1
  6
CONTINUOUS
 62
             3
100
AcDbSpline
210
0.0
220
0.0
230
1.0
 70
             0
 71
             3
 72
            12
 73
             8
 74
            11
 42
0.00000000001
 43
0.00000000001
 44
0.00000000001
 40
2.7459685987577771
 40
2.7459685987577771
 40
2.7459685987577771
 40
2.7459685987577771
 40
3.8856378314676312
 40
10.98283151262514
 40
19.012259668633739
 40
28.048744011192088
 40
35.232420334189527
 40
35.232420334189527
 40
35.232420334189527
 40
35.232420334189527
 10
86.261724676171298
 20
107.16252311865139
 30
0.0
 10
86.415402618946302
 20
107.5105163723008
 30
0.0
 10
87.603402192432497
 20
109.99394315815491
 30
0.0
 10
90.795623837338098
 20
114.46769061654059
 30
0.0
 10
97.24875287063746
 20
119.5032232375106
 30
0.0
 10
104.8547152425358
 20
122.4058623676146
 30
0.0
 10
110.0460725673607
 20
123.94528743352269
 30
0.0
 10
112.4559546880887
 20
124.1132644342601
 30
0.0
 11
86.261724676171298
 21
107.16252311865139
 31
0.0
 11
86.499951981913654
 21
107.68125298643193
 31
0.0
 11
86.752353298732515
 21
108.19356648073716
 31
0.0
 11
88.592703133253423
 21
111.23539628342135
 31
0.0
 11
90.848490986691573
 21
113.98941104293384
 31
0.0
 11
93.822958994494741
 21
116.70599867735264
 31
0.0
 11
97.155803013377579
 21
118.9582672000912
 31
0.0
 11
101.21626415652516
 21
120.93650835824235
 31
0.0
 11
105.46808746314227
 21
122.50283720215123
 31
0.0
 11
108.91286807990734
 21
123.53030730581224
 31
0.0
 11
112.4559546880887
 21
124.1132644342601
 31
0.0
  0
SPLINE
  5
1FF
100
AcDbEntity
  8
1
  6
CONTINUOUS
 62
             3
100
AcDbSpline
210
0.0
220
0.0
230
1.0
 70
             0
 71
             3
 72
             9
 73
             5
 74
             5
 42
0.00000000001
 43
0.00000000001
 44
0.00000000001
 40
25.0974168410979
 40
25.0974168410979
 40
25.0974168410979
 40
25.0974168410979
 40
32.233758511061652
 40
40.519144625051617
 40
40.519144625051617
 40
40.519144625051617
 40
40.519144625051617
 10
74.214889627843206
 20
118.1695195162313
 30
0.0
 10
75.515983569348009
 20
120.1683024680774
 30
0.0
 10
78.730758204382369
 20
124.2242978660081
 30
0.0
 10
82.644593820321063
 20
127.6186356054197
 30
0.0
 10
84.891646348535062
 20
129.23570577305469
 30
0.0
 11
74.214889627843206
 21
118.1695195162313
 31
0.0
 11
76.301823310253837
 21
121.07380377717229
 31
0.0
 11
78.640923863214766
 21
123.78040988066162
 31
0.0
 11
81.636495089868248
 21
126.65713299084126
 31
0.0
 11
84.891646348535062
 21
129.23570577305469
 31
0.0
  0
SPLINE
  5
1FE
100
AcDbEntity
  8
1
  6
CONTINUOUS
 62
             3
100
AcDbSpline
210
0.0
220
0.0
230
1.0
 70
             0
 71
             3
 72
             8
 73
             4
 74
             3
 42
0.00000000001
 43
0.00000000001
 44
0.00000000001
 40
33.367835138418883
 40
33.367835138418883
 40
33.367835138418883
 40
33.367835138418883
 40
35.232420334162619
 40
35.232420334162619
 40
35.232420334162619
 40
35.232420334162619
 10
68.532404338095205
 20
123.4685227756714
 30
0.0
 10
68.831816392170708
 20
124.0127430114195
 30
0.0
 10
69.156011139595194
 20
124.5447187111763
 30
0.0
 10
69.511919808744608
 20
125.0609428449488
 30
0.0
 11
68.532404338095205
 21
123.4685227756714
 31
0.0
 11
69.00097584276719
 21
124.27523134855095
 31
0.0
 11
69.511919808744608
 21
125.0609428449488
 31
0.0
  0
SPLINE
  5
1FD
100
AcDbEntity
  8
1
  6
CONTINUOUS
 62
             3
100
AcDbSpline
210
0.0
220
0.0
230
1.0
 70
             0
 71
             3
 72
             9
 73
             5
 74
             5
 42
0.00000000001
 43
0.00000000001
 44
0.00000000001
 40
1.709476810812993
 40
1.709476810812993
 40
1.709476810812993
 40
1.709476810812993
 40
4.6522683671295262
 40
7.9212275734511159
 40
7.9212275734511159
 40
7.9212275734511159
 40
7.9212275734511159
 10
110.1115197247567
 20
96.909818197045581
 30
0.0
 10
111.0909900129985
 20
96.8605870121728
 30
0.0
 10
113.1521661993489
 20
96.611190348924481
 30
0.0
 10
115.17918926629341
 20
96.145410677157201
 30
0.0
 10
116.22986117670099
 20
95.843036004355099
 30
0.0
 11
110.1115197247567
 21
96.909818197045581
 31
0.0
 11
111.57789420727056
 21
96.786826258287149
 31
0.0
 11
113.03627245279596
 21
96.575721748405883
 31
0.0
 11
114.64263521581394
 21
96.253322147368166
 31
0.0
 11
116.22986117670099
 21
95.843036004355099
 31
0.0
  0
SPLINE
  5
1FC
100
AcDbEntity
  8
1
  6
CONTINUOUS
 62
             3
100
AcDbSpline
210
0.0
220
0.0
230
1.0
 70
             0
 71
             3
 72
            10
 73
             6
 74
             7
 42
0.00000000001
 43
0.00000000001
 44
0.00000000001
 40
17.162163441990931
 40
17.162163441990931
 40
17.162163441990931
 40
17.162163441990931
 40
22.151176956999979
 40
32.233758511061652
 40
40.51914462507483
 40
40.51914462507483
 40
40.51914462507483
 40
40.51914462507483
 10
124.61523364346
 20
91.973605415721067
 30
0.0
 10
126.01049470851061
 20
91.059263619637761
 30
0.0
 10
130.02010738115641
 20
87.978348197156265
 30
0.0
 10
135.1573155874851
 20
82.019135385892184
 30
0.0
 10
138.0614688449032
 20
76.574847527338477
 30
0.0
 10
139.13797946038
 20
74.024301333595588
 30
0.0
 11
124.61523364346
 21
91.973605415721067
 31
0.0
 11
126.65611270446865
 21
90.525681842307478
 31
0.0
 11
128.58890251496538
 21
88.935810130620666
 31
0.0
 11
132.1445629314197
 21
85.347944512022437
 31
0.0
 11
135.21037583008999
 21
81.332222692352104
 31
0.0
 11
137.34839617918445
 21
77.771625577604112
 31
0.0
 11
139.13797946038
 21
74.024301333595588
 31
0.0
  0
SPLINE
  5
1FB
100
AcDbEntity
  8
1
  6
CONTINUOUS
 62
             3
100
AcDbSpline
210
0.0
220
0.0
230
1.0
 70
             0
 71
             3
 72
             9
 73
             5
 74
             5
 42
0.00000000001
 43
0.00000000001
 44
0.00000000001
 40
23.586652256729099
 40
23.586652256729099
 40
23.586652256729099
 40
23.586652256729099
 40
28.048744011192088
 40
35.23242033415962
 40
35.23242033415962
 40
35.23242033415962
 40
35.23242033415962
 10
129.0479059016489
 20
96.727064447183693
 30
0.0
 10
130.3515043654098
 20
96.005669566210599
 30
0.0
 10
133.66825869191851
 20
93.951775869009964
 30
0.0
 10
136.8563310329333
 20
91.726787928572264
 30
0.0
 10
138.49019766665839
 20
89.947398164711899
 30
0.0
 11
129.0479059016489
 21
96.727064447183693
 31
0.0
 11
130.98045497331327
 21
95.600859152371271
 31
0.0
 11
132.87425100422786
 21
94.406647799763832
 31
0.0
 11
135.8253450630537
 21
92.35402699517924
 31
0.0
 11
138.49019766665839
 21
89.947398164711899
 31
0.0
  0
SPLINE
  5
1FA
100
AcDbEntity
  8
1
  6
CONTINUOUS
 62
             3
100
AcDbSpline
210
0.0
220
0.0
230
1.0
 70
             0
 71
             3
 72
             8
 73
             4
 74
             3
 42
0.00000000001
 43
0.00000000001
 44
0.00000000001
 40
44.639362538297853
 40
44.639362538297853
 40
44.639362538297853
 40
44.639362538297853
 40
45.252274438613931
 40
45.252274438613931
 40
45.252274438613931
 40
45.252274438613931
 10
113.833981573855
 20
34.324786661866092
 30
0.0
 10
113.7207626172995
 20
34.154614719695083
 30
0.0
 10
113.6064554402175
 20
33.985193466975723
 30
0.0
 10
113.49107441310031
 20
33.816524916972071
 30
0.0
 11
113.833981573855
 21
34.324786661866092
 31
0.0
 11
113.66333876993826
 21
34.070092017356316
 31
0.0
 11
113.49107441310031
 21
33.816524916972071
 31
0.0
  0
SPLINE
  5
1F9
100
AcDbEntity
  8
1
  6
CONTINUOUS
 62
             3
100
AcDbSpline
210
0.0
220
0.0
230
1.0
 70
             0
 71
             3
 72
            10
 73
             6
 74
             7
 42
0.00000000001
 43
0.00000000001
 44
0.00000000001
 40
15.270738354053311
 40
15.270738354053311
 40
15.270738354053311
 40
15.270738354053311
 40
19.012259668633739
 40
28.048744011192088
 40
35.232420334208307
 40
35.232420334208307
 40
35.232420334208307
 40
35.232420334208307
 10
102.3597875534802
 20
45.024645687096502
 30
0.0
 10
101.7974115136913
 20
43.905921172137369
 30
0.0
 10
99.619871585410664
 20
40.217744885565992
 30
0.0
 10
95.015578153934058
 20
35.348418797762577
 30
0.0
 10
91.006258326155148
 20
31.70899921131678
 30
0.0
 10
88.907912049342031
 20
30.51204849754447
 30
0.0
 11
102.3597875534802
 21
45.024645687096502
 31
0.0
 11
101.46095580961313
 21
43.376925151292617
 31
0.0
 11
100.45620290623143
 21
41.795027538504229
 31
0.0
 11
97.656180497856411
 21
38.250925778197136
 31
0.0
 11
94.505024682580114
 21
34.994915258281218
 31
0.0
 11
91.847187160763113
 21
32.574562387469427
 31
0.0
 11
88.907912049342031
 21
30.51204849754447
 31
0.0
  0
SPLINE
  5
1F8
100
AcDbEntity
  8
1
  6
CONTINUOUS
 62
             3
100
AcDbSpline
210
0.0
220
0.0
230
1.0
 70
             0
 71
             3
 72
            11
 73
             7
 74
             9
 42
0.00000000001
 43
0.00000000001
 44
0.00000000001
 40
10.38774823757868
 40
10.38774823757868
 40
10.38774823757868
 40
10.38774823757868
 40
12.978475270725379
 40
22.151176956999979
 40
32.233758511061652
 40
40.51914462505453
 40
40.51914462505453
 40
40.51914462505453
 40
40.51914462505453
 10
98.325130376663466
 20
48.787024371856383
 30
0.0
 10
97.845561042231765
 20
48.06513840037416
 30
0.0
 10
95.527787965771168
 20
44.880896785380969
 30
0.0
 10
90.11840890316239
 20
39.867512496744673
 30
0.0
 10
81.920063404481198
 20
35.525572703110981
 30
0.0
 10
75.966040313958104
 20
33.905700650510198
 30
0.0
 10
73.239895490782203
 20
33.423730324988192
 30
0.0
 11
98.325130376663466
 21
48.787024371856383
 31
0.0
 11
97.582864393325053
 21
47.720010451418986
 31
0.0
 11
96.795787688522381
 21
46.686079941073807
 31
0.0
 11
93.678071960176965
 21
43.309920456357879
 31
0.0
 11
90.124932084344721
 21
40.390197021769133
 31
0.0
 11
85.835812870781766
 21
37.722059644101833
 31
0.0
 11
81.23856603157563
 21
35.626695245712177
 31
0.0
 11
77.29148623542109
 21
34.334586926182759
 31
0.0
 11
73.239895490782203
 21
33.423730324988192
 31
0.0
  0
SPLINE
  5
1F7
100
AcDbEntity
  8
1
  6
CONTINUOUS
 62
             3
100
AcDbSpline
210
0.0
220
0.0
230
1.0
 70
             0
 71
             3
 72
             8
 73
             4
 74
             3
 42
0.00000000001
 43
0.00000000001
 44
0.00000000001
 40
34.245191085613072
 40
34.245191085613072
 40
34.245191085613072
 40
34.245191085613072
 40
40.519144625058622
 40
40.519144625058622
 40
40.519144625058622
 40
40.519144625058622
 10
48.131735748703697
 20
60.248471507574891
 30
0.0
 10
46.377350273759362
 20
61.397983041727571
 30
0.0
 10
44.707875160583967
 20
62.67734688170799
 30
0.0
 10
43.1354517921705
 20
64.063748204940282
 30
0.0
 11
48.131735748703697
 21
60.248471507574891
 31
0.0
 11
45.565357980488017
 21
62.067276185352732
 31
0.0
 11
43.1354517921705
 21
64.063748204940282
 31
0.0
  0
SPLINE
  5
1F6
100
AcDbEntity
  8
1
  6
CONTINUOUS
 62
             3
100
AcDbSpline
210
0.0
220
0.0
230
1.0
 70
             0
 71
             3
 72
            11
 73
             7
 74
             9
 42
0.00000000001
 43
0.00000000001
 44
0.00000000001
 40
4.7346284454478429
 40
4.7346284454478429
 40
4.7346284454478429
 40
4.7346284454478429
 40
12.978475270725379
 40
22.151176956999979
 40
32.233758511061652
 40
40.519144625060349
 40
40.519144625060349
 40
40.519144625060349
 40
40.519144625060349
 10
61.985951795806223
 20
75.108854155159293
 30
0.0
 10
59.747761328889787
 20
76.713520542173171
 30
0.0
 10
55.484667783501493
 20
80.772163874696673
 30
0.0
 10
50.847369288507309
 20
88.814878458423664
 30
0.0
 10
48.438594488390208
 20
97.773846816981461
 30
0.0
 10
48.184230789354899
 20
103.93904555975691
 30
0.0
 10
48.320968758451613
 20
106.7040887274907
 30
0.0
 11
61.985951795806223
 21
75.108854155159293
 31
0.0
 11
58.803505150215123
 21
77.742612767034132
 31
0.0
 11
56.009124446979271
 21
80.787641504151622
 31
0.0
 11
53.41136934522315
 21
84.578455751817913
 31
0.0
 11
51.355497476843986
 21
88.692210578314445
 31
0.0
 11
49.708674687310669
 21
93.467509039576711
 31
0.0
 11
48.688829109663139
 21
98.415755745267745
 31
0.0
 11
48.30742452623808
 21
102.55139516020421
 31
0.0
 11
48.320968758451613
 21
106.7040887274907
 31
0.0
  0
SPLINE
  5
1F5
100
AcDbEntity
  8
1
  6
CONTINUOUS
 62
             3
100
AcDbSpline
210
0.0
220
0.0
230
1.0
 70
             0
 71
             3
 72
            11
 73
             7
 74
             9
 42
0.00000000001
 43
0.00000000001
 44
0.00000000001
 40
8.2630982554288472
 40
8.2630982554288472
 40
8.2630982554288472
 40
8.2630982554288472
 40
10.98283151262514
 40
19.012259668633739
 40
28.048744011192088
 40
35.232420334174847
 40
35.232420334174847
 40
35.232420334174847
 40
35.232420334174847
 10
59.097544865111622
 20
72.007862084120916
 30
0.0
 10
58.26850646838227
 20
72.383007644897191
 30
0.0
 10
55.069921210329603
 20
74.042655119461585
 30
0.0
 10
49.874205785894901
 20
78.276717370995982
 30
0.0
 10
45.351856027999297
 20
85.046084415966163
 30
0.0
 10
42.695841881878607
 20
89.764729270488772
 30
0.0
 10
41.995827194910298
 20
92.076812215926793
 30
0.0
 11
59.097544865111622
 21
72.007862084120916
 31
0.0
 11
57.869331307867313
 21
72.603691619803215
 31
0.0
 11
56.67396744914678
 21
73.263862054599898
 31
0.0
 11
53.363608939229991
 21
75.559256321548943
 31
0.0
 11
50.426181926734138
 21
78.307362087159348
 31
0.0
 11
47.594001798583768
 21
81.825818921699849
 31
0.0
 11
45.120824395606519
 21
85.622499183633465
 31
0.0
 11
43.352579312344979
 21
88.752278351087057
 31
0.0
 11
41.995827194910298
 21
92.076812215926793
 31
0.0
  0
CIRCLE
  5
1F4
100
AcDbEntity
  8
1
  6
CONTINUOUS
 62
             3
100
AcDbCircle
 10
142.40000000000009
 20
27.60000000000008
 40
2.25
  0
CIRCLE
  5
1F3
100
AcDbEntity
  8
1
  6
CONTINUOUS
 62
             3
100
AcDbCircle
 10
37.60000000000031
 20
27.60000000000008
 40
2.25
  0
CIRCLE
  5
1F2
100
AcDbEntity
  8
1
  6
CONTINUOUS
 62
             3
100
AcDbCircle
 10
142.40000000000009
 20
132.40000000000069
 40
2.25
  0
CIRCLE
  5
1F1
100
AcDbEntity
  8
1
  6
CONTINUOUS
 62
             3
100
AcDbCircle
 10
37.59999999999991
 20
132.40000000000069
 40
2.25
  0
CIRCLE
  5
1F0
102
{ACAD_REACTORS
330
2ED
102
}
100
AcDbEntity
  8
___C_____1
  6
CONTINUOUS
 62
             2
100
AcDbCircle
 10
97.46614834812957
 20
95.96173276922559
 40
2.22493866216109
  0
CIRCLE
  5
1EF
102
{ACAD_REACTORS
330
2ED
102
}
100
AcDbEntity
  8
___C_____1
  6
CONTINUOUS
 62
             2
100
AcDbCircle
 10
97.46614834812957
 20
95.96220509063409
 40
1.26023689077179
  0
ARC
  5
1EE
100
AcDbEntity
  8
1
  6
CONTINUOUS
 62
             2
100
AcDbCircle
 10
113.75596322288681
 20
90.2844992734951
 40
3.46000000000001
100
AcDbArc
 50
-70.9999999999978
 51
-42.99999999999787
  0
ARC
  5
1ED
100
AcDbEntity
  8
1
  6
DASHED
 62
             2
100
AcDbCircle
 10
142.40000000000009
 20
132.40000000000069
 40
5.49999999999986
100
AcDbArc
 50
22.40266590046257
 51
67.59733409952663
  0
ARC
  5
1EC
100
AcDbEntity
  8
1
  6
DASHED
 62
             2
100
AcDbCircle
 10
90.0
 20
80.0
 40
58.50000000000002
100
AcDbArc
 50
133.05739802573484
 51
136.94260197426692
  0
ARC
  5
1EB
100
AcDbEntity
  8
1
  6
DASHED
 62
             2
100
AcDbCircle
 10
132.59381934313259
 20
120.8260523901661
 40
0.50000000000003
100
AcDbArc
 50
135.00000000001498
 51
-136.21398446453171
  0
ARC
  5
1EA
100
AcDbEntity
  8
1
  6
DASHED
 62
             2
100
AcDbCircle
 10
130.8260523901663
 20
122.5938193431324
 40
0.50000000000004
100
AcDbArc
 50
-133.78601553547574
 51
-44.99999999998388
  0
ARC
  5
1E9
100
AcDbEntity
  8
1
  6
DASHED
 62
             2
100
AcDbCircle
 10
142.40000000000009
 20
132.40000000000069
 40
5.50000000000067
100
AcDbArc
 50
-122.97530081943253
 51
-22.40266590047407
  0
ARC
  5
1E8
100
AcDbEntity
  8
1
  6
DASHED
 62
             2
100
AcDbCircle
 10
137.2734758363973
 20
129.04124278936399
 40
0.50000000000047
100
AcDbArc
 50
-44.99999999998388
 51
44.99999999998388
  0
ARC
  5
1E7
100
AcDbEntity
  8
1
  6
DASHED
 62
             2
100
AcDbCircle
 10
139.13433530830849
 20
127.3665683553423
 40
0.50000000000013
100
AcDbArc
 50
57.0246991805635
 51
134.9999999999597
  0
ARC
  5
1E6
100
AcDbEntity
  8
1
  6
DASH_CENTER
 62
             2
100
AcDbCircle
 10
52.73962874822507
 20
125.7456526260135
 40
0.49999999999986
100
AcDbArc
 50
-134.9999999999977
 51
-50.83677960116214
  0
ARC
  5
1E5
100
AcDbEntity
  8
1
  6
DASH_CENTER
 62
             2
100
AcDbCircle
 10
127.2603712517749
 20
34.25434737398587
 40
0.4999999999999
100
AcDbArc
 50
44.9999999999833
 51
129.16322039883232
  0
ARC
  5
1E4
100
AcDbEntity
  8
1
  6
DASHED
 62
             2
100
AcDbCircle
 10
90.0
 20
80.0
 40
58.50000000000034
100
AcDbArc
 50
-46.94260197426575
 51
-43.05739802573363
  0
ARC
  5
1E3
100
AcDbEntity
  8
1
  6
DASHED
 62
             2
100
AcDbCircle
 10
40.86566469169151
 20
32.63343164465709
 40
0.50000000000014
100
AcDbArc
 50
-122.97530081943607
 51
-45.00000000000864
  0
ARC
  5
1E2
100
AcDbEntity
  8
1
  6
DASHED
 62
             2
100
AcDbCircle
 10
42.72652416360268
 20
30.95875721063538
 40
0.50000000000001
100
AcDbArc
 50
134.99999999998215
 51
-134.99999999999599
  0
ARC
  5
1E1
100
AcDbEntity
  8
1
  6
DASHED
 62
             2
100
AcDbCircle
 10
37.60000000000031
 20
27.60000000000008
 40
5.49999999999929
100
AcDbArc
 50
57.02469918056304
 51
157.59733409953935
  0
ARC
  5
1E0
100
AcDbEntity
  8
1
  6
DASHED
 62
             2
100
AcDbCircle
 10
49.17394760983421
 20
37.40618065686698
 40
0.49999999999984
100
AcDbArc
 50
46.21398446453398
 51
135.00000000003109
  0
ARC
  5
1DF
100
AcDbEntity
  8
1
  6
DASHED
 62
             2
100
AcDbCircle
 10
47.40618065686772
 20
39.17394760983308
 40
0.49999999999996
100
AcDbArc
 50
-44.99999999997697
 51
43.78601553545251
  0
ARC
  5
1DE
100
AcDbEntity
  8
1
  6
DASHED
 62
             2
100
AcDbCircle
 10
37.60000000000031
 20
27.60000000000008
 40
5.50000000000076
100
AcDbArc
 50
-157.59733409952557
 51
-112.40266590047116
  0
ARC
  5
1DD
100
AcDbEntity
  8
1
  6
CONTINUOUS
 62
             3
100
AcDbCircle
 10
90.0
 20
80.0
 40
64.66025403784192
100
AcDbArc
 50
-53.69526520146501
 51
-27.21916334684368
  0
ARC
  5
1DC
100
AcDbEntity
  8
1
  6
CONTINUOUS
 62
             3
100
AcDbCircle
 10
90.0
 20
80.0
 40
64.66025403784505
100
AcDbArc
 50
126.30473479852604
 51
152.7808366531562
  0
ARC
  5
1DB
100
AcDbEntity
  8
1
  6
CONTINUOUS
 62
             3
100
AcDbCircle
 10
90.0
 20
80.0
 40
64.66025403784251
100
AcDbArc
 50
-143.6952652014746
 51
-117.21916334684212
  0
ARC
  5
1DA
100
AcDbEntity
  8
1
  6
CONTINUOUS
 62
             3
100
AcDbCircle
 10
147.0
 20
123.67629416229541
 40
0.5
100
AcDbArc
 50
0.0
 51
137.00000000000551
  0
ARC
  5
1D9
100
AcDbEntity
  8
1
  6
CONTINUOUS
 62
             3
100
AcDbCircle
 10
90.0
 20
80.0
 40
64.66025403784445
100
AcDbArc
 50
-62.78083665315618
 51
-59.76402546428335
  0
ARC
  5
1D8
100
AcDbEntity
  8
1
  6
CONTINUOUS
 62
             3
100
AcDbCircle
 10
90.0
 20
80.0
 40
64.66025403784481
100
AcDbArc
 50
39.49093436102884
 51
62.78083665315678
  0
ARC
  5
1D7
100
AcDbEntity
  8
1
  6
CONTINUOUS
 62
             3
100
AcDbCircle
 10
90.0
 20
80.0
 40
64.66025403784431
100
AcDbArc
 50
27.21916334684359
 51
30.23597453571661
  0
ARC
  5
1D6
100
AcDbEntity
  8
1
  6
CONTINUOUS
 62
             3
100
AcDbCircle
 10
90.0
 20
80.0
 40
64.66025403784444
100
AcDbArc
 50
117.21916334684342
 51
120.23597453571647
  0
ARC
  5
1D5
100
AcDbEntity
  8
1
  6
CONTINUOUS
 62
             3
100
AcDbCircle
 10
90.0
 20
80.0
 40
64.66025403784391
100
AcDbArc
 50
-152.78083665315611
 51
-149.76402546428338
  0
ARC
  5
1D4
100
AcDbEntity
  8
1
  6
CONTINUOUS
 62
             3
100
AcDbCircle
 10
90.0
 20
80.0
 40
62.20225515408232
100
AcDbArc
 50
37.98188515019653
 51
39.3782967069257
  0
ARC
  5
1D3
100
AcDbEntity
  8
1
  6
CONTINUOUS
 62
             3
100
AcDbCircle
 10
90.0
 20
80.0
 40
62.20225515408212
100
AcDbArc
 50
-52.01811484980298
 51
-50.62170329307386
  0
ARC
  5
1D2
100
AcDbEntity
  8
1
  6
CONTINUOUS
 62
             3
100
AcDbCircle
 10
90.0
 20
80.0
 40
62.20225515408181
100
AcDbArc
 50
-142.018114849803
 51
-140.62170329307403
  0
ARC
  5
1D1
100
AcDbEntity
  8
1
  6
CONTINUOUS
 62
             3
100
AcDbCircle
 10
90.0
 20
80.0
 40
62.20225515408198
100
AcDbArc
 50
127.98188515019714
 51
129.37829670692619
  0
ARC
  5
1D0
100
AcDbEntity
  8
1
  6
CONTINUOUS
 62
             3
100
AcDbCircle
 10
140.6796592900283
 20
117.9249539781749
 40
0.19999999999985
100
AcDbArc
 50
-42.9999999999626
 51
47.00000000007208
  0
ARC
  5
1CF
100
AcDbEntity
  8
1
  6
CONTINUOUS
 62
             3
100
AcDbCircle
 10
143.60507409650521
 20
115.19696053792499
 40
0.19999999999985
100
AcDbArc
 50
47.0000000000749
 51
137.00000000005124
  0
ARC
  5
1CE
100
AcDbEntity
  8
1
  6
CONTINUOUS
 62
             3
100
AcDbCircle
 10
143.3394528942722
 20
120.7772334144897
 40
0.20000000000033
100
AcDbArc
 50
-133.00000000003072
 51
-43.00000000000566
  0
ARC
  5
1CD
100
AcDbEntity
  8
1
  6
CONTINUOUS
 62
             3
100
AcDbCircle
 10
146.26486770074879
 20
118.0492399742396
 40
0.20000000000018
100
AcDbArc
 50
136.9999999999707
 51
-133.00000000004297
  0
ARC
  5
1CC
100
AcDbEntity
  8
1
  6
CONTINUOUS
 62
             3
100
AcDbCircle
 10
142.00619068289919
 20
121.47358955593231
 40
0.20000000000044
100
AcDbArc
 50
-13.00000000009693
 51
47.00000000000658
  0
ARC
  5
1CB
100
AcDbEntity
  8
1
  6
CONTINUOUS
 62
             3
100
AcDbCircle
 10
144.93833630787779
 20
114.5006043964823
 40
0.20000000000028
100
AcDbArc
 50
167.00000000010141
 51
-132.99999999998747
  0
ARC
  5
1CA
100
AcDbEntity
  8
1
  6
CONTINUOUS
 62
             3
100
AcDbCircle
 10
90.0
 20
80.0
 40
55.99999999999998
100
AcDbArc
 50
-141.47173118000185
 51
-62.45313493167262
  0
ARC
  5
1C9
100
AcDbEntity
  8
1
  6
CONTINUOUS
 62
             3
100
AcDbCircle
 10
90.0
 20
80.0
 40
55.99999999999984
100
AcDbArc
 50
-51.47173118000166
 51
27.54686506832731
  0
ARC
  5
1C8
100
AcDbEntity
  8
1
  6
CONTINUOUS
 62
             3
100
AcDbCircle
 10
90.0
 20
80.0
 40
56.00000000000016
100
AcDbArc
 50
38.5282688199981
 51
117.54686506832743
  0
ARC
  5
1C7
100
AcDbEntity
  8
1
  6
CONTINUOUS
 62
             3
100
AcDbCircle
 10
90.0
 20
80.0
 40
55.99999999999976
100
AcDbArc
 50
128.5282688199984
 51
-152.4531349316735
  0
ARC
  5
1C6
100
AcDbEntity
  8
1
  6
CONTINUOUS
 62
             3
100
AcDbCircle
 10
90.0
 20
80.0
 40
25.99999999999996
100
AcDbArc
 50
44.04964885698941
 51
89.29363271482789
  0
ARC
  5
1C5
100
AcDbEntity
  8
1
  6
CONTINUOUS
 62
             3
100
AcDbCircle
 10
90.0
 20
80.0
 40
25.99999999999917
100
AcDbArc
 50
-45.95035114300891
 51
-0.70636728517527
  0
ARC
  5
1C4
100
AcDbEntity
  8
1
  6
CONTINUOUS
 62
             3
100
AcDbCircle
 10
90.0
 20
80.0
 40
25.99999999999975
100
AcDbArc
 50
-135.95035114301012
 51
-90.70636728517214
  0
ARC
  5
1C3
100
AcDbEntity
  8
1
  6
CONTINUOUS
 62
             3
100
AcDbCircle
 10
90.0
 20
80.0
 40
26.0000000000006
100
AcDbArc
 50
134.04964885698803
 51
179.29363271482285
  0
ARC
  5
1C2
100
AcDbEntity
  8
1
  6
CONTINUOUS
 62
             3
100
AcDbCircle
 10
90.0
 20
80.0
 40
55.91272467535853
100
AcDbArc
 50
-62.48472600545902
 51
-62.30061263063134
  0
ARC
  5
1C1
100
AcDbEntity
  8
1
  6
CONTINUOUS
 62
             3
100
AcDbCircle
 10
90.0
 20
80.0
 40
55.91272467535868
100
AcDbArc
 50
-152.48472600545887
 51
-152.30061263063166
  0
ARC
  5
1C0
100
AcDbEntity
  8
1
  6
CONTINUOUS
 62
             3
100
AcDbCircle
 10
123.7091074846813
 20
36.60163344568639
 40
1.00000000000016
100
AcDbArc
 50
-132.99999999999898
 51
-52.16219839509721
  0
ARC
  5
1BF
100
AcDbEntity
  8
1
  6
CONTINUOUS
 62
             3
100
AcDbCircle
 10
90.0
 20
80.0
 40
55.95199857144745
100
AcDbArc
 50
-52.16219839509541
 51
-51.47905261177589
  0
ARC
  5
1BE
100
AcDbEntity
  8
1
  6
CONTINUOUS
 62
             3
100
AcDbCircle
 10
46.60163344568622
 20
46.290892515319
 40
1.00000000000007
100
AcDbArc
 50
136.99999999997297
 51
-142.16219839508298
  0
ARC
  5
1BD
100
AcDbEntity
  8
1
  6
CONTINUOUS
 62
             3
100
AcDbCircle
 10
90.0
 20
80.0
 40
55.95199857144724
100
AcDbArc
 50
-142.16219839509549
 51
-141.47905261177669
  0
ARC
  5
1BC
100
AcDbEntity
  8
1
  6
CONTINUOUS
 62
             3
100
AcDbCircle
 10
56.29089251531911
 20
123.39836655431429
 40
1.00000000000003
100
AcDbArc
 50
47.00000000000156
 51
127.83780160490623
  0
ARC
  5
1BB
100
AcDbEntity
  8
1
  6
CONTINUOUS
 62
             3
100
AcDbCircle
 10
90.0
 20
80.0
 40
55.95199857144781
100
AcDbArc
 50
127.83780160490392
 51
128.52094738822379
  0
ARC
  5
1BA
100
AcDbEntity
  8
1
  6
CONTINUOUS
 62
             3
100
AcDbCircle
 10
113.6395690765371
 20
55.5629221494134
 40
8.00000000000082
100
AcDbArc
 50
134.04964885698502
 51
-133.00000000000088
  0
ARC
  5
1B9
100
AcDbEntity
  8
1
  6
CONTINUOUS
 62
             3
100
AcDbCircle
 10
65.56292214941357
 20
56.36043092346307
 40
8.00000000000001
100
AcDbArc
 50
44.04964885698897
 51
136.99999999999935
  0
ARC
  5
1B8
100
AcDbEntity
  8
1
  6
CONTINUOUS
 62
             3
100
AcDbCircle
 10
66.36043092346341
 20
104.4370778505873
 40
7.99999999999953
100
AcDbArc
 50
-45.95035114301117
 51
46.99999999999771
  0
ARC
  5
1B7
100
AcDbEntity
  8
1
  6
CONTINUOUS
 62
             3
100
AcDbCircle
 10
133.39836655431381
 20
113.70910748468179
 40
1.0000000000005
100
AcDbArc
 50
-43.00000000001982
 51
37.83780160489955
  0
ARC
  5
1B6
100
AcDbEntity
  8
1
  6
CONTINUOUS
 62
             3
100
AcDbCircle
 10
90.0
 20
80.0
 40
55.95199857144798
100
AcDbArc
 50
37.83780160490482
 51
38.52094738822483
  0
ARC
  5
1B5
100
AcDbEntity
  8
1
  6
CONTINUOUS
 62
             3
100
AcDbCircle
 10
114.4370778505868
 20
103.6395690765377
 40
8.00000000000059
100
AcDbArc
 50
-135.95035114300742
 51
-43.00000000000321
  0
ARC
  5
1B4
100
AcDbEntity
  8
1
  6
CONTINUOUS
 62
             3
100
AcDbCircle
 10
137.916418842041
 20
135.99999999999989
 40
1.50000000000065
100
AcDbArc
 50
-38.76201171574513
 51
90.0
  0
ARC
  5
1B3
100
AcDbEntity
  8
1
  6
CONTINUOUS
 62
             3
100
AcDbCircle
 10
128.5746030439719
 20
135.99999999999989
 40
1.5
100
AcDbArc
 50
90.0
 51
-124.56032178000298
  0
ARC
  5
1B2
100
AcDbEntity
  8
1
  6
CONTINUOUS
 62
             3
100
AcDbCircle
 10
90.0
 20
80.0
 40
66.49999999999999
100
AcDbArc
 50
124.56032177999789
 51
145.4396782200015
  0
ARC
  5
1B1
100
AcDbEntity
  8
1
  6
CONTINUOUS
 62
             3
100
AcDbCircle
 10
51.42539695602807
 20
135.99999999999989
 40
1.49999999999998
100
AcDbArc
 50
-55.43967821999838
 51
90.0
  0
ARC
  5
1B0
100
AcDbEntity
  8
1
  6
CONTINUOUS
 62
             3
100
AcDbCircle
 10
42.08358115795846
 20
135.99999999999989
 40
1.5
100
AcDbArc
 50
90.0
 51
-141.23798828422974
  0
ARC
  5
1AF
100
AcDbEntity
  8
1
  6
CONTINUOUS
 62
             3
100
AcDbCircle
 10
37.59999999999991
 20
132.40000000000069
 40
4.25000000000042
100
AcDbArc
 50
-128.762011715733
 51
38.76201171573467
  0
ARC
  5
1AE
100
AcDbEntity
  8
1
  6
CONTINUOUS
 62
             3
100
AcDbCircle
 10
34.0
 20
127.91641884204159
 40
1.50000000000003
100
AcDbArc
 50
51.23798828421673
 51
180.0
  0
ARC
  5
1AD
100
AcDbEntity
  8
1
  6
CONTINUOUS
 62
             3
100
AcDbCircle
 10
34.00000000000051
 20
118.57460304397171
 40
1.50000000000051
100
AcDbArc
 50
179.999999999962
 51
-34.56032177997605
  0
ARC
  5
1AC
100
AcDbEntity
  8
1
  6
CONTINUOUS
 62
             3
100
AcDbCircle
 10
90.0
 20
80.0
 40
66.49999999999969
100
AcDbArc
 50
-145.43967822000263
 51
-124.56032177999789
  0
ARC
  5
1AB
100
AcDbEntity
  8
1
  6
CONTINUOUS
 62
             3
100
AcDbCircle
 10
34.0
 20
41.42539695602898
 40
1.49999999999986
100
AcDbArc
 50
34.56032177999335
 51
180.0
  0
ARC
  5
1AA
100
AcDbEntity
  8
1
  6
CONTINUOUS
 62
             3
100
AcDbCircle
 10
34.0
 20
32.08358115795897
 40
1.5
100
AcDbArc
 50
180.0
 51
-51.23798828424186
  0
ARC
  5
1A9
100
AcDbEntity
  8
1
  6
CONTINUOUS
 62
             3
100
AcDbCircle
 10
37.60000000000031
 20
27.60000000000008
 40
4.24999999999919
100
AcDbArc
 50
-38.76201171574232
 51
128.76201171574778
  0
ARC
  5
1A8
100
AcDbEntity
  8
1
  6
CONTINUOUS
 62
             3
100
AcDbCircle
 10
42.08358115795846
 20
24.00000000000017
 40
1.50000000000053
100
AcDbArc
 50
141.23798828422073
 51
-90.0
  0
ARC
  5
1A7
100
AcDbEntity
  8
1
  6
CONTINUOUS
 62
             3
100
AcDbCircle
 10
51.4253969560288
 20
24.00000000000017
 40
1.5
100
AcDbArc
 50
-90.0
 51
55.43967822001947
  0
ARC
  5
1A6
100
AcDbEntity
  8
1
  6
CONTINUOUS
 62
             3
100
AcDbCircle
 10
90.0
 20
80.0
 40
66.49999999999913
100
AcDbArc
 50
-55.43967822000167
 51
-34.56032177999761
  0
ARC
  5
1A5
100
AcDbEntity
  8
1
  6
CONTINUOUS
 62
             3
100
AcDbCircle
 10
128.5746030439719
 20
24.0
 40
1.50000000000092
100
AcDbArc
 50
124.56032177997888
 51
-90.0
  0
ARC
  5
1A4
100
AcDbEntity
  8
1
  6
CONTINUOUS
 62
             3
100
AcDbCircle
 10
137.91641884204191
 20
24.0
 40
1.5
100
AcDbArc
 50
-90.0
 51
38.76201171579523
  0
ARC
  5
1A3
100
AcDbEntity
  8
1
  6
CONTINUOUS
 62
             3
100
AcDbCircle
 10
142.40000000000009
 20
27.60000000000008
 40
4.25000000000053
100
AcDbArc
 50
51.23798828426338
 51
-141.23798828426177
  0
ARC
  5
1A2
100
AcDbEntity
  8
1
  6
CONTINUOUS
 62
             3
100
AcDbCircle
 10
146.0
 20
32.0835811579592
 40
1.49999999999994
100
AcDbArc
 50
-128.7620117157723
 51
0.0
  0
ARC
  5
1A1
100
AcDbEntity
  8
1
  6
CONTINUOUS
 62
             3
100
AcDbCircle
 10
146.0
 20
41.42539695602898
 40
1.5
100
AcDbArc
 50
0.0
 51
145.43967822001702
  0
ARC
  5
1A0
100
AcDbEntity
  8
1
  6
CONTINUOUS
 62
             3
100
AcDbCircle
 10
56.00258380247567
 20
80.4191561669262
 40
8.00000000000011
100
AcDbArc
 50
-43.00000000000334
 51
-0.70636728517607
  0
ARC
  5
19F
100
AcDbEntity
  8
1
  6
CONTINUOUS
 62
             3
100
AcDbCircle
 10
89.58084383307664
 20
46.00258380247419
 40
8.00000000000012
100
AcDbArc
 50
46.9999999999985
 51
89.29363271482805
  0
ARC
  5
19E
100
AcDbEntity
  8
1
  6
CONTINUOUS
 62
             3
100
AcDbCircle
 10
90.0
 20
80.0
 40
55.91272467535918
100
AcDbArc
 50
27.51527399454099
 51
27.69938736936821
  0
ARC
  5
19D
100
AcDbEntity
  8
1
  6
CONTINUOUS
 62
             3
100
AcDbCircle
 10
123.9974161975229
 20
79.58084383307408
 40
8.00000000000001
100
AcDbArc
 50
136.99999999999602
 51
179.29363271481967
  0
ARC
  5
19C
100
AcDbEntity
  8
1
  6
CONTINUOUS
 62
             3
100
AcDbCircle
 10
90.41915616692359
 20
113.9974161975265
 40
8.00000000000067
100
AcDbArc
 50
-132.99999999999741
 51
-90.70636728517356
  0
ARC
  5
19B
100
AcDbEntity
  8
1
  6
CONTINUOUS
 62
             3
100
AcDbCircle
 10
90.0
 20
80.0
 40
55.91272467535858
100
AcDbArc
 50
117.51527399454095
 51
117.6993873693682
  0
ARC
  5
19A
100
AcDbEntity
  8
1
  6
CONTINUOUS
 62
             3
100
AcDbCircle
 10
90.0
 20
80.0
 40
79.9999999999997
100
AcDbArc
 50
132.50829782287505
 51
137.49170217712464
  0
ARC
  5
199
100
AcDbEntity
  8
1
  6
CONTINUOUS
 62
             3
100
AcDbCircle
 10
90.0
 20
80.0
 40
79.99999999999993
100
AcDbArc
 50
-137.49170217712458
 51
-132.50829782287528
  0
ARC
  5
198
100
AcDbEntity
  8
1
  6
CONTINUOUS
 62
             3
100
AcDbCircle
 10
90.0
 20
80.0
 40
80.0000000000002
100
AcDbArc
 50
-47.49170217712457
 51
-42.50829782287524
  0
ARC
  5
197
100
AcDbEntity
  8
1
  6
CONTINUOUS
 62
             3
100
AcDbCircle
 10
90.0
 20
80.0
 40
80.00000000000013
100
AcDbArc
 50
42.50829782287517
 51
47.49170217712473
  0
ARC
  5
196
100
AcDbEntity
  8
1
  6
CONTINUOUS
 62
             3
100
AcDbCircle
 10
139.89199576670561
 20
119.2063930809132
 40
0.19999999999999
100
AcDbArc
 50
-132.99999999988623
 51
-73.00000000013401
  0
ARC
  5
195
100
AcDbEntity
  8
1
  6
CONTINUOUS
 62
             3
100
AcDbCircle
 10
147.0525312240714
 20
116.76780087150161
 40
0.19999999999989
100
AcDbArc
 50
46.99999999993045
 51
107.00000000000065
  0
ARC
  5
194
100
AcDbEntity
  8
1
  6
CONTINUOUS
 62
             3
100
AcDbCircle
 10
145.99999999999909
 20
127.91641884204159
 40
1.5
100
AcDbArc
 50
-0.0000000000114
 51
128.76201171574397
  0
ARC
  5
193
100
AcDbEntity
  8
1
  6
CONTINUOUS
 62
             3
100
AcDbCircle
 10
142.40000000000009
 20
132.40000000000069
 40
4.24999999999936
100
AcDbArc
 50
141.23798828426104
 51
-51.2379882842627
  0
ARC
  5
192
100
AcDbEntity
  8
1
  6
CONTINUOUS
 62
             3
100
AcDbCircle
 10
90.0
 20
80.0
 40
66.50000000000014
100
AcDbArc
 50
42.58566088523987
 51
55.43967822000217
  0
ARC
  5
191
100
AcDbEntity
  8
1
  6
CONTINUOUS
 62
             2
100
AcDbCircle
 10
115.4449638178003
 20
89.69103279824418
 40
1.00000000000036
100
AcDbArc
 50
136.99999999998852
 51
-142.45292196874226
  0
ARC
  5
190
100
AcDbEntity
  8
1
  6
CONTINUOUS
 62
             3
100
AcDbCircle
 10
90.0
 20
80.0
 40
24.50000000000014
100
AcDbArc
 50
20.14599199838832
 51
30.88112238387829
  0
ARC
  5
18F
100
AcDbEntity
  8
1
  6
CONTINUOUS
 62
             3
100
AcDbCircle
 10
112.4821422506481
 20
89.22189133646629
 40
0.19999999999998
100
AcDbArc
 50
-70.99999999997598
 51
22.30282029630819
  0
ARC
  5
18E
100
AcDbEntity
  8
1
  6
CONTINUOUS
 62
             3
100
AcDbCircle
 10
111.9917888184641
 20
88.31271463266347
 40
0.49999999999971
100
AcDbArc
 50
108.999999999989
 51
-161.00000000000378
  0
ARC
  5
18D
100
AcDbEntity
  8
1
  6
CONTINUOUS
 62
             3
100
AcDbCircle
 10
90.0
 20
80.0
 40
24.50000000000025
100
AcDbArc
 50
7.28013367544496
 51
15.56018723248504
  0
ARC
  5
18C
102
{ACAD_REACTORS
330
2EF
102
}
100
AcDbEntity
  8
1
  6
CONTINUOUS
 62
             3
100
AcDbCircle
 10
90.0
 20
80.0
 40
22.99999999999995
100
AcDbArc
 50
-90.62279247606509
 51
-89.37720752393264
  0
ARC
  5
18B
102
{ACAD_REACTORS
330
2EE
102
}
100
AcDbEntity
  8
1
  6
CONTINUOUS
 62
             3
100
AcDbCircle
 10
90.0
 20
80.0
 40
22.99999999999944
100
AcDbArc
 50
179.37720752393378
 51
-179.37720752393378
  0
ARC
  5
18A
100
AcDbEntity
  8
1
  6
CONTINUOUS
 62
             3
100
AcDbCircle
 10
90.0
 20
80.0
 40
22.99999999999996
100
AcDbArc
 50
-89.37720752393264
 51
89.99999999999886
  0
ARC
  5
189
100
AcDbEntity
  8
1
  6
CONTINUOUS
 62
             3
100
AcDbCircle
 10
90.0
 20
80.0
 40
23.0000000000002
100
AcDbArc
 50
89.99999999999886
 51
179.37720752393378
  0
ARC
  5
188
100
AcDbEntity
  8
1
  6
CONTINUOUS
 62
             3
100
AcDbCircle
 10
90.0
 20
80.0
 40
22.99999999999944
100
AcDbArc
 50
-179.37720752393378
 51
-90.62279247606509
  0
ARC
  5
187
100
AcDbEntity
  8
1
  6
CONTINUOUS
 62
             3
100
AcDbCircle
 10
91.27611819328922
 20
81.8465239623896
 40
53.43697248675682
100
AcDbArc
 50
55.35195403632922
 51
77.02577162809443
  0
ARC
  5
186
100
AcDbEntity
  8
1
  6
CONTINUOUS
 62
             3
100
AcDbCircle
 10
89.35197611250123
 20
82.14899823828489
 40
53.43697248678163
100
AcDbArc
 50
127.82881844229014
 51
128.45434305809354
  0
ARC
  5
185
100
AcDbEntity
  8
1
  6
CONTINUOUS
 62
             3
100
AcDbCircle
 10
87.91580923630352
 20
80.83323300909336
 40
53.43697248675716
100
AcDbArc
 50
158.20909689632805
 51
179.88291448809289
  0
ARC
  5
184
100
AcDbEntity
  8
1
  6
CONTINUOUS
 62
             3
100
AcDbCircle
 10
88.04908051499422
 20
78.89002632916618
 40
53.43697248678151
100
AcDbArc
 50
-142.579157349914
 51
-128.68851408190775
  0
ARC
  5
183
100
AcDbEntity
  8
1
  6
CONTINUOUS
 62
             3
100
AcDbCircle
 10
89.65143395747543
 20
77.7826524627568
 40
53.436972486757
100
AcDbArc
 50
-98.93376024367313
 51
-77.25994265190838
  0
ARC
  5
182
100
AcDbEntity
  8
1
  6
CONTINUOUS
 62
             3
100
AcDbCircle
 10
91.51626473944293
 20
78.3449865176251
 40
53.43697248675694
100
AcDbArc
 50
-47.50518881367377
 51
-25.83137122190893
  0
ARC
  5
181
100
AcDbEntity
  8
1
  6
CONTINUOUS
 62
             3
100
AcDbCircle
 10
98.78314517827836
 20
114.42988896553911
 40
19.99999999999927
100
AcDbArc
 50
77.02577162809466
 51
119.70145006275513
  0
ARC
  5
180
100
AcDbEntity
  8
1
  6
CONTINUOUS
 62
             3
100
AcDbCircle
 10
68.55783031505831
 20
108.33362406407311
 40
19.99999999999906
100
AcDbArc
 50
128.45434305809388
 51
171.1300214927538
  0
ARC
  5
17F
100
AcDbEntity
  8
1
  6
CONTINUOUS
 62
             3
100
AcDbCircle
 10
54.47890656598611
 20
80.90156234065466
 40
19.99999999999923
100
AcDbArc
 50
179.88291448809318
 51
-137.44140707724688
  0
ARC
  5
17E
100
AcDbEntity
  8
1
  6
CONTINUOUS
 62
             3
100
AcDbCircle
 10
67.1480906723682
 20
52.79060578616787
 40
19.99999999999923
100
AcDbArc
 50
-128.6885140819081
 51
-86.01283564724774
  0
ARC
  5
17D
100
AcDbEntity
  8
1
  6
CONTINUOUS
 62
             3
100
AcDbCircle
 10
97.02522859734697
 20
45.16887804624917
 40
19.99999999999898
100
AcDbArc
 50
-77.2599426519089
 51
-34.5842642172479
  0
ARC
  5
17C
100
AcDbEntity
  8
1
  6
CONTINUOUS
 62
             3
100
AcDbCircle
 10
121.6122260997025
 20
63.7756955642667
 40
19.99999999999909
100
AcDbArc
 50
-25.83137122190857
 51
16.84430721275157
  0
ARC
  5
17B
100
AcDbEntity
  8
1
  6
CONTINUOUS
 62
             3
100
AcDbCircle
 10
92.23931724638669
 20
80.153579480909
 40
53.43697248675718
100
AcDbArc
 50
3.9233826163255
 51
25.59720020809044
  0
ARC
  5
17A
100
AcDbEntity
  8
1
  6
CONTINUOUS
 62
             3
100
AcDbCircle
 10
122.39457257585541
 20
94.59974523852117
 40
19.99999999999962
100
AcDbArc
 50
58.49277783550132
 51
68.27287864275124
  0
ARC
  5
179
100
AcDbEntity
  8
1
  6
CONTINUOUS
 62
             3
100
AcDbCircle
 10
106.9984011231877
 20
126.7027232530656
 40
0.75000000000021
100
AcDbArc
 50
175.88309134258532
 51
-35.88309134234957
  0
ARC
  5
178
100
AcDbEntity
  8
1
  6
CONTINUOUS
 62
             3
100
AcDbCircle
 10
90.0
 20
80.0
 40
49.50000000000039
100
AcDbArc
 50
35.64018916748618
 51
69.16499547453168
  0
ARC
  5
177
100
AcDbEntity
  8
1
  6
CONTINUOUS
 62
             3
100
AcDbCircle
 10
90.0
 20
80.0
 40
49.50000000000009
100
AcDbArc
 50
70.83500452568566
 51
90.0
  0
ARC
  5
176
100
AcDbEntity
  8
1
  6
CONTINUOUS
 62
             3
100
AcDbCircle
 10
40.68571143699791
 20
86.17988216102918
 40
0.75000000000003
100
AcDbArc
 50
-81.2597658467345
 51
66.97405146830378
  0
ARC
  5
175
100
AcDbEntity
  8
1
  6
CONTINUOUS
 62
             3
100
AcDbCircle
 10
54.42141754957777
 20
45.29763018452582
 40
0.75000000000007
100
AcDbArc
 50
-29.83119444140719
 51
118.40262287364617
  0
ARC
  5
174
100
AcDbEntity
  8
1
  6
CONTINUOUS
 62
             3
100
AcDbCircle
 10
94.94852189553966
 20
30.5469704564664
 40
0.75000000000002
100
AcDbArc
 50
21.59737696392531
 51
169.83119427900078
  0
ARC
  5
173
100
AcDbEntity
  8
1
  6
CONTINUOUS
 62
             3
100
AcDbCircle
 10
131.7492883258015
 20
53.03545060134979
 40
0.75000000000017
100
AcDbArc
 50
73.02594836928793
 51
-138.74023431568614
  0
ARC
  5
172
100
AcDbEntity
  8
1
  6
CONTINUOUS
 62
             3
100
AcDbCircle
 10
137.1119891428807
 20
95.82878640294359
 40
0.75000000000006
100
AcDbArc
 50
124.45451977461288
 51
-87.31166291034738
  0
ARC
  5
171
100
AcDbEntity
  8
1
  6
CONTINUOUS
 62
             3
100
AcDbCircle
 10
90.0
 20
80.0
 40
49.50000000002282
100
AcDbArc
 50
125.64018916749079
 51
172.02213828503352
  0
ARC
  5
170
100
AcDbEntity
  8
1
  6
CONTINUOUS
 62
             3
100
AcDbCircle
 10
90.0
 20
80.0
 40
49.49999999994444
100
AcDbArc
 50
-144.35981083252693
 51
-136.54929030966434
  0
ARC
  5
16F
100
AcDbEntity
  8
1
  6
CONTINUOUS
 62
             3
100
AcDbCircle
 10
90.0
 20
80.0
 40
49.49999999993926
100
AcDbArc
 50
-134.87928125850885
 51
-85.12071890427839
  0
ARC
  5
16E
100
AcDbEntity
  8
1
  6
CONTINUOUS
 62
             3
100
AcDbCircle
 10
90.0
 20
80.0
 40
49.49999999985937
100
AcDbArc
 50
-54.35981083254649
 51
-33.69214749884463
  0
ARC
  5
16D
100
AcDbEntity
  8
1
  6
CONTINUOUS
 62
             3
100
AcDbCircle
 10
90.0
 20
80.0
 40
49.4999999998576
100
AcDbArc
 50
-32.02213844768593
 51
17.73642390656381
  0
ARC
  5
16C
100
AcDbEntity
  8
1
  6
CONTINUOUS
 62
             3
100
AcDbCircle
 10
90.0
 20
80.0
 40
49.5000000000002
100
AcDbArc
 50
90.0
 51
116.72877110374797
  0
ARC
  5
16B
100
AcDbEntity
  8
1
  6
CONTINUOUS
 62
             3
100
AcDbCircle
 10
90.0
 20
80.0
 40
50.5000000000002
100
AcDbArc
 50
90.0
 51
117.14725295846755
  0
ARC
  5
16A
100
AcDbEntity
  8
1
  6
CONTINUOUS
 62
             3
100
AcDbCircle
 10
90.0
 20
80.0
 40
50.50000000000021
100
AcDbArc
 50
35.86804010259969
 51
90.0
  0
ARC
  5
169
100
AcDbEntity
  8
1
  6
CONTINUOUS
 62
             3
100
AcDbCircle
 10
89.35197611250123
 20
82.14899823828489
 40
53.43697248675709
100
AcDbArc
 50
106.78052546632865
 51
118.90342360735855
  0
ARC
  5
168
100
AcDbEntity
  8
1
  6
CONTINUOUS
 62
             3
100
AcDbCircle
 10
90.0
 20
80.0
 40
49.4999999999167
100
AcDbArc
 50
19.40643295772044
 51
26.72877110372859
  0
ARC
  5
167
100
AcDbEntity
  8
1
  6
CONTINUOUS
 62
             3
100
AcDbCircle
 10
90.0
 20
80.0
 40
50.50000000000005
100
AcDbArc
 50
-54.13195989740018
 51
27.14725295846817
  0
ARC
  5
166
100
AcDbEntity
  8
1
  6
CONTINUOUS
 62
             3
100
AcDbCircle
 10
122.39457257585541
 20
94.59974523852117
 40
19.9999999999992
100
AcDbArc
 50
25.59720020809096
 51
36.55759360485019
  0
ARC
  5
165
100
AcDbEntity
  8
1
  6
CONTINUOUS
 62
             3
100
AcDbCircle
 10
90.0
 20
80.0
 40
50.49999999999963
100
AcDbArc
 50
-144.13195989740063
 51
-62.85274704153159
  0
ARC
  5
164
100
AcDbEntity
  8
1
  6
CONTINUOUS
 62
             3
100
AcDbCircle
 10
90.0
 20
80.0
 40
49.4999999998677
100
AcDbArc
 50
-83.4507098531203
 51
-63.27122889633147
  0
ARC
  5
163
100
AcDbEntity
  8
1
  6
CONTINUOUS
 62
             3
100
AcDbCircle
 10
90.0
 20
80.0
 40
50.5000000000002
100
AcDbArc
 50
125.86804010259891
 51
-152.85274704153238
  0
ARC
  5
162
100
AcDbEntity
  8
1
  6
CONTINUOUS
 62
             3
100
AcDbCircle
 10
90.0
 20
80.0
 40
49.50000000001823
100
AcDbArc
 50
173.69214733618654
 51
-153.27122889629581
  0
ARC
  5
161
100
AcDbEntity
  8
1
  6
CONTINUOUS
 62
             3
100
AcDbCircle
 10
251.09852161261861
 20
22.76845058322812
 40
0.19999999999987
100
AcDbArc
 50
90.0
 51
180.0
  0
ARC
  5
160
100
AcDbEntity
  8
1
  6
CONTINUOUS
 62
             3
100
AcDbCircle
 10
251.09852161261861
 20
22.30000000000001
 40
0.19999999999988
100
AcDbArc
 50
90.0
 51
180.0
  0
ARC
  5
15F
100
AcDbEntity
  8
1
  6
CONTINUOUS
 62
             3
100
AcDbCircle
 10
251.09852161261861
 20
28.15459415460168
 40
0.2000000000001
100
AcDbArc
 50
90.0
 51
180.0
  0
ARC
  5
15E
100
AcDbEntity
  8
1
  6
CONTINUOUS
 62
             3
100
AcDbCircle
 10
266.19852161261849
 20
22.76845058322812
 40
0.19999999999999
100
AcDbArc
 50
0.0
 51
90.0
  0
ARC
  5
15D
100
AcDbEntity
  8
1
  6
CONTINUOUS
 62
             3
100
AcDbCircle
 10
266.19852161261849
 20
22.30000000000001
 40
0.19999999999999
100
AcDbArc
 50
0.0
 51
90.0
  0
ARC
  5
15C
100
AcDbEntity
  8
1
  6
CONTINUOUS
 62
             3
100
AcDbCircle
 10
266.19852161261849
 20
28.15459415460168
 40
0.19999999999999
100
AcDbArc
 50
0.0
 51
90.0
  0
ARC
  5
15B
100
AcDbEntity
  8
1
  6
CONTINUOUS
 62
             3
100
AcDbCircle
 10
251.09852161261861
 20
42.93962874822501
 40
0.2000000000001
100
AcDbArc
 50
180.0
 51
-90.0
  0
ARC
  5
15A
100
AcDbEntity
  8
1
  6
CONTINUOUS
 62
             3
100
AcDbCircle
 10
266.19852161261849
 20
42.93962874822501
 40
0.19999999999999
100
AcDbArc
 50
-90.0
 51
0.0
  0
ARC
  5
159
100
AcDbEntity
  8
1
  6
CONTINUOUS
 62
             2
100
AcDbCircle
 10
251.74852161261839
 20
28.2925715853246
 40
0.14999999999978
100
AcDbArc
 50
180.0
 51
0.0
  0
ARC
  5
158
100
AcDbEntity
  8
1
  6
CONTINUOUS
 62
             2
100
AcDbCircle
 10
253.44852161261849
 20
28.2925715853246
 40
0.14999999999989
100
AcDbArc
 50
180.0
 51
0.0
  0
ARC
  5
157
100
AcDbEntity
  8
1
  6
CONTINUOUS
 62
             2
100
AcDbCircle
 10
265.54852161261857
 20
28.2925715853246
 40
0.15000000000009
100
AcDbArc
 50
180.0
 51
0.0
  0
ARC
  5
156
100
AcDbEntity
  8
1
  6
CONTINUOUS
 62
             2
100
AcDbCircle
 10
263.84852161261858
 20
28.2925715853246
 40
0.14999999999986
100
AcDbArc
 50
180.0
 51
0.0
  0
ARC
  5
155
100
AcDbEntity
  8
1
  6
CONTINUOUS
 62
             2
100
AcDbCircle
 10
251.74852161261839
 20
26.6695347341975
 40
0.15000000000012
100
AcDbArc
 50
0.0
 51
180.0
  0
ARC
  5
154
100
AcDbEntity
  8
1
  6
CONTINUOUS
 62
             2
100
AcDbCircle
 10
253.44852161261849
 20
26.6695347341975
 40
0.14999999999981
100
AcDbArc
 50
0.0
 51
180.0
  0
ARC
  5
153
100
AcDbEntity
  8
1
  6
CONTINUOUS
 62
             2
100
AcDbCircle
 10
265.54852161261857
 20
26.6695347341975
 40
0.14999999999992
100
AcDbArc
 50
0.0
 51
180.0
  0
ARC
  5
152
100
AcDbEntity
  8
1
  6
CONTINUOUS
 62
             2
100
AcDbCircle
 10
263.84852161261858
 20
26.6695347341975
 40
0.14999999999992
100
AcDbArc
 50
0.0
 51
180.0
  0
ARC
  5
151
100
AcDbEntity
  8
1
  6
CONTINUOUS
 62
             3
100
AcDbCircle
 10
266.19852161261849
 20
120.6313492975772
 40
0.19999999999999
100
AcDbArc
 50
0.0
 51
90.0
  0
ARC
  5
150
100
AcDbEntity
  8
1
  6
CONTINUOUS
 62
             3
100
AcDbCircle
 10
251.09852161261861
 20
120.6313492975769
 40
0.2000000000001
100
AcDbArc
 50
90.0
 51
180.0
  0
ARC
  5
14F
100
AcDbEntity
  8
1
  6
CONTINUOUS
 62
             3
100
AcDbCircle
 10
251.09852161261861
 20
126.7000000000001
 40
0.1999999999999
100
AcDbArc
 50
90.0
 51
180.0
  0
ARC
  5
14E
100
AcDbEntity
  8
1
  6
CONTINUOUS
 62
             3
100
AcDbCircle
 10
266.19852161261849
 20
126.7000000000001
 40
0.19999999999999
100
AcDbArc
 50
0.0
 51
90.0
  0
ARC
  5
14D
100
AcDbEntity
  8
1
  6
CONTINUOUS
 62
             3
100
AcDbCircle
 10
251.09852161261861
 20
137.7000000000001
 40
0.2000000000001
100
AcDbArc
 50
180.0
 51
-90.0
  0
ARC
  5
14C
100
AcDbEntity
  8
1
  6
CONTINUOUS
 62
             3
100
AcDbCircle
 10
266.19852161261849
 20
137.7000000000001
 40
0.2000000000001
100
AcDbArc
 50
-90.0
 51
0.0
  0
ARC
  5
14B
100
AcDbEntity
  8
1
  6
CONTINUOUS
 62
             3
100
AcDbCircle
 10
251.09852161261861
 20
138.6999999999999
 40
0.2000000000001
100
AcDbArc
 50
180.0
 51
-90.0
  0
ARC
  5
14A
100
AcDbEntity
  8
1
  6
CONTINUOUS
 62
             3
100
AcDbCircle
 10
266.19852161261849
 20
138.6999999999999
 40
0.20000000000002
100
AcDbArc
 50
-90.0
 51
0.0
  0
ARC
  5
149
100
AcDbEntity
  8
1
  6
CONTINUOUS
 62
             3
100
AcDbCircle
 10
251.09852161261861
 20
21.30000000000001
 40
0.19999999999999
100
AcDbArc
 50
90.0
 51
180.0
  0
ARC
  5
148
100
AcDbEntity
  8
1
  6
CONTINUOUS
 62
             3
100
AcDbCircle
 10
266.19852161261849
 20
21.30000000000001
 40
0.19999999999999
100
AcDbArc
 50
0.0
 51
90.0
  0
ARC
  5
147
100
AcDbEntity
  8
1
  6
CONTINUOUS
 62
             2
100
AcDbCircle
 10
89.55816247311722
 20
30.41092833661824
 40
28.34308409697965
100
AcDbArc
 50
-115.51968032525893
 51
-61.51076697188826
  0
LINE
  5
146
100
AcDbEntity
  8
1
  6
DASH_CENTER
 62
             1
100
AcDbLine
 10
90.0
 20
144.5000000000002
 11
90.0
 21
15.50000000000005
  0
LINE
  5
145
100
AcDbEntity
  8
1
  6
CONTINUOUS
 62
             3
100
AcDbLine
 10
140.9939618532899
 20
118.0420603346509
 11
138.873036118594
 21
120.01985557883231
  0
LINE
  5
144
100
AcDbEntity
  8
1
  6
CONTINUOUS
 62
             3
100
AcDbLine
 10
147.1572987451587
 20
116.80683632366051
 11
144.9067041569524
 21
114.3933691083167
  0
LINE
  5
143
100
AcDbEntity
  8
1
  6
CONTINUOUS
 62
             3
100
AcDbLine
 10
144.1753504553333
 20
115.0753674683793
 11
146.4259450435396
 21
117.4888346837226
  0
LINE
  5
142
100
AcDbEntity
  8
1
  6
CONTINUOUS
 62
             3
100
AcDbLine
 10
142.76917653544351
 20
120.8988264840352
 11
140.51858194723721
 21
118.4853592686917
  0
LINE
  5
141
100
AcDbEntity
  8
1
  6
CONTINUOUS
 62
             3
100
AcDbLine
 10
139.78722824561811
 20
119.1673576287541
 11
142.03782283382429
 21
121.58082484409751
  0
LINE
  5
140
100
AcDbEntity
  8
1
  6
CONTINUOUS
 62
             3
100
AcDbLine
 10
145.82089628397651
 20
113.540871158239
 11
148.07149087218249
 21
115.9543383735822
  0
LINE
  5
13F
100
AcDbEntity
  8
1
  6
CONTINUOUS
 62
             3
100
AcDbLine
 10
138.873036118594
 20
120.01985557883231
 11
141.1236307068003
 21
122.4333227941756
  0
LINE
  5
13E
100
AcDbEntity
  8
1
  6
CONTINUOUS
 62
             3
100
AcDbLine
 10
141.55616242815319
 20
114.0994811644094
 11
142.99329451844011
 21
115.49398873164159
  0
LINE
  5
13D
100
AcDbEntity
  8
1
  6
CONTINUOUS
 62
             3
100
AcDbLine
 10
139.7524558448836
 20
115.0978010337251
 11
140.8494863973124
 21
114.07480349363099
  0
LINE
  5
13C
100
AcDbEntity
  8
1
  6
CONTINUOUS
 62
             3
100
AcDbLine
 10
141.01863952406831
 20
117.3353843038102
 11
139.727778174105
 21
115.8044770645658
  0
LINE
  5
13B
100
AcDbEntity
  8
1
  6
CONTINUOUS
 62
             3
100
AcDbLine
 10
141.1236307068003
 20
122.4333227941756
 11
148.07149087218249
 21
115.9543383735822
  0
LINE
  5
13A
100
AcDbEntity
  8
1
  6
CONTINUOUS
 62
             3
100
AcDbLine
 10
145.82089628397651
 20
113.540871158239
 11
143.69997054928081
 21
115.5186664024198
  0
LINE
  5
139
100
AcDbEntity
  8
1
  6
CONTINUOUS
 62
             2
100
AcDbLine
 10
115.56972040290231
 20
88.59314334054017
 11
140.0376837885149
 21
114.83182167330079
  0
LINE
  5
138
100
AcDbEntity
  8
1
  6
CONTINUOUS
 62
             2
100
AcDbLine
 10
114.8529937753154
 20
89.26150173340108
 11
140.8895533890759
 21
117.1822935798906
  0
LINE
  5
137
100
AcDbEntity
  8
1
  6
CONTINUOUS
 62
             2
100
AcDbLine
 10
116.2864470304892
 20
87.92478494767897
 11
140.75441041610159
 21
114.1634632804396
  0
LINE
  5
136
100
AcDbEntity
  8
1
  6
CONTINUOUS
 62
             2
100
AcDbLine
 10
111.9015198784808
 20
87.023063933392
 11
114.5633722459404
 21
87.93961320600869
  0
LINE
  5
135
100
AcDbEntity
  8
1
  6
CONTINUOUS
 62
             2
100
AcDbLine
 10
111.5824630871128
 20
87.9496721374793
 11
114.2443154545722
 21
88.86622141009588
  0
LINE
  5
134
100
AcDbEntity
  8
1
  6
CONTINUOUS
 62
             2
100
AcDbLine
 10
143.61754682932161
 20
120.1077083863625
 11
144.68002202244659
 21
121.2470735386473
  0
LINE
  5
133
100
AcDbEntity
  8
1
  6
CONTINUOUS
 62
             2
100
AcDbLine
 10
144.3908305029434
 20
119.5000000000008
 11
145.37809834831049
 21
120.5587151457859
  0
LINE
  5
132
100
AcDbEntity
  8
1
  6
CONTINUOUS
 62
             2
100
AcDbLine
 10
145.0510000844952
 20
118.7709916006404
 11
146.07617467417461
 21
119.87035675292471
  0
LINE
  5
131
100
AcDbEntity
  8
1
  6
CONTINUOUS
 62
             2
100
AcDbLine
 10
190.99566835718309
 20
121.39977714876581
 11
198.1572863800456
 21
121.39977714876581
  0
LINE
  5
130
100
AcDbEntity
  8
1
  6
CONTINUOUS
 62
             2
100
AcDbLine
 10
198.1572863800456
 20
121.0497771487658
 11
190.99566835718269
 21
121.0497771487655
  0
LINE
  5
12F
100
AcDbEntity
  8
1
  6
CONTINUOUS
 62
             2
100
AcDbLine
 10
190.99566835718309
 20
120.6997771487657
 11
198.1572863800456
 21
120.6997771487657
  0
LINE
  5
12E
100
AcDbEntity
  8
1
  6
CONTINUOUS
 62
             2
100
AcDbLine
 10
198.1572863800456
 20
121.7000000000005
 11
190.99566835718309
 21
121.7000000000005
  0
LINE
  5
12D
100
AcDbEntity
  8
1
  6
CONTINUOUS
 62
             2
100
AcDbLine
 10
190.99566835718309
 20
122.0500000000003
 11
198.1572863800456
 21
122.0500000000003
  0
LINE
  5
12C
100
AcDbEntity
  8
1
  6
CONTINUOUS
 62
             2
100
AcDbLine
 10
198.1572863800456
 20
122.4000000000004
 11
190.99566835718309
 21
122.4000000000004
  0
LINE
  5
12B
100
AcDbEntity
  8
1
  6
CONTINUOUS
 62
             2
100
AcDbLine
 10
172.73902669685091
 20
122.55000000000059
 11
190.99566835718309
 21
122.5500000000001
  0
LINE
  5
12A
100
AcDbEntity
  8
1
  6
CONTINUOUS
 62
             2
100
AcDbLine
 10
172.5375891548224
 20
121.5500000000003
 11
190.99566835718309
 21
121.5500000000003
  0
LINE
  5
129
100
AcDbEntity
  8
1
  6
CONTINUOUS
 62
             2
100
AcDbLine
 10
173.05037768466269
 20
120.54985143251029
 11
190.99566835718269
 21
120.54985143251029
  0
LINE
  5
128
100
AcDbEntity
  8
1
  6
CONTINUOUS
 62
             2
100
AcDbLine
 10
149.5025062814471
 20
120.54985143251029
 11
172.33332686737461
 21
120.54985143251029
  0
LINE
  5
127
100
AcDbEntity
  8
1
  6
CONTINUOUS
 62
             2
100
AcDbLine
 10
171.82321578453821
 20
121.5000000000008
 11
147.5429053051032
 21
121.5000000000008
  0
LINE
  5
126
100
AcDbEntity
  8
1
  6
CONTINUOUS
 62
             2
100
AcDbLine
 10
149.5
 20
122.55000000000059
 11
172.02197587956289
 21
122.55000000000059
  0
LINE
  5
125
100
AcDbEntity
  8
1
  6
CONTINUOUS
 62
             2
100
AcDbLine
 10
114.8824290373087
 20
87.0130050019215
 11
112.1810502108747
 21
86.08284567802429
  0
LINE
  5
124
100
AcDbEntity
  8
1
  6
DASHED
 62
             2
100
AcDbLine
 10
131.17960578075969
 20
122.2402659525392
 11
137.627029226991
 21
128.68768939877049
  0
LINE
  5
123
100
AcDbEntity
  8
1
  6
DASHED
 62
             2
100
AcDbLine
 10
145.2876238823192
 20
129.65379747391779
 11
146.34857152438471
 21
133.61330797827691
  0
LINE
  5
122
100
AcDbEntity
  8
1
  6
DASHED
 62
             2
100
AcDbLine
 10
145.14620252608219
 20
129.5123761176807
 11
141.1866920217231
 21
128.4514284756153
  0
LINE
  5
121
100
AcDbEntity
  8
1
  6
DASHED
 62
             2
100
AcDbLine
 10
146.2968077153642
 20
133.80649314353479
 11
143.2131727983643
 21
136.89012806053449
  0
LINE
  5
120
100
AcDbEntity
  8
1
  6
DASHED
 62
             2
100
AcDbLine
 10
137.06134380204139
 20
132.43535533905921
 11
140.9935068564651
 21
128.5031922846357
  0
LINE
  5
11F
100
AcDbEntity
  8
1
  6
DASHED
 62
             2
100
AcDbLine
 10
138.78078191771559
 20
127.7201217459357
 11
132.2402659525392
 21
121.1796057807593
  0
LINE
  5
11E
100
AcDbEntity
  8
1
  6
DASHED
 62
             2
100
AcDbLine
 10
147.5
 20
134.41990098767221
 11
147.5
 21
130.3800990123278
  0
LINE
  5
11D
100
AcDbEntity
  8
1
  6
DASHED
 62
             2
100
AcDbLine
 10
144.41990098767249
 20
137.49999999999989
 11
143.62304473782979
 21
137.49999999999989
  0
LINE
  5
11C
100
AcDbEntity
  8
1
  6
DASHED
 62
             2
100
AcDbLine
 10
135.82390693496521
 20
131.197918471983
 11
137.6270292269906
 21
129.3947961799571
  0
LINE
  5
11B
100
AcDbEntity
  8
1
  6
DASHED
 62
             2
100
AcDbLine
 10
136.7785010895669
 20
132.43535533905921
 11
135.82390693496521
 21
131.48076118445749
  0
LINE
  5
11A
100
AcDbEntity
  8
1
  6
DASHED
 62
             2
100
AcDbLine
 10
44.60790076457977
 20
117.6139246423681
 11
32.55857864376281
 21
129.6632467631853
  0
LINE
  5
119
100
AcDbEntity
  8
1
  6
DASHED
 62
             2
100
AcDbLine
 10
46.53690956825437
 20
119.9275565258118
 11
37.75100001221381
 21
128.7134660818534
  0
LINE
  5
118
100
AcDbEntity
  8
1
  6
DASHED
 62
             2
100
AcDbLine
 10
41.28653391814657
 20
132.24899998778591
 11
50.07244347418731
 21
123.4630904317445
  0
LINE
  5
117
100
AcDbEntity
  8
1
  6
DASHED
 62
             2
100
AcDbLine
 10
52.38607535763191
 20
125.3920992354203
 11
40.33675323681501
 21
137.44142135623721
  0
LINE
  5
116
100
AcDbEntity
  8
1
  6
DASHED
 62
             2
100
AcDbLine
 10
41.5485715243849
 20
133.61330797827679
 11
41.2347701091262
 21
132.44218515304371
  0
LINE
  5
115
100
AcDbEntity
  8
1
  6
DASHED
 62
             2
100
AcDbLine
 10
33.10987193946539
 20
131.5868272016354
 11
36.1935068564652
 21
128.5031922846357
  0
LINE
  5
114
100
AcDbEntity
  8
1
  6
DASHED
 62
             2
100
AcDbLine
 10
36.38669202172281
 20
128.4514284756149
 11
37.5578148469562
 21
128.7652298908738
  0
LINE
  5
113
100
AcDbEntity
  8
1
  6
DASHED
 62
             2
100
AcDbLine
 10
32.82702922699082
 20
131.5868272016356
 11
32.55857864376281
 21
131.3183766184076
  0
LINE
  5
112
100
AcDbEntity
  8
1
  6
DASHED
 62
             2
100
AcDbLine
 10
32.5
 20
129.80466811942239
 11
32.5
 21
131.1769552621702
  0
LINE
  5
111
100
AcDbEntity
  8
1
  6
DASHED
 62
             2
100
AcDbLine
 10
38.681623381593
 20
137.4414213562375
 11
38.41317279836437
 21
137.17297077300921
  0
LINE
  5
110
100
AcDbEntity
  8
1
  6
DASHED
 62
             2
100
AcDbLine
 10
40.19533188057761
 20
137.49999999999989
 11
38.82304473783012
 21
137.5000000000002
  0
LINE
  5
10F
100
AcDbEntity
  8
1
  6
DASHED
 62
             2
100
AcDbLine
 10
41.49680771536441
 20
133.80649314353479
 11
38.41317279836437
 21
136.89012806053449
  0
LINE
  5
10E
100
AcDbEntity
  8
1
  6
DASHED
 62
             2
100
AcDbLine
 10
143.2131727983643
 20
137.1729707730091
 11
143.48162338159281
 21
137.44142135623721
  0
LINE
  5
10D
100
AcDbEntity
  8
1
  6
DASHED
 62
             2
100
AcDbLine
 10
138.50319228463559
 20
26.19350685646458
 11
141.5868272016356
 21
23.10987193946477
  0
LINE
  5
10C
100
AcDbEntity
  8
1
  6
DASHED
 62
             2
100
AcDbLine
 10
139.80466811942279
 20
22.49999999999937
 11
141.17695526217
 21
22.49999999999909
  0
LINE
  5
10B
100
AcDbEntity
  8
1
  6
DASHED
 62
             2
100
AcDbLine
 10
141.31837661840751
 20
22.55857864376168
 11
141.5868272016356
 21
22.82702922698996
  0
LINE
  5
10A
100
AcDbEntity
  8
1
  6
DASHED
 62
             2
100
AcDbLine
 10
147.5
 20
30.19533188057687
 11
147.5
 21
28.82304473782898
  0
LINE
  5
109
100
AcDbEntity
  8
1
  6
DASHED
 62
             2
100
AcDbLine
 10
147.17297077300921
 20
28.41317279836357
 11
147.4414213562373
 21
28.68162338159169
  0
LINE
  5
108
100
AcDbEntity
  8
1
  6
DASHED
 62
             2
100
AcDbLine
 10
143.61330797827719
 20
31.54857152438427
 11
142.44218515304379
 21
31.23477010912546
  0
LINE
  5
107
100
AcDbEntity
  8
1
  6
DASHED
 62
             2
100
AcDbLine
 10
146.89012806053469
 20
28.41317279836369
 11
143.80649314353471
 21
31.49680771536367
  0
LINE
  5
106
100
AcDbEntity
  8
1
  6
DASHED
 62
             2
100
AcDbLine
 10
138.4514284756151
 20
26.38669202172247
 11
138.7652298908738
 21
27.55781484695546
  0
LINE
  5
105
100
AcDbEntity
  8
1
  6
DASHED
 62
             2
100
AcDbLine
 10
127.6139246423682
 20
34.60790076457897
 11
139.6632467631853
 21
22.55857864376208
  0
LINE
  5
104
100
AcDbEntity
  8
1
  6
DASHED
 62
             2
100
AcDbLine
 10
138.7134660818534
 20
27.75100001221318
 11
129.92755652581309
 21
36.53690956825477
  0
LINE
  5
103
100
AcDbEntity
  8
1
  6
DASHED
 62
             2
100
AcDbLine
 10
133.463090431746
 20
40.07244347418759
 11
142.24899998778619
 21
31.28653391814589
  0
LINE
  5
102
100
AcDbEntity
  8
1
  6
DASHED
 62
             2
100
AcDbLine
 10
135.3920992354202
 20
42.38607535763117
 11
147.4414213562373
 21
30.33675323681388
  0
LINE
  5
101
100
AcDbEntity
  8
1
  6
DASHED
 62
             2
100
AcDbLine
 10
36.78682720163567
 20
22.82702922699019
 11
36.51837661840722
 21
22.55857864376208
  0
LINE
  5
100
100
AcDbEntity
  8
1
  6
DASHED
 62
             2
100
AcDbLine
 10
43.22149891043307
 20
27.56464466094008
 11
44.17609306503522
 21
28.51923881554188
  0
LINE
  5
FF
100
AcDbEntity
  8
1
  6
DASHED
 62
             2
100
AcDbLine
 10
44.17609306503522
 20
28.8020815280164
 11
42.37297077300951
 21
30.60520382004216
  0
LINE
  5
FE
100
AcDbEntity
  8
1
  6
DASHED
 62
             2
100
AcDbLine
 10
35.58009901232772
 20
22.49999999999938
 11
36.37695526217021
 21
22.49999999999938
  0
LINE
  5
FD
100
AcDbEntity
  8
1
  6
DASHED
 62
             2
100
AcDbLine
 10
32.5
 20
25.58009901232697
 11
32.5
 21
29.6199009876716
  0
LINE
  5
FC
100
AcDbEntity
  8
1
  6
DASHED
 62
             2
100
AcDbLine
 10
41.2192180822849
 20
32.27987825406359
 11
47.75973404746111
 21
38.82039421923997
  0
LINE
  5
FB
100
AcDbEntity
  8
1
  6
DASHED
 62
             2
100
AcDbLine
 10
42.93865619795862
 20
27.56464466094008
 11
39.00649314353501
 21
31.49680771536367
  0
LINE
  5
FA
100
AcDbEntity
  8
1
  6
DASHED
 62
             2
100
AcDbLine
 10
33.70319228463592
 20
26.19350685646458
 11
36.78682720163567
 21
23.10987193946488
  0
LINE
  5
F9
100
AcDbEntity
  8
1
  6
DASHED
 62
             2
100
AcDbLine
 10
34.85379747391801
 20
30.48762388231859
 11
38.81330797827701
 21
31.5485715243841
  0
LINE
  5
F8
100
AcDbEntity
  8
1
  6
DASHED
 62
             2
100
AcDbLine
 10
34.7123761176806
 20
30.34620252608147
 11
33.65142847561526
 21
26.3866920217223
  0
LINE
  5
F7
100
AcDbEntity
  8
1
  6
DASHED
 62
             2
100
AcDbLine
 10
48.82039421924071
 20
37.75973404746009
 11
42.37297077300951
 21
31.31231060122877
  0
LINE
  5
F6
100
AcDbEntity
  8
1
  6
CONTINUOUS
 62
             3
100
AcDbLine
 10
111.5873988431008
 20
87.95137165455839
 11
111.5190295306643
 21
88.14993055543488
  0
LINE
  5
F5
100
AcDbEntity
  8
1
  6
CONTINUOUS
 62
             2
100
AcDbLine
 10
114.713610116181
 20
90.37303115830707
 11
118.2311865867742
 21
94.14517010048996
  0
LINE
  5
F4
100
AcDbEntity
  8
1
  6
CONTINUOUS
 62
             2
100
AcDbLine
 10
138.2297597848283
 20
114.3300141435717
 11
137.89333708208369
 21
114.64373338919999
  0
LINE
  5
F3
100
AcDbEntity
  8
1
  6
CONTINUOUS
 62
             3
100
AcDbLine
 10
149.5
 20
120.4500000000007
 11
149.5
 21
27.29563585432407
  0
LINE
  5
F2
100
AcDbEntity
  8
1
  6
CONTINUOUS
 62
             3
100
AcDbLine
 10
147.36567685080971
 20
119.5229690996017
 11
145.91399745240599
 21
117.96623353576619
  0
LINE
  5
F1
100
AcDbEntity
  8
1
  6
CONTINUOUS
 62
             3
100
AcDbLine
 10
113.89448242835699
 20
82.80529287414669
 11
112.88983741209751
 21
82.24840904813709
  0
LINE
  5
F0
100
AcDbEntity
  8
1
  6
CONTINUOUS
 62
             3
100
AcDbLine
 10
114.3875705911026
 20
83.1905355683009
 11
144.07789647126219
 21
115.0295120326203
  0
LINE
  5
EF
100
AcDbEntity
  8
1
  6
CONTINUOUS
 62
             3
100
AcDbLine
 10
117.0813481136166
 20
93.5337901394247
 11
109.421696860753
 21
92.32062056265897
  0
LINE
  5
EE
100
AcDbEntity
  8
1
  6
CONTINUOUS
 62
             2
100
AcDbLine
 10
137.89333708208369
 20
114.64373338919999
 11
137.286187161827
 21
113.9926448124241
  0
LINE
  5
ED
100
AcDbEntity
  8
1
  6
CONTINUOUS
 62
             3
100
AcDbLine
 10
140.52621040791271
 20
112.18853929297489
 11
137.0415057675059
 21
108.4516510729251
  0
LINE
  5
EC
100
AcDbEntity
  8
1
  6
CONTINUOUS
 62
             3
100
AcDbLine
 10
143.74147376851741
 20
115.34323127824889
 11
145.60642570764639
 21
113.6041354600892
  0
LINE
  5
EB
100
AcDbEntity
  8
1
  6
CONTINUOUS
 62
             3
100
AcDbLine
 10
143.2030532222594
 20
120.6309626741657
 11
141.33810128313061
 21
122.3700584923252
  0
LINE
  5
EA
100
AcDbEntity
  8
1
  6
CONTINUOUS
 62
             3
100
AcDbLine
 10
147.5
 20
123.67629416229541
 11
147.5
 21
122.2500000000008
  0
LINE
  5
E9
100
AcDbEntity
  8
1
  6
CONTINUOUS
 62
             3
100
AcDbLine
 10
37.2956358543247
 20
139.5000000000002
 11
142.70436414567601
 21
139.5000000000002
  0
LINE
  5
E8
100
AcDbEntity
  8
1
  6
CONTINUOUS
 62
             3
100
AcDbLine
 10
147.6999999999999
 20
122.05000000000059
 11
149.0
 21
122.05000000000059
  0
LINE
  5
E7
100
AcDbEntity
  8
1
  6
CONTINUOUS
 62
             3
100
AcDbLine
 10
149.0
 20
120.9500000000007
 11
147.6999999999999
 21
120.9500000000007
  0
LINE
  5
E6
100
AcDbEntity
  8
1
  6
CONTINUOUS
 62
             3
100
AcDbLine
 10
147.5
 20
120.7500000000008
 11
147.5
 21
119.8639682796331
  0
LINE
  5
E5
100
AcDbEntity
  8
1
  6
CONTINUOUS
 62
             3
100
AcDbLine
 10
137.89333708208369
 20
114.64373338919999
 11
141.02882025853441
 21
118.0061274384346
  0
LINE
  5
E4
100
AcDbEntity
  8
1
  6
CONTINUOUS
 62
             2
100
AcDbLine
 10
140.52621040791271
 20
112.18853929297489
 11
139.66321304000169
 21
112.993297357849
  0
LINE
  5
E3
100
AcDbEntity
  8
1
  6
CONTINUOUS
 62
             3
100
AcDbLine
 10
138.95110702291211
 20
119.8103205366582
 11
140.8160589620407
 21
118.071224718499
  0
LINE
  5
E2
100
AcDbEntity
  8
1
  6
CONTINUOUS
 62
             3
100
AcDbLine
 10
141.05543087079431
 20
122.360187424014
 11
138.9412359546005
 21
120.0929909489943
  0
LINE
  5
E1
100
AcDbEntity
  8
1
  6
CONTINUOUS
 62
             3
100
AcDbLine
 10
147.99341996786509
 20
116.1638734157566
 11
146.12846802873631
 21
117.902969233916
  0
LINE
  5
E0
100
AcDbEntity
  8
1
  6
CONTINUOUS
 62
             3
100
AcDbLine
 10
145.8890961199827
 20
113.61400652840079
 11
148.00329103617651
 21
115.8812030034203
  0
LINE
  5
DF
100
AcDbEntity
  8
1
  6
CONTINUOUS
 62
             3
100
AcDbLine
 10
129.463459482307
 20
31.91927712750317
 11
124.8469448429483
 21
36.22424667408029
  0
LINE
  5
DE
100
AcDbEntity
  8
1
  6
CONTINUOUS
 62
             3
100
AcDbLine
 10
41.91927712750311
 20
40.5365405176932
 11
46.22424667408041
 21
45.15305515705279
  0
LINE
  5
DD
100
AcDbEntity
  8
1
  6
CONTINUOUS
 62
             3
100
AcDbLine
 10
50.53654051769297
 20
128.08072287249681
 11
55.15305515705211
 21
123.77575332591969
  0
LINE
  5
DC
100
AcDbEntity
  8
1
  6
CONTINUOUS
 62
             3
100
AcDbLine
 10
108.18358219603699
 20
49.71209253646009
 11
128.28003316499471
 21
30.97184883008089
  0
LINE
  5
DB
100
AcDbEntity
  8
1
  6
CONTINUOUS
 62
             3
100
AcDbLine
 10
59.7120925364602
 20
61.81641780396319
 11
40.97184883008112
 21
41.71996683500549
  0
LINE
  5
DA
100
AcDbEntity
  8
1
  6
CONTINUOUS
 62
             3
100
AcDbLine
 10
71.8164178039633
 20
110.28790746354009
 11
51.71996683500527
 21
129.02815116991891
  0
LINE
  5
D9
100
AcDbEntity
  8
1
  6
CONTINUOUS
 62
             3
100
AcDbLine
 10
120.28790746354029
 20
98.18358219603698
 11
139.7555960946934
 21
119.0601223405891
  0
LINE
  5
D8
100
AcDbEntity
  8
1
  6
CONTINUOUS
 62
             3
100
AcDbLine
 10
118.2311865867742
 20
94.14517010048996
 11
140.73798805772279
 21
118.28075976067301
  0
LINE
  5
D7
100
AcDbEntity
  8
1
  6
CONTINUOUS
 62
             3
100
AcDbLine
 10
142.70436414567629
 20
20.5
 11
37.29563585432442
 21
20.5
  0
LINE
  5
D6
100
AcDbEntity
  8
1
  6
CONTINUOUS
 62
             3
100
AcDbLine
 10
149.5
 20
132.70436414567561
 11
149.5
 21
122.55000000000059
  0
LINE
  5
D5
100
AcDbEntity
  8
1
  6
CONTINUOUS
 62
             3
100
AcDbLine
 10
30.50000000000051
 20
27.29563585432408
 11
30.50000000000051
 21
132.7043641456759
  0
LINE
  5
D4
100
AcDbEntity
  8
1
  6
DASH_CENTER
 62
             1
100
AcDbLine
 10
147.40000000000009
 20
27.60000000000008
 11
137.40000000000009
 21
27.60000000000008
  0
LINE
  5
D3
100
AcDbEntity
  8
1
  6
DASH_CENTER
 62
             1
100
AcDbLine
 10
142.40000000000009
 20
32.60000000000008
 11
142.40000000000009
 21
22.60000000000008
  0
LINE
  5
D2
100
AcDbEntity
  8
1
  6
DASH_CENTER
 62
             1
100
AcDbLine
 10
37.60000000000031
 20
22.60000000000008
 11
37.60000000000031
 21
32.60000000000008
  0
LINE
  5
D1
100
AcDbEntity
  8
1
  6
DASH_CENTER
 62
             1
100
AcDbLine
 10
42.60000000000031
 20
27.60000000000008
 11
32.60000000000031
 21
27.60000000000008
  0
LINE
  5
D0
100
AcDbEntity
  8
1
  6
DASH_CENTER
 62
             1
100
AcDbLine
 10
142.40000000000009
 20
137.40000000000069
 11
142.40000000000009
 21
127.40000000000011
  0
LINE
  5
CF
100
AcDbEntity
  8
1
  6
DASH_CENTER
 62
             1
100
AcDbLine
 10
137.40000000000009
 20
132.40000000000069
 11
147.40000000000009
 21
132.40000000000069
  0
LINE
  5
CE
100
AcDbEntity
  8
1
  6
DASH_CENTER
 62
             1
100
AcDbLine
 10
32.59999999999991
 20
132.40000000000069
 11
42.59999999999991
 21
132.40000000000069
  0
LINE
  5
CD
100
AcDbEntity
  8
1
  6
DASH_CENTER
 62
             1
100
AcDbLine
 10
37.59999999999991
 20
127.4000000000007
 11
37.59999999999991
 21
137.40000000000069
  0
LINE
  5
CC
100
AcDbEntity
  8
1
  6
CONTINUOUS
 62
             3
100
AcDbLine
 10
60.42469861119878
 20
22.5000000000008
 11
119.57530138880379
 21
22.5
  0
LINE
  5
CB
100
AcDbEntity
  8
1
  6
CONTINUOUS
 62
             3
100
AcDbLine
 10
32.50000000000051
 20
50.42469861119639
 11
32.50000000000051
 21
109.5753013888035
  0
LINE
  5
CA
100
AcDbEntity
  8
1
  6
CONTINUOUS
 62
             3
100
AcDbLine
 10
60.42469861119662
 20
137.5000000000002
 11
119.5753013888034
 21
137.50000000000071
  0
LINE
  5
C9
100
AcDbEntity
  8
1
  6
CONTINUOUS
 62
             3
100
AcDbLine
 10
147.5
 20
109.5753013888035
 11
147.5
 21
50.42469861119639
  0
LINE
  5
C8
100
AcDbEntity
  8
1
  6
CONTINUOUS
 62
             3
100
AcDbLine
 10
33.0
 20
49.47216921826299
 11
33.00000000000051
 21
110.52783078174031
  0
LINE
  5
C7
100
AcDbEntity
  8
1
  6
CONTINUOUS
 62
             3
100
AcDbLine
 10
59.47216921825981
 20
137.00000000000071
 11
120.52783078174009
 21
137.00000000000071
  0
LINE
  5
C6
100
AcDbEntity
  8
1
  6
CONTINUOUS
 62
             3
100
AcDbLine
 10
147.0
 20
110.527830781741
 11
147.0
 21
49.47216921826049
  0
LINE
  5
C5
100
AcDbEntity
  8
1
  6
CONTINUOUS
 62
             3
100
AcDbLine
 10
120.5278307817389
 20
23.00000000000057
 11
59.47216921826231
 21
23.00000000000057
  0
LINE
  5
C4
100
AcDbEntity
  8
1
  6
CONTINUOUS
 62
             3
100
AcDbLine
 10
138.08072287249709
 20
119.4634594823066
 11
133.7757533259196
 21
114.8469448429491
  0
LINE
  5
C3
100
AcDbEntity
  8
1
  6
CONTINUOUS
 62
             3
100
AcDbLine
 10
137.916418842041
 20
137.49999999999989
 11
128.5746030439719
 21
137.49999999999989
  0
LINE
  5
C2
100
AcDbEntity
  8
1
  6
CONTINUOUS
 62
             3
100
AcDbLine
 10
51.42539695602807
 20
137.49999999999989
 11
42.08358115795846
 21
137.49999999999989
  0
LINE
  5
C1
100
AcDbEntity
  8
1
  6
CONTINUOUS
 62
             3
100
AcDbLine
 10
32.5
 20
127.91641884204159
 11
32.5
 21
118.5746030439727
  0
LINE
  5
C0
100
AcDbEntity
  8
1
  6
CONTINUOUS
 62
             3
100
AcDbLine
 10
32.5
 20
41.42539695602898
 11
32.5
 21
32.08358115795897
  0
LINE
  5
BF
100
AcDbEntity
  8
1
  6
CONTINUOUS
 62
             3
100
AcDbLine
 10
42.08358115795846
 20
22.50000000000017
 11
51.4253969560288
 21
22.50000000000017
  0
LINE
  5
BE
100
AcDbEntity
  8
1
  6
CONTINUOUS
 62
             3
100
AcDbLine
 10
128.5746030439719
 20
22.5
 11
137.91641884204191
 21
22.5
  0
LINE
  5
BD
100
AcDbEntity
  8
1
  6
CONTINUOUS
 62
             3
100
AcDbLine
 10
147.5
 20
32.0835811579592
 11
147.5
 21
41.42539695602898
  0
LINE
  5
BC
100
AcDbEntity
  8
1
  6
CONTINUOUS
 62
             3
100
AcDbLine
 10
34.1362046158747
 20
47.43952061902189
 11
40.41169176317231
 21
54.16915667594589
  0
LINE
  5
BB
100
AcDbEntity
  8
1
  6
CONTINUOUS
 62
             3
100
AcDbLine
 10
61.8534134154288
 20
74.9631692864258
 11
42.11170437201906
 21
53.7927782258617
  0
LINE
  5
BA
100
AcDbEntity
  8
1
  6
CONTINUOUS
 62
             3
100
AcDbLine
 10
95.03683071357686
 20
51.8534134154275
 11
116.2072217741384
 21
32.11170437201918
  0
LINE
  5
B9
100
AcDbEntity
  8
1
  6
CONTINUOUS
 62
             3
100
AcDbLine
 10
122.56047938097829
 20
24.13620461587448
 11
115.8308433240539
 21
30.41169176317237
  0
LINE
  5
B8
100
AcDbEntity
  8
1
  6
CONTINUOUS
 62
             3
100
AcDbLine
 10
145.86379538412561
 20
112.56047938097829
 11
139.5883082368282
 21
105.8308433240542
  0
LINE
  5
B7
100
AcDbEntity
  8
1
  6
CONTINUOUS
 62
             3
100
AcDbLine
 10
137.88829562798091
 20
106.2072217741385
 11
118.1465865845699
 21
85.03683071357449
  0
LINE
  5
B6
100
AcDbEntity
  8
1
  6
CONTINUOUS
 62
             3
100
AcDbLine
 10
84.96316928642341
 20
108.1465865845724
 11
63.79277822586181
 21
127.8882956279806
  0
LINE
  5
B5
100
AcDbEntity
  8
1
  6
CONTINUOUS
 62
             3
100
AcDbLine
 10
64.16915667594611
 20
129.58830823682769
 11
57.43952061902201
 21
135.86379538412541
  0
LINE
  5
B4
100
AcDbEntity
  8
1
  6
CONTINUOUS
 62
             2
100
AcDbLine
 10
119.9947812185838
 20
89.20353279572959
 11
117.179431889143
 21
88.88239396862531
  0
LINE
  5
B3
100
AcDbEntity
  8
1
  6
CONTINUOUS
 62
             3
100
AcDbLine
 10
90.5
 20
55.0000000000008
 11
89.5
 21
55.0000000000008
  0
LINE
  5
B2
100
AcDbEntity
  8
1
  6
CONTINUOUS
 62
             3
100
AcDbLine
 10
89.5
 20
55.0000000000008
 11
89.5
 21
57.0000000000008
  0
LINE
  5
B1
100
AcDbEntity
  8
1
  6
CONTINUOUS
 62
             3
100
AcDbLine
 10
89.5
 20
57.0000000000008
 11
90.5
 21
57.0000000000008
  0
LINE
  5
B0
100
AcDbEntity
  8
1
  6
CONTINUOUS
 62
             3
100
AcDbLine
 10
90.5
 20
57.0000000000008
 11
90.5
 21
55.0000000000008
  0
LINE
  5
AF
100
AcDbEntity
  8
1
  6
CONTINUOUS
 62
             3
100
AcDbLine
 10
65.0
 20
79.5000000000008
 11
65.0
 21
80.5000000000008
  0
LINE
  5
AE
100
AcDbEntity
  8
1
  6
CONTINUOUS
 62
             3
100
AcDbLine
 10
65.0
 20
80.5000000000008
 11
67.0
 21
80.5000000000008
  0
LINE
  5
AD
100
AcDbEntity
  8
1
  6
CONTINUOUS
 62
             3
100
AcDbLine
 10
67.0
 20
80.5000000000008
 11
67.0
 21
79.5000000000008
  0
LINE
  5
AC
100
AcDbEntity
  8
1
  6
CONTINUOUS
 62
             3
100
AcDbLine
 10
67.0
 20
79.5000000000008
 11
65.0
 21
79.5000000000008
  0
LINE
  5
AB
100
AcDbEntity
  8
1
  6
CONTINUOUS
 62
             3
100
AcDbLine
 10
142.988582645929
 20
120.69422697601669
 11
143.0567824819353
 21
120.7673623461787
  0
LINE
  5
AA
100
AcDbEntity
  8
1
  6
CONTINUOUS
 62
             3
100
AcDbLine
 10
143.281124126577
 20
120.42142763199109
 11
146.63432314919041
 21
124.0172933423266
  0
LINE
  5
A9
100
AcDbEntity
  8
1
  6
CONTINUOUS
 62
             3
100
AcDbLine
 10
143.6616935843636
 20
115.5509333422097
 11
140.52621040791271
 21
112.18853929297489
  0
LINE
  5
A8
100
AcDbEntity
  8
1
  6
CONTINUOUS
 62
             3
100
AcDbLine
 10
147.49999999999869
 20
125.0000000000002
 11
138.96171974103851
 21
125.0000000000002
  0
LINE
  5
A7
100
AcDbEntity
  8
1
  6
CONTINUOUS
 62
             3
100
AcDbLine
 10
147.49999999999869
 20
125.0000000000002
 11
147.49999999999909
 21
127.9164188420413
  0
LINE
  5
A6
100
AcDbEntity
  8
1
  6
CONTINUOUS
 62
             3
100
AcDbLine
 10
112.5472558815396
 20
89.03278762134647
 11
111.82900474123571
 21
88.78547392046289
  0
LINE
  5
A5
100
AcDbEntity
  8
1
  6
CONTINUOUS
 62
             2
100
AcDbLine
 10
137.57124485298871
 20
110.6722128471278
 11
137.0415057675059
 21
108.4516510729251
  0
LINE
  5
A4
100
AcDbEntity
  8
1
  6
PHANTOM
 62
             2
100
AcDbLine
 10
81.00000000000051
 20
63.0
 11
81.00000000000051
 21
65.0
  0
LINE
  5
A3
100
AcDbEntity
  8
1
  6
PHANTOM
 62
             2
100
AcDbLine
 10
99.00000000000046
 20
65.0
 11
99.00000000000046
 21
63.0
  0
LINE
  5
A2
100
AcDbEntity
  8
1
  6
PHANTOM
 62
             2
100
AcDbLine
 10
81.00000000000051
 20
65.0
 11
99.00000000000046
 21
65.0
  0
LINE
  5
A1
100
AcDbEntity
  8
1
  6
PHANTOM
 62
             2
100
AcDbLine
 10
85.00000000000051
 20
62.0
 11
85.00000000000051
 21
59.0
  0
LINE
  5
A0
100
AcDbEntity
  8
1
  6
PHANTOM
 62
             2
100
AcDbLine
 10
85.00000000000051
 20
62.0
 11
95.00000000000046
 21
62.0
  0
LINE
  5
9F
100
AcDbEntity
  8
1
  6
PHANTOM
 62
             2
100
AcDbLine
 10
95.00000000000046
 20
59.0
 11
95.00000000000046
 21
62.0
  0
LINE
  5
9E
100
AcDbEntity
  8
1
  6
PHANTOM
 62
             2
100
AcDbLine
 10
85.00000000000051
 20
59.0
 11
95.00000000000046
 21
59.0
  0
LINE
  5
9D
100
AcDbEntity
  8
1
  6
PHANTOM
 62
             2
100
AcDbLine
 10
81.00000000000051
 20
63.0
 11
99.00000000000046
 21
63.0
  0
LINE
  5
9C
102
{ACAD_REACTORS
330
2EF
102
}
100
AcDbEntity
  8
1
  6
CONTINUOUS
 62
             3
100
AcDbLine
 10
89.75000000000046
 20
57.0013587357862
 11
89.75000000000046
 21
58.5
  0
LINE
  5
9B
102
{ACAD_REACTORS
330
2EF
102
}
100
AcDbEntity
  8
1
  6
CONTINUOUS
 62
             3
100
AcDbLine
 10
89.75000000000046
 20
58.5
 11
90.25000000000046
 21
58.5
  0
LINE
  5
9A
102
{ACAD_REACTORS
330
2EF
102
}
100
AcDbEntity
  8
1
  6
CONTINUOUS
 62
             3
100
AcDbLine
 10
90.25000000000046
 20
58.5
 11
90.25000000000046
 21
57.0013587357862
  0
LINE
  5
99
102
{ACAD_REACTORS
330
2EE
102
}
100
AcDbEntity
  8
1
  6
CONTINUOUS
 62
             3
100
AcDbLine
 10
67.00135873578671
 20
80.25
 11
68.50000000000051
 21
80.25
  0
LINE
  5
98
102
{ACAD_REACTORS
330
2EE
102
}
100
AcDbEntity
  8
1
  6
CONTINUOUS
 62
             3
100
AcDbLine
 10
68.50000000000051
 20
80.25
 11
68.50000000000051
 21
79.75
  0
LINE
  5
97
102
{ACAD_REACTORS
330
2EE
102
}
100
AcDbEntity
  8
1
  6
CONTINUOUS
 62
             3
100
AcDbLine
 10
68.50000000000051
 20
79.75
 11
67.00135873578671
 21
79.75
  0
LINE
  5
77
100
AcDbEntity
  8
1
  6
DASH_CENTER
 62
             1
100
AcDbLine
 10
25.50000000000051
 20
80.00000000000017
 11
154.5
 21
80.00000000000017
  0
LINE
  5
76
100
AcDbEntity
  8
1
  6
CONTINUOUS
 62
             3
100
AcDbLine
 10
266.19852161261849
 20
42.73962874822502
 11
251.09852161261861
 21
42.73962874822502
  0
LINE
  5
75
100
AcDbEntity
  8
1
  6
CONTINUOUS
 62
             2
100
AcDbLine
 10
251.59852161261861
 20
28.35459415460178
 11
251.59852161261861
 21
28.2925715853246
  0
LINE
  5
74
100
AcDbEntity
  8
1
  6
CONTINUOUS
 62
             2
100
AcDbLine
 10
251.89852161261851
 20
28.35459415460178
 11
251.89852161261851
 21
28.2925715853246
  0
LINE
  5
73
100
AcDbEntity
  8
1
  6
CONTINUOUS
 62
             2
100
AcDbLine
 10
253.2985216126186
 20
28.35459415460178
 11
253.2985216126186
 21
28.2925715853246
  0
LINE
  5
72
100
AcDbEntity
  8
1
  6
CONTINUOUS
 62
             2
100
AcDbLine
 10
253.5985216126183
 20
28.35459415460178
 11
253.5985216126183
 21
28.2925715853246
  0
LINE
  5
71
100
AcDbEntity
  8
1
  6
CONTINUOUS
 62
             2
100
AcDbLine
 10
263.69852161261872
 20
22.96845058322799
 11
263.69852161261872
 21
26.6695347341975
  0
LINE
  5
70
100
AcDbEntity
  8
1
  6
CONTINUOUS
 62
             2
100
AcDbLine
 10
265.69852161261849
 20
28.2925715853246
 11
265.69852161261849
 21
28.35459415460178
  0
LINE
  5
6F
100
AcDbEntity
  8
1
  6
CONTINUOUS
 62
             2
100
AcDbLine
 10
265.39852161261848
 20
28.2925715853246
 11
265.39852161261848
 21
28.35459415460178
  0
LINE
  5
6E
100
AcDbEntity
  8
1
  6
CONTINUOUS
 62
             2
100
AcDbLine
 10
263.9985216126185
 20
28.2925715853246
 11
263.9985216126185
 21
28.35459415460178
  0
LINE
  5
6D
100
AcDbEntity
  8
1
  6
CONTINUOUS
 62
             2
100
AcDbLine
 10
263.69852161261872
 20
28.2925715853246
 11
263.69852161261872
 21
28.35459415460178
  0
LINE
  5
6C
100
AcDbEntity
  8
1
  6
CONTINUOUS
 62
             2
100
AcDbLine
 10
254.2985216126186
 20
27.60957873304579
 11
250.89852161261851
 21
27.60957873304579
  0
LINE
  5
6B
100
AcDbEntity
  8
1
  6
CONTINUOUS
 62
             2
100
AcDbLine
 10
266.39852161261848
 20
27.60957873304579
 11
262.9985216126185
 21
27.60957873304579
  0
LINE
  5
6A
100
AcDbEntity
  8
1
  6
CONTINUOUS
 62
             2
100
AcDbLine
 10
251.59852161261861
 20
26.33492821270249
 11
250.89852161261851
 21
26.33492821270249
  0
LINE
  5
69
100
AcDbEntity
  8
1
  6
CONTINUOUS
 62
             2
100
AcDbLine
 10
254.2985216126186
 20
26.33492821270249
 11
253.5985216126183
 21
26.33492821270249
  0
LINE
  5
68
100
AcDbEntity
  8
1
  6
CONTINUOUS
 62
             2
100
AcDbLine
 10
253.2985216126186
 20
26.33492821270249
 11
251.89852161261851
 21
26.33492821270249
  0
LINE
  5
67
100
AcDbEntity
  8
1
  6
CONTINUOUS
 62
             2
100
AcDbLine
 10
253.5985216126183
 20
26.6695347341975
 11
253.5985216126183
 21
22.96845058322799
  0
LINE
  5
66
100
AcDbEntity
  8
1
  6
CONTINUOUS
 62
             2
100
AcDbLine
 10
253.2985216126186
 20
22.96845058322799
 11
253.2985216126186
 21
26.6695347341975
  0
LINE
  5
65
100
AcDbEntity
  8
1
  6
CONTINUOUS
 62
             2
100
AcDbLine
 10
251.89852161261851
 20
22.96845058322799
 11
251.89852161261851
 21
26.6695347341975
  0
LINE
  5
64
100
AcDbEntity
  8
1
  6
CONTINUOUS
 62
             2
100
AcDbLine
 10
251.59852161261861
 20
26.6695347341975
 11
251.59852161261861
 21
22.96845058322799
  0
LINE
  5
63
100
AcDbEntity
  8
1
  6
CONTINUOUS
 62
             2
100
AcDbLine
 10
263.69852161261872
 20
26.33492821270249
 11
262.9985216126185
 21
26.33492821270249
  0
LINE
  5
62
100
AcDbEntity
  8
1
  6
CONTINUOUS
 62
             2
100
AcDbLine
 10
265.39852161261848
 20
26.33492821270249
 11
263.9985216126185
 21
26.33492821270249
  0
LINE
  5
61
100
AcDbEntity
  8
1
  6
CONTINUOUS
 62
             2
100
AcDbLine
 10
266.39852161261848
 20
26.33492821270249
 11
265.69852161261849
 21
26.33492821270249
  0
LINE
  5
60
100
AcDbEntity
  8
1
  6
CONTINUOUS
 62
             2
100
AcDbLine
 10
263.9985216126185
 20
26.6695347341975
 11
263.9985216126185
 21
22.96845058322799
  0
LINE
  5
5F
100
AcDbEntity
  8
1
  6
CONTINUOUS
 62
             2
100
AcDbLine
 10
265.39852161261848
 20
26.6695347341975
 11
265.39852161261848
 21
22.96845058322799
  0
LINE
  5
5E
100
AcDbEntity
  8
1
  6
CONTINUOUS
 62
             2
100
AcDbLine
 10
265.69852161261849
 20
22.96845058322799
 11
265.69852161261849
 21
26.6695347341975
  0
LINE
  5
5D
100
AcDbEntity
  8
1
  6
CONTINUOUS
 62
             3
100
AcDbLine
 10
254.2985216126186
 20
23.65233405953018
 11
254.2985216126186
 21
27.67195814342659
  0
LINE
  5
5C
100
AcDbEntity
  8
1
  6
CONTINUOUS
 62
             3
100
AcDbLine
 10
262.9985216126185
 20
23.65233405953018
 11
262.9985216126185
 21
27.67195814342659
  0
LINE
  5
5B
100
AcDbEntity
  8
1
  6
CONTINUOUS
 62
             3
100
AcDbLine
 10
263.19852161261872
 20
22.96845058322799
 11
266.19852161261849
 21
22.96845058322799
  0
LINE
  5
5A
100
AcDbEntity
  8
1
  6
CONTINUOUS
 62
             3
100
AcDbLine
 10
254.0985216126183
 20
22.96845058322799
 11
251.09852161261861
 21
22.96845058322799
  0
LINE
  5
59
100
AcDbEntity
  8
1
  6
CONTINUOUS
 62
             3
100
AcDbLine
 10
254.2985216126186
 20
23.65233405953018
 11
254.2985216126186
 21
23.16845058322798
  0
LINE
  5
58
100
AcDbEntity
  8
1
  6
CONTINUOUS
 62
             3
100
AcDbLine
 10
262.9985216126185
 20
23.65233405953018
 11
262.9985216126185
 21
23.16845058322798
  0
LINE
  5
57
100
AcDbEntity
  8
1
  6
CONTINUOUS
 62
             3
100
AcDbLine
 10
254.49852161261839
 20
23.85233405953028
 11
262.79852161261857
 21
23.85233405953028
  0
LINE
  5
56
100
AcDbEntity
  8
1
  6
CONTINUOUS
 62
             3
100
AcDbLine
 10
263.19852161261872
 20
28.35459415460178
 11
266.19852161261849
 21
28.35459415460178
  0
LINE
  5
55
100
AcDbEntity
  8
1
  6
CONTINUOUS
 62
             3
100
AcDbLine
 10
262.79852161261857
 20
27.47195814342649
 11
254.49852161261839
 21
27.47195814342649
  0
LINE
  5
54
100
AcDbEntity
  8
1
  6
CONTINUOUS
 62
             3
100
AcDbLine
 10
254.2985216126186
 20
27.67195814342659
 11
254.2985216126186
 21
28.1545941546018
  0
LINE
  5
53
100
AcDbEntity
  8
1
  6
CONTINUOUS
 62
             3
100
AcDbLine
 10
262.9985216126185
 20
27.67195814342659
 11
262.9985216126185
 21
28.1545941546018
  0
LINE
  5
52
100
AcDbEntity
  8
1
  6
CONTINUOUS
 62
             3
100
AcDbLine
 10
251.09852161261861
 20
28.35459415460178
 11
254.0985216126183
 21
28.35459415460178
  0
LINE
  5
51
100
AcDbEntity
  8
1
  6
CONTINUOUS
 62
             3
100
AcDbLine
 10
266.19852161261849
 20
22.49999999999989
 11
251.09852161261861
 21
22.49999999999989
  0
LINE
  5
50
100
AcDbEntity
  8
1
  6
CONTINUOUS
 62
             3
100
AcDbLine
 10
251.09852161261861
 20
120.83134929757701
 11
266.19852161261849
 21
120.83134929757701
  0
LINE
  5
4F
100
AcDbEntity
  8
1
  6
CONTINUOUS
 62
             3
100
AcDbLine
 10
266.19852161261849
 20
137.5
 11
251.09852161261861
 21
137.5
  0
LINE
  5
4E
100
AcDbEntity
  8
1
  6
CONTINUOUS
 62
             3
100
AcDbLine
 10
266.19852161261849
 20
126.90000000000001
 11
251.09852161261861
 21
126.90000000000001
  0
LINE
  5
4D
100
AcDbEntity
  8
1
  6
CONTINUOUS
 62
             3
100
AcDbLine
 10
245.89852161261851
 20
120.4500000000001
 11
245.89852161261851
 21
122.55
  0
LINE
  5
4C
100
AcDbEntity
  8
1
  6
CONTINUOUS
 62
             3
100
AcDbLine
 10
250.89852161261851
 20
122.05
 11
250.89852161261851
 21
120.9500000000001
  0
LINE
  5
4B
100
AcDbEntity
  8
1
  6
CONTINUOUS
 62
             3
100
AcDbLine
 10
250.89852161261851
 20
120.9500000000001
 11
250.89852161261851
 21
20.49999999999989
  0
LINE
  5
4A
100
AcDbEntity
  8
1
  6
CONTINUOUS
 62
             3
100
AcDbLine
 10
245.89852161261851
 20
122.55
 11
245.89852161261851
 21
139.0
  0
LINE
  5
49
100
AcDbEntity
  8
1
  6
CONTINUOUS
 62
             3
100
AcDbLine
 10
271.39852161261848
 20
120.4500000000001
 11
271.39852161261848
 21
122.55
  0
LINE
  5
48
100
AcDbEntity
  8
1
  6
CONTINUOUS
 62
             3
100
AcDbLine
 10
269.39852161261848
 20
120.9500000000001
 11
269.39852161261848
 21
122.05
  0
LINE
  5
47
100
AcDbEntity
  8
1
  6
CONTINUOUS
 62
             3
100
AcDbLine
 10
266.39852161261848
 20
122.05
 11
266.39852161261848
 21
139.5
  0
LINE
  5
46
100
AcDbEntity
  8
1
  6
CONTINUOUS
 62
             3
100
AcDbLine
 10
266.39852161261848
 20
120.9500000000001
 11
266.39852161261848
 21
122.05
  0
LINE
  5
45
100
AcDbEntity
  8
1
  6
CONTINUOUS
 62
             3
100
AcDbLine
 10
271.39852161261848
 20
120.4500000000001
 11
271.39852161261848
 21
21.0
  0
LINE
  5
44
100
AcDbEntity
  8
1
  6
CONTINUOUS
 62
             3
100
AcDbLine
 10
246.39852161261851
 20
122.05
 11
250.89852161261851
 21
122.05
  0
LINE
  5
43
100
AcDbEntity
  8
1
  6
CONTINUOUS
 62
             3
100
AcDbLine
 10
250.89852161261851
 20
120.9500000000001
 11
246.39852161261851
 21
120.9500000000001
  0
LINE
  5
42
100
AcDbEntity
  8
1
  6
CONTINUOUS
 62
             3
100
AcDbLine
 10
266.39852161261848
 20
122.05
 11
270.89852161261848
 21
122.05
  0
LINE
  5
41
100
AcDbEntity
  8
1
  6
CONTINUOUS
 62
             3
100
AcDbLine
 10
270.89852161261848
 20
120.9500000000001
 11
266.39852161261848
 21
120.9500000000001
  0
LINE
  5
40
100
AcDbEntity
  8
1
  6
CONTINUOUS
 62
             3
100
AcDbLine
 10
266.19852161261849
 20
138.49999999999989
 11
251.09852161261861
 21
138.49999999999989
  0
LINE
  5
3F
100
AcDbEntity
  8
1
  6
CONTINUOUS
 62
             3
100
AcDbLine
 10
251.09852161261861
 20
21.5
 11
266.19852161261849
 21
21.5
  0
LINE
  5
3E
100
AcDbEntity
  8
1
  6
CONTINUOUS
 62
             2
100
AcDbLine
 10
270.89852161261848
 20
20.6360367561673
 11
266.39852161261848
 21
20.6360367561673
  0
LINE
  5
3D
100
AcDbEntity
  8
1
  6
CONTINUOUS
 62
             2
100
AcDbLine
 10
246.39852161261851
 20
26.57062480224221
 11
250.89852161261851
 21
26.57062480224221
  0
LINE
  5
3C
100
AcDbEntity
  8
1
  6
CONTINUOUS
 62
             2
100
AcDbLine
 10
246.39852161261851
 20
139.3639632438327
 11
250.89852161261851
 21
139.3639632438327
  0
LINE
  5
3B
100
AcDbEntity
  8
1
  6
CONTINUOUS
 62
             2
100
AcDbLine
 10
270.89852161261848
 20
133.42937519775791
 11
266.39852161261848
 21
133.42937519775791
  0
LINE
  5
3A
100
AcDbEntity
  8
1
  6
CONTINUOUS
 62
             3
100
AcDbLine
 10
266.39852161261848
 20
139.5
 11
270.89852161261848
 21
139.5
  0
LINE
  5
39
100
AcDbEntity
  8
1
  6
CONTINUOUS
 62
             3
100
AcDbLine
 10
250.89852161261851
 20
20.49999999999989
 11
246.39852161261851
 21
20.49999999999989
  0
LINE
  5
38
100
AcDbEntity
  8
1
  6
CONTINUOUS
 62
             2
100
AcDbLine
 10
250.89852161261851
 20
133.42937519775791
 11
246.39852161261851
 21
133.42937519775791
  0
LINE
  5
37
100
AcDbEntity
  8
1
  6
CONTINUOUS
 62
             2
100
AcDbLine
 10
266.39852161261848
 20
139.3639632438327
 11
270.89852161261848
 21
139.3639632438327
  0
LINE
  5
36
100
AcDbEntity
  8
1
  6
DASH_CENTER
 62
             1
100
AcDbLine
 10
240.89852161261851
 20
80.0
 11
276.39852161261848
 21
80.0
  0
LINE
  5
35
100
AcDbEntity
  8
1
  6
CONTINUOUS
 62
             2
100
AcDbLine
 10
250.89852161261851
 20
20.6360367561673
 11
246.39852161261851
 21
20.6360367561673
  0
LINE
  5
34
100
AcDbEntity
  8
1
  6
CONTINUOUS
 62
             2
100
AcDbLine
 10
266.39852161261848
 20
26.57062480224221
 11
270.89852161261848
 21
26.57062480224221
  0
LINE
  5
33
100
AcDbEntity
  8
1
  6
CONTINUOUS
 62
             3
100
AcDbLine
 10
266.39852161261848
 20
20.49999999999989
 11
266.39852161261848
 21
120.9500000000001
  0
LINE
  5
32
100
AcDbEntity
  8
1
  6
CONTINUOUS
 62
             3
100
AcDbLine
 10
250.89852161261851
 20
139.5
 11
250.89852161261851
 21
122.05
  0
LINE
  5
31
100
AcDbEntity
  8
1
  6
CONTINUOUS
 62
             3
100
AcDbLine
 10
271.39852161261848
 20
139.00000000000011
 11
271.39852161261848
 21
122.55
  0
LINE
  5
30
100
AcDbEntity
  8
1
  6
CONTINUOUS
 62
             3
100
AcDbLine
 10
246.39852161261851
 20
139.5
 11
250.89852161261851
 21
139.5
  0
LINE
  5
2F
100
AcDbEntity
  8
1
  6
CONTINUOUS
 62
             3
100
AcDbLine
 10
245.89852161261851
 20
20.99999999999989
 11
245.89852161261851
 21
120.4500000000001
  0
LINE
  5
2E
100
AcDbEntity
  8
1
  6
CONTINUOUS
 62
             3
100
AcDbLine
 10
270.89852161261848
 20
20.49999999999989
 11
266.39852161261848
 21
20.49999999999989
  0
LINE
  5
2D
100
AcDbEntity
  8
1
  6
CONTINUOUS
 62
             2
100
AcDbLine
 10
266.19852161261849
 20
30.27186856705038
 11
251.09852161261861
 21
30.27186856705038
  0
LINE
  5
2C
100
AcDbEntity
  8
1
  6
CONTINUOUS
 62
             2
100
AcDbLine
 10
251.09852161261861
 20
28.74650805135678
 11
266.19852161261849
 21
28.74650805135678
  0
LINE
  5
2B
100
AcDbEntity
  8
1
  6
CONTINUOUS
 62
             2
100
AcDbLine
 10
190.99566835718309
 20
122.5500000000001
 11
190.99566835718269
 21
120.54985143251029
  0
SOLID
  5
28D
100
AcDbEntity
  8
1
 62
             2
100
AcDbTrace
 10
78.31018939661274
 20
4.92606742194308
 11
77.9511285577789
 21
4.07732603615769
 12
74.9072435413361
 22
5.86536565069571
 13
74.9072435413361
 23
5.86536565069571
  0
SOLID
  5
28F
100
AcDbEntity
  8
1
 62
             2
100
AcDbTrace
 10
248.52388862947649
 20
5.96078374155588
 11
248.52388862947649
 21
5.03921625844411
 12
245.02388862947649
 22
5.5
 13
245.02388862947649
 23
5.5
  0
INSERT
  5
2E1
100
AcDbEntity
  8
0
100
AcDbBlockReference
  2
*D7
 10
0.0
 20
0.0
  0
INSERT
  5
2EA
100
AcDbEntity
  8
0
100
AcDbBlockReference
  2
*D8
 10
0.0
 20
0.0
  0
ENDBLK
  5
2F6
100
AcDbEntity
  8
0
100
AcDbBlockEnd
  0
BLOCK
  5
295
100
AcDbEntity
  8
0
100
AcDbBlockBegin
  2
*D1
 70
             1
 10
0.0
 20
0.0
 30
0.0
  3
*D1
  1

  0
LINE
  5
296
100
AcDbEntity
  8
0
  6
CONTINUOUS
 62
             2
100
AcDbLine
 10
271.39852161261848
 20
159.50000000000031
 11
245.89852161261851
 21
159.50000000000031
  0
LINE
  5
297
100
AcDbEntity
  8
0
  6
CONTINUOUS
 62
             2
100
AcDbLine
 10
245.89852161261851
 20
140.0
 11
245.89852161261851
 21
161.00000000000031
  0
LINE
  5
298
100
AcDbEntity
  8
0
  6
CONTINUOUS
 62
             2
100
AcDbLine
 10
271.39852161261848
 20
140.00000000000011
 11
271.39852161261848
 21
161.00000000000031
  0
SOLID
  5
299
100
AcDbEntity
  8
0
 62
             2
100
AcDbTrace
 10
267.39852161261848
 20
158.97339000965073
 11
267.39852161261848
 21
160.0266099903499
 12
271.39852161261848
 22
159.50000000000031
 13
271.39852161261848
 23
159.50000000000031
  0
SOLID
  5
29A
100
AcDbEntity
  8
0
 62
             2
100
AcDbTrace
 10
249.89852161261851
 20
160.0266099903499
 11
249.89852161261851
 21
158.97339000965073
 12
245.89852161261851
 22
159.50000000000031
 13
245.89852161261851
 23
159.50000000000031
  0
MTEXT
  5
29B
100
AcDbEntity
  8
0
 62
             2
100
AcDbMText
 10
248.87977161261847
 20
161.50000000000031
 30
0.0
 40
4.0
 41
0.0
 71
             7
 72
             1
  1
\C2;25.5\C2;\H2.500000;{\Fgdt;`}0.5
  7
CONVERTER_1
 11
0.99999999999706
 21
0.00000242406841
 31
0.0
  0
ENDBLK
  5
29C
100
AcDbEntity
  8
0
100
AcDbBlockEnd
  0
BLOCK
  5
2A0
100
AcDbEntity
  8
0
100
AcDbBlockBegin
  2
*D2
 70
             1
 10
0.0
 20
0.0
 30
0.0
  3
*D2
  1

  0
LINE
  5
2A1
100
AcDbEntity
  8
0
  6
CONTINUOUS
 62
             2
100
AcDbLine
 10
283.39947991062411
 20
149.50000000000031
 11
271.39852161261854
 21
149.50000000000031
  0
LINE
  5
2A2
100
AcDbEntity
  8
0
  6
CONTINUOUS
 62
             2
100
AcDbLine
 10
271.39852161261854
 20
149.50000000000031
 11
266.39852161261854
 21
149.50000000000031
  0
LINE
  5
2A3
100
AcDbEntity
  8
0
  6
CONTINUOUS
 62
             2
100
AcDbLine
 10
266.39852161261854
 20
149.50000000000031
 11
258.39852161261854
 21
149.50000000000031
  0
LINE
  5
2A4
100
AcDbEntity
  8
0
  6
CONTINUOUS
 62
             2
100
AcDbLine
 10
271.39852161261854
 20
140.00000000000011
 11
271.39852161261854
 21
151.00000000000031
  0
LINE
  5
2A5
100
AcDbEntity
  8
0
  6
CONTINUOUS
 62
             2
100
AcDbLine
 10
266.39852161261854
 20
140.50000000000003
 11
266.39852161261854
 21
151.00000000000031
  0
SOLID
  5
2A6
100
AcDbEntity
  8
0
 62
             2
100
AcDbTrace
 10
275.39852161261854
 20
150.0266099903499
 11
275.39852161261854
 21
148.97339000965073
 12
271.39852161261854
 22
149.50000000000031
 13
271.39852161261854
 23
149.50000000000031
  0
SOLID
  5
2A7
100
AcDbEntity
  8
0
 62
             2
100
AcDbTrace
 10
262.39852161261854
 20
148.97339000965073
 11
262.39852161261854
 21
150.0266099903499
 12
266.39852161261854
 22
149.50000000000031
 13
266.39852161261854
 23
149.50000000000031
  0
MTEXT
  5
2A8
100
AcDbEntity
  8
0
 62
             2
100
AcDbMText
 10
272.56197991062413
 20
151.50000000000031
 30
0.0
 40
4.0
 41
0.0
 71
             7
 72
             1
  1
\C2;5\C2;\H2.500000;{\Fgdt;`}0.5
  7
CONVERTER_1
 11
0.99999999999706
 21
0.00000242406841
 31
0.0
  0
ENDBLK
  5
2A9
100
AcDbEntity
  8
0
100
AcDbBlockEnd
  0
BLOCK
  5
2AD
100
AcDbEntity
  8
0
100
AcDbBlockBegin
  2
*D3
 70
             1
 10
0.0
 20
0.0
 30
0.0
  3
*D3
  1

  0
LINE
  5
2AE
100
AcDbEntity
  8
0
  6
CONTINUOUS
 62
             2
100
AcDbLine
 10
258.89852161261848
 20
149.50000000000031
 11
250.89852161261848
 21
149.50000000000031
  0
LINE
  5
2AF
100
AcDbEntity
  8
0
  6
CONTINUOUS
 62
             2
100
AcDbLine
 10
250.89852161261848
 20
149.50000000000031
 11
245.89852161261848
 21
149.50000000000031
  0
LINE
  5
2B0
100
AcDbEntity
  8
0
  6
CONTINUOUS
 62
             2
100
AcDbLine
 10
245.89852161261848
 20
149.50000000000031
 11
231.3714532114501
 21
149.50000000000031
  0
LINE
  5
2B1
100
AcDbEntity
  8
0
  6
CONTINUOUS
 62
             2
100
AcDbLine
 10
250.89852161261848
 20
140.50000000000003
 11
250.89852161261848
 21
151.00000000000031
  0
LINE
  5
2B2
100
AcDbEntity
  8
0
  6
CONTINUOUS
 62
             2
100
AcDbLine
 10
245.89852161261848
 20
140.00000000000003
 11
245.89852161261848
 21
151.00000000000031
  0
SOLID
  5
2B3
100
AcDbEntity
  8
0
 62
             2
100
AcDbTrace
 10
254.89852161261848
 20
150.0266099903499
 11
254.89852161261848
 21
148.97339000965073
 12
250.89852161261848
 22
149.50000000000031
 13
250.89852161261848
 23
149.50000000000031
  0
SOLID
  5
2B4
100
AcDbEntity
  8
0
 62
             2
100
AcDbTrace
 10
241.89852161261848
 20
148.97339000965073
 11
241.89852161261848
 21
150.0266099903499
 12
245.89852161261848
 22
149.50000000000031
 13
245.89852161261848
 23
149.50000000000031
  0
MTEXT
  5
2B5
100
AcDbEntity
  8
0
 62
             2
100
AcDbMText
 10
231.3714532114501
 20
151.50000000000031
 30
0.0
 40
4.0
 41
0.0
 71
             7
 72
             1
  1
\C2;5\C2;\H2.500000;{\Fgdt;`}0.5
  7
CONVERTER_1
 11
0.99999999999706
 21
0.00000242406841
 31
0.0
  0
ENDBLK
  5
2B6
100
AcDbEntity
  8
0
100
AcDbBlockEnd
  0
BLOCK
  5
2BA
100
AcDbEntity
  8
0
100
AcDbBlockBegin
  2
*D4
 70
             1
 10
0.0
 20
0.0
 30
0.0
  3
*D4
  1

  0
LINE
  5
2BB
100
AcDbEntity
  8
0
  6
CONTINUOUS
 62
             2
100
AcDbLine
 10
142.40000000000009
 20
149.5000000000002
 11
37.5999999999999
 21
149.5000000000002
  0
LINE
  5
2BC
100
AcDbEntity
  8
0
  6
CONTINUOUS
 62
             2
100
AcDbLine
 10
142.40000000000009
 20
138.40000000000069
 11
142.40000000000009
 21
151.0000000000002
  0
LINE
  5
2BD
100
AcDbEntity
  8
0
  6
CONTINUOUS
 62
             2
100
AcDbLine
 10
37.5999999999999
 20
138.40000000000069
 11
37.5999999999999
 21
151.0000000000002
  0
SOLID
  5
2BE
100
AcDbEntity
  8
0
 62
             2
100
AcDbTrace
 10
138.40000000000009
 20
148.97339000965061
 11
138.40000000000009
 21
150.02660999034978
 12
142.40000000000009
 22
149.5000000000002
 13
142.40000000000009
 23
149.5000000000002
  0
SOLID
  5
2BF
100
AcDbEntity
  8
0
 62
             2
100
AcDbTrace
 10
41.5999999999999
 20
150.02660999034978
 11
41.5999999999999
 21
148.97339000965061
 12
37.5999999999999
 22
149.5000000000002
 13
37.5999999999999
 23
149.5000000000002
  0
MTEXT
  5
2C0
100
AcDbEntity
  8
0
 62
             2
100
AcDbMText
 10
75.06674994035929
 20
151.49998409811147
 30
0.0
 40
4.0
 41
0.0
 71
             7
 72
             1
  1
\C2; \C2;\C2;104.8\C2;\H2.500000;{\Fgdt;`}0.3
  7
CONVERTER_1
 11
0.99999999999706
 21
0.00000242406841
 31
0.0
  0
ENDBLK
  5
2C1
100
AcDbEntity
  8
0
100
AcDbBlockEnd
  0
BLOCK
  5
2C5
100
AcDbEntity
  8
0
100
AcDbBlockBegin
  2
*D5
 70
             1
 10
0.0
 20
0.0
 30
0.0
  3
*D5
  1

  0
LINE
  5
2C6
100
AcDbEntity
  8
0
  6
CONTINUOUS
 62
             2
100
AcDbLine
 10
149.5
 20
159.5000000000002
 11
30.50000000000051
 21
159.5000000000002
  0
LINE
  5
2C7
100
AcDbEntity
  8
0
  6
CONTINUOUS
 62
             2
100
AcDbLine
 10
149.5
 20
133.70436414567561
 11
149.5
 21
161.0000000000002
  0
LINE
  5
2C8
100
AcDbEntity
  8
0
  6
CONTINUOUS
 62
             2
100
AcDbLine
 10
30.50000000000051
 20
133.7043641456759
 11
30.50000000000051
 21
161.0000000000002
  0
SOLID
  5
2C9
100
AcDbEntity
  8
0
 62
             2
100
AcDbTrace
 10
145.5
 20
158.97339000965061
 11
145.5
 21
160.02660999034978
 12
149.5
 22
159.5000000000002
 13
149.5
 23
159.5000000000002
  0
SOLID
  5
2CA
100
AcDbEntity
  8
0
 62
             2
100
AcDbTrace
 10
34.50000000000051
 20
160.02660999034978
 11
34.50000000000051
 21
158.97339000965061
 12
30.50000000000051
 22
159.5000000000002
 13
30.50000000000051
 23
159.5000000000002
  0
MTEXT
  5
2CB
100
AcDbEntity
  8
0
 62
             2
100
AcDbMText
 10
80.18549994035928
 20
161.49998409811147
 30
0.0
 40
4.0
 41
0.0
 71
             7
 72
             1
  1
\C2; \C2;\C2;119\C2;\H2.500000;{\Fgdt;`}1
  7
CONVERTER_1
 11
0.99999999999706
 21
0.00000242406841
 31
0.0
  0
ENDBLK
  5
2CC
100
AcDbEntity
  8
0
100
AcDbBlockEnd
  0
BLOCK
  5
2D0
100
AcDbEntity
  8
0
100
AcDbBlockBegin
  2
*D6
 70
             1
 10
0.0
 20
0.0
 30
0.0
  3
*D6
  1

  0
LINE
  5
2D1
100
AcDbEntity
  8
0
  6
CONTINUOUS
 62
             2
100
AcDbLine
 10
198.1572863800456
 20
159.5000000000002
 11
149.5
 21
159.5000000000002
  0
LINE
  5
2D2
100
AcDbEntity
  8
0
  6
CONTINUOUS
 62
             2
100
AcDbLine
 10
198.1572863800456
 20
123.4000000000004
 11
198.1572863800456
 21
161.0000000000002
  0
LINE
  5
2D3
100
AcDbEntity
  8
0
  6
CONTINUOUS
 62
             2
100
AcDbLine
 10
149.5
 20
133.70436414567561
 11
149.5
 21
161.0000000000002
  0
SOLID
  5
2D4
100
AcDbEntity
  8
0
 62
             2
100
AcDbTrace
 10
194.1572863800456
 20
158.97339000965061
 11
194.1572863800456
 21
160.02660999034978
 12
198.1572863800456
 22
159.5000000000002
 13
198.1572863800456
 23
159.5000000000002
  0
SOLID
  5
2D5
100
AcDbEntity
  8
0
 62
             2
100
AcDbTrace
 10
153.5
 20
160.02660999034978
 11
153.5
 21
158.97339000965061
 12
149.5
 22
159.5000000000002
 13
149.5
 23
159.5000000000002
  0
MTEXT
  5
2D6
100
AcDbEntity
  8
0
 62
             2
100
AcDbMText
 10
169.02065825535598
 20
161.5000000000002
 30
0.0
 40
4.0
 41
0.0
 71
             7
 72
             1
  1
\C2;300\C2;\H2.500000;{\Fgdt;`}30
  7
CONVERTER_1
 11
0.99999999999706
 21
0.00000242406841
 31
0.0
  0
ENDBLK
  5
2D7
100
AcDbEntity
  8
0
100
AcDbBlockEnd
  0
BLOCK
  5
2DB
100
AcDbEntity
  8
0
100
AcDbBlockBegin
  2
*D7
 70
             1
 10
0.0
 20
0.0
 30
0.0
  3
*D7
  1

  0
LINE
  5
2DC
100
AcDbEntity
  8
0
  6
CONTINUOUS
 62
             2
100
AcDbLine
 10
19.44779214392941
 20
149.5000000000002
 11
-4.25220785607059
 21
149.5000000000002
  0
LINE
  5
2DD
100
AcDbEntity
  8
0
  6
CONTINUOUS
 62
             2
100
AcDbLine
 10
33.00806823858433
 20
136.14196036924713
 11
19.44779214392941
 21
149.5000000000002
  0
SOLID
  5
2DE
100
AcDbEntity
  8
0
 62
             2
100
AcDbTrace
 10
28.17933115882337
 20
139.78987263503663
 11
29.28801555413297
 21
140.91534215884477
 12
33.00806823858433
 22
136.14196036924713
 13
33.00806823858433
 23
136.14196036924713
  0
MTEXT
  5
2DF
100
AcDbEntity
  8
0
 62
             2
100
AcDbMText
 10
-6.01220785605132
 20
151.49998409811147
 30
0.0
 40
4.0
 41
0.0
 71
             7
 72
             1
  1
\C2;{\Fgdt;n}\C2;\C2;160\C2;\H2.500000;{\Fgdt;`}1
  7
CONVERTER_1
 11
0.99999999999706
 21
0.00000242406841
 31
0.0
  0
ENDBLK
  5
2E0
100
AcDbEntity
  8
0
100
AcDbBlockEnd
  0
BLOCK
  5
2E3
100
AcDbEntity
  8
0
100
AcDbBlockBegin
  2
*D8
 70
             1
 10
0.0
 20
0.0
 30
0.0
  3
*D8
  1

  0
LINE
  5
2E4
100
AcDbEntity
  8
0
  6
CONTINUOUS
 62
             2
100
AcDbLine
 10
163.56020085522999
 20
5.5
 11
193.96875
 21
5.5
  0
LINE
  5
2E5
100
AcDbEntity
  8
0
  6
CONTINUOUS
 62
             2
100
AcDbLine
 10
136.69444701462649
 20
33.55895671498758
 11
163.56020085522999
 21
5.5
  0
SOLID
  5
2E6
100
AcDbEntity
  8
0
 62
             2
100
AcDbTrace
 10
147.10275785415254
 20
23.44983293744187
 11
146.3420193964136
 21
22.72144476712269
 12
143.95605990510194
 22
25.97482998682167
 13
143.95605990510194
 23
25.97482998682167
  0
SOLID
  5
2E7
100
AcDbEntity
  8
0
 62
             2
100
AcDbTrace
 10
137.69724214584758
 20
31.75016706255829
 11
138.45798060358652
 21
32.47855523287747
 12
140.84394009489819
 22
29.22517001317849
 13
140.84394009489819
 23
29.22517001317849
  0
MTEXT
  5
2E8
100
AcDbEntity
  8
0
 62
             2
100
AcDbMText
 10
167.47125000001927
 20
7.99998409811126
 30
0.0
 40
4.0
 41
0.0
 71
             7
 72
             1
  1
\C2;4x\C2;\C2;{\Fgdt;n}4.5\C2;\H2.500000;{\Fgdt;`}0.3
  7
CONVERTER_1
 11
0.99999999999706
 21
0.00000242406841
 31
0.0
  0
ENDBLK
  5
2E9
100
AcDbEntity
  8
0
100
AcDbBlockEnd
  0
ENDSEC
  0
SECTION
  2
ENTITIES
  0
INSERT
  5
2A
100
AcDbEntity
  8
0
100
AcDbBlockReference
  2
AS57694-01_DB
 10
-512.74651515544974
 20
-489.37712010111488
  0
ENDSEC
  0
SECTION
  2
OBJECTS
  0
DICTIONARY
  5
19
100
AcDbDictionary
  3
ACAD_GROUP
350
1A
  3
ACAD_MLINESTYLE
350
1B
  0
DICTIONARY
  5
1A
102
{ACAD_REACTORS
330
19
102
}
100
AcDbDictionary
  0
DICTIONARY
  5
1B
102
{ACAD_REACTORS
330
19
102
}
100
AcDbDictionary
  3
STANDARD
350
1C
  0
MLINESTYLE
  5
1C
102
{ACAD_REACTORS
330
1B
102
}
100
AcDbMlineStyle
  2
STANDARD
 70
             0
  3

 62
             0
 51
90.0
 52
90.0
 71
             2
 49
0.5
 62
           256
  6
BYLAYER
 49
-0.5
 62
           256
  6
BYLAYER
  0
ENDSEC
  0
EOF
