  0
SECTION
  2
HEADER
  9
$ACADVER
  1
AC1014
  9
$ACADMAINTVER
 70
             0
  9
$DWGCODEPAGE
  3
ANSI_1252
  9
$INSBASE
 10
0.0
 20
0.0
 30
0.0
  9
$EXTMIN
 10
282.60718136916711
 20
219.49250421355191
 30
0.0
  9
$EXTMAX
 10
467.5201538193329
 20
350.95127758009301
 30
0.0
  9
$LIMMIN
 10
0.0
 20
0.0
  9
$LIMMAX
 10
0.0
 20
0.0
  9
$ORTHOMODE
 70
             0
  9
$REGENMODE
 70
             1
  9
$FILLMODE
 70
             1
  9
$QTEXTMODE
 70
             0
  9
$MIRRTEXT
 70
             1
  9
$DRAGMODE
 70
             2
  9
$LTSCALE
 40
1.0
  9
$OSMODE
 70
             0
  9
$ATTMODE
 70
             1
  9
$TEXTSIZE
 40
0.2
  9
$TRACEWID
 40
0.05
  9
$TEXTSTYLE
  7
STANDARD
  9
$CLAYER
  8
0
  9
$CELTYPE
  6
CONTINUOUS
  9
$CECOLOR
 62
           256
  9
$CELTSCALE
 40
1.0
  9
$DELOBJ
 70
             1
  9
$DISPSILH
 70
             0
  9
$DIMSCALE
 40
1.0
  9
$DIMASZ
 40
0.18
  9
$DIMEXO
 40
0.0625
  9
$DIMDLI
 40
0.38
  9
$DIMRND
 40
0.0
  9
$DIMDLE
 40
0.0
  9
$DIMEXE
 40
0.18
  9
$DIMTP
 40
0.0
  9
$DIMTM
 40
0.0
  9
$DIMTXT
 40
0.18
  9
$DIMCEN
 40
0.09
  9
$DIMTSZ
 40
0.0
  9
$DIMTOL
 70
             0
  9
$DIMLIM
 70
             0
  9
$DIMTIH
 70
             1
  9
$DIMTOH
 70
             1
  9
$DIMSE1
 70
             0
  9
$DIMSE2
 70
             0
  9
$DIMTAD
 70
             0
  9
$DIMZIN
 70
             0
  9
$DIMBLK
  1

  9
$DIMASO
 70
             1
  9
$DIMSHO
 70
             1
  9
$DIMPOST
  1

  9
$DIMAPOST
  1

  9
$DIMALT
 70
             0
  9
$DIMALTD
 70
             2
  9
$DIMALTF
 40
25.4
  9
$DIMLFAC
 40
1.0
  9
$DIMTOFL
 70
             0
  9
$DIMTVP
 40
0.0
  9
$DIMTIX
 70
             0
  9
$DIMSOXD
 70
             0
  9
$DIMSAH
 70
             0
  9
$DIMBLK1
  1

  9
$DIMBLK2
  1

  9
$DIMSTYLE
  2
STANDARD
  9
$DIMCLRD
 70
             0
  9
$DIMCLRE
 70
             0
  9
$DIMCLRT
 70
             0
  9
$DIMTFAC
 40
1.0
  9
$DIMGAP
 40
0.09
  9
$DIMJUST
 70
             0
  9
$DIMSD1
 70
             0
  9
$DIMSD2
 70
             0
  9
$DIMTOLJ
 70
             1
  9
$DIMTZIN
 70
             0
  9
$DIMALTZ
 70
             0
  9
$DIMALTTZ
 70
             0
  9
$DIMFIT
 70
             3
  9
$DIMUPT
 70
             0
  9
$DIMUNIT
 70
             2
  9
$DIMDEC
 70
             4
  9
$DIMTDEC
 70
             4
  9
$DIMALTU
 70
             2
  9
$DIMALTTD
 70
             2
  9
$DIMTXSTY
  7
STANDARD
  9
$DIMAUNIT
 70
             0
  9
$LUNITS
 70
             2
  9
$LUPREC
 70
             4
  9
$SKETCHINC
 40
0.1
  9
$FILLETRAD
 40
0.0
  9
$AUNITS
 70
             0
  9
$AUPREC
 70
             0
  9
$MENU
  1
acad
  9
$ELEVATION
 40
0.0
  9
$PELEVATION
 40
0.0
  9
$THICKNESS
 40
0.0
  9
$LIMCHECK
 70
             0
  9
$BLIPMODE
 70
             1
  9
$CHAMFERA
 40
0.0
  9
$CHAMFERB
 40
0.0
  9
$CHAMFERC
 40
0.0
  9
$CHAMFERD
 40
0.0
  9
$SKPOLY
 70
             0
  9
$TDCREATE
 40
0.000000000
  9
$TDUPDATE
 40
0.000000000
  9
$TDINDWG
 40
0.0000000000
  9
$TDUSRTIMER
 40
0.0000000000
  9
$USRTIMER
 70
             1
  9
$ANGBASE
 50
0.0
  9
$ANGDIR
 70
             0
  9
$PDMODE
 70
             0
  9
$PDSIZE
 40
0.0
  9
$PLINEWID
 40
0.0
  9
$COORDS
 70
             0
  9
$SPLFRAME
 70
             0
  9
$SPLINETYPE
 70
             6
  9
$SPLINESEGS
 70
             8
  9
$ATTDIA
 70
             0
  9
$ATTREQ
 70
             1
  9
$HANDLING
 70
             1
  9
$HANDSEED
  5
225
  9
$SURFTAB1
 70
             6
  9
$SURFTAB2
 70
             6
  9
$SURFTYPE
 70
             6
  9
$SURFU
 70
             6
  9
$SURFV
 70
             6
  9
$UCSNAME
  2

  9
$UCSORG
 10
0.0
 20
0.0
 30
0.0
  9
$UCSXDIR
 10
1.0
 20
0.0
 30
0.0
  9
$UCSYDIR
 10
0.0
 20
1.0
 30
0.0
  9
$PUCSNAME
  2

  9
$PUCSORG
 10
0.0
 20
0.0
 30
0.0
  9
$PUCSXDIR
 10
1.0
 20
0.0
 30
0.0
  9
$PUCSYDIR
 10
0.0
 20
1.0
 30
0.0
  9
$USERI1
 70
             0
  9
$USERI2
 70
             0
  9
$USERI3
 70
             0
  9
$USERI4
 70
             0
  9
$USERI5
 70
             0
  9
$USERR1
 40
12.01
  9
$USERR2
 40
0.0
  9
$USERR3
 40
0.0
  9
$USERR4
 40
0.0
  9
$USERR5
 40
0.0
  9
$WORLDVIEW
 70
             1
  9
$SHADEDGE
 70
             3
  9
$SHADEDIF
 70
            70
  9
$TILEMODE
 70
             1
  9
$MAXACTVP
 70
            16
  9
$PINSBASE
 10
0.0
 20
0.0
 30
0.0
  9
$PLIMCHECK
 70
             0
  9
$PEXTMIN
 10
1.00000000000000E+20
 20
1.00000000000000E+20
 30
1.00000000000000E+20
  9
$PEXTMAX
 10
-1.00000000000000E+20
 20
-1.00000000000000E+20
 30
-1.00000000000000E+20
  9
$PLIMMIN
 10
0.0
 20
0.0
  9
$PLIMMAX
 10
12.0
 20
9.0
  9
$UNITMODE
 70
             0
  9
$VISRETAIN
 70
             0
  9
$PLINEGEN
 70
             1
  9
$PSLTSCALE
 70
             0
  9
$TREEDEPTH
 70
          3020
  9
$PICKSTYLE
 70
             1
  9
$CMLSTYLE
  2
STANDARD
  9
$CMLJUST
 70
             0
  9
$CMLSCALE
 40
1.0
  9
$PROXYGRAPHICS
 70
             0
  9
$MEASUREMENT
 70
             1
  0
ENDSEC
  0
SECTION
  2
CLASSES
  0
CLASS
  1
LWPOLYLINE
  2
AcDbPolyline
  3
"AutoCAD"
 90
        0
280
             0
281
             1
  0
CLASS
  1
IMAGE
  2
AcDbRasterImage
  3
ISM
 90
      127
280
             0
281
             1
  0
CLASS
  1
OLE2FRAME
  2
AcDbOle2Frame
  3
""
 90
        0
280
             0
281
             1
  0
CLASS
  1
HATCH
  2
AcDbHatch
  3
"ACAD_SEDONA"
 90
        0
280
             0
281
             1
  0
CLASS
  1
DICTIONARYVAR
  2
AcDbDictionaryVar
  3
"AutoCAD"
 90
        0
280
             0
281
             0
  0
CLASS
  1
RASTERVARIABLES
  2
AcDbRasterVariables
  3
ISM
 90
        0
280
             0
281
             0
  0
CLASS
  1
IMAGEDEF
  2
AcDbRasterImageDef
  3
ISM
 90
        0
280
             0
281
             0
  0
CLASS
  1
IMAGEDEF_REACTOR
  2
AcDbRasterImageDefReactor
  3
ISM
 90
        1
280
             0
281
             0
  0
CLASS
  1
IDBUFFER
  2
AcDbIdBuffer
  3
"Acad"
 90
        0
280
             0
281
             0
  0
CLASS
  1
SPATIAL_FILTER
  2
AcDbSpatialFilter
  3
"Acad"
 90
        0
280
             0
281
             0
  0
CLASS
  1
XRECORD
  2
AcDbXrecord
  3
"<Built In>"
 90
        0
280
             0
281
             0
  0
CLASS
  1
SORTENTSTABLE
  2
AcDbSortentsTable
  3
"AutoCAD"
 90
        0
280
             0
281
             0
  0
CLASS
  1
LAYER_INDEX
  2
AcDbLayerIndex
  3
"Acad"
 90
        0
280
             0
281
             0
  0
CLASS
  1
SPATIAL_INDEX
  2
AcDbSpatialIndex
  3
"Acad"
 90
        0
280
             0
281
             0
  0
CLASS
  1
OBJECT_PTR
  2
CAseDLPNTableRecord
  3
"ASE-LPNTableRecord"
 90
        1
280
             0
281
             0
  0
CLASS
  1
LAYOUT
  2
AcDbLayout
  3
"AutoCAD 2000"
 90
        0
280
             0
281
             0
  0
CLASS
  1
PLOTSETTINGS
  2
AcDbPlotSettings
  3
"AutoCAD 2000"
 90
        0
280
             0
281
             0
  0
CLASS
  1
ACDBDICTIONARYWDFLT
  2
AcDbDictionaryWithDefault
  3
"AutoCAD 2000"
 90
        0
280
             0
281
             0
  0
CLASS
  1
ACDBPLACEHOLDER
  2
AcDbPlaceHolder
  3
"AutoCAD 2000"
 90
        0
280
             0
281
             0
  0
ENDSEC
  0
SECTION
  2
TABLES
  0
TABLE
  2
VPORT
  5
7
100
AcDbSymbolTable
 70
             1
  0
VPORT
  5
15
100
AcDbSymbolTableRecord
100
AcDbViewportTableRecord
  2
*ACTIVE
 70
             0
 10
0.0
 20
0.0
 11
1.0
 21
1.0
 12
375.06366759424998
 22
285.22189089682246
 13
0.0
 23
0.0
 14
1.0
 24
1.0
 15
0.0
 25
0.0
 16
0.0
 26
0.0
 36
1.0
 17
0.0
 27
0.0
 37
0.0
 40
144.6046507031952
 41
1.60267857142857
 42
50.0
 43
0.0
 44
0.0
 50
0.0
 51
0.0
 71
             0
 72
           100
 73
             1
 74
             1
 75
             0
 76
             0
 77
             0
 78
             0
  0
ENDTAB
  0
TABLE
  2
LTYPE
  5
4
100
AcDbSymbolTable
 70
            10
  0
LTYPE
  5
11
100
AcDbSymbolTableRecord
100
AcDbLinetypeTableRecord
  2
BYBLOCK
 70
            64
  3

 72
            65
 73
             0
 40
0.0
  0
LTYPE
  5
12
100
AcDbSymbolTableRecord
100
AcDbLinetypeTableRecord
  2
BYLAYER
 70
            64
  3

 72
            65
 73
             0
 40
0.0
  0
LTYPE
  5
13
100
AcDbSymbolTableRecord
100
AcDbLinetypeTableRecord
  2
CONTINUOUS
 70
            64
  3
Solid line
 72
            65
 73
             0
 40
0.0
  0
LTYPE
  5
1D
100
AcDbSymbolTableRecord
100
AcDbLinetypeTableRecord
  2
DASHED
 70
            64
  3
Dashed
 72
            65
 73
             2
 40
15.0
 49
7.0
 74
             0
 49
-8.0
 74
             0
  0
LTYPE
  5
1E
100
AcDbSymbolTableRecord
100
AcDbLinetypeTableRecord
  2
DOTTED
 70
            64
  3
Dotted
 72
            65
 73
             2
 40
1.0
 49
0.0
 74
             0
 49
-1.0
 74
             0
  0
LTYPE
  5
1F
100
AcDbSymbolTableRecord
100
AcDbLinetypeTableRecord
  2
DOT_CENTER
 70
            64
  3
Dot_Center
 72
            65
 73
             4
 40
14.0
 49
12.0
 74
             0
 49
-1.0
 74
             0
 49
0.0
 74
             0
 49
-1.0
 74
             0
  0
LTYPE
  5
20
100
AcDbSymbolTableRecord
100
AcDbLinetypeTableRecord
  2
LONG_DASHED
 70
            64
  3
Long_Dashed
 72
            65
 73
             2
 40
15.0
 49
10.0
 74
             0
 49
-5.0
 74
             0
  0
LTYPE
  5
21
100
AcDbSymbolTableRecord
100
AcDbLinetypeTableRecord
  2
DASH_CENTER
 70
            64
  3
Dash_Center
 72
            65
 73
             4
 40
14.0
 49
11.0
 74
             0
 49
-1.0
 74
             0
 49
1.0
 74
             0
 49
-1.0
 74
             0
  0
LTYPE
  5
22
100
AcDbSymbolTableRecord
100
AcDbLinetypeTableRecord
  2
PHANTOM
 70
            64
  3
Phantom
 72
            65
 73
             6
 40
13.0
 49
10.0
 74
             0
 49
-1.0
 74
             0
 49
0.0
 74
             0
 49
-1.0
 74
             0
 49
0.0
 74
             0
 49
-1.0
 74
             0
  0
LTYPE
  5
23
100
AcDbSymbolTableRecord
100
AcDbLinetypeTableRecord
  2
CENTER_DASH_DASH
 70
            64
  3
Center_Dash_Dash
 72
            65
 73
             6
 40
14.0
 49
9.0
 74
             0
 49
-1.0
 74
             0
 49
1.0
 74
             0
 49
-1.0
 74
             0
 49
1.0
 74
             0
 49
-1.0
 74
             0
  0
ENDTAB
  0
TABLE
  2
LAYER
  5
2
100
AcDbSymbolTable
 70
             2
  0
LAYER
  5
14
100
AcDbSymbolTableRecord
100
AcDbLayerTableRecord
  2
0
 70
             0
 62
             7
  6
CONTINUOUS
  0
LAYER
  5
24
100
AcDbSymbolTableRecord
100
AcDbLayerTableRecord
  2
1
 70
             0
 62
             7
  6
CONTINUOUS
  0
ENDTAB
  0
TABLE
  2
STYLE
  5
3
100
AcDbSymbolTable
 70
             2
  0
STYLE
  5
17
100
AcDbSymbolTableRecord
100
AcDbTextStyleTableRecord
  2
STANDARD
 70
             0
 40
0.0
 41
1.0
 50
0.0
 71
             0
 42
0.0
  3
txt
  4

  0
STYLE
  5
1DC
100
AcDbSymbolTableRecord
100
AcDbTextStyleTableRecord
  2
CONVERTER_1
 70
             0
 40
0.0
 41
0.9
 50
0.0
 71
             0
 42
0.0
  3
txt.shx
  4

  0
ENDTAB
  0
TABLE
  2
VIEW
  5
5
100
AcDbSymbolTable
 70
             0
  0
ENDTAB
  0
TABLE
  2
UCS
  5
6
100
AcDbSymbolTable
 70
             0
  0
ENDTAB
  0
TABLE
  2
APPID
  5
8
100
AcDbSymbolTable
 70
             1
  0
APPID
  5
16
100
AcDbSymbolTableRecord
100
AcDbRegAppTableRecord
  2
ACAD
 70
             0
  0
ENDTAB
  0
TABLE
  2
DIMSTYLE
  5
9
100
AcDbSymbolTable
 70
             7
  0
DIMSTYLE
105
18
100
AcDbSymbolTableRecord
100
AcDbDimStyleTableRecord
  2
STANDARD
 70
             0
  3

  4

  5

  6

  7

 40
1.0
 41
0.18
 42
0.0625
 43
0.38
 44
0.18
 45
0.0
 46
0.0
 47
0.0
 48
0.0
 71
             0
 72
             0
 73
             1
 74
             1
 75
             0
 76
             0
 77
             0
 78
             0
140
0.18
141
0.09
142
0.0
143
25.4
144
1.0
145
0.0
146
1.0
147
0.09
170
             0
171
             2
172
             0
173
             0
174
             0
175
             0
176
             0
177
             0
178
             0
270
             2
271
             4
272
             4
273
             2
274
             2
275
             0
280
             0
281
             0
282
             0
283
             1
284
             0
285
             0
286
             0
287
             3
288
             0
340
17
  0
DIMSTYLE
105
1E9
100
AcDbSymbolTableRecord
100
AcDbDimStyleTableRecord
  2
ME10_DIM_0
 70
             0
  3

  4

  5

  6

  7

 40
1.0
 41
4.0
 42
1.0
 43
0.38
 44
1.5
 45
0.0
 46
0.0
 47
0.0
 48
0.0
 71
             0
 72
             0
 73
             0
 74
             0
 75
             0
 76
             0
 77
             1
 78
             8
140
4.0
141
0.09
142
0.0
143
25.4
144
1.0
145
0.0
146
1.0
147
0.625
170
             0
171
             2
172
             1
173
             1
174
             0
175
             0
176
             2
177
             2
178
             2
270
             2
271
             4
272
             4
273
             2
274
             2
275
             0
280
             0
281
             0
282
             0
283
             1
284
             0
285
             0
286
             0
287
             3
288
             0
340
1DC
  0
DIMSTYLE
105
1F6
100
AcDbSymbolTableRecord
100
AcDbDimStyleTableRecord
  2
ME10_DIM_1
 70
             0
  3

  4

  5

  6

  7

 40
1.0
 41
4.0
 42
1.0
 43
0.38
 44
1.5
 45
0.0
 46
0.0
 47
0.0
 48
0.0
 71
             0
 72
             0
 73
             0
 74
             0
 75
             0
 76
             0
 77
             1
 78
             8
140
4.0
141
0.09
142
0.0
143
25.4
144
1.0
145
0.0
146
1.0
147
0.625
170
             0
171
             2
172
             1
173
             1
174
             0
175
             0
176
             2
177
             2
178
             2
270
             2
271
             4
272
             4
273
             2
274
             2
275
             0
280
             0
281
             0
282
             0
283
             1
284
             0
285
             0
286
             0
287
             3
288
             0
340
1DC
  0
DIMSTYLE
105
201
100
AcDbSymbolTableRecord
100
AcDbDimStyleTableRecord
  2
ME10_DIM_2
 70
             0
  3

  4

  5

  6

  7

 40
1.0
 41
4.0
 42
1.0
 43
0.38
 44
1.5
 45
0.0
 46
0.0
 47
0.5
 48
0.5
 71
             1
 72
             0
 73
             0
 74
             0
 75
             0
 76
             0
 77
             1
 78
             8
140
4.0
141
0.09
142
0.0
143
25.4
144
1.0
145
0.0
146
0.6
147
0.625
170
             0
171
             2
172
             1
173
             1
174
             0
175
             0
176
             2
177
             2
178
             2
270
             2
271
             4
272
             1
273
             2
274
             2
275
             0
280
             0
281
             0
282
             0
283
             1
284
             0
285
             0
286
             0
287
             3
288
             0
340
1DC
  0
DIMSTYLE
105
20C
100
AcDbSymbolTableRecord
100
AcDbDimStyleTableRecord
  2
ME10_DIM_3
 70
             0
  3
 <>
  4

  5

  6

  7

 40
1.0
 41
4.0
 42
1.0
 43
0.38
 44
1.5
 45
0.0
 46
0.0
 47
0.3
 48
0.3
 71
             1
 72
             0
 73
             0
 74
             0
 75
             0
 76
             0
 77
             1
 78
             8
140
4.0
141
0.09
142
0.0
143
25.4
144
1.0
145
0.0
146
0.6
147
0.625
170
             0
171
             2
172
             1
173
             1
174
             0
175
             0
176
             2
177
             2
178
             2
270
             2
271
             4
272
             1
273
             2
274
             2
275
             0
280
             0
281
             0
282
             0
283
             1
284
             0
285
             0
286
             0
287
             3
288
             0
340
1DC
  0
DIMSTYLE
105
217
100
AcDbSymbolTableRecord
100
AcDbDimStyleTableRecord
  2
ME10_DIM_4
 70
             0
  3
 <>
  4

  5

  6

  7

 40
1.0
 41
4.0
 42
1.0
 43
0.38
 44
1.5
 45
0.0
 46
0.0
 47
0.0
 48
0.0
 71
             0
 72
             0
 73
             0
 74
             0
 75
             0
 76
             0
 77
             1
 78
             8
140
4.0
141
0.09
142
0.0
143
25.4
144
1.0
145
0.0
146
1.0
147
0.625
170
             0
171
             2
172
             1
173
             1
174
             0
175
             0
176
             2
177
             2
178
             2
270
             2
271
             4
272
             4
273
             2
274
             2
275
             0
280
             0
281
             0
282
             0
283
             1
284
             0
285
             0
286
             0
287
             3
288
             0
340
1DC
  0
DIMSTYLE
105
222
100
AcDbSymbolTableRecord
100
AcDbDimStyleTableRecord
  2
ME10_DIM_5
 70
             0
  3

  4

  5

  6

  7

 40
1.0
 41
4.0
 42
1.0
 43
0.38
 44
1.5
 45
0.0
 46
0.0
 47
30.0
 48
30.0
 71
             1
 72
             0
 73
             0
 74
             0
 75
             0
 76
             0
 77
             1
 78
             8
140
4.0
141
0.09
142
0.0
143
25.4
144
1.0
145
0.0
146
0.6
147
0.625
170
             0
171
             2
172
             1
173
             1
174
             0
175
             0
176
             2
177
             2
178
             2
270
             2
271
             4
272
             0
273
             2
274
             2
275
             0
280
             0
281
             0
282
             0
283
             1
284
             0
285
             0
286
             0
287
             3
288
             0
340
1DC
  0
ENDTAB
  0
TABLE
  2
BLOCK_RECORD
  5
1
100
AcDbSymbolTable
 70
             6
  0
BLOCK_RECORD
  5
A
100
AcDbSymbolTableRecord
100
AcDbBlockTableRecord
  2
*MODEL_SPACE
  0
BLOCK_RECORD
  5
B
100
AcDbSymbolTableRecord
100
AcDbBlockTableRecord
  2
*PAPER_SPACE
  0
BLOCK_RECORD
  5
1DE
100
AcDbSymbolTableRecord
100
AcDbBlockTableRecord
  2
*D0
  0
BLOCK_RECORD
  5
1EB
100
AcDbSymbolTableRecord
100
AcDbBlockTableRecord
  2
*D1
  0
BLOCK_RECORD
  5
1F8
100
AcDbSymbolTableRecord
100
AcDbBlockTableRecord
  2
*D2
  0
BLOCK_RECORD
  5
203
100
AcDbSymbolTableRecord
100
AcDbBlockTableRecord
  2
*D3
  0
BLOCK_RECORD
  5
20E
100
AcDbSymbolTableRecord
100
AcDbBlockTableRecord
  2
*D4
  0
BLOCK_RECORD
  5
219
100
AcDbSymbolTableRecord
100
AcDbBlockTableRecord
  2
*D5
  0
ENDTAB
  0
ENDSEC
  0
SECTION
  2
BLOCKS
  0
BLOCK
  5
D
100
AcDbEntity
  8
0
100
AcDbBlockBegin
  2
*MODEL_SPACE
 70
             0
 10
0.0
 20
0.0
 30
0.0
  3
*MODEL_SPACE
  1

  0
ENDBLK
  5
E
100
AcDbEntity
  8
0
100
AcDbBlockEnd
  0
BLOCK
  5
F
100
AcDbEntity
 67
             1
  8
0
100
AcDbBlockBegin
  2
*PAPER_SPACE
 70
             0
 10
0.0
 20
0.0
 30
0.0
  3
*PAPER_SPACE
  1

  0
ENDBLK
  5
10
100
AcDbEntity
 67
             1
  8
0
100
AcDbBlockEnd
  0
BLOCK
  5
1DF
100
AcDbEntity
  8
0
100
AcDbBlockBegin
  2
*D0
 70
             1
 10
0.0
 20
0.0
 30
0.0
  3
*D0
  1

  0
LINE
  5
1E0
100
AcDbEntity
  8
0
  6
CONTINUOUS
 62
             2
100
AcDbLine
 10
455.68558304470002
 20
334.95127758009301
 11
467.5201538193329
 21
334.95127758009301
  0
LINE
  5
1E1
100
AcDbEntity
  8
0
  6
CONTINUOUS
 62
             2
100
AcDbLine
 10
451.68558304470002
 20
334.95127758009301
 11
455.68558304470002
 21
334.95127758009301
  0
LINE
  5
1E2
100
AcDbEntity
  8
0
  6
CONTINUOUS
 62
             2
100
AcDbLine
 10
443.68558304470002
 20
334.95127758009301
 11
451.68558304470002
 21
334.95127758009301
  0
LINE
  5
1E3
100
AcDbEntity
  8
0
  6
CONTINUOUS
 62
             2
100
AcDbLine
 10
455.68558304470002
 20
325.95127758009301
 11
455.68558304470002
 21
336.45127758009301
  0
LINE
  5
1E4
100
AcDbEntity
  8
0
  6
CONTINUOUS
 62
             2
100
AcDbLine
 10
451.68558304470002
 20
325.95127758009301
 11
451.68558304470002
 21
336.45127758009301
  0
SOLID
  5
1E5
100
AcDbEntity
  8
0
 62
             2
100
AcDbTrace
 10
447.68558304470002
 20
334.42466758974342
 11
447.68558304470002
 21
335.47788757044259
 12
451.68558304470002
 22
334.95127758009301
 13
451.68558304470002
 23
334.95127758009301
  0
SOLID
  5
1E6
100
AcDbEntity
  8
0
 62
             2
100
AcDbTrace
 10
459.68558304470002
 20
335.47788757044259
 11
459.68558304470002
 21
334.42466758974342
 12
455.68558304470002
 22
334.95127758009301
 13
455.68558304470002
 23
334.95127758009301
  0
MTEXT
  5
1E7
100
AcDbEntity
  8
0
 62
             2
100
AcDbMText
 10
465.12015381933293
 20
336.95127758009301
 30
0.0
 40
4.0
 41
0.0
 71
             7
 72
             1
  1
4
  7
CONVERTER_1
 11
0.99999999999706
 21
0.00000242406841
 31
0.0
  0
ENDBLK
  5
1E8
100
AcDbEntity
  8
0
100
AcDbBlockEnd
  0
BLOCK
  5
1EC
100
AcDbEntity
  8
0
100
AcDbBlockBegin
  2
*D1
 70
             1
 10
0.0
 20
0.0
 30
0.0
  3
*D1
  1

  0
LINE
  5
1ED
100
AcDbEntity
  8
0
  6
CONTINUOUS
 62
             2
100
AcDbLine
 10
430.68558304470002
 20
334.95127758009301
 11
418.67239305652669
 21
334.95127758009301
  0
LINE
  5
1EE
100
AcDbEntity
  8
0
  6
CONTINUOUS
 62
             2
100
AcDbLine
 10
430.68558304470002
 20
334.95127758009301
 11
434.68558304470002
 21
334.95127758009301
  0
LINE
  5
1EF
100
AcDbEntity
  8
0
  6
CONTINUOUS
 62
             2
100
AcDbLine
 10
442.68558304470002
 20
334.95127758009301
 11
434.68558304470002
 21
334.95127758009301
  0
LINE
  5
1F0
100
AcDbEntity
  8
0
  6
CONTINUOUS
 62
             2
100
AcDbLine
 10
434.68558304470002
 20
325.95127758009301
 11
434.68558304470002
 21
336.45127758009301
  0
LINE
  5
1F1
100
AcDbEntity
  8
0
  6
CONTINUOUS
 62
             2
100
AcDbLine
 10
430.68558304470002
 20
325.95127758009301
 11
430.68558304470002
 21
336.45127758009301
  0
SOLID
  5
1F2
100
AcDbEntity
  8
0
 62
             2
100
AcDbTrace
 10
438.68558304470002
 20
335.47788757044259
 11
438.68558304470002
 21
334.42466758974342
 12
434.68558304470002
 22
334.95127758009301
 13
434.68558304470002
 23
334.95127758009301
  0
SOLID
  5
1F3
100
AcDbEntity
  8
0
 62
             2
100
AcDbTrace
 10
426.68558304470002
 20
334.42466758974342
 11
426.68558304470002
 21
335.47788757044259
 12
430.68558304470002
 22
334.95127758009301
 13
430.68558304470002
 23
334.95127758009301
  0
MTEXT
  5
1F4
100
AcDbEntity
  8
0
 62
             2
100
AcDbMText
 10
418.67239305652669
 20
336.95127758009301
 30
0.0
 40
4.0
 41
0.0
 71
             7
 72
             1
  1
4
  7
CONVERTER_1
 11
0.99999999999706
 21
0.00000242406841
 31
0.0
  0
ENDBLK
  5
1F5
100
AcDbEntity
  8
0
100
AcDbBlockEnd
  0
BLOCK
  5
1F9
100
AcDbEntity
  8
0
100
AcDbBlockBegin
  2
*D2
 70
             1
 10
0.0
 20
0.0
 30
0.0
  3
*D2
  1

  0
LINE
  5
1FA
100
AcDbEntity
  8
0
  6
CONTINUOUS
 62
             2
100
AcDbLine
 10
430.68558304470002
 20
344.95127758009301
 11
455.68558304470002
 21
344.95127758009301
  0
LINE
  5
1FB
100
AcDbEntity
  8
0
  6
CONTINUOUS
 62
             2
100
AcDbLine
 10
455.68558304470002
 20
325.95127758009301
 11
455.68558304470002
 21
346.45127758009301
  0
LINE
  5
1FC
100
AcDbEntity
  8
0
  6
CONTINUOUS
 62
             2
100
AcDbLine
 10
430.68558304470002
 20
325.95127758009301
 11
430.68558304470002
 21
346.45127758009301
  0
SOLID
  5
1FD
100
AcDbEntity
  8
0
 62
             2
100
AcDbTrace
 10
434.68558304470002
 20
345.47788757044259
 11
434.68558304470002
 21
344.42466758974342
 12
430.68558304470002
 22
344.95127758009301
 13
430.68558304470002
 23
344.95127758009301
  0
SOLID
  5
1FE
100
AcDbEntity
  8
0
 62
             2
100
AcDbTrace
 10
451.68558304470002
 20
344.42466758974342
 11
451.68558304470002
 21
345.47788757044259
 12
455.68558304470002
 22
344.95127758009301
 13
455.68558304470002
 23
344.95127758009301
  0
MTEXT
  5
1FF
100
AcDbEntity
  8
0
 62
             2
100
AcDbMText
 10
436.00627343792985
 20
346.95127758009301
 30
0.0
 40
4.0
 41
0.0
 71
             7
 72
             1
  1
\C2;25\C2;\H2.400000;{\Fgdt;`}0.5
  7
CONVERTER_1
 11
0.99999999999706
 21
0.00000242406841
 31
0.0
  0
ENDBLK
  5
200
100
AcDbEntity
  8
0
100
AcDbBlockEnd
  0
BLOCK
  5
204
100
AcDbEntity
  8
0
100
AcDbBlockBegin
  2
*D3
 70
             1
 10
0.0
 20
0.0
 30
0.0
  3
*D3
  1

  0
LINE
  5
205
100
AcDbEntity
  8
0
  6
CONTINUOUS
 62
             2
100
AcDbLine
 10
395.77434781973471
 20
334.95127758009295
 11
313.27434781973471
 21
334.95127758009295
  0
LINE
  5
206
100
AcDbEntity
  8
0
  6
CONTINUOUS
 62
             2
100
AcDbLine
 10
395.77434781973471
 20
324.49877376070532
 11
395.77434781973471
 21
336.45127758009295
  0
LINE
  5
207
100
AcDbEntity
  8
0
  6
CONTINUOUS
 62
             2
100
AcDbLine
 10
313.27434781973471
 20
325.05078957865021
 11
313.27434781973471
 21
336.45127758009295
  0
SOLID
  5
208
100
AcDbEntity
  8
0
 62
             2
100
AcDbTrace
 10
391.77434781973471
 20
334.42466758974336
 11
391.77434781973471
 21
335.47788757044253
 12
395.77434781973471
 22
334.95127758009295
 13
395.77434781973471
 23
334.95127758009295
  0
SOLID
  5
209
100
AcDbEntity
  8
0
 62
             2
100
AcDbTrace
 10
317.27434781973471
 20
335.47788757044253
 11
317.27434781973471
 21
334.42466758974336
 12
313.27434781973471
 22
334.95127758009295
 13
313.27434781973471
 23
334.95127758009295
  0
MTEXT
  5
20A
100
AcDbEntity
  8
0
 62
             2
100
AcDbMText
 10
341.06903147747391
 20
337.42318420756925
 30
0.0
 40
4.0
 41
0.0
 71
             7
 72
             1
  1
\C2; \C2;\C2;82.5\C2;\H2.400000;{\Fgdt;`}0.3
  7
CONVERTER_1
 11
0.99999999999706
 21
0.00000242406841
 31
0.0
  0
ENDBLK
  5
20B
100
AcDbEntity
  8
0
100
AcDbBlockEnd
  0
BLOCK
  5
20F
100
AcDbEntity
  8
0
100
AcDbBlockBegin
  2
*D4
 70
             1
 10
0.0
 20
0.0
 30
0.0
  3
*D4
  1

  0
LINE
  5
210
100
AcDbEntity
  8
0
  6
CONTINUOUS
 62
             2
100
AcDbLine
 10
308.52434781973471
 20
344.95127758009295
 11
400.52434781973483
 21
344.95127758009295
  0
LINE
  5
211
100
AcDbEntity
  8
0
  6
CONTINUOUS
 62
             2
100
AcDbLine
 10
308.52434781973471
 20
321.95127758009301
 11
308.52434781973471
 21
346.45127758009295
  0
LINE
  5
212
100
AcDbEntity
  8
0
  6
CONTINUOUS
 62
             2
100
AcDbLine
 10
400.52434781973483
 20
321.95127758009301
 11
400.52434781973483
 21
346.45127758009295
  0
SOLID
  5
213
100
AcDbEntity
  8
0
 62
             2
100
AcDbTrace
 10
312.52434781973471
 20
345.47788757044253
 11
312.52434781973471
 21
344.42466758974336
 12
308.52434781973471
 22
344.95127758009295
 13
308.52434781973471
 23
344.95127758009295
  0
SOLID
  5
214
100
AcDbEntity
  8
0
 62
             2
100
AcDbTrace
 10
396.52434781973483
 20
344.42466758974336
 11
396.52434781973483
 21
345.47788757044253
 12
400.52434781973483
 22
344.95127758009295
 13
400.52434781973483
 23
344.95127758009295
  0
MTEXT
  5
215
100
AcDbEntity
  8
0
 62
             2
100
AcDbMText
 10
346.09773729479286
 20
346.92981988538628
 30
0.0
 40
4.0
 41
0.0
 71
             7
 72
             1
  1
\C2; \C2;92
  7
CONVERTER_1
 11
0.99999999999706
 21
0.00000242406841
 31
0.0
  0
ENDBLK
  5
216
100
AcDbEntity
  8
0
100
AcDbBlockEnd
  0
BLOCK
  5
21A
100
AcDbEntity
  8
0
100
AcDbBlockBegin
  2
*D5
 70
             1
 10
0.0
 20
0.0
 30
0.0
  3
*D5
  1

  0
LINE
  5
21B
100
AcDbEntity
  8
0
  6
CONTINUOUS
 62
             2
100
AcDbLine
 10
282.60718136916711
 20
344.95127758009301
 11
308.52434781973471
 21
344.95127758009301
  0
LINE
  5
21C
100
AcDbEntity
  8
0
  6
CONTINUOUS
 62
             2
100
AcDbLine
 10
308.52434781973471
 20
321.95127758009301
 11
308.52434781973471
 21
346.45127758009301
  0
LINE
  5
21D
100
AcDbEntity
  8
0
  6
CONTINUOUS
 62
             2
100
AcDbLine
 10
282.60718136916711
 20
313.70127758009221
 11
282.60718136916711
 21
346.45127758009301
  0
SOLID
  5
21E
100
AcDbEntity
  8
0
 62
             2
100
AcDbTrace
 10
304.52434781973471
 20
344.42466758974342
 11
304.52434781973471
 21
345.47788757044259
 12
308.52434781973471
 22
344.95127758009301
 13
308.52434781973471
 23
344.95127758009301
  0
SOLID
  5
21F
100
AcDbEntity
  8
0
 62
             2
100
AcDbTrace
 10
286.60718136916711
 20
345.47788757044259
 11
286.60718136916711
 21
344.42466758974342
 12
282.60718136916711
 22
344.95127758009301
 13
282.60718136916711
 23
344.95127758009301
  0
MTEXT
  5
220
100
AcDbEntity
  8
0
 62
             2
100
AcDbMText
 10
286.34936457478062
 20
346.95127758009301
 30
0.0
 40
4.0
 41
0.0
 71
             7
 72
             1
  1
\C2;300\C2;\H2.400000;{\Fgdt;`}30
  7
CONVERTER_1
 11
0.99999999999706
 21
0.00000242406841
 31
0.0
  0
ENDBLK
  5
221
100
AcDbEntity
  8
0
100
AcDbBlockEnd
  0
ENDSEC
  0
SECTION
  2
ENTITIES
  0
DIMENSION
  5
223
100
AcDbEntity
  8
1
100
AcDbDimension
  2
*D5
 10
308.52434781973471
 20
344.95127758009301
 11
294.78936457478062
 21
348.95127758009301
 31
0.0
 53
0.00013888888889
  1
300
  3
ME10_DIM_5
100
AcDbAlignedDimension
 13
282.60718136916711
 23
312.70127758009221
 14
308.52434781973471
 24
320.95127758009301
100
AcDbRotatedDimension
  0
DIMENSION
  5
218
100
AcDbEntity
  8
1
100
AcDbDimension
  2
*D4
 10
308.52434781973471
 20
344.95127758009295
 11
353.06950200065597
 21
348.92983578727501
 31
0.0
 70
             1
 53
0.00013888888889
  1
<>
  3
ME10_DIM_4
100
AcDbAlignedDimension
 13
400.52434781973483
 23
320.95127758009301
 14
308.52434781973471
 24
320.95127758009301
  0
DIMENSION
  5
20D
100
AcDbEntity
  8
1
100
AcDbDimension
  2
*D3
 10
395.77434781973471
 20
334.95127758009295
 11
354.68079618333701
 21
339.42320010945798
 31
0.0
 53
0.00013888888889
  1
<>
  3
ME10_DIM_3
100
AcDbAlignedDimension
 13
313.27434781973471
 23
324.05078957865021
 14
395.77434781973471
 24
323.49877376070532
100
AcDbRotatedDimension
  0
DIMENSION
  5
202
100
AcDbEntity
  8
1
100
AcDbDimension
  2
*D2
 10
430.68558304470002
 20
344.95127758009301
 11
443.09627343792982
 21
348.95127758009301
 31
0.0
 70
             1
 53
0.00013888888889
  1
<>
  3
ME10_DIM_2
100
AcDbAlignedDimension
 13
455.68558304470002
 23
324.95127758009301
 14
430.68558304470002
 24
324.95127758009301
  0
DIMENSION
  5
1F7
100
AcDbEntity
  8
1
100
AcDbDimension
  2
*D1
 10
434.68558304470002
 20
334.95127758009301
 11
419.87239305652668
 21
338.95127758009301
 31
0.0
 70
             1
 53
0.00013888888889
  1
<>
  3
ME10_DIM_1
100
AcDbAlignedDimension
 13
430.68558304470002
 23
324.95127758009301
 14
434.68558304470002
 24
324.95127758009301
  0
DIMENSION
  5
1EA
100
AcDbEntity
  8
1
100
AcDbDimension
  2
*D0
 10
451.68558304470002
 20
334.95127758009301
 11
466.32015381933292
 21
338.95127758009301
 31
0.0
 70
             1
 53
0.00013888888889
  1
<>
  3
ME10_DIM_0
100
AcDbAlignedDimension
 13
455.68558304470002
 23
324.95127758009301
 14
451.68558304470002
 24
324.95127758009301
  0
MTEXT
  5
1DD
100
AcDbEntity
  8
1
 62
             2
100
AcDbMText
 10
390.50898230331143
 20
220.82210059694179
 30
0.0
 40
4.0
 41
0.0
 71
             7
 72
             1
  1
4-{\Fgdt;n}4.5
  7
CONVERTER_1
  0
LEADER
  5
1DB
100
AcDbEntity
  8
1
  6
CONTINUOUS
 62
             2
100
AcDbLeader
  3
Standard
 71
             0
 73
             3
 74
             0
 75
             0
 40
0.0
 76
             2
 10
394.73770714209661
 20
235.70431085391411
 30
0.0
 10
382.54717184329468
 20
219.49250421355191
 30
0.0
 77
             2
  0
LWPOLYLINE
  5
1D9
100
AcDbEntity
  8
0
  6
CONTINUOUS
 62
             3
100
AcDbPolyline
 90
       10
 70
             0
 10
451.33385010170002
 20
233.70127758009301
 10
451.39268982580012
 20
233.64778533039231
 10
451.39268982580012
 20
233.64778533039231
 10
451.51705265700002
 20
233.49852020799219
 10
451.51705265700002
 20
233.49852020799219
 10
451.60946257720002
 20
233.32822485829249
 10
451.60946257720002
 20
233.32822485829249
 10
451.66636832510011
 20
233.14344363609209
 10
451.66636832510011
 20
233.14344363609209
 10
451.68558304470002
 20
232.95127758009301
  0
LWPOLYLINE
  5
1D7
100
AcDbEntity
  8
0
  6
CONTINUOUS
 62
             3
100
AcDbPolyline
 90
        6
 70
             0
 10
435.40887772020022
 20
233.26086999509221
 10
435.43986332360021
 20
233.29379467059221
 10
435.43986332360021
 20
233.29379467059221
 10
435.56873001589992
 20
233.47723678309291
 10
435.56873001589992
 20
233.47723678309291
 10
435.64257925260011
 20
233.70127758009301
  0
LWPOLYLINE
  5
1D5
100
AcDbEntity
  8
0
  6
CONTINUOUS
 62
             3
100
AcDbPolyline
 90
        6
 70
             0
 10
450.72864201319999
 20
233.70127758009301
 10
450.80288389120022
 20
233.4764126985929
 10
450.80288389120022
 20
233.4764126985929
 10
450.93130276569991
 20
233.29379467059221
 10
450.93130276569991
 20
233.29379467059221
 10
450.96066041549989
 20
233.262562701192
  0
LWPOLYLINE
  5
1D3
100
AcDbEntity
  8
0
  6
CONTINUOUS
 62
             3
100
AcDbPolyline
 90
       10
 70
             0
 10
434.68558304470002
 20
232.95127758009301
 10
434.70479776429983
 20
233.14344363609209
 10
434.70479776429983
 20
233.14344363609209
 10
434.76170351209998
 20
233.32822485829249
 10
434.76170351209998
 20
233.32822485829249
 10
434.85411343240003
 20
233.49852020799219
 10
434.85411343240003
 20
233.49852020799219
 10
434.97847626350011
 20
233.64778533039231
 10
434.97847626350011
 20
233.64778533039231
 10
435.03731598760021
 20
233.70127758009301
  0
LWPOLYLINE
  5
1D1
100
AcDbEntity
  8
0
  6
CONTINUOUS
 62
             3
100
AcDbPolyline
 90
       10
 70
             0
 10
434.68558304470002
 20
246.64406928439249
 10
434.71002449429989
 20
246.7994844863922
 10
434.71002449429989
 20
246.7994844863922
 10
434.83774499100002
 20
247.01910334999221
 10
434.83774499100002
 20
247.01910334999221
 10
435.06100212370012
 20
247.19642026789271
 10
435.06100212370012
 20
247.19642026789271
 10
435.35463654590001
 20
247.31148644729251
 10
435.35463654590001
 20
247.31148644729251
 10
435.68558304470002
 20
247.35134178549279
  0
LWPOLYLINE
  5
1CF
100
AcDbEntity
  8
0
  6
CONTINUOUS
 62
             3
100
AcDbPolyline
 90
       10
 70
             0
 10
450.68558304470002
 20
247.35134178549279
 10
450.90487791520002
 20
247.33412571679301
 10
450.90487791520002
 20
247.33412571679301
 10
451.21547984330022
 20
247.24387984489181
 10
451.21547984330022
 20
247.24387984489181
 10
451.46636584710012
 20
247.08597409689239
 10
451.46636584710012
 20
247.08597409689239
 10
451.62919132730002
 20
246.87822099529231
 10
451.62919132730002
 20
246.87822099529231
 10
451.68558304470002
 20
246.64406928439249
  0
LWPOLYLINE
  5
1CD
100
AcDbEntity
  8
0
  6
CONTINUOUS
 62
             3
100
AcDbPolyline
 90
       14
 70
             0
 10
450.68558304470002
 20
286.8342173184929
 10
450.69478833340003
 20
286.03622932209242
 10
450.69478833340003
 20
286.03622932209242
 10
450.80288389120022
 20
283.4819137386919
 10
450.80288389120022
 20
283.4819137386919
 10
450.93130276569991
 20
280.92212875739273
 10
450.93130276569991
 20
280.92212875739273
 10
450.96845197820011
 20
278.42798455269252
 10
450.96845197820011
 20
278.42798455269252
 10
450.88491129239992
 20
275.94882214819251
 10
450.88491129239992
 20
275.94882214819251
 10
450.75505512220002
 20
273.49715499169258
 10
450.75505512220002
 20
273.49715499169258
 10
450.68558304470002
 20
271.06833784179241
  0
LWPOLYLINE
  5
1CB
100
AcDbEntity
  8
0
  6
CONTINUOUS
 62
             3
100
AcDbPolyline
 90
       16
 70
             0
 10
450.68558304470002
 20
271.06833784179241
 10
450.88067336670002
 20
271.06502343309228
 10
450.88067336670002
 20
271.06502343309228
 10
451.06826647700012
 20
271.05520757789242
 10
451.06826647700012
 20
271.05520757789242
 10
451.24115327770022
 20
271.039267494093
 10
451.24115327770022
 20
271.039267494093
 10
451.39268982580012
 20
271.01781574999291
 10
451.39268982580012
 20
271.01781574999291
 10
451.51705265700002
 20
270.9916767242928
 10
451.51705265700002
 20
270.9916767242928
 10
451.60946257720002
 20
270.96185492489252
 10
451.60946257720002
 20
270.96185492489252
 10
451.66636832510011
 20
270.92949638699253
 10
451.66636832510011
 20
270.92949638699253
 10
451.68558304470002
 20
270.89584463089238
  0
LWPOLYLINE
  5
1C9
100
AcDbEntity
  8
0
  6
CONTINUOUS
 62
             3
100
AcDbPolyline
 90
       16
 70
             0
 10
434.68558304470002
 20
270.89584463089238
 10
434.70479776429983
 20
270.92949638699253
 10
434.70479776429983
 20
270.92949638699253
 10
434.76170351209998
 20
270.96185492489252
 10
434.76170351209998
 20
270.96185492489252
 10
434.85411343240003
 20
270.9916767242928
 10
434.85411343240003
 20
270.9916767242928
 10
434.97847626350011
 20
271.01781574999291
 10
434.97847626350011
 20
271.01781574999291
 10
435.13001281160001
 20
271.039267494093
 10
435.13001281160001
 20
271.039267494093
 10
435.30289961230022
 20
271.05520757789242
 10
435.30289961230022
 20
271.05520757789242
 10
435.49049272260021
 20
271.06502343309228
 10
435.49049272260021
 20
271.06502343309228
 10
435.68558304470002
 20
271.06833784179241
  0
LWPOLYLINE
  5
1C7
100
AcDbEntity
  8
0
  6
CONTINUOUS
 62
             3
100
AcDbPolyline
 90
       12
 70
             0
 10
435.68558304470002
 20
271.06833784179241
 10
435.54834067230001
 20
274.78595440099241
 10
435.54834067230001
 20
274.78595440099241
 10
435.40188752870012
 20
278.5064673920923
 10
435.40188752870012
 20
278.5064673920923
 10
435.43986332360021
 20
280.92212875739273
 10
435.43986332360021
 20
280.92212875739273
 10
435.56873001589992
 20
283.49017762149282
 10
435.56873001589992
 20
283.49017762149282
 10
435.67637775589992
 20
286.03622932209242
 10
435.67637775589992
 20
286.03622932209242
 10
435.68558304470002
 20
286.8342173184929
  0
LWPOLYLINE
  5
1C5
100
AcDbEntity
  8
0
  6
CONTINUOUS
 62
             3
100
AcDbPolyline
 90
       10
 70
             0
 10
435.68558304470002
 20
307.53653133579252
 10
435.47169343740012
 20
307.55299409449231
 10
435.47169343740012
 20
307.55299409449231
 10
435.16002581539982
 20
307.6426964397923
 10
435.16002581539982
 20
307.6426964397923
 10
434.90694122769992
 20
307.80152870369233
 10
434.90694122769992
 20
307.80152870369233
 10
434.74247478849992
 20
308.01134438739251
 10
434.74247478849992
 20
308.01134438739251
 10
434.68558304470002
 20
308.24781640809221
  0
LWPOLYLINE
  5
1C3
100
AcDbEntity
  8
0
  6
CONTINUOUS
 62
             3
100
AcDbPolyline
 90
       16
 70
             0
 10
434.68558304470002
 20
287.00671052939282
 10
434.70479776429983
 20
286.97305877329279
 10
434.70479776429983
 20
286.97305877329279
 10
434.76170351209998
 20
286.94070023539268
 10
434.76170351209998
 20
286.94070023539268
 10
434.85411343240003
 20
286.91087843599229
 10
434.85411343240003
 20
286.91087843599229
 10
434.97847626350011
 20
286.88473941029321
 10
434.97847626350011
 20
286.88473941029321
 10
435.13001281160001
 20
286.86328766619232
 10
435.13001281160001
 20
286.86328766619232
 10
435.30289961230022
 20
286.8473475823929
 10
435.30289961230022
 20
286.8473475823929
 10
435.49049272260021
 20
286.83753172719202
 10
435.49049272260021
 20
286.83753172719202
 10
435.68558304470002
 20
286.8342173184929
  0
LWPOLYLINE
  5
1C1
100
AcDbEntity
  8
0
  6
CONTINUOUS
 62
             3
100
AcDbPolyline
 90
       10
 70
             0
 10
451.68558304470002
 20
308.24781640809221
 10
451.65992254010001
 20
308.08773374799227
 10
451.65992254010001
 20
308.08773374799227
 10
451.53070161220001
 20
307.86760113099251
 10
451.53070161220001
 20
307.86760113099251
 10
451.30747157060011
 20
307.69082055169281
 10
451.30747157060011
 20
307.69082055169281
 10
451.01510815100022
 20
307.57626373279231
 10
451.01510815100022
 20
307.57626373279231
 10
450.68558304470002
 20
307.53653133579252
  0
LWPOLYLINE
  5
1BF
100
AcDbEntity
  8
0
  6
CONTINUOUS
 62
             3
100
AcDbPolyline
 90
       16
 70
             0
 10
450.68558304470002
 20
286.8342173184929
 10
450.88067336670002
 20
286.83753172719202
 10
450.88067336670002
 20
286.83753172719202
 10
451.06826647700012
 20
286.8473475823929
 10
451.06826647700012
 20
286.8473475823929
 10
451.24115327770022
 20
286.86328766619232
 10
451.24115327770022
 20
286.86328766619232
 10
451.39268982580012
 20
286.88473941029321
 10
451.39268982580012
 20
286.88473941029321
 10
451.51705265700002
 20
286.91087843599229
 10
451.51705265700002
 20
286.91087843599229
 10
451.60946257720002
 20
286.94070023539268
 10
451.60946257720002
 20
286.94070023539268
 10
451.66636832510011
 20
286.97305877329279
 10
451.66636832510011
 20
286.97305877329279
 10
451.68558304470002
 20
287.00671052939282
  0
LWPOLYLINE
  5
1BD
100
AcDbEntity
  8
0
  6
CONTINUOUS
 62
             3
100
AcDbPolyline
 90
       16
 70
             0
 10
435.40803311970001
 20
233.24437734009271
 10
435.32639284819999
 20
233.24843288679301
 10
435.32639284819999
 20
233.24843288679301
 10
435.13713740909992
 20
233.21524759999261
 10
435.13713740909992
 20
233.21524759999261
 10
435.01251035230001
 20
233.1715070887922
 10
435.01251035230001
 20
233.1715070887922
 10
434.90915693459982
 20
233.11957365969261
 10
434.90915693459982
 20
233.11957365969261
 10
434.83832227289997
 20
233.07338955169229
 10
434.83832227289997
 20
233.07338955169229
 10
434.7932796437002
 20
233.0370423790927
 10
434.7932796437002
 20
233.0370423790927
 10
434.74982748880012
 20
232.98966683419249
 10
434.74982748880012
 20
232.98966683419249
 10
434.74550207130022
 20
232.98033430489241
  0
LWPOLYLINE
  5
1BB
100
AcDbEntity
  8
0
  6
CONTINUOUS
 62
             3
100
AcDbPolyline
 90
       20
 70
             0
 10
451.62534391259982
 20
232.97966472479209
 10
451.62036842800001
 20
232.99100833239291
 10
451.62036842800001
 20
232.99100833239291
 10
451.58655130970021
 20
233.0290072523922
 10
451.58655130970021
 20
233.0290072523922
 10
451.54737689259991
 20
233.06244712459261
 10
451.54737689259991
 20
233.06244712459261
 10
451.50078233239992
 20
233.09559416529271
 10
451.50078233239992
 20
233.09559416529271
 10
451.44299055950012
 20
233.13035536859289
 10
451.44299055950012
 20
233.13035536859289
 10
451.37430198550021
 20
233.16463536269191
 10
451.37430198550021
 20
233.16463536269191
 10
451.28957429690001
 20
233.19807137829221
 10
451.28957429690001
 20
233.19807137829221
 10
451.15861051160022
 20
233.23301753149269
 10
451.15861051160022
 20
233.23301753149269
 10
450.97235093990002
 20
233.25136914359251
 10
450.97235093990002
 20
233.25136914359251
 10
450.96212089920022
 20
233.25024591289281
  0
LWPOLYLINE
  5
1B9
100
AcDbEntity
  8
0
  6
CONTINUOUS
 62
             3
100
AcDbPolyline
 90
        8
 70
             0
 10
337.14780626203481
 20
294.92669957599242
 10
336.88230332783479
 20
295.04050595279301
 10
336.88230332783479
 20
295.04050595279301
 10
336.60232979943481
 20
295.14356843729252
 10
336.60232979943481
 20
295.14356843729252
 10
336.39142395213491
 20
295.2205247034924
 10
336.39142395213491
 20
295.2205247034924
 10
336.35237514243482
 20
295.2409514136923
  0
LWPOLYLINE
  5
1B7
100
AcDbEntity
  8
0
  6
CONTINUOUS
 62
             3
100
AcDbPolyline
 90
       12
 70
             0
 10
350.32265144553492
 20
234.95127758009301
 10
350.19105890283492
 20
234.81028590649271
 10
350.19105890283492
 20
234.81028590649271
 10
350.01437738343481
 20
234.68736517529271
 10
350.01437738343481
 20
234.68736517529271
 10
349.79890411423492
 20
234.58689648809241
 10
349.79890411423492
 20
234.58689648809241
 10
349.5523189254348
 20
234.51246071819239
 10
349.5523189254348
 20
234.51246071819239
 10
349.28341052813482
 20
234.46671088179261
 10
349.28341052813482
 20
234.46671088179261
 10
349.00176327043488
 20
234.45127758009301
  0
LWPOLYLINE
  5
1B5
100
AcDbEntity
  8
0
  6
CONTINUOUS
 62
             3
100
AcDbPolyline
 90
       10
 70
             0
 10
398.63800006493477
 20
299.9137378467924
 10
398.76970122153472
 20
299.77826647659219
 10
398.76970122153472
 20
299.77826647659219
 10
398.87781064693468
 20
299.5762306000928
 10
398.87781064693468
 20
299.5762306000928
 10
398.95815664163479
 20
299.31542632699262
 10
398.95815664163479
 20
299.31542632699262
 10
399.00763883463588
 20
299.00591750669241
 10
399.00763883463588
 20
299.00591750669241
 10
399.02434781973483
 20
298.6596473876923
  0
LWPOLYLINE
  5
1B3
100
AcDbEntity
  8
0
  6
CONTINUOUS
 62
             3
100
AcDbPolyline
 90
       18
 70
             0
 10
342.80856745373472
 20
296.41833400289261
 10
342.89855658353468
 20
296.6472642332925
 10
342.89855658353468
 20
296.6472642332925
 10
342.9582737356348
 20
296.88207957649252
 10
342.9582737356348
 20
296.88207957649252
 10
342.98590443463468
 20
297.11564528719271
 10
342.98590443463468
 20
297.11564528719271
 10
342.98060913563478
 20
297.34086458939271
 10
342.98060913563478
 20
297.34086458939271
 10
342.9425487337349
 20
297.55089430859221
 10
342.9425487337349
 20
297.55089430859221
 10
342.87287967503391
 20
297.73935279799241
 10
342.87287967503391
 20
297.73935279799241
 10
342.7737188184347
 20
297.90051384179259
 10
342.7737188184347
 20
297.90051384179259
 10
342.6480791165348
 20
298.0294806431923
 10
342.6480791165348
 20
298.0294806431923
 10
342.49977806803582
 20
298.12233461129239
  0
LWPOLYLINE
  5
1B1
100
AcDbEntity
  8
0
  6
CONTINUOUS
 62
             3
100
AcDbPolyline
 90
        4
 70
             0
 10
397.42007825343472
 20
299.36602211149261
 10
398.09478869773483
 20
299.7338901402926
 10
398.09478869773483
 20
299.7338901402926
 10
398.63800006483592
 20
299.9137378467924
  0
ARC
  5
1AF
100
AcDbEntity
  8
1
  6
CONTINUOUS
 62
             3
100
AcDbCircle
 10
310.52434781973471
 20
312.41644142024359
 40
0.50000000000019
100
AcDbArc
 50
65.00000000003213
 51
180.0
  0
ARC
  5
1AE
100
AcDbEntity
  8
1
  6
CONTINUOUS
 62
             3
100
AcDbCircle
 10
310.52434781973471
 20
309.5476588309412
 40
0.5
100
AcDbArc
 50
180.0
 51
-114.99999999996865
  0
ARC
  5
1AD
100
AcDbEntity
  8
1
  6
CONTINUOUS
 62
             3
100
AcDbCircle
 10
374.14733651621981
 20
273.15904876748129
 40
3.00000000000002
100
AcDbArc
 50
124.99999999950644
 51
163.55468192508917
  0
ARC
  5
1AC
100
AcDbEntity
  8
1
  6
CONTINUOUS
 62
             3
100
AcDbCircle
 10
373.09257225315088
 20
284.77473371801477
 40
1.99999999999934
100
AcDbArc
 50
-162.58728024029782
 51
-55.00000000006413
  0
ARC
  5
1AB
100
AcDbEntity
  8
1
  6
CONTINUOUS
 62
             3
100
AcDbCircle
 10
351.62584495589073
 20
299.20492616863771
 40
3.00000000000003
100
AcDbArc
 50
-115.0000000001839
 51
-81.85569134398419
  0
ARC
  5
1AA
100
AcDbEntity
  8
1
  6
CONTINUOUS
 62
             3
100
AcDbCircle
 10
350.28349655594582
 20
259.95899544869951
 40
2.00000000000043
100
AcDbArc
 50
77.41271975867055
 51
-174.99999999987853
  0
ARC
  5
1A9
100
AcDbEntity
  8
1
  6
CONTINUOUS
 62
             3
100
AcDbCircle
 10
339.69663617516392
 20
264.85338527714669
 40
3.00000000000025
100
AcDbArc
 50
5.00000000013451
 51
43.55468192477382
  0
ARC
  5
1A8
100
AcDbEntity
  8
1
  6
CONTINUOUS
 62
             3
100
AcDbCircle
 10
336.83725039807769
 20
292.79389961483781
 40
5.00000000000022
100
AcDbArc
 50
-38.048138992698
 51
10.00000000053853
  0
ARC
  5
1A7
100
AcDbEntity
  8
1
  6
CONTINUOUS
 62
             3
100
AcDbCircle
 10
310.62019074785883
 20
308.95127758009221
 40
1.00000000000035
100
AcDbArc
 50
65.00000000005987
 51
90.0
  0
ARC
  5
1A6
100
AcDbEntity
  8
1
  6
CONTINUOUS
 62
             3
100
AcDbCircle
 10
310.84188541050167
 20
309.95127758009221
 40
1.00000000000044
100
AcDbArc
 50
65.00000000004806
 51
90.0
  0
ARC
  5
1A5
100
AcDbEntity
  8
1
  6
CONTINUOUS
 62
             3
100
AcDbCircle
 10
314.79944620504182
 20
306.86538682551333
 40
0.49999999999984
100
AcDbArc
 50
64.99999999953199
 51
154.99999999956503
  0
ARC
  5
1A4
100
AcDbEntity
  8
1
  6
CONTINUOUS
 62
             3
100
AcDbCircle
 10
316.36313377350967
 20
310.21872563753612
 40
0.49999999999938
100
AcDbArc
 50
154.99999999950722
 51
-115.00000000044166
  0
ARC
  5
1A3
100
AcDbEntity
  8
1
  6
CONTINUOUS
 62
             3
100
AcDbCircle
 10
317.75313108571282
 20
308.46718132706042
 40
0.49999999999883
100
AcDbArc
 50
-24.99999999875424
 51
64.99999999968584
  0
ARC
  5
1A2
100
AcDbEntity
  8
1
  6
CONTINUOUS
 62
             3
100
AcDbCircle
 10
317.03468004078678
 20
306.92645808908259
 40
0.5
100
AcDbArc
 50
-115.00000000047433
 51
-24.9999999987169
  0
SPLINE
  5
1A1
100
AcDbEntity
  8
1
  6
CONTINUOUS
 62
             2
100
AcDbSpline
210
0.0
220
0.0
230
1.0
 70
             0
 71
             3
 72
            15
 73
            11
 74
            18
 42
0.00000000001
 43
0.00000000001
 44
0.00000000001
 40
0.0
 40
0.0
 40
0.0
 40
0.0
 40
0.6276284676506292
 40
0.9154013127028493
 40
1.2108990170127749
 40
1.5415855985655651
 40
1.798329984317141
 40
2.0884620741616811
 40
2.4095863367279939
 40
3.0335018796368418
 40
3.0335018796368418
 40
3.0335018796368418
 40
3.0335018796368418
 10
299.70505856938502
 20
313.54776683597771
 30
0.0
 10
299.73000669805799
 20
313.1970527727895
 30
0.0
 10
300.59186926248287
 20
312.68505695524942
 30
0.0
 10
300.121235933283
 20
311.9250853963257
 30
0.0
 10
299.48828745285613
 20
311.48887263888571
 30
0.0
 10
300.09505399816192
 20
311.00212270362141
 30
0.0
 10
300.39277867046411
 20
310.47080515695541
 30
0.0
 10
300.11601844426889
 20
309.92205921220261
 30
0.0
 10
299.32030830717292
 20
309.2275214210689
 30
0.0
 10
300.67753771553691
 20
308.76393306966531
 30
0.0
 10
299.81700874094702
 20
308.3234254964658
 30
0.0
 11
299.70505856938502
 21
313.54776683597771
 31
0.0
 11
300.02466292403687
 21
313.01781788867459
 31
0.0
 11
300.33944287489777
 21
312.46558184422167
 31
0.0
 11
300.27157382497546
 21
312.20274266876038
 31
0.0
 11
300.08109434036328
 21
311.95127758009266
 31
0.0
 11
299.83798512846647
 21
311.71874302691737
 31
0.0
 11
299.70505856938553
 21
311.49534702402565
 31
0.0
 11
299.82700918368977
 21
311.23193970699191
 31
0.0
 11
300.08109434036277
 21
310.95127758009272
 31
0.0
 11
300.23599930155103
 21
310.72302448844641
 31
0.0
 11
300.30212615104398
 21
310.48779547997788
 31
0.0
 11
300.24639925052674
 21
310.21747101559248
 31
0.0
 11
300.08109434036288
 21
309.95127758009215
 31
0.0
 11
299.84719123046159
 21
309.67108622367562
 31
0.0
 11
299.74237529323966
 21
309.40561048822167
 31
0.0
 11
299.97033967271943
 21
309.07377179857463
 31
0.0
 11
300.18880980366401
 21
308.72519172839168
 31
0.0
 11
299.81700874094702
 21
308.3234254964658
 31
0.0
  0
SPLINE
  5
1A0
100
AcDbEntity
  8
1
  6
CONTINUOUS
 62
             2
100
AcDbSpline
210
0.0
220
0.0
230
1.0
 70
             0
 71
             3
 72
            15
 73
            11
 74
            18
 42
0.00000000001
 43
0.00000000001
 44
0.00000000001
 40
0.0
 40
0.0
 40
0.0
 40
0.0
 40
0.6276284676506292
 40
0.9154013127028493
 40
1.2108990170127749
 40
1.5415855985655651
 40
1.798329984317141
 40
2.0884620741616811
 40
2.4095863367279939
 40
3.0335018796368418
 40
3.0335018796368418
 40
3.0335018796368418
 40
3.0335018796368418
 10
298.39788296185691
 20
313.54776683597771
 30
0.0
 10
298.42283109053
 20
313.1970527727895
 30
0.0
 10
299.28469365495391
 20
312.68505695524942
 30
0.0
 10
298.81406032575399
 20
311.9250853963257
 30
0.0
 10
298.18111184532802
 20
311.48887263888571
 30
0.0
 10
298.78787839063301
 20
311.00212270362141
 30
0.0
 10
299.085603062936
 20
310.47080515695541
 30
0.0
 10
298.80884283673993
 20
309.92205921220261
 30
0.0
 10
298.01313269964402
 20
309.2275214210689
 30
0.0
 10
299.37036210800801
 20
308.76393306966531
 30
0.0
 10
298.50983313341811
 20
308.3234254964658
 30
0.0
 11
298.39788296185691
 21
313.54776683597771
 31
0.0
 11
298.71748731650854
 21
313.01781788867459
 31
0.0
 11
299.03226726736887
 21
312.46558184422167
 31
0.0
 11
298.96439821744644
 21
312.20274266876038
 31
0.0
 11
298.77391873283443
 21
311.95127758009266
 31
0.0
 11
298.53080952093779
 21
311.71874302691737
 31
0.0
 11
298.39788296185708
 21
311.49534702402565
 31
0.0
 11
298.5198335761612
 21
311.23193970699191
 31
0.0
 11
298.77391873283409
 21
310.95127758009272
 31
0.0
 11
298.92882369402258
 21
310.72302448844641
 31
0.0
 11
298.99495054351559
 21
310.48779547997788
 31
0.0
 11
298.93922364299817
 21
310.21747101559248
 31
0.0
 11
298.77391873283409
 21
309.95127758009215
 31
0.0
 11
298.54001562293263
 21
309.67108622367562
 31
0.0
 11
298.4351996857107
 21
309.40561048822167
 31
0.0
 11
298.66316406519053
 21
309.07377179857463
 31
0.0
 11
298.88163419613511
 21
308.72519172839168
 31
0.0
 11
298.50983313341811
 21
308.3234254964658
 31
0.0
  0
SPLINE
  5
19F
100
AcDbEntity
  8
1
  6
CONTINUOUS
 62
             3
100
AcDbSpline
210
0.0
220
0.0
230
1.0
 70
             0
 71
             3
 72
            19
 73
            15
 74
            25
 42
0.00000000001
 43
0.00000000001
 44
0.00000000001
 40
0.0
 40
0.0
 40
0.0
 40
0.0
 40
3.7910034251621969
 40
6.6750575547669779
 40
9.7917965100896023
 40
12.360436242243701
 40
15.07634983061787
 40
17.469061419096469
 40
20.83784419011652
 40
23.49510461756698
 40
27.064308922205988
 40
33.953927121516138
 40
38.467301704811412
 40
41.501974087581459
 40
41.501974087581459
 40
41.501974087581459
 40
41.501974087581459
 10
315.98343942903381
 20
296.3176227555939
 30
0.0
 10
316.11254322625177
 20
295.06093388419981
 30
0.0
 10
316.30899550961573
 20
292.84251044090558
 30
0.0
 10
316.9502971385408
 20
289.63451862755261
 30
0.0
 10
317.8332682004837
 20
286.91421590066881
 30
0.0
 10
318.80984425908088
 20
284.28851248894068
 30
0.0
 10
319.90812029957971
 20
281.9721513574126
 30
0.0
 10
321.33635561431981
 20
279.53172105340388
 30
0.0
 10
322.96370882309191
 20
277.23597947943961
 30
0.0
 10
325.12721570723181
 20
274.8726588199259
 30
0.0
 10
328.36699671099569
 20
271.93334573238741
 30
0.0
 10
332.72304506742381
 20
269.30134163999389
 30
0.0
 10
337.45023432065778
 20
268.173830002366
 30
0.0
 10
339.96215379393891
 20
268.01375222013519
 30
0.0
 10
340.97026540283468
 20
267.9308631747939
 30
0.0
 11
315.98343942903381
 21
296.3176227555939
 31
0.0
 11
316.17584356994098
 21
294.43184044243924
 31
0.0
 11
316.41333298305187
 21
292.55126303264467
 31
0.0
 11
316.66384856461218
 21
291.13056255126281
 31
0.0
 11
316.98709723123471
 21
289.72485845969408
 31
0.0
 11
317.41844933135673
 21
288.2274117520958
 31
0.0
 11
317.91230307631548
 21
286.7486098377114
 31
0.0
 11
318.35095265741762
 21
285.54112832411312
 31
0.0
 11
318.82620357333406
 21
284.34804824609381
 31
0.0
 11
319.38083235902536
 21
283.10817758613331
 31
0.0
 11
319.99105908363458
 21
281.894622424994
 31
0.0
 11
320.57388619569576
 21
280.84973312786406
 31
0.0
 11
321.19658007350245
 21
279.82779202831711
 31
0.0
 11
322.13815046992653
 21
278.4298715367953
 31
0.0
 11
323.16184299093459
 21
277.09165624519386
 31
0.0
 11
324.03063200207043
 21
276.086013998439
 31
0.0
 11
324.9460107268755
 21
275.12244867123923
 31
0.0
 11
326.23658828441665
 21
273.89027067828289
 31
0.0
 11
327.60034045563441
 21
272.73629003039383
 31
0.0
 11
330.45157619344218
 21
270.77857309435853
 31
0.0
 11
333.56624152263601
 21
269.29029766374288
 31
0.0
 11
335.72769129827361
 21
268.62806649644256
 31
0.0
 11
337.94888447263446
 21
268.21187710479376
 31
0.0
 11
339.45779260424291
 21
268.05229126891658
 31
0.0
 11
340.97026540283468
 21
267.9308631747939
 31
0.0
  0
SPLINE
  5
19E
100
AcDbEntity
  8
1
  6
CONTINUOUS
 62
             3
100
AcDbSpline
210
0.0
220
0.0
230
1.0
 70
             0
 71
             3
 72
            33
 73
            29
 74
            53
 42
0.00000000001
 43
0.00000000001
 44
0.00000000001
 40
0.0
 40
0.0
 40
0.0
 40
0.0
 40
2.4644354346243089
 40
3.828080162115616
 40
4.9194500457353829
 40
6.1709966486954748
 40
8.284130391211999
 40
10.67535712648972
 40
12.39329028256425
 40
13.95449158520857
 40
16.15176126610649
 40
18.33601305483031
 40
19.75017647401372
 40
22.13235436862335
 40
23.830804187385809
 40
26.295872125967499
 40
28.677782563478321
 40
30.351033437771839
 40
31.409701128593479
 40
32.305785352391318
 40
33.183589305344498
 40
34.378254737910169
 40
35.367308742818572
 40
35.757394776344249
 40
36.113776025144531
 40
36.579347452821722
 40
37.016114655673533
 40
37.759872923884913
 40
37.759872923884913
 40
37.759872923884913
 40
37.759872923884913
 10
342.02753568306781
 20
266.75778396993002
 30
0.0
 10
341.20862178494468
 20
266.70741005818741
 30
0.0
 10
339.94394419496172
 20
266.47340164583511
 30
0.0
 10
338.30285978937468
 20
266.50791661911921
 30
0.0
 10
337.06527034368179
 20
266.41939737798521
 30
0.0
 10
335.59416317259371
 20
266.67190578014549
 30
0.0
 10
333.69759149284278
 20
266.96473322396821
 30
0.0
 10
331.71908499227089
 20
267.608822793787
 30
0.0
 10
329.93763895204381
 20
268.24230722056649
 30
0.0
 10
328.29237662283492
 20
269.04108160119262
 30
0.0
 10
326.57622311132178
 20
270.02731464562481
 30
0.0
 10
324.92191075027478
 20
271.0390164738136
 30
0.0
 10
323.41933985713382
 20
272.35359779905161
 30
0.0
 10
322.02800431742992
 20
273.54564882032571
 30
0.0
 10
320.50111189684583
 20
275.10560112221549
 30
0.0
 10
318.97692694309882
 20
276.6690477251837
 30
0.0
 10
317.63781773557992
 20
278.38576534245328
 30
0.0
 10
316.7080534585678
 20
279.81956669109729
 30
0.0
 10
316.18283464675278
 20
280.91001689500541
 30
0.0
 10
315.7824620323218
 20
281.76535224650462
 30
0.0
 10
315.44487093273989
 20
282.69751093361521
 30
0.0
 10
315.12128224154281
 20
283.65986622354382
 30
0.0
 10
314.75876183079492
 20
284.45600254610531
 30
0.0
 10
314.3355690009808
 20
284.86399976736868
 30
0.0
 10
313.9382317177238
 20
285.00831770315131
 30
0.0
 10
313.51962920584378
 20
284.90624051654731
 30
0.0
 10
312.97374049881279
 20
284.8536801056506
 30
0.0
 10
312.6096497864288
 20
284.67974224420141
 30
0.0
 10
312.37007099584372
 20
284.62083775209169
 30
0.0
 11
342.02753568306781
 21
266.75778396993002
 31
0.0
 11
340.8014893639475
 21
266.63306534402335
 31
0.0
 11
339.57516497681149
 21
266.51422713768801
 31
0.0
 11
338.89415669996993
 21
266.49668824788728
 31
0.0
 11
338.21180372234539
 21
266.48642367324749
 31
0.0
 11
337.66557112318901
 21
266.46556325034669
 31
0.0
 11
337.12066071154356
 21
266.46417164297952
 31
0.0
 11
336.49872862837742
 21
266.52309603807282
 31
0.0
 11
335.87890152118376
 21
266.62038627909561
 31
0.0
 11
334.83517402528571
 21
266.79489131554533
 31
0.0
 11
333.80065269778913
 21
267.00276834172433
 31
0.0
 11
332.64799805695441
 21
267.31701215681602
 31
0.0
 11
331.51028881679457
 21
267.68993541903785
 31
0.0
 11
330.69986549333515
 21
267.97650699987025
 31
0.0
 11
329.900765589336
 21
268.29054286905165
 31
0.0
 11
329.18923134595008
 21
268.61153816020044
 31
0.0
 11
328.49102085200542
 21
268.96134036676978
 31
0.0
 11
327.52659328139771
 21
269.48691100852869
 31
0.0
 11
326.57614822597913
 21
270.0389566605815
 31
0.0
 11
325.64342524985045
 21
270.61018552786595
 31
0.0
 11
324.74743852612454
 21
271.23343424940435
 31
0.0
 11
324.19773495534372
 21
271.67750885771994
 31
0.0
 11
323.66150776644804
 21
272.13931093049564
 31
0.0
 11
322.76276307678626
 21
272.92196671405372
 31
0.0
 11
321.88261192761001
 21
273.72370391083018
 31
0.0
 11
321.27602316707936
 21
274.31768384641532
 31
0.0
 11
320.68021832046026
 21
274.9232794192244
 31
0.0
 11
319.82297648631112
 21
275.80962604425474
 31
0.0
 11
318.99201994858254
 21
276.71953836464729
 31
0.0
 11
318.23420402199105
 21
277.63820831861557
 31
0.0
 11
317.52524271910795
 21
278.59625408404099
 31
0.0
 11
317.05942310034698
 21
279.29223031692959
 31
0.0
 11
316.63427956195926
 21
280.01257083566446
 31
0.0
 11
316.39133457507779
 21
280.48272195822074
 31
0.0
 11
316.16125937455706
 21
280.95968708085297
 31
0.0
 11
315.97160481125877
 21
281.36574539672739
 31
0.0
 11
315.79238259217368
 21
281.77632461094652
 31
0.0
 11
315.63251715827619
 21
282.18522193443658
 31
0.0
 11
315.48388964620057
 21
282.59813473628253
 31
0.0
 11
315.28677485741798
 21
283.16082188740654
 31
0.0
 11
315.07657386112396
 21
283.72121948241477
 31
0.0
 11
314.87225948481927
 21
284.17550881462444
 31
0.0
 11
314.60134474122668
 21
284.58862083601446
 31
0.0
 11
314.46646889402041
 21
284.73038741364797
 31
0.0
 11
314.31023032006323
 21
284.84827350274918
 31
0.0
 11
314.14739572134806
 21
284.92533106038894
 31
0.0
 11
313.97329516708686
 21
284.96438679735996
 31
0.0
 11
313.74216909387195
 21
284.95541667883509
 31
0.0
 11
313.51027485089469
 21
284.91571502871193
 31
0.0
 11
313.29330546095883
 21
284.88336971658481
 31
0.0
 11
313.07929766558755
 21
284.84483304770328
 31
0.0
 11
312.72442800160502
 21
284.73410985693891
 31
0.0
 11
312.37007099584372
 21
284.62083775209169
 31
0.0
  0
SPLINE
  5
19D
100
AcDbEntity
  8
1
  6
CONTINUOUS
 62
             3
100
AcDbSpline
210
0.0
220
0.0
230
1.0
 70
             0
 71
             3
 72
            18
 73
            14
 74
            23
 42
0.00000000001
 43
0.00000000001
 44
0.00000000001
 40
0.0
 40
0.0
 40
0.0
 40
0.0
 40
1.8250310986755791
 40
2.6799415379678728
 40
3.3849697094060471
 40
4.1627659909611214
 40
5.3229379573396276
 40
7.1504159499624986
 40
9.7259340333885049
 40
12.19874590560358
 40
17.00953247012189
 40
20.03388494414229
 40
25.797578622927752
 40
25.797578622927752
 40
25.797578622927752
 40
25.797578622927752
 10
312.37007099584372
 20
284.62083775209169
 30
0.0
 10
312.27259792502468
 20
284.01993023225771
 30
0.0
 10
312.17970792167182
 20
283.13108523724799
 30
0.0
 10
312.0991618913589
 20
282.00561647798281
 30
0.0
 10
312.05577594714379
 20
281.22749534295241
 30
0.0
 10
312.0313355391857
 20
280.34683500734661
 30
0.0
 10
311.99287577719571
 20
279.09194266928529
 30
0.0
 10
312.06071035440988
 20
277.23776023127681
 30
0.0
 10
312.20953377616991
 20
274.9498674287463
 30
0.0
 10
312.63947304131881
 20
271.68966437159509
 30
0.0
 10
313.39292475819281
 20
268.32795943979261
 30
0.0
 10
314.79735022696377
 20
264.01516236802911
 30
0.0
 10
315.98147146166173
 20
261.32616503728349
 30
0.0
 10
316.91692909062982
 20
259.64652114887269
 30
0.0
 11
312.37007099584372
 21
284.62083775209169
 31
0.0
 11
312.24693403634245
 21
283.71660285572995
 31
0.0
 11
312.15958707652385
 21
282.80830498179267
 31
0.0
 11
312.12678664498827
 21
282.38210661012477
 31
0.0
 11
312.09804872434353
 21
281.95561225259775
 31
0.0
 11
312.07735208015288
 21
281.60369286861732
 31
0.0
 11
312.06024787864737
 21
281.25159817703832
 31
0.0
 11
312.0460973137337
 21
280.86297300523768
 31
0.0
 11
312.0345697078771
 21
280.47422588067928
 31
0.0
 11
312.01864426595887
 21
279.89429310445445
 31
0.0
 11
312.00978654675248
 21
279.31431864883029
 31
0.0
 11
312.02219106250152
 21
278.40076405783236
 31
0.0
 11
312.05875769400518
 21
277.48749691689864
 31
0.0
 11
312.13352532557661
 21
276.2016228462183
 31
0.0
 11
312.2406163053879
 21
274.91840741991285
 31
0.0
 11
312.38218503571943
 21
273.69013460731441
 31
0.0
 11
312.56227227226407
 21
272.46660481889876
 31
0.0
 11
313.01889691468654
 21
270.10387269024278
 31
0.0
 11
313.61265295064004
 21
267.77188780933972
 31
0.0
 11
314.0544296006089
 21
266.32542848017397
 31
0.0
 11
314.54719461092913
 21
264.89554642273436
 31
0.0
 11
315.62788913322697
 21
262.22373046303227
 31
0.0
 11
316.91692909062982
 21
259.64652114887269
 31
0.0
  0
SPLINE
  5
19C
100
AcDbEntity
  8
1
  6
CONTINUOUS
 62
             3
100
AcDbSpline
210
0.0
220
0.0
230
1.0
 70
             0
 71
             3
 72
            17
 73
            13
 74
            21
 42
0.00000000001
 43
0.00000000001
 44
0.00000000001
 40
0.0
 40
0.0
 40
0.0
 40
0.0
 40
3.7910034251621969
 40
6.6750575547669779
 40
9.7917965100896023
 40
12.360436242243701
 40
15.07634983061787
 40
17.469061419096469
 40
20.83784419011652
 40
23.49510461756698
 40
27.064308922205988
 40
28.128633176794661
 40
28.128633176794661
 40
28.128633176794661
 40
28.128633176794661
 10
316.91692909062982
 20
259.64652114887269
 30
0.0
 10
317.97994291491568
 20
258.96392586664649
 30
0.0
 10
319.83686219958793
 20
257.73435405353121
 30
0.0
 10
322.7448162203537
 20
256.2355936767824
 30
0.0
 10
325.42215798655872
 20
255.22984724300511
 30
0.0
 10
328.08390079076872
 20
254.3562658507891
 30
0.0
 10
330.57966875905367
 20
253.77070509282319
 30
0.0
 10
333.37816415490181
 20
253.3657610196332
 30
0.0
 10
336.18768532273282
 20
253.2067055323464
 30
0.0
 10
339.38432829601481
 20
253.42469699725461
 30
0.0
 10
341.78456910683673
 20
253.81398745367051
 30
0.0
 10
343.28870001739989
 20
254.19373243472671
 30
0.0
 10
343.63242644444682
 20
254.28823638432101
 30
0.0
 11
316.91692909062982
 21
259.64652114887269
 31
0.0
 11
318.51125509185124
 21
258.62118272285312
 31
0.0
 11
320.12962194319505
 21
257.63433858620334
 31
0.0
 11
321.39656421702341
 21
256.94440729310986
 31
0.0
 11
322.69713017796494
 21
256.32069111184933
 31
0.0
 11
324.13682479273473
 21
255.72429301277515
 31
0.0
 11
325.60091145933978
 21
255.18838550576766
 31
0.0
 11
326.81845206158636
 21
254.77848314841384
 31
0.0
 11
328.04755372709474
 21
254.40617601513378
 31
0.0
 11
329.36272903494449
 21
254.06675554879351
 31
0.0
 11
330.69199480525708
 21
253.78721074660584
 31
0.0
 11
331.87230891406892
 21
253.59140551084869
 31
0.0
 11
333.05953792141878
 21
253.44107733481994
 31
0.0
 11
334.73953571158353
 21
253.30563754347278
 31
0.0
 11
336.42405640396589
 21
253.27162899780097
 31
0.0
 11
337.75198026098752
 21
253.32386791319246
 31
0.0
 11
339.0760552689585
 21
253.43876666372586
 31
0.0
 11
340.84407276148471
 21
253.67953041613927
 31
0.0
 11
342.59657673317156
 21
254.02625963242409
 31
0.0
 11
343.11558799984567
 21
254.1519009604834
 31
0.0
 11
343.63242644444682
 21
254.28823638432101
 31
0.0
  0
SPLINE
  5
19B
100
AcDbEntity
  8
1
  6
CONTINUOUS
 62
             3
100
AcDbSpline
210
0.0
220
0.0
230
1.0
 70
             0
 71
             3
 72
            14
 73
            10
 74
            15
 42
0.00000000001
 43
0.00000000001
 44
0.00000000001
 40
0.0
 40
0.0
 40
0.0
 40
0.0
 40
2.4644354346243089
 40
3.828080162115616
 40
4.9194500457353829
 40
6.1709966486954748
 40
8.284130391211999
 40
10.67535712648972
 40
10.87379971190756
 40
10.87379971190756
 40
10.87379971190756
 40
10.87379971190756
 10
356.2659700829098
 20
261.57835750623502
 30
0.0
 10
355.7947695289418
 20
260.90669721898928
 30
0.0
 10
355.18921109291568
 20
259.77203060530292
 30
0.0
 10
354.13902680934382
 20
258.51049888545538
 30
0.0
 10
353.43660954061471
 20
257.48772165030971
 30
0.0
 10
352.32197020362878
 20
256.49500016347071
 30
0.0
 10
350.91053538833091
 20
255.19477564037641
 30
0.0
 10
349.59760063726083
 20
254.32917768895479
 30
0.0
 10
348.86801282567677
 20
253.86572475477101
 30
0.0
 10
348.81204615292887
 20
253.8303240258241
 30
0.0
 11
356.2659700829098
 21
261.57835750623502
 31
0.0
 11
355.5990516545416
 21
260.54203510361191
 31
0.0
 11
354.9273623564502
 21
259.50916168029266
 31
0.0
 11
354.51647309708528
 21
258.96579265069971
 31
0.0
 11
354.09905814188937
 21
258.42590775301829
 31
0.0
 11
353.77479702224502
 21
257.98583964929821
 31
0.0
 11
353.43613894011901
 21
257.55894388133913
 31
0.0
 11
353.00230168165831
 21
257.10943655817329
 31
0.0
 11
352.53978122804972
 21
256.68549568516858
 31
0.0
 11
351.7525942471097
 21
255.97827878033738
 31
0.0
 11
350.94505594607858
 21
255.29906664305906
 31
0.0
 11
349.98070182466097
 21
254.59381277042465
 31
0.0
 11
348.97978856900767
 21
253.93682971941953
 31
0.0
 11
348.8959541784655
 21
253.88350543029532
 31
0.0
 11
348.81204615292887
 21
253.8303240258241
 31
0.0
  0
SPLINE
  5
19A
100
AcDbEntity
  8
1
  6
CONTINUOUS
 62
             3
100
AcDbSpline
210
0.0
220
0.0
230
1.0
 70
             0
 71
             3
 72
            18
 73
            14
 74
            23
 42
0.00000000001
 43
0.00000000001
 44
0.00000000001
 40
0.0
 40
0.0
 40
0.0
 40
0.0
 40
1.8250310986755791
 40
2.6799415379678728
 40
3.3849697094060471
 40
4.1627659909611214
 40
5.3229379573396276
 40
7.1504159499624986
 40
9.7259340333885049
 40
12.19874590560358
 40
17.00953247012189
 40
20.03388494414229
 40
24.692582939604229
 40
24.692582939604229
 40
24.692582939604229
 40
24.692582939604229
 10
323.8089454818267
 20
249.52864978600201
 30
0.0
 10
324.21798043328482
 20
249.0777825600766
 30
0.0
 10
324.85499146364788
 20
248.45097244124281
 30
0.0
 10
325.68469874371277
 20
247.68628072526451
 30
0.0
 10
326.26600765050591
 20
247.16720963589239
 30
0.0
 10
326.93929728114267
 20
246.59901861737171
 30
0.0
 10
327.89643234878378
 20
245.786536989452
 30
0.0
 10
329.3883847201929
 20
244.68350835667161
 30
0.0
 10
331.26992122749982
 20
243.37338536305521
 30
0.0
 10
334.08691336410089
 20
241.6768220580455
 30
0.0
 10
337.18496957625382
 20
240.16990558905741
 30
0.0
 10
341.08735534101589
 20
238.70822081125519
 30
0.0
 10
343.5602856963888
 20
238.02135421568801
 30
0.0
 10
345.08256909810382
 20
237.71303000702801
 30
0.0
 11
323.8089454818267
 21
249.52864978600201
 31
0.0
 11
324.43913015288427
 21
248.86859619805807
 31
0.0
 11
325.09480608753216
 21
248.23399113354048
 31
0.0
 11
325.40757065772669
 21
247.94261638523147
 31
0.0
 11
325.72309957309471
 21
247.65423329167007
 31
0.0
 11
325.98533708020216
 21
247.41863385667858
 31
0.0
 11
326.24995149968714
 21
247.18573380397751
 31
0.0
 11
326.54496816097293
 21
246.93236661547738
 31
0.0
 11
326.84171555698651
 21
246.6809741026446
 31
0.0
 11
327.28519590853728
 21
246.3069409190521
 31
0.0
 11
327.73311549938757
 21
245.93840751690482
 31
0.0
 11
328.4550953286635
 21
245.37851378693185
 31
0.0
 11
329.19191525319354
 21
244.83768998192281
 31
0.0
 11
330.24386893995302
 21
244.09441630063742
 31
0.0
 11
331.31389729282807
 21
243.37807166827969
 31
0.0
 11
332.3624663064171
 21
242.72293898605656
 31
0.0
 11
333.43134297018412
 21
242.10087851185688
 31
0.0
 11
335.56330214086182
 21
240.98474264628561
 31
0.0
 11
337.75672217062515
 21
239.99499101682218
 31
0.0
 11
339.16305284824517
 21
239.43853326948383
 31
0.0
 11
340.58821361562752
 21
238.93227558737186
 31
0.0
 11
342.8167544186561
 21
238.25286213966555
 31
0.0
 11
345.08256909810382
 21
237.71303000702801
 31
0.0
  0
SPLINE
  5
199
100
AcDbEntity
  8
1
  6
CONTINUOUS
 62
             3
100
AcDbSpline
210
0.0
220
0.0
230
1.0
 70
             0
 71
             3
 72
            33
 73
            29
 74
            53
 42
0.00000000001
 43
0.00000000001
 44
0.00000000001
 40
0.0
 40
0.0
 40
0.0
 40
0.0
 40
2.4644354346243089
 40
3.828080162115616
 40
4.9194500457353829
 40
6.1709966486954748
 40
8.284130391211999
 40
10.67535712648972
 40
12.39329028256425
 40
13.95449158520857
 40
16.15176126610649
 40
18.33601305483031
 40
19.75017647401372
 40
22.13235436862335
 40
23.830804187385809
 40
26.295872125967499
 40
28.677782563478321
 40
30.351033437771839
 40
31.409701128593479
 40
32.305785352391318
 40
33.183589305344498
 40
34.378254737910169
 40
35.367308742818572
 40
35.757394776344249
 40
36.113776025144531
 40
36.579347452821722
 40
37.016114655673533
 40
37.759872923884913
 40
37.759872923884913
 40
37.759872923884913
 40
37.759872923884913
 10
369.19292739589378
 20
269.48109420181811
 30
0.0
 10
369.42426381397593
 20
268.69392143476421
 30
0.0
 10
369.93382238539982
 20
267.513023722875
 30
0.0
 10
370.26534840926871
 20
265.90540442554772
 30
0.0
 10
370.6270378475848
 20
264.71854131534849
 30
0.0
 10
370.70821249999392
 20
263.228129466967
 30
0.0
 10
370.8447537531469
 20
261.3139485626437
 30
0.0
 10
370.65707196803481
 20
259.24172393816571
 30
0.0
 10
370.43587935519167
 20
257.3639789231986
 30
0.0
 10
370.02323722617172
 20
255.58222273437229
 30
0.0
 10
369.443611185527
 20
253.68963927623531
 30
0.0
 10
368.82539396614891
 20
251.85167914425799
 30
0.0
 10
367.87812541790493
 20
250.09425897620241
 30
0.0
 10
367.02556288834182
 20
248.47255081671551
 30
0.0
 10
365.84448737512872
 20
246.6368187337855
 30
0.0
 10
364.65940270221068
 20
244.802948680707
 30
0.0
 10
363.28370661141082
 20
243.11540812923511
 30
0.0
 10
362.09274567143473
 20
241.88990416856001
 30
0.0
 10
361.14650751137481
 20
241.13520569106481
 30
0.0
 10
360.40170849104481
 20
240.5545412326843
 30
0.0
 10
359.56804205519882
 20
240.01798942510391
 30
0.0
 10
358.7018202794207
 20
239.4883695800338
 30
0.0
 10
358.00631313705873
 20
238.9577813147726
 30
0.0
 10
357.70271452171579
 20
238.4544108900086
 30
0.0
 10
357.65043080127981
 20
238.03492192015199
 30
0.0
 10
357.84309652161488
 20
237.6495289581195
 30
0.0
 10
358.01581079822569
 20
237.12902261242061
 30
0.0
 10
358.26640547971681
 20
236.81276522974341
 30
0.0
 10
358.37714440947673
 20
236.59230066223961
 30
0.0
 11
369.19292739589378
 21
269.48109420181811
 31
0.0
 11
369.58734003752124
 21
268.31353992881861
 31
0.0
 11
369.9760815699284
 21
267.14440604309345
 31
0.0
 11
370.14471932097121
 21
266.48437483572127
 31
0.0
 11
370.30656436319606
 21
265.82141395461832
 31
0.0
 11
370.44844995989001
 21
265.2935184279508
 31
0.0
 11
370.57106065050345
 21
264.76257971977634
 31
0.0
 11
370.65200652105329
 21
264.14312886099128
 31
0.0
 11
370.69508005631292
 21
263.51719299816608
 31
0.0
 11
370.75720144269786
 21
262.46080290601554
 31
0.0
 11
370.78473897961953
 21
261.40596219807975
 31
0.0
 11
370.73486370032322
 21
260.21228118839724
 31
0.0
 11
370.62445452563173
 21
259.02011346160918
 31
0.0
 11
370.52540404751835
 21
258.16624096706857
 31
0.0
 11
370.39705817023173
 21
257.31729661112558
 31
0.0
 11
370.24244216563017
 21
256.55217384478544
 31
0.0
 11
370.05677668195159
 21
255.79363063194512
 31
0.0
 11
369.7589885172751
 21
254.73643280400273
 31
0.0
 11
369.43227772374848
 21
253.68697567638253
 31
0.0
 11
369.08292114461159
 21
252.65052763155296
 31
0.0
 11
368.67467437237877
 21
251.63831927802391
 31
0.0
 11
368.36405419364127
 21
251.00358202683955
 31
0.0
 11
368.03315223790537
 21
250.37803854456098
 31
0.0
 11
367.47010877666781
 21
249.32766996473316
 31
0.0
 11
366.88432486108508
 21
248.29118273261915
 31
0.0
 11
366.44021594016419
 21
247.56762944872202
 31
0.0
 11
365.9823829637001
 21
246.85200498105542
 31
0.0
 11
365.3090131527029
 21
245.81902531060871
 31
0.0
 11
364.60681945881703
 21
244.80642804877991
 31
0.0
 11
363.87981238640958
 21
243.86318885345918
 31
0.0
 11
363.1035455598502
 21
242.95881745208808
 31
0.0
 11
362.52867352084422
 21
242.34980762233414
 31
0.0
 11
361.92099678011022
 21
241.77503247505075
 31
0.0
 11
361.51669367318442
 21
241.43356015930334
 31
0.0
 11
361.10288361050965
 21
241.10311869984156
 31
0.0
 11
360.749208134958
 21
240.82786269670262
 31
0.0
 11
360.38880369444382
 21
240.56177148260423
 31
0.0
 11
360.02573168622735
 21
240.31492599457096
 31
0.0
 11
359.65624420322098
 21
240.07814314220224
 31
0.0
 11
359.15152696067628
 21
239.76076076229566
 31
0.0
 11
358.65195382541356
 21
239.43112974758736
 31
0.0
 11
358.25451870108714
 21
239.13084907275839
 31
0.0
 11
357.9120484623611
 21
238.77480065456285
 31
0.0
 11
357.80384896830856
 21
238.61176039517787
 31
0.0
 11
357.72368488299168
 21
238.43320692581619
 31
0.0
 11
357.68479342619946
 21
238.25730801076372
 31
0.0
 11
357.68545791604089
 21
238.07888180182127
 31
0.0
 11
357.74563352465049
 21
237.85554658096623
 31
0.0
 11
357.83594109505202
 21
237.63830085908313
 31
0.0
 11
357.91575567397177
 21
237.43396885381324
 31
0.0
 11
358.00094736261701
 21
237.23390189623655
 31
0.0
 11
358.18786042089704
 21
236.91256778346201
 31
0.0
 11
358.37714440947673
 21
236.59230066223961
 31
0.0
  0
SPLINE
  5
198
100
AcDbEntity
  8
1
  6
CONTINUOUS
 62
             3
100
AcDbSpline
210
0.0
220
0.0
230
1.0
 70
             0
 71
             3
 72
            18
 73
            14
 74
            23
 42
0.00000000001
 43
0.00000000001
 44
0.00000000001
 40
0.0
 40
0.0
 40
0.0
 40
0.0
 40
1.8250310986755791
 40
2.6799415379678728
 40
3.3849697094060471
 40
4.1627659909611214
 40
5.3229379573396276
 40
7.1504159499624986
 40
9.7259340333885049
 40
12.19874590560358
 40
17.00953247012189
 40
20.03388494414229
 40
25.797578622927752
 40
25.797578622927752
 40
25.797578622927752
 40
25.797578622927752
 10
358.37714440947673
 20
236.59230066223961
 30
0.0
 10
358.98467572195477
 20
236.6309859473771
 30
0.0
 10
359.87190548748993
 20
236.73821150882191
 30
0.0
 10
360.98707957306789
 20
236.9101252951599
 30
0.0
 10
361.75534586748978
 20
237.0409753688848
 30
0.0
 10
362.61936471221981
 20
237.2131130934016
 30
0.0
 10
363.8513523815239
 20
237.45485741308369
 30
0.0
 10
365.64395198111481
 20
237.93358564374171
 30
0.0
 10
367.84136620754481
 20
238.58778179492151
 30
0.0
 10
370.92415868046078
 20
239.7324050143767
 30
0.0
 10
374.03391987118982
 20
241.21501584490409
 30
0.0
 10
377.92607204892892
 20
243.54391706755371
 30
0.0
 10
380.28415883930501
 20
245.29670810822961
 30
0.0
 10
381.71353164330372
 20
246.58246778820819
 30
0.0
 11
358.37714440947673
 21
236.59230066223961
 31
0.0
 11
359.28610880033733
 21
236.67346219710009
 31
0.0
 11
360.19107027728546
 21
236.79042049919275
 31
0.0
 11
360.61388174860713
 21
236.85328050269234
 31
0.0
 11
361.03607779108665
 21
236.92016702450266
 31
0.0
 11
361.38377925795947
 21
236.97829871841071
 31
0.0
 11
361.73085224340178
 21
237.03997179457599
 31
0.0
 11
362.11288256768381
 21
237.11265325007548
 31
0.0
 11
362.49444812381398
 21
237.1879190386139
 31
0.0
 11
363.06338451874825
 21
237.30144006379993
 31
0.0
 11
363.63078883183277
 21
237.42186088367217
 31
0.0
 11
364.51867843745765
 21
237.63723941316644
 31
0.0
 11
365.40091122342642
 21
237.87611030007005
 31
0.0
 11
366.63790838325878
 21
238.23513725023622
 31
0.0
 11
367.86512093484095
 21
238.62508553078666
 31
0.0
 11
369.03109637750458
 21
239.03642125094964
 31
0.0
 11
370.18387653952544
 21
239.48425431578391
 31
0.0
 11
372.38576149881328
 21
240.45518778513866
 31
0.0
 11
374.52715550227413
 21
241.55297257139341
 31
0.0
 11
375.83904452332484
 21
242.30554043931923
 31
0.0
 11
377.12342592189333
 21
243.1041294929596
 31
0.0
 11
379.48777672271416
 21
244.75226373011998
 31
0.0
 11
381.71353164330372
 21
246.58246778820819
 31
0.0
  0
SPLINE
  5
197
100
AcDbEntity
  8
1
  6
CONTINUOUS
 62
             3
100
AcDbSpline
210
0.0
220
0.0
230
1.0
 70
             0
 71
             3
 72
            18
 73
            14
 74
            23
 42
0.00000000001
 43
0.00000000001
 44
0.00000000001
 40
0.0
 40
0.0
 40
0.0
 40
0.0
 40
3.7910034251621969
 40
6.6750575547669779
 40
9.7917965100896023
 40
12.360436242243701
 40
15.07634983061787
 40
17.469061419096469
 40
20.83784419011652
 40
23.49510461756698
 40
27.064308922205988
 40
33.953927121516138
 40
34.514417178034712
 40
34.514417178034712
 40
34.514417178034712
 40
34.514417178034712
 10
381.71353164330372
 20
246.58246778820819
 30
0.0
 10
382.14247000762282
 20
247.77072137627599
 30
0.0
 10
382.92801047464968
 20
249.85468928583239
 30
0.0
 10
383.7421131548528
 20
253.0232403868705
 30
0.0
 10
384.12687883524183
 20
255.85725524098041
 30
0.0
 10
384.38626422319282
 20
258.64665274314871
 30
0.0
 10
384.40178313104371
 20
261.2101461245104
 30
0.0
 10
384.17385060157181
 20
264.02858593139041
 30
0.0
 10
383.70374096133878
 20
266.8030597133328
 30
0.0
 10
382.77989501748982
 20
269.87104850885351
 30
0.0
 10
381.13627334683281
 20
273.9249663894559
 30
0.0
 10
379.08826245867192
 20
277.06127250347203
 30
0.0
 10
377.33730706498068
 20
278.83030444256281
 30
0.0
 10
377.20360999506471
 20
278.96139826244371
 30
0.0
 11
381.71353164330372
 21
246.58246778820819
 31
0.0
 11
382.35839178335198
 21
248.36497997212763
 31
0.0
 11
382.9603731738099
 21
250.1623644666397
 31
0.0
 11
383.35108527082394
 21
251.55106600824277
 31
0.0
 11
383.6697604328433
 21
252.95781397239202
 31
0.0
 11
383.93084339603564
 21
254.49412349937782
 31
0.0
 11
384.12752465044196
 21
256.0407530954875
 31
0.0
 11
384.25622162789006
 21
257.31897926822774
 31
0.0
 11
384.34569339342931
 21
258.60011091986127
 31
0.0
 11
384.38394984214364
 21
259.95784019607203
 31
0.0
 11
384.36069641174805
 21
261.31598306872195
 31
0.0
 11
384.28894780352476
 21
262.51027500247528
 31
0.0
 11
384.17132363072756
 21
263.70118886601671
 31
0.0
 11
383.9295329863366
 21
265.36920379290541
 31
0.0
 11
383.58784774894457
 21
267.01905764788512
 31
0.0
 11
383.24142771527596
 21
268.30206342908866
 31
0.0
 11
382.83477530884113
 21
269.56737373488255
 31
0.0
 11
382.20662710260035
 21
271.23748836249081
 31
0.0
 11
381.47862229105249
 21
272.86889889162404
 31
0.0
 11
379.75916920035331
 21
275.86984572605434
 31
0.0
 11
377.59869121328563
 21
278.56213819487226
 31
0.0
 11
377.40266621289197
 21
278.76326214727942
 31
0.0
 11
377.20360999506471
 21
278.96139826244371
 31
0.0
  0
SPLINE
  5
196
100
AcDbEntity
  8
1
  6
CONTINUOUS
 62
             3
100
AcDbSpline
210
0.0
220
0.0
230
1.0
 70
             0
 71
             3
 72
             9
 73
             5
 74
             5
 42
0.00000000001
 43
0.00000000001
 44
0.00000000001
 40
0.0
 40
0.0
 40
0.0
 40
0.0
 40
2.4644354346243089
 40
3.5379655872544769
 40
3.5379655872544769
 40
3.5379655872544769
 40
3.5379655872544769
 10
371.07414510296468
 20
284.5150721381475
 30
0.0
 10
371.83381745186972
 20
284.20514404030598
 30
0.0
 10
372.9807371641549
 20
283.89286250260818
 30
0.0
 10
374.04047016757983
 20
283.3752512116705
 30
0.0
 10
374.36537314362567
 20
283.22440931861001
 30
0.0
 11
371.07414510296468
 21
284.5150721381475
 31
0.0
 11
372.2328880508752
 21
284.09547817615248
 31
0.0
 11
373.3893301109805
 21
283.67046549000293
 31
0.0
 11
373.87910689784223
 21
283.45219509586127
 31
0.0
 11
374.36537314362567
 21
283.22440931861001
 31
0.0
  0
SPLINE
  5
195
100
AcDbEntity
  8
1
  6
CONTINUOUS
 62
             3
100
AcDbSpline
210
0.0
220
0.0
230
1.0
 70
             0
 71
             3
 72
            18
 73
            14
 74
            23
 42
0.00000000001
 43
0.00000000001
 44
0.00000000001
 40
0.0
 40
0.0
 40
0.0
 40
0.0
 40
1.8250310986755791
 40
2.6799415379678728
 40
3.3849697094060471
 40
4.1627659909611214
 40
5.3229379573396276
 40
7.1504159499624986
 40
9.7259340333885049
 40
12.19874590560358
 40
17.00953247012189
 40
20.03388494414229
 40
25.797578622927752
 40
25.797578622927752
 40
25.797578622927752
 40
25.797578622927752
 10
390.04410892217271
 20
255.55312512493271
 30
0.0
 10
390.39265312597178
 20
256.05223211238729
 30
0.0
 10
390.86199951700581
 20
256.81275031933581
 30
0.0
 10
391.42289157620672
 20
257.79181502046811
 30
0.0
 10
391.79959506875173
 20
258.47405348291591
 30
0.0
 10
392.20371931468782
 20
259.2568967329326
 30
0.0
 10
392.78284774265182
 20
260.370828596801
 30
0.0
 10
393.52623050949688
 20
262.07082156891681
 30
0.0
 10
394.3848247233808
 20
264.19671381985961
 30
0.0
 10
395.41201192287792
 20
267.32059893342671
 30
0.0
 10
396.19176448787482
 20
270.67630086827501
 30
0.0
 10
396.79767338243988
 20
275.1713541372618
 30
0.0
 10
396.89752923027578
 20
278.10782796702301
 30
0.0
 10
396.78348119988078
 20
280.02701467347811
 30
0.0
 11
390.04410892217271
 21
255.55312512493271
 31
0.0
 11
390.54738430698859
 21
256.31438549145111
 31
0.0
 11
391.02017687620884
 21
257.09483517315897
 31
0.0
 11
391.23464958695331
 21
257.464595063719
 31
0.0
 11
391.44559052531093
 21
257.83638428573886
 31
0.0
 11
391.61692965556307
 21
258.1444727573612
 31
0.0
 11
391.78510816991252
 21
258.45427787813674
 31
0.0
 11
391.96647553099348
 21
258.7982773592106
 31
0.0
 11
392.14553260094061
 21
259.14352477520549
 31
0.0
 11
392.41150432966322
 21
259.65911636179374
 31
0.0
 11
392.6711263442686
 21
260.17781207017981
 31
0.0
 11
393.05632674352552
 21
261.00627843350236
 31
0.0
 11
393.41963310879567
 21
261.8449693623927
 31
0.0
 11
393.91018965015564
 21
263.03594232770627
 31
0.0
 11
394.37047031848152
 21
264.23854451239998
 31
0.0
 11
394.77584890028368
 21
265.4066044479307
 31
0.0
 11
395.14446558608137
 21
266.58710361983151
 31
0.0
 11
395.7582120492815
 21
268.91397371821688
 31
0.0
 11
396.23506666527328
 21
271.27264058536849
 31
0.0
 11
396.46463483919342
 21
272.76753511439421
 31
0.0
 11
396.64107147917014
 21
274.26961705811669
 31
0.0
 11
396.82665685748157
 21
277.1457358387654
 31
0.0
 11
396.78348119988078
 21
280.02701467347811
 31
0.0
  0
SPLINE
  5
194
100
AcDbEntity
  8
1
  6
CONTINUOUS
 62
             3
100
AcDbSpline
210
0.0
220
0.0
230
1.0
 70
             0
 71
             3
 72
            11
 73
             7
 74
             9
 42
0.00000000001
 43
0.00000000001
 44
0.00000000001
 40
0.0
 40
0.0
 40
0.0
 40
0.0
 40
3.7910034251621969
 40
6.6750575547669779
 40
9.7917965100896023
 40
10.404214996953
 40
10.404214996953
 40
10.404214996953
 40
10.404214996953
 10
396.78348119988078
 20
280.02701467347811
 30
0.0
 10
396.12190583132491
 20
281.103236184906
 30
0.0
 10
394.98237058127182
 20
283.01672919176121
 30
0.0
 10
393.01268229537868
 20
285.62877959522211
 30
0.0
 10
391.48789692127582
 20
287.22454534295412
 30
0.0
 10
390.6041869134167
 20
288.09956276017971
 30
0.0
 10
390.45824012256872
 20
288.24239019371078
 30
0.0
 11
396.78348119988078
 21
280.02701467347811
 31
0.0
 11
395.79192077751395
 21
281.64256480109373
 31
0.0
 11
394.76199825142413
 21
283.23386370633523
 31
0.0
 11
393.91987267436883
 21
284.40517597335588
 31
0.0
 11
393.01872354169569
 21
285.53141925711355
 31
0.0
 11
391.98037095164324
 21
286.69341545982172
 31
0.0
 11
390.89379599799963
 21
287.81149483692832
 31
0.0
 11
390.67656721589924
 21
288.02752050886772
 31
0.0
 11
390.45824012256872
 21
288.24239019371078
 31
0.0
  0
SPLINE
  5
193
100
AcDbEntity
  8
1
  6
CONTINUOUS
 62
             3
100
AcDbSpline
210
0.0
220
0.0
230
1.0
 70
             0
 71
             3
 72
            24
 73
            20
 74
            35
 42
0.00000000001
 43
0.00000000001
 44
0.00000000001
 40
0.0
 40
0.0
 40
0.0
 40
0.0
 40
2.4644354346243089
 40
3.828080162115616
 40
4.9194500457353829
 40
6.1709966486954748
 40
8.284130391211999
 40
10.67535712648972
 40
12.39329028256425
 40
13.95449158520857
 40
16.15176126610649
 40
18.33601305483031
 40
19.75017647401372
 40
22.13235436862335
 40
23.830804187385809
 40
26.295872125967499
 40
28.677782563478321
 40
30.351033437771839
 40
31.105411279078609
 40
31.105411279078609
 40
31.105411279078609
 40
31.105411279078609
 10
360.49302790077678
 20
295.35939929131848
 30
0.0
 10
361.20898740725789
 20
295.76009804175681
 30
0.0
 10
362.24689009875379
 20
296.51965537773691
 30
0.0
 10
363.74043154338489
 20
297.20059829958421
 30
0.0
 10
364.81705404580981
 20
297.81732131635329
 30
0.0
 10
366.25203509795489
 20
298.22810858730111
 30
0.0
 10
368.08784020334281
 20
298.78717178884739
 30
0.0
 10
370.14987295615191
 20
299.0653089368418
 30
0.0
 10
372.02975896998788
 20
299.2674996591694
 30
0.0
 10
373.85866432311678
 20
299.26168138115679
 30
0.0
 10
375.832775690505
 20
299.11772721429861
 30
0.0
 10
377.76222059770072
 20
298.92399459657281
 30
0.0
 10
379.68636565505773
 20
298.3915388258045
 30
0.0
 10
381.45712721551268
 20
297.92121583319431
 30
0.0
 10
383.50964768875991
 20
297.17824116665821
 30
0.0
 10
385.56124493909181
 20
296.43094351779871
 30
0.0
 10
387.51259650467381
 20
295.4652520998992
 30
0.0
 10
388.8855257938859
 20
294.6297141268559
 30
0.0
 10
389.52540920950281
 20
294.1340629949496
 30
0.0
 10
389.72226360729888
 20
293.9774197848086
 30
0.0
 11
360.49302790077678
 21
295.35939929131848
 31
0.0
 11
361.54354408110061
 21
296.00372845188343
 31
0.0
 11
362.59686221048111
 21
296.64288018667548
 31
0.0
 11
363.20281962758168
 21
296.95416059794996
 31
0.0
 11
363.81314478528634
 21
297.25947052153333
 31
0.0
 11
364.29623235344644
 21
297.51526655573645
 31
0.0
 11
364.78657587430308
 21
297.75294811758818
 31
0.0
 11
365.3724836560321
 21
297.96970528982911
 31
0.0
 11
365.97314123663216
 21
298.15098271445248
 31
0.0
 11
366.98922211469034
 21
298.44661549796069
 31
0.0
 11
368.01148808531502
 21
298.70818675089436
 31
0.0
 11
369.18633931361512
 21
298.92518096215946
 31
0.0
 11
370.37318525912491
 21
299.08282225204835
 31
0.0
 11
371.22769019239064
 21
299.17625968122826
 31
0.0
 11
372.083909385369
 21
299.24003959405229
 31
0.0
 11
372.86425422426731
 21
299.25955596809229
 31
0.0
 11
373.64509363189364
 21
299.24733724993177
 31
0.0
 11
374.74204940358027
 21
299.19226390437643
 31
0.0
 11
375.8378944408488
 21
299.10727061279601
 31
0.0
 11
376.92609572155823
 21
298.99730451947778
 31
0.0
 11
378.0037693514077
 21
298.82453089440924
 31
0.0
 11
378.69171190677508
 21
298.66294093805618
 31
0.0
 11
379.37520432017908
 21
298.47953190515494
 31
0.0
 11
380.52452692360026
 21
298.16433411646204
 31
0.0
 11
381.66537644081745
 21
297.82387713363374
 31
0.0
 11
382.46961226511513
 21
297.55190870311901
 31
0.0
 11
383.26917195481684
 21
297.26479598019404
 31
0.0
 11
384.42609154751398
 21
296.83816855731544
 31
0.0
 11
385.56955367847399
 21
296.37890441386867
 31
0.0
 11
386.65091819062582
 21
295.88001539336614
 31
0.0
 11
387.70535073207481
 21
295.32445276578193
 31
0.0
 11
388.42701247694146
 21
294.89951140516359
 31
0.0
 11
389.1225976071712
 21
294.43496989166147
 31
0.0
 11
389.42509891386948
 21
294.20985420590915
 31
0.0
 11
389.72226360729888
 21
293.9774197848086
 31
0.0
  0
SPLINE
  5
192
100
AcDbEntity
  8
1
  6
CONTINUOUS
 62
             3
100
AcDbSpline
210
0.0
220
0.0
230
1.0
 70
             0
 71
             3
 72
            18
 73
            14
 74
            23
 42
0.00000000001
 43
0.00000000001
 44
0.00000000001
 40
0.0
 40
0.0
 40
0.0
 40
0.0
 40
3.7910034251621969
 40
6.6750575547669779
 40
9.7917965100896023
 40
12.360436242243701
 40
15.07634983061787
 40
17.469061419096469
 40
20.83784419011652
 40
23.49510461756698
 40
27.064308922205988
 40
33.953927121516138
 40
38.281425444804682
 40
38.281425444804682
 40
38.281425444804682
 40
38.281425444804682
 10
380.03144139033571
 20
312.6615095863483
 30
0.0
 10
378.77753203513282
 20
312.81528227207161
 30
0.0
 10
376.57101435361682
 20
313.1174011138454
 30
0.0
 10
373.30075055530091
 20
313.2060235897037
 30
0.0
 10
370.45217195194869
 20
312.95051475884031
 30
0.0
 10
367.67499179015192
 20
312.58269747606948
 30
0.0
 10
365.17231725812792
 20
312.02739635096299
 30
0.0
 10
362.4752613809768
 20
311.1780167076256
 30
0.0
 10
359.87495868560268
 20
310.10231520025229
 30
0.0
 10
357.08946583692477
 20
308.51894027075201
 30
0.0
 10
353.50292837078268
 20
306.01444603380821
 30
0.0
 10
350.01149240054281
 20
302.39874130614851
 30
0.0
 10
348.3242655971718
 20
299.02351529342201
 30
0.0
 10
347.80832964813982
 20
297.67492903489131
 30
0.0
 11
380.03144139033571
 21
312.6615095863483
 31
0.0
 11
378.15012562778242
 21
312.89355546028628
 31
0.0
 11
376.26385185392166
 21
313.08048824396656
 31
0.0
 11
374.82302633858376
 21
313.15238920887691
 31
0.0
 11
373.38063658824831
 21
313.15004364835335
 31
0.0
 11
371.8247491238335
 21
313.06271968569649
 31
0.0
 11
370.27313106436497
 21
312.9103122681322
 31
0.0
 11
368.99831491886806
 21
312.75135046183067
 31
0.0
 11
367.72939457169048
 21
312.5535003717012
 31
0.0
 11
366.39719354244176
 21
312.28867446470491
 31
0.0
 11
365.07827652223028
 21
311.96378882582405
 31
0.0
 11
363.92989354804945
 21
311.62808414843431
 31
0.0
 11
362.79501222228441
 21
311.24840579399381
 31
0.0
 11
361.22262139216616
 21
310.64150910640996
 31
0.0
 11
359.69016493610349
 21
309.94126361051826
 31
0.0
 11
358.51641249798155
 21
309.31803340559236
 31
0.0
 11
357.37331483660108
 21
308.64001859295621
 31
0.0
 11
355.8848495951674
 21
307.6559839068812
 31
0.0
 11
354.45633824473197
 21
306.58320870122031
 31
0.0
 11
351.9132457206257
 21
304.23909239693296
 31
0.0
 11
349.76920622462785
 21
301.53369066893475
 31
0.0
 11
348.68448704034063
 21
299.65701739592782
 31
0.0
 11
347.80832964813982
 21
297.67492903489131
 31
0.0
  0
SPLINE
  5
191
100
AcDbEntity
  8
1
  6
CONTINUOUS
 62
             3
100
AcDbSpline
210
0.0
220
0.0
230
1.0
 70
             0
 71
             3
 72
            18
 73
            14
 74
            23
 42
0.00000000001
 43
0.00000000001
 44
0.00000000001
 40
0.0
 40
0.0
 40
0.0
 40
0.0
 40
1.8250310986755791
 40
2.6799415379678728
 40
3.3849697094060471
 40
4.1627659909611214
 40
5.3229379573396276
 40
7.1504159499624986
 40
9.7259340333885049
 40
12.19874590560358
 40
17.00953247012189
 40
20.03388494414229
 40
25.797578622927752
 40
25.797578622927752
 40
25.797578622927752
 40
25.797578622927752
 10
369.43196932534971
 20
318.78706285080659
 30
0.0
 10
368.86781761034968
 20
319.0158065706986
 30
0.0
 10
368.0219277853767
 20
319.30415424605678
 30
0.0
 10
366.94260005553178
 20
319.63312117854042
 30
0.0
 10
366.19364232273171
 20
319.84856758815681
 30
0.0
 10
365.34050048277578
 20
320.06836058433089
 30
0.0
 10
364.12562901773578
 20
320.38509589471892
 30
0.0
 10
362.30284019112378
 20
320.73155647958561
 30
0.0
 10
360.03919331100781
 20
321.09556841465451
 30
0.0
 10
356.76505986434569
 20
321.40187205327442
 30
0.0
 10
353.31998111408171
 20
321.41536066469331
 30
0.0
 10
348.80280080231188
 20
321.0058347064201
 30
0.0
 10
345.91773048579182
 20
320.44976006038911
 30
0.0
 10
344.07203987124677
 20
319.9115122337779
 30
0.0
 11
369.43196932534971
 21
318.78706285080659
 31
0.0
 11
368.57780603691077
 21
319.10832370319343
 31
0.0
 11
367.71171761407533
 21
319.3955959834762
 31
0.0
 11
367.30350370805371
 21
319.52241209937529
 31
0.0
 11
366.89409724343898
 21
319.64533342306299
 31
0.0
 11
366.55560664974132
 21
319.74382058913147
 31
0.0
 11
366.21614575007135
 21
319.83884439216359
 31
0.0
 11
365.8404130196144
 21
319.93911740901211
 31
0.0
 11
365.46397773071124
 21
320.03686036690488
 31
0.0
 11
364.90212882417205
 21
320.18143370767206
 31
0.0
 11
364.33866656696523
 21
320.3191258028304
 31
0.0
 11
363.44525643244583
 21
320.51031731488712
 31
0.0
 11
362.54674996445624
 21
320.67788854221988
 31
0.0
 11
361.27647807816567
 21
320.89112939027297
 31
0.0
 11
360.00160555684982
 21
321.07226569988177
 31
0.0
 11
358.77262610196414
 21
321.20756280644889
 31
0.0
 11
357.53969957976994
 21
321.30425172400174
 31
0.0
 11
355.13459753662522
 21
321.38483297437142
 31
0.0
 11
352.72895723779209
 21
321.32487909526475
 31
0.0
 11
351.22045911121518
 21
321.21604618892798
 31
0.0
 11
349.71677665199218
 21
321.05381451690164
 31
0.0
 11
346.8714715422995
 21
320.59475024492895
 31
0.0
 11
344.07203987124677
 21
319.9115122337779
 31
0.0
  0
SPLINE
  5
190
100
AcDbEntity
  8
1
  6
CONTINUOUS
 62
             3
100
AcDbSpline
210
0.0
220
0.0
230
1.0
 70
             0
 71
             3
 72
            14
 73
            10
 74
            15
 42
0.00000000001
 43
0.00000000001
 44
0.00000000001
 40
0.0
 40
0.0
 40
0.0
 40
0.0
 40
3.7910034251621969
 40
6.6750575547669779
 40
9.7917965100896023
 40
12.360436242243701
 40
15.07634983061787
 40
17.469061419096469
 40
18.967820505517182
 40
18.967820505517182
 40
18.967820505517182
 40
18.967820505517182
 10
344.07203987124677
 20
319.9115122337779
 30
0.0
 10
343.17001584900282
 20
319.02704212504921
 30
0.0
 10
341.55806855504972
 20
317.49028515177321
 30
0.0
 10
339.44980458579391
 20
314.98874516813419
 30
0.0
 10
337.87350972488872
 20
312.60232958538211
 30
0.0
 10
336.42953734760869
 20
310.20171237761201
 30
0.0
 10
335.30329720143669
 20
307.8988180496122
 30
0.0
 10
334.5102348378278
 20
305.8425584565432
 30
0.0
 10
334.1150343556568
 20
304.60537084042528
 30
0.0
 10
333.97549463977691
 20
304.125285933344
 30
0.0
 11
344.07203987124677
 21
319.9115122337779
 31
0.0
 11
342.71763790963075
 21
318.58531857808021
 31
0.0
 11
341.39541551276227
 21
317.22712104134678
 31
0.0
 11
340.44086105973156
 21
316.14546781105395
 31
0.0
 11
339.54337959318138
 21
315.01629966116406
 31
0.0
 11
338.64157224948985
 21
313.74541225811043
 31
0.0
 11
337.79331113027757
 21
312.43728393985202
 31
0.0
 11
337.12275760901889
 21
311.34148147781309
 31
0.0
 11
336.48628414248253
 21
310.22604208813681
 31
0.0
 11
335.8627196182133
 21
309.01936913019802
 31
0.0
 11
335.29439412732313
 21
307.78563539840701
 31
0.0
 11
334.84085353991549
 21
306.6784849924619
 31
0.0
 11
334.43011109772215
 21
305.55447346112322
 31
0.0
 11
334.19405422809416
 21
304.84268173903979
 31
0.0
 11
333.97549463977691
 21
304.125285933344
 31
0.0
  0
SPLINE
  5
18F
100
AcDbEntity
  8
1
  6
CONTINUOUS
 62
             3
100
AcDbSpline
210
0.0
220
0.0
230
1.0
 70
             0
 71
             3
 72
            18
 73
            14
 74
            23
 42
0.00000000001
 43
0.00000000001
 44
0.00000000001
 40
0.0
 40
0.0
 40
0.0
 40
0.0
 40
2.4644354346243089
 40
3.828080162115616
 40
4.9194500457353829
 40
6.1709966486954748
 40
8.284130391211999
 40
10.67535712648972
 40
12.39329028256425
 40
13.95449158520857
 40
16.15176126610649
 40
18.33601305483031
 40
19.149790283567679
 40
19.149790283567679
 40
19.149790283567679
 40
19.149790283567679
 10
337.19945571075579
 20
281.11915982146968
 30
0.0
 10
336.64948733649072
 20
281.728004868119
 30
0.0
 10
335.67801861243089
 20
282.5708677643434
 30
0.0
 10
334.68180411409281
 20
283.87543895172371
 30
0.0
 10
333.84097258615571
 20
284.7878344984955
 30
0.0
 10
333.12117128574278
 20
286.0954288124592
 30
0.0
 10
332.16761989918479
 20
287.76080318523151
 30
0.0
 10
331.4376107760898
 20
289.70924513380271
 30
0.0
 10
330.82217540568968
 20
291.49700681201091
 30
0.0
 10
330.42087807993983
 20
293.28135237815241
 30
0.0
 10
330.12194190998167
 20
295.23800146761602
 30
0.0
 10
329.90638575757282
 20
296.9628512802999
 30
0.0
 10
329.9236144437408
 20
297.9618851382437
 30
0.0
 10
329.9323726926678
 20
298.23315062588881
 30
0.0
 11
337.19945571075579
 21
281.11915982146968
 31
0.0
 11
336.33751938586323
 21
281.99996064123815
 31
0.0
 11
335.48000718554778
 21
282.88464524496976
 31
0.0
 11
335.04169301366386
 21
283.40614363663349
 31
0.0
 11
334.60822772316055
 21
283.93322881902299
 31
0.0
 11
334.25134793272014
 21
284.34728440079931
 31
0.0
 11
333.91051384561814
 21
284.77244486269569
 31
0.0
 11
333.56881448140649
 21
285.29542970464212
 31
0.0
 11
333.25842317444278
 21
285.84068952378482
 31
0.0
 11
332.74410325603776
 21
286.76551064971801
 31
0.0
 11
332.26161456194609
 21
287.70394119863073
 31
0.0
 11
331.78863185596606
 21
288.80105069918437
 31
0.0
 11
331.3708448940281
 21
289.92306145184477
 31
0.0
 11
331.0896049004171
 21
290.73535037836092
 31
0.0
 11
330.8368973886349
 21
291.55591000275933
 31
0.0
 11
330.64422726844128
 21
292.31234716553979
 31
0.0
 11
330.48238652353393
 21
293.07632821953501
 31
0.0
 11
330.29198344245452
 21
294.15803599206089
 31
0.0
 11
330.13099731354566
 21
295.24531869293446
 31
0.0
 11
329.99605876194522
 21
296.33070625335199
 31
0.0
 11
329.92469564884505
 21
297.41980610372457
 31
0.0
 11
329.92309068426925
 21
297.82634275915427
 31
0.0
 11
329.9323726926678
 21
298.23315062588881
 31
0.0
  0
SPLINE
  5
18E
100
AcDbEntity
  8
1
  6
CONTINUOUS
 62
             3
100
AcDbSpline
210
0.0
220
0.0
230
1.0
 70
             0
 71
             3
 72
            15
 73
            11
 74
            17
 42
0.00000000001
 43
0.00000000001
 44
0.00000000001
 40
0.0
 40
0.0
 40
0.0
 40
0.0
 40
1.8250310986755791
 40
2.6799415379678728
 40
3.3849697094060471
 40
4.1627659909611214
 40
5.3229379573396276
 40
7.1504159499624986
 40
9.7259340333885049
 40
10.87174027421973
 40
10.87174027421973
 40
10.87174027421973
 40
10.87174027421973
 10
332.67422674406572
 20
315.44373126668012
 30
0.0
 10
332.14364486144069
 20
315.14527907158288
 30
0.0
 10
331.39080189159478
 20
314.66371761067637
 30
0.0
 10
330.46065535468171
 20
314.02497273911189
 30
0.0
 10
329.82524506044581
 20
313.57374264379791
 30
0.0
 10
329.12147873967371
 20
313.04376818592641
 30
0.0
 10
328.11638513339892
 20
312.2914246632962
 30
0.0
 10
326.70902109641281
 20
311.08232561413621
 30
0.0
 10
325.34037776978391
 20
309.8372539744513
 30
0.0
 10
324.46448871649778
 20
308.95867107585889
 30
0.0
 10
324.19876929497377
 20
308.68424783333001
 30
0.0
 11
332.67422674406572
 21
315.44373126668012
 31
0.0
 11
331.89049279613272
 21
314.97622238178974
 31
0.0
 11
331.1258969842338
 21
314.47819852330974
 31
0.0
 11
330.77223094496395
 21
314.23811259496637
 31
0.0
 11
330.42086642874182
 21
313.99466592354611
 31
0.0
 11
330.13282062849981
 21
313.79142906452444
 31
0.0
 11
329.84687761863654
 21
313.58527421821276
 31
0.0
 11
329.53421549156388
 21
313.35403374394662
 31
0.0
 11
329.22309340620899
 21
313.12066652141198
 31
0.0
 11
328.75975435346754
 21
312.7715353614667
 31
0.0
 11
328.30078936749356
 21
312.41685244671623
 31
0.0
 11
327.59427771645147
 21
311.83756223474489
 31
0.0
 11
326.90305563568648
 21
311.23956054217945
 31
0.0
 11
325.94433566066203
 21
310.37937548426055
 31
0.0
 11
325.00784757550315
 21
309.4955766527267
 31
0.0
 11
324.60032691112599
 21
309.09292567355322
 31
0.0
 11
324.19876929497377
 21
308.68424783333001
 31
0.0
  0
SPLINE
  5
18D
100
AcDbEntity
  8
1
  6
CONTINUOUS
 62
             3
100
AcDbSpline
210
0.0
220
0.0
230
1.0
 70
             0
 71
             3
 72
            11
 73
             7
 74
             9
 42
0.00000000001
 43
0.00000000001
 44
0.00000000001
 40
26.335511326714329
 40
26.335511326714329
 40
26.335511326714329
 40
26.335511326714329
 40
27.064308922205988
 40
33.953927121516138
 40
38.467301704811412
 40
41.501974087581459
 40
41.501974087581459
 40
41.501974087581459
 40
41.501974087581459
 10
332.8859544859539
 20
296.8565615693991
 30
0.0
 10
332.88023048086973
 20
296.61337230560309
 30
0.0
 10
332.85352853235668
 20
294.068884811354
 30
0.0
 10
333.38683416301581
 20
289.97958578026191
 30
0.0
 10
335.45266435937481
 20
285.58072839127021
 30
0.0
 10
336.89366668457279
 20
283.51702380112499
 30
0.0
 10
337.45740872678073
 20
282.67716993307738
 30
0.0
 11
332.8859544859539
 21
296.8565615693991
 31
0.0
 11
332.87976313841187
 21
296.49161140179581
 31
0.0
 11
332.87843087097724
 21
296.12633281239249
 31
0.0
 11
333.12554254235874
 21
292.67653040412904
 31
0.0
 11
333.90392402557882
 21
289.31346243918449
 31
0.0
 11
334.73381274296651
 21
287.21067857765695
 31
0.0
 11
335.79331406637704
 21
285.21458998412237
 31
0.0
 11
336.60933366792307
 21
283.93537796161041
 31
0.0
 11
337.45740872678073
 21
282.67716993307738
 31
0.0
  0
SPLINE
  5
18C
100
AcDbEntity
  8
1
  6
CONTINUOUS
 62
             3
100
AcDbSpline
210
0.0
220
0.0
230
1.0
 70
             0
 71
             3
 72
            19
 73
            15
 74
            25
 42
0.00000000001
 43
0.00000000001
 44
0.00000000001
 40
26.62065017038125
 40
26.62065017038125
 40
26.62065017038125
 40
26.62065017038125
 40
28.677782563478321
 40
30.351033437771839
 40
31.409701128593479
 40
32.305785352391318
 40
33.183589305344498
 40
34.378254737910169
 40
35.367308742818572
 40
35.757394776344249
 40
36.113776025144531
 40
36.579347452821722
 40
37.016114655673533
 40
37.759872923884913
 40
37.759872923884913
 40
37.759872923884913
 40
37.759872923884913
 10
330.68626857130067
 20
305.65907723845771
 30
0.0
 10
330.81961644656383
 20
306.33163287063928
 30
0.0
 10
331.1182145661279
 20
307.54067862793511
 30
0.0
 10
331.62512969982367
 20
309.0586164642807
 30
0.0
 10
332.15020942622778
 20
310.14913364819211
 30
0.0
 10
332.5693092899308
 20
310.9954504317642
 30
0.0
 10
333.0876156902558
 20
311.84058121682381
 30
0.0
 10
333.63826110415482
 20
312.69359175209001
 30
0.0
 10
334.03467776628582
 20
313.47340450031612
 30
0.0
 10
334.08980642493282
 20
314.05865208447273
 30
0.0
 10
333.95490298654369
 20
314.45928364284651
 30
0.0
 10
333.61410143118678
 20
314.7229161803732
 30
0.0
 10
333.23265200537372
 20
315.11693827722081
 30
0.0
 10
332.86965506314988
 20
315.29314737581251
 30
0.0
 10
332.67422674406572
 20
315.44373126668012
 30
0.0
 11
330.68626857130067
 21
305.65907723845771
 31
0.0
 11
330.90952132777687
 21
306.66325759278709
 31
0.0
 11
331.17821456107106
 21
307.65698923820474
 31
0.0
 11
331.43191690907065
 21
308.45511576488292
 31
0.0
 11
331.73002914408733
 21
309.23663133510343
 31
0.0
 11
331.94613437141385
 21
309.71970780463374
 31
0.0
 11
332.17559117907018
 21
310.19697072957376
 31
0.0
 11
332.37481266798648
 21
310.59842185689166
 31
0.0
 11
332.5840731977849
 21
310.99453538308239
 31
0.0
 11
332.80408753062483
 21
311.37446652349814
 31
0.0
 11
333.03424802051126
 21
311.74811511264238
 31
0.0
 11
333.35127548936282
 21
312.25305536058295
 31
0.0
 11
333.65835379423254
 21
312.76679930265152
 31
0.0
 11
333.88614356623788
 21
313.20978348012761
 31
0.0
 11
334.04021497047313
 21
313.67916428811833
 31
0.0
 11
334.06695882874959
 21
313.87300448709186
 31
0.0
 11
334.0617127270055
 21
314.06865749732231
 31
0.0
 11
334.0204330398156
 21
314.24401131437122
 31
0.0
 11
333.94241812444682
 21
314.40447946250151
 31
0.0
 11
333.79130025376361
 21
314.57958832551554
 31
0.0
 11
333.61567655816231
 21
314.73613697128309
 31
0.0
 11
333.45510977286835
 21
314.88560349879344
 31
0.0
 11
333.29154891395353
 21
315.02889431063858
 31
0.0
 11
332.98372442106108
 21
315.23730780579632
 31
0.0
 11
332.67422674406572
 21
315.44373126668012
 31
0.0
  0
SPLINE
  5
18B
100
AcDbEntity
  8
1
  6
CONTINUOUS
 62
             3
100
AcDbSpline
210
0.0
220
0.0
230
1.0
 70
             0
 71
             3
 72
             9
 73
             5
 74
             5
 42
0.00000000001
 43
0.00000000001
 44
0.00000000001
 40
18.143424922150569
 40
18.143424922150569
 40
18.143424922150569
 40
18.143424922150569
 40
20.03388494414229
 40
25.797578622927752
 40
25.797578622927752
 40
25.797578622927752
 40
25.797578622927752
 10
319.63026019228869
 20
303.03470220605038
 30
0.0
 10
319.27846723321369
 20
302.5117635627829
 30
0.0
 10
317.90144533430367
 20
300.36280745018342
 30
0.0
 10
316.7133896053009
 20
298.0962338089962
 30
0.0
 10
315.98343942600383
 20
296.31762274886671
 30
0.0
 11
319.63026019228869
 21
303.03470220605038
 31
0.0
 11
319.11131753695469
 21
302.24450928205749
 31
0.0
 11
318.60978735540601
 21
301.44306949853097
 31
0.0
 11
317.19467953670392
 21
298.93229849453837
 31
0.0
 11
315.98343942600383
 21
296.31762274886671
 31
0.0
  0
SPLINE
  5
18A
100
AcDbEntity
  8
1
  6
CONTINUOUS
 62
             3
100
AcDbSpline
210
0.0
220
0.0
230
1.0
 70
             0
 71
             3
 72
            31
 73
            27
 74
            49
 42
0.00000000001
 43
0.00000000001
 44
0.00000000001
 40
4.6573342050198843
 40
4.6573342050198843
 40
4.6573342050198843
 40
4.6573342050198843
 40
4.9194500457353829
 40
6.1709966486954748
 40
8.284130391211999
 40
10.67535712648972
 40
12.39329028256425
 40
13.95449158520857
 40
16.15176126610649
 40
18.33601305483031
 40
19.75017647401372
 40
22.13235436862335
 40
23.830804187385809
 40
26.295872125967499
 40
28.677782563478321
 40
30.351033437771839
 40
31.409701128593479
 40
32.305785352391318
 40
33.183589305344498
 40
34.378254737910169
 40
35.367308742818572
 40
35.757394776344249
 40
36.113776025144531
 40
36.579347452821722
 40
37.016114655673533
 40
37.759872923884913
 40
37.759872923884913
 40
37.759872923884913
 40
37.759872923884913
 10
346.16051617913678
 20
298.44331707472611
 30
0.0
 10
346.17956674629778
 20
298.52846432350759
 30
0.0
 10
346.29840993061867
 20
299.01767231088809
 30
0.0
 10
346.76520787291389
 20
300.13926025569981
 30
0.0
 10
347.47272042262091
 20
301.9231206875437
 30
0.0
 10
348.54092043630573
 20
303.7086984868896
 30
0.0
 10
349.55493112236968
 20
305.30451640938441
 30
0.0
 10
350.69978387149882
 20
306.73078455593901
 30
0.0
 10
352.04317007644568
 20
308.18445301792281
 30
0.0
 10
353.39762555901473
 20
309.5721634786504
 30
0.0
 10
355.01360106415268
 20
310.74453991835321
 30
0.0
 10
356.48536616114382
 20
311.8357354648258
 30
0.0
 10
358.34597272926482
 20
312.97722346164142
 30
0.0
 10
360.20938352099279
 20
314.11529431832639
 30
0.0
 10
362.18103927481371
 20
315.03882365490779
 30
0.0
 10
363.78578424533782
 20
315.62622598530783
 30
0.0
 10
364.96576676647578
 20
315.89562846728938
 30
0.0
 10
365.88874836299681
 20
316.09563288322511
 30
0.0
 10
366.87265697240269
 20
316.21733504758362
 30
0.0
 10
367.88288926376077
 20
316.31866649691051
 30
0.0
 10
368.73973316688267
 20
316.49494076613922
 30
0.0
 10
369.2316703096788
 20
316.81673534549441
 30
0.0
 10
369.46078575682378
 20
317.1719967916631
 30
0.0
 10
369.45441568025382
 20
317.6028183755019
 30
0.0
 10
369.52464473345083
 20
318.14671630466171
 30
0.0
 10
369.4360856626547
 20
318.54038331810068
 30
0.0
 10
369.43196932534971
 20
318.78706285080659
 30
0.0
 11
346.16051617913678
 21
298.44331707472611
 31
0.0
 11
346.19033251104673
 21
298.57068836481761
 31
0.0
 11
346.22300440640851
 21
298.69726039124936
 31
0.0
 11
346.41884435182317
 21
299.29048742720511
 31
0.0
 11
346.65161983009062
 21
299.8731250594671
 31
0.0
 11
347.05400087800297
 21
300.85185310428932
 31
0.0
 11
347.48686864499859
 21
301.81417983225384
 31
0.0
 11
348.04972349863834
 21
302.86800918755529
 31
0.0
 11
348.66646091864328
 21
303.89421044920732
 31
0.0
 11
349.12618370638012
 21
304.62054659217569
 31
0.0
 11
349.61016249754493
 21
305.32973183836077
 31
0.0
 11
350.08144103086732
 21
305.95199826078806
 31
0.0
 11
350.57783941693015
 21
306.55486484626965
 31
0.0
 11
351.30483822904665
 21
307.37816173415933
 31
0.0
 11
352.05453686533747
 21
308.18193543369398
 31
0.0
 11
352.81899421997019
 21
308.9641627164994
 31
0.0
 11
353.62599259731388
 21
309.69899929490111
 31
0.0
 11
354.18125387996656
 21
310.13610475296178
 31
0.0
 11
354.75079938545235
 21
310.55612697822085
 31
0.0
 11
355.71382186211798
 21
311.2581809662932
 31
0.0
 11
356.69130988914264
 21
311.93786157887138
 31
0.0
 11
357.40537620508394
 21
312.39706892280003
 31
0.0
 11
358.12836728337891
 21
312.84317800561138
 31
0.0
 11
359.18324560147084
 21
313.48169631853449
 31
0.0
 11
360.25524974503628
 21
314.08934450175769
 31
0.0
 11
361.31951663292796
 21
314.62373710486571
 31
0.0
 11
362.41130092198546
 21
315.10173802934384
 31
0.0
 11
363.19348219422835
 21
315.40100929645934
 31
0.0
 11
363.99036560941465
 21
315.65520275382079
 31
0.0
 11
364.50278940710302
 21
315.78743813582804
 31
0.0
 11
365.01899256677984
 21
315.90561014622807
 31
0.0
 11
365.45707226344183
 21
316.00015319802577
 31
0.0
 11
365.89723809511179
 21
316.0835194717389
 31
0.0
 11
366.33145691464864
 21
316.1483885311776
 31
0.0
 11
366.76708986325758
 21
316.20140789896351
 31
0.0
 11
367.35953143960279
 21
316.26837093813191
 31
0.0
 11
367.95265281889976
 21
316.34860156043311
 31
0.0
 11
368.44101639490088
 21
316.44670446232402
 31
0.0
 11
368.90405503715692
 21
316.61890073490383
 31
0.0
 11
369.07227993018239
 21
316.71884893178662
 31
0.0
 11
369.2219767222864
 21
316.84493815586825
 31
0.0
 11
369.33333639304294
 21
316.98654323154392
 31
0.0
 11
369.41015393906349
 21
317.14758800236177
 31
0.0
 11
369.4528391097835
 21
317.3749153015288
 31
0.0
 11
369.46573418641606
 21
317.60982991994803
 31
0.0
 11
369.48248007005617
 21
317.82855694335115
 31
0.0
 11
369.49253081039376
 21
318.04577433203553
 31
0.0
 11
369.46354961020762
 21
318.41638490045489
 31
0.0
 11
369.43196932534971
 21
318.78706285080659
 31
0.0
  0
SPLINE
  5
189
100
AcDbEntity
  8
1
  6
CONTINUOUS
 62
             3
100
AcDbSpline
210
0.0
220
0.0
230
1.0
 70
             0
 71
             3
 72
            14
 73
            10
 74
            15
 42
0.00000000001
 43
0.00000000001
 44
0.00000000001
 40
15.708930454573879
 40
15.708930454573879
 40
15.708930454573879
 40
15.708930454573879
 40
17.469061419096469
 40
20.83784419011652
 40
23.49510461756698
 40
27.064308922205988
 40
33.953927121516138
 40
38.467301704811412
 40
41.501974087581459
 40
41.501974087581459
 40
41.501974087581459
 40
41.501974087581459
 10
386.40084708247377
 20
291.65173889652851
 30
0.0
 10
385.92055861963883
 20
291.988828466634
 30
0.0
 10
384.49252623382267
 20
292.93040943256761
 30
0.0
 10
382.21526105168579
 20
294.19035582751781
 30
0.0
 10
379.24060229897981
 20
295.38092370981622
 30
0.0
 10
375.04634032278477
 20
296.6234649984533
 30
0.0
 10
369.97969258953782
 20
297.10480019672241
 30
0.0
 10
365.23143327456069
 20
296.06960253124009
 30
0.0
 10
362.89881688384668
 20
295.12394661581061
 30
0.0
 10
361.95457549997269
 20
294.7612238307438
 30
0.0
 11
386.40084708247377
 21
291.65173889652851
 31
0.0
 11
385.6732405949914
 21
292.14700518597209
 31
0.0
 11
384.93193436059505
 21
292.62194183918564
 31
0.0
 11
383.47707377654331
 21
293.47289259746157
 31
0.0
 11
381.97412883027084
 21
294.23441937487365
 31
0.0
 11
380.75504516017224
 21
294.76351830666965
 31
0.0
 11
379.51224209968603
 21
295.23449272471584
 31
0.0
 11
377.81484990383046
 21
295.78468611962739
 31
0.0
 11
376.08545821560904
 21
296.23267686608733
 31
0.0
 11
372.6671620364005
 21
296.75941405425402
 31
0.0
 11
369.21520703219062
 21
296.7489012446282
 31
0.0
 11
366.98047673981154
 21
296.40773299892902
 31
0.0
 11
364.79867303074388
 21
295.81896708394436
 31
0.0
 11
363.36995208051007
 21
295.30805825155824
 31
0.0
 11
361.95457549997269
 21
294.7612238307438
 31
0.0
  0
SPLINE
  5
188
100
AcDbEntity
  8
1
  6
CONTINUOUS
 62
             3
100
AcDbSpline
210
0.0
220
0.0
230
1.0
 70
             0
 71
             3
 72
            28
 73
            24
 74
            43
 42
0.00000000001
 43
0.00000000001
 44
0.00000000001
 40
9.0807002382555844
 40
9.0807002382555844
 40
9.0807002382555844
 40
9.0807002382555844
 40
10.67535712648972
 40
12.39329028256425
 40
13.95449158520857
 40
16.15176126610649
 40
18.33601305483031
 40
19.75017647401372
 40
22.13235436862335
 40
23.830804187385809
 40
26.295872125967499
 40
28.677782563478321
 40
30.351033437771839
 40
31.409701128593479
 40
32.305785352391318
 40
33.183589305344498
 40
34.378254737910169
 40
35.367308742818572
 40
35.757394776344249
 40
36.113776025144531
 40
36.579347452821722
 40
37.016114655673533
 40
37.759872923884913
 40
37.759872923884913
 40
37.759872923884913
 40
37.759872923884913
 10
378.98660572367368
 20
280.20986531216488
 30
0.0
 10
379.38361527064973
 20
279.85652212646141
 30
0.0
 10
380.17934787741081
 20
279.086882512285
 30
0.0
 10
381.3226551754708
 20
277.93195330721142
 30
0.0
 10
382.45841009875181
 20
276.49842988664801
 30
0.0
 10
383.57670050432881
 20
274.86525351472631
 30
0.0
 10
384.62822346745401
 20
273.2359624311274
 30
0.0
 10
385.41161760335882
 20
271.3996245054152
 30
0.0
 10
386.14795605523381
 20
269.72194578001751
 30
0.0
 10
386.84680065338267
 20
267.65398352798081
 30
0.0
 10
387.54168978778267
 20
265.58404774529231
 30
0.0
 10
388.00332963584782
 20
263.45632090714241
 30
0.0
 10
388.21891521374869
 20
261.76110092826622
 30
0.0
 10
388.21899240032673
 20
260.5507553406224
 30
0.0
 10
388.20859956105278
 20
259.6064096503145
 30
0.0
 10
388.10831013531782
 20
258.62008840469559
 30
0.0
 10
387.98230316061267
 20
257.61263637732679
 30
0.0
 10
387.96349216026078
 20
256.73805062476941
 30
0.0
 10
388.16775236517282
 20
256.18684134286821
 30
0.0
 10
388.46312368186778
 20
255.88441718951981
 30
0.0
 10
388.88456114450588
 20
255.7947607337461
 30
0.0
 10
389.39919498250379
 20
255.60526379433841
 30
0.0
 10
389.80269818915468
 20
255.60400335281599
 30
0.0
 10
390.04410892217271
 20
255.55312512493271
 30
0.0
 11
378.98660572367368
 21
280.20986531216488
 31
0.0
 11
379.57286110775516
 21
279.66868394342413
 31
0.0
 11
380.14541174976165
 21
279.11197030744853
 31
0.0
 11
380.75123918504954
 21
278.50214873288763
 31
0.0
 11
381.33494826380667
 21
277.87249573711864
 31
0.0
 11
381.83674382842605
 21
277.27456583505739
 31
0.0
 11
382.31403625742183
 21
276.6564627572468
 31
0.0
 11
382.95491891873615
 21
275.7644905307431
 31
0.0
 11
383.57171669271185
 21
274.85473193015787
 31
0.0
 11
384.16422413982059
 21
273.93537917188814
 31
0.0
 11
384.70106279832146
 21
272.98509740697222
 31
0.0
 11
385.00365185071428
 21
272.34649256917987
 31
0.0
 11
385.28640744401218
 21
271.69776302076264
 31
0.0
 11
385.75656681185961
 21
270.60266381906587
 31
0.0
 11
386.20169486367138
 21
269.498440292971
 31
0.0
 11
386.49049421717649
 21
268.70009386334601
 31
0.0
 11
386.76453776386256
 21
267.89596107109048
 31
0.0
 11
387.15231458095997
 21
266.72544706346815
 31
0.0
 11
387.50618439228072
 21
265.54510586066624
 31
0.0
 11
387.79035699518397
 21
264.38860882449245
 31
0.0
 11
388.0134285787683
 21
263.21783263485071
 31
0.0
 11
388.1311447831294
 21
262.38866815828476
 31
0.0
 11
388.20164183796186
 21
261.55520090852406
 31
0.0
 11
388.21653678078917
 21
261.02619950458472
 31
0.0
 11
388.2168799629377
 21
260.49664288973781
 31
0.0
 11
388.21157071976728
 21
260.04850895751696
 31
0.0
 11
388.19490071496369
 21
259.60082826114666
 31
0.0
 11
388.16152059436109
 21
259.16306149029577
 31
0.0
 11
388.11627320529379
 21
258.72655284999553
 31
0.0
 11
388.04972668835143
 21
258.13406434286674
 31
0.0
 11
387.99596383814401
 21
257.53796076187467
 31
0.0
 11
387.98293597639622
 21
257.04001153098602
 31
0.0
 11
388.04777913775047
 21
256.55026495883027
 31
0.0
 11
388.10778786434378
 21
256.36401724897541
 31
0.0
 11
388.19740509832832
 21
256.19001617608018
 31
0.0
 11
388.31067998116271
 21
256.04993843107036
 31
0.0
 11
388.45059351125389
 21
255.93921102849163
 31
0.0
 11
388.66272289635356
 21
255.84701098118575
 31
0.0
 11
388.88887829033098
 21
255.78216579074527
 31
0.0
 11
389.09839506092442
 21
255.71716841983067
 31
0.0
 11
389.30792985603432
 21
255.65903425632533
 31
0.0
 11
389.67569736746577
 21
255.604820227478
 31
0.0
 11
390.04410892217271
 21
255.55312512493271
 31
0.0
  0
SPLINE
  5
187
100
AcDbEntity
  8
1
  6
CONTINUOUS
 62
             3
100
AcDbSpline
210
0.0
220
0.0
230
1.0
 70
             0
 71
             3
 72
            10
 73
             6
 74
             7
 42
0.00000000001
 43
0.00000000001
 44
0.00000000001
 40
33.475235575748513
 40
33.475235575748513
 40
33.475235575748513
 40
33.475235575748513
 40
33.953927121516138
 40
38.467301704811412
 40
41.501974087581459
 40
41.501974087581459
 40
41.501974087581459
 40
41.501974087581459
 10
348.59592901096482
 20
256.30055426113711
 30
0.0
 10
348.73513801204967
 20
256.37927275158279
 30
0.0
 10
350.17626361302177
 20
257.2186569263024
 30
0.0
 10
352.30495999469878
 20
258.88256945644679
 30
0.0
 10
353.99627001912393
 20
260.7466603173994
 30
0.0
 10
354.68962259158781
 20
261.48315323663689
 30
0.0
 11
348.59592901096482
 21
256.30055426113711
 31
0.0
 11
348.80397102825407
 21
256.41996317487093
 31
0.0
 11
349.01044052787415
 21
256.54204781016563
 31
0.0
 11
350.87583559545016
 21
257.81904291329442
 31
0.0
 11
352.58611685664596
 21
259.29615182436055
 31
0.0
 11
353.65167491926303
 21
260.37636356463997
 31
0.0
 11
354.68962259158781
 21
261.48315323663689
 31
0.0
  0
SPLINE
  5
186
100
AcDbEntity
  8
1
  6
CONTINUOUS
 62
             3
100
AcDbSpline
210
0.0
220
0.0
230
1.0
 70
             0
 71
             3
 72
            24
 73
            20
 74
            35
 42
0.00000000001
 43
0.00000000001
 44
0.00000000001
 40
16.352507594431369
 40
16.352507594431369
 40
16.352507594431369
 40
16.352507594431369
 40
18.33601305483031
 40
19.75017647401372
 40
22.13235436862335
 40
23.830804187385809
 40
26.295872125967499
 40
28.677782563478321
 40
30.351033437771839
 40
31.409701128593479
 40
32.305785352391318
 40
33.183589305344498
 40
34.378254737910169
 40
35.367308742818572
 40
35.757394776344249
 40
36.113776025144531
 40
36.579347452821722
 40
37.016114655673533
 40
37.759872923884913
 40
37.759872923884913
 40
37.759872923884913
 40
37.759872923884913
 10
343.87874732548983
 20
251.47277583039511
 30
0.0
 10
343.25868565857678
 20
251.2400585930211
 30
0.0
 10
342.18764006507968
 20
250.86202584233831
 30
0.0
 10
340.28896633308779
 20
250.51881703274881
 30
0.0
 10
338.4894997959878
 20
250.17425876014681
 30
0.0
 10
336.31787812245682
 20
249.95310054695199
 30
0.0
 10
334.14521257229683
 20
249.73623777765511
 30
0.0
 10
331.96810775814379
 20
249.759635967739
 30
0.0
 10
330.26741817931571
 20
249.92667750342571
 30
0.0
 10
329.08740130691967
 20
250.19592948270611
 30
0.0
 10
328.16904495900292
 20
250.41619843683239
 30
0.0
 10
327.22976934296781
 20
250.73345052208211
 30
0.0
 10
326.27561543101478
 20
251.08047740494521
 30
0.0
 10
325.42714321062778
 20
251.29343041276991
 30
0.0
 10
324.84430172467779
 20
251.21694704189611
 30
0.0
 10
324.48373367499482
 20
250.99627700586461
 30
0.0
 10
324.30254643594282
 20
250.6053562985831
 30
0.0
 10
324.00328377814168
 20
250.14579244131909
 30
0.0
 10
323.91226702810269
 20
249.75268637712981
 30
0.0
 10
323.8089454818267
 20
249.52864978600201
 30
0.0
 11
343.87874732548983
 21
251.47277583039511
 31
0.0
 11
342.94348552261056
 21
251.13872682061194
 31
0.0
 11
341.99280143768425
 21
250.85875583441276
 31
0.0
 11
341.30287535791518
 21
250.70585626628338
 31
0.0
 11
340.6074917749977
 21
250.57454585108511
 31
0.0
 11
339.43522869500322
 21
250.35985685739178
 31
0.0
 11
338.25964004829689
 21
250.17160194556703
 31
0.0
 11
337.41704592859156
 21
250.06769218799781
 31
0.0
 11
336.57209399836307
 21
249.97945586517994
 31
0.0
 11
335.3446387612193
 21
249.8618652927409
 31
0.0
 11
334.11514773579148
 21
249.77951836330166
 31
0.0
 11
332.92441214186607
 21
249.7598153615204
 31
0.0
 11
331.73335165855025
 21
249.80285885950209
 31
0.0
 11
330.89878174682383
 21
249.872600499925
 31
0.0
 11
330.07052419066611
 21
249.9893348643219
 31
0.0
 11
329.55147151979827
 21
250.09252725530345
 31
0.0
 11
329.03511562969726
 21
250.21003010999183
 31
0.0
 11
328.5993987685336
 21
250.31492542050839
 31
0.0
 11
328.16665178694109
 21
250.43079580017996
 31
0.0
 11
327.74728851863148
 21
250.56075128219339
 31
0.0
 11
327.33179255257568
 21
250.70199653508922
 31
0.0
 11
326.76896696244012
 21
250.89871568790767
 31
0.0
 11
326.1997723024287
 21
251.0837761168184
 31
0.0
 11
325.71720667035561
 21
251.20728147081627
 31
0.0
 11
325.22531010644275
 21
251.25304292756016
 31
0.0
 11
325.03037881763743
 21
251.23598275938369
 31
0.0
 11
324.84079860431501
 21
251.18733129781896
 31
0.0
 11
324.67902686810356
 21
251.10806668344904
 31
0.0
 11
324.53994194329158
 21
250.99630024271468
 31
0.0
 11
324.40285031476697
 21
250.81000582483136
 31
0.0
 11
324.28930661913802
 21
250.60395003109741
 31
0.0
 11
324.17931700053356
 21
250.4141495590618
 31
0.0
 11
324.07601450356719
 21
250.22280430709898
 31
0.0
 11
323.94132376347267
 21
249.87632125135011
 31
0.0
 11
323.8089454818267
 21
249.52864978600201
 31
0.0
  0
SPLINE
  5
185
100
AcDbEntity
  8
1
  6
CONTINUOUS
 62
             3
100
AcDbSpline
210
0.0
220
0.0
230
1.0
 70
             0
 71
             3
 72
            18
 73
            14
 74
            23
 42
0.00000000001
 43
0.00000000001
 44
0.00000000001
 40
4.1903947664422549
 40
4.1903947664422549
 40
4.1903947664422549
 40
4.1903947664422549
 40
6.6750575547669779
 40
9.7917965100896023
 40
12.360436242243701
 40
15.07634983061787
 40
17.469061419096469
 40
20.83784419011652
 40
23.49510461756698
 40
27.064308922205988
 40
33.953927121516138
 40
38.467301704811412
 40
41.501974087581459
 40
41.501974087581459
 40
41.501974087581459
 40
41.501974087581459
 10
350.11669137532982
 20
238.91816089641361
 30
0.0
 10
350.88374315617381
 20
239.2315585981496
 30
0.0
 10
352.58441863311668
 20
240.01037450030279
 30
0.0
 10
354.92559029463678
 20
241.40819945908811
 30
0.0
 10
357.26815322312569
 20
242.94456469257
 30
0.0
 10
359.28204893459389
 20
244.53074350220041
 30
0.0
 10
361.34348029946369
 20
246.4662168063104
 30
0.0
 10
363.21954268308087
 20
248.56361943177541
 30
0.0
 10
365.04218438686468
 20
251.19877100180531
 30
0.0
 10
367.18688366358589
 20
255.01138262526749
 30
0.0
 10
368.78358596936579
 20
259.84389176365869
 30
0.0
 10
368.83092996833773
 20
264.70345545545649
 30
0.0
 10
368.42803959901391
 20
267.1880165206984
 30
0.0
 10
368.28452450613793
 20
268.18929721458221
 30
0.0
 11
350.11669137532982
 21
238.91816089641361
 31
0.0
 11
351.25700099879464
 21
239.41271599945301
 31
0.0
 11
352.37370716711291
 21
239.95781695530988
 31
0.0
 11
353.73762488713459
 21
240.71156739768981
 31
0.0
 11
355.06945735344942
 21
241.52210358137751
 31
0.0
 11
356.14905606999855
 21
242.21844521585572
 31
0.0
 11
357.20646986181794
 21
242.94726589237092
 31
0.0
 11
358.29183786027716
 21
243.76388615373423
 31
0.0
 11
359.33917843911621
 21
244.62885464823128
 31
0.0
 11
360.2281789466773
 21
245.42957881007851
 31
0.0
 11
361.08593542593115
 21
246.26406374025933
 31
0.0
 11
362.2392880080676
 21
247.49309357444497
 31
0.0
 11
363.31615843243486
 21
248.78890090324296
 31
0.0
 11
364.10326338624287
 21
249.85968401200932
 31
0.0
 11
364.83897919011775
 21
250.96652573761236
 31
0.0
 11
365.7530833847033
 21
252.49893121913342
 31
0.0
 11
366.5746679215448
 21
254.08527612772906
 31
0.0
 11
367.84884116717018
 21
257.30065843382033
 31
0.0
 11
368.60672418731042
 21
260.668405039199
 31
0.0
 11
368.77138401374089
 21
262.92302305409811
 31
0.0
 11
368.68287668864451
 21
265.18113713025809
 31
0.0
 11
368.50269772765535
 21
266.68772497391774
 31
0.0
 11
368.28452450613793
 21
268.18929721458221
 31
0.0
  0
SPLINE
  5
184
100
AcDbEntity
  8
1
  6
CONTINUOUS
 62
             3
100
AcDbSpline
210
0.0
220
0.0
230
1.0
 70
             0
 71
             3
 72
            14
 73
            10
 74
            15
 42
0.00000000001
 43
0.00000000001
 44
0.00000000001
 40
4.6505385686245644
 40
4.6505385686245644
 40
4.6505385686245644
 40
4.6505385686245644
 40
5.3229379573396276
 40
7.1504159499624986
 40
9.7259340333885049
 40
12.19874590560358
 40
17.00953247012189
 40
20.03388494414229
 40
25.797578622927752
 40
25.797578622927752
 40
25.797578622927752
 40
25.797578622927752
 10
393.26782129950692
 20
296.46004600804929
 30
0.0
 10
393.17573448529191
 20
296.66441010496681
 30
0.0
 10
392.82901601169181
 20
297.42214920099411
 30
0.0
 10
392.03929587754891
 20
298.91938516971538
 30
0.0
 10
390.9125311236678
 20
300.91613329507891
 30
0.0
 10
389.11062013768588
 20
303.6669310964769
 30
0.0
 10
386.97319449142378
 20
306.36881213473021
 30
0.0
 10
383.83659834689382
 20
309.64515065595521
 30
0.0
 10
381.60302976207782
 20
311.55408258772729
 30
0.0
 10
380.03144139033571
 20
312.6615095863483
 30
0.0
 11
393.26782129950692
 21
296.46004600804929
 31
0.0
 11
393.1285770143993
 21
296.76606328604936
 31
0.0
 11
392.9861615737716
 21
297.07056569528987
 31
0.0
 11
392.5786090093485
 21
297.88826782319268
 31
0.0
 11
392.14941185075787
 21
298.69522741840558
 31
0.0
 11
391.52412869245211
 21
299.82131946451784
 31
0.0
 11
390.87087674623967
 21
300.93099157961944
 31
0.0
 11
390.21040012685165
 21
301.97620277493729
 31
0.0
 11
389.51727745359648
 21
303.00042809962264
 31
0.0
 11
388.08072181574943
 21
304.9310541833641
 31
0.0
 11
386.53395579235007
 21
306.77447887231972
 31
0.0
 11
385.50833360183128
 21
307.88601399173962
 31
0.0
 11
384.44396509465514
 21
308.9604904849748
 31
0.0
 11
382.31103547532967
 21
310.89881770503996
 31
0.0
 11
380.03144139033571
 21
312.6615095863483
 31
0.0
  0
CIRCLE
  5
183
100
AcDbEntity
  8
1
  6
CONTINUOUS
 62
             3
100
AcDbCircle
 10
354.52434781973471
 20
278.95127758009301
 40
16.5
  0
CIRCLE
  5
182
100
AcDbEntity
  8
0
  6
CONTINUOUS
 62
             3
100
AcDbCircle
 10
313.27434781973471
 20
237.70127758009301
 40
2.25
  0
CIRCLE
  5
181
100
AcDbEntity
  8
0
  6
CONTINUOUS
 62
             3
100
AcDbCircle
 10
395.77434781973471
 20
320.20127758009301
 40
2.24999999999972
  0
CIRCLE
  5
180
100
AcDbEntity
  8
0
  6
CONTINUOUS
 62
             3
100
AcDbCircle
 10
313.27434781973471
 20
320.20127758009301
 40
2.24999999999972
  0
CIRCLE
  5
17F
100
AcDbEntity
  8
0
  6
CONTINUOUS
 62
             3
100
AcDbCircle
 10
395.77434781973471
 20
237.70127758009301
 40
2.25
  0
ARC
  5
17E
100
AcDbEntity
  8
0
  6
CONTINUOUS
 62
             3
100
AcDbCircle
 10
354.52434781973471
 20
278.95127758009301
 40
49.99999999999987
100
AcDbArc
 50
117.12675311729954
 51
136.78270946405431
  0
ARC
  5
17D
100
AcDbEntity
  8
0
  6
CONTINUOUS
 62
             3
100
AcDbCircle
 10
354.52434781973471
 20
278.95127758009301
 40
50.00000000000036
100
AcDbArc
 50
27.12675311729962
 51
62.87324688270006
  0
ARC
  5
17C
100
AcDbEntity
  8
0
  6
CONTINUOUS
 62
             3
100
AcDbCircle
 10
354.52434781973471
 20
278.95127758009301
 40
47.50584683720037
100
AcDbArc
 50
25.4505025816995
 51
27.28043752699956
  0
ARC
  5
17B
100
AcDbEntity
  8
0
  6
CONTINUOUS
 62
             3
100
AcDbCircle
 10
354.52434781973471
 20
278.95127758009301
 40
43.00000000000057
100
AcDbArc
 50
26.46578376229916
 51
133.68387232230089
  0
ARC
  5
17A
100
AcDbEntity
  8
0
  6
CONTINUOUS
 62
             3
100
AcDbCircle
 10
354.52434781973471
 20
278.95127758009301
 40
50.00000000000031
100
AcDbArc
 50
-62.87324688270022
 51
-27.12675311729974
  0
ARC
  5
179
100
AcDbEntity
  8
0
  6
CONTINUOUS
 62
             3
100
AcDbCircle
 10
354.52434781973471
 20
278.95127758009301
 40
43.00000000000023
100
AcDbArc
 50
-93.53421623779948
 51
15.29305939409936
  0
ARC
  5
178
100
AcDbEntity
  8
0
  6
CONTINUOUS
 62
             3
100
AcDbCircle
 10
354.52434781973471
 20
278.95127758009301
 40
47.50584683709945
100
AcDbArc
 50
146.42807906800056
 51
148.25355950630055
  0
ARC
  5
177
100
AcDbEntity
  8
0
  6
CONTINUOUS
 62
             3
100
AcDbCircle
 10
354.52434781973471
 20
278.95127758009301
 40
42.99999999999957
100
AcDbArc
 50
147.54279424970034
 51
-104.70694060579957
  0
ARC
  5
176
100
AcDbEntity
  8
0
  6
CONTINUOUS
 62
             3
100
AcDbCircle
 10
354.52434781973471
 20
278.95127758009301
 40
50.00000000000036
100
AcDbArc
 50
-152.8732468827001
 51
-117.12675311729939
  0
ARC
  5
175
100
AcDbEntity
  8
0
  6
CONTINUOUS
 62
             3
100
AcDbCircle
 10
354.52434781973471
 20
278.95127758009301
 40
50.00000000000021
100
AcDbArc
 50
148.55749593410073
 51
152.87324688270101
  0
ARC
  5
174
100
AcDbEntity
  8
0
  6
CONTINUOUS
 62
             3
100
AcDbCircle
 10
309.02434781973471
 20
312.00127758009251
 40
0.5
100
AcDbArc
 50
180.0
 51
-90.0
  0
ARC
  5
173
100
AcDbEntity
  8
0
  6
CONTINUOUS
 62
             3
100
AcDbCircle
 10
312.52434781973471
 20
320.95127758009301
 40
4.0
100
AcDbArc
 50
90.0
 51
180.0
  0
ARC
  5
172
100
AcDbEntity
  8
0
  6
CONTINUOUS
 62
             3
100
AcDbCircle
 10
396.52434781973471
 20
320.95127758009272
 40
4.00000000000011
100
AcDbArc
 50
0.00000000000407
 51
90.0
  0
ARC
  5
171
100
AcDbEntity
  8
0
  6
CONTINUOUS
 62
             3
100
AcDbCircle
 10
396.52434781973471
 20
236.95127758009301
 40
4.0
100
AcDbArc
 50
-90.0
 51
0.0
  0
ARC
  5
170
100
AcDbEntity
  8
0
  6
CONTINUOUS
 62
             3
100
AcDbCircle
 10
312.52434781973471
 20
236.95127758009301
 40
4.0
100
AcDbArc
 50
180.0
 51
-90.0
  0
ARC
  5
16F
100
AcDbEntity
  8
0
  6
CONTINUOUS
 62
             3
100
AcDbCircle
 10
309.02434781973471
 20
309.90127758009243
 40
0.5
100
AcDbArc
 50
90.0
 51
180.0
  0
ARC
  5
16E
100
AcDbEntity
  8
0
  6
CONTINUOUS
 62
             3
100
AcDbCircle
 10
342.73555732233473
 20
293.8955616875927
 40
1.00000000000017
100
AcDbArc
 50
154.99999999989694
 51
-170.00000000000387
  0
ARC
  5
16D
100
AcDbEntity
  8
0
  6
CONTINUOUS
 62
             3
100
AcDbCircle
 10
318.88683389993491
 20
236.45127758009301
 40
1.50000000000112
100
AcDbArc
 50
167.44414220138984
 51
-90.0
  0
ARC
  5
16C
100
AcDbEntity
  8
0
  6
CONTINUOUS
 62
             3
100
AcDbCircle
 10
313.27434781973471
 20
237.70127758009301
 40
4.25000000000067
100
AcDbArc
 50
-12.55585779860109
 51
38.95767158090659
  0
ARC
  5
16B
100
AcDbEntity
  8
0
  6
CONTINUOUS
 62
             3
100
AcDbCircle
 10
316.96799851433371
 20
240.6878214933929
 40
0.5000000000002
100
AcDbArc
 50
134.9999999999217
 51
-141.04232841902817
  0
ARC
  5
16A
100
AcDbEntity
  8
0
  6
CONTINUOUS
 62
             3
100
AcDbCircle
 10
317.75647882373488
 20
241.47630180289309
 40
0.49999999999941
100
AcDbArc
 50
45.54568234003322
 51
135.00000000006909
  0
ARC
  5
169
100
AcDbEntity
  8
0
  6
CONTINUOUS
 62
             3
100
AcDbCircle
 10
354.52434781973471
 20
278.95127758009301
 40
52.00000000000023
100
AcDbArc
 50
-134.45431766000047
 51
-127.40208444990009
  0
ARC
  5
168
100
AcDbEntity
  8
0
  6
CONTINUOUS
 62
             3
100
AcDbCircle
 10
322.0281942011348
 20
236.45127758009301
 40
1.5
100
AcDbArc
 50
-90.0
 51
52.59791555009488
  0
ARC
  5
167
100
AcDbEntity
  8
0
  6
CONTINUOUS
 62
             3
100
AcDbCircle
 10
354.52434781973471
 20
278.95127758009301
 40
43.00000000009937
100
AcDbArc
 50
24.43891333770016
 51
26.46578376219974
  0
ARC
  5
166
100
AcDbEntity
  8
0
  6
CONTINUOUS
 62
             3
100
AcDbCircle
 10
354.52434781973471
 20
278.95127758009301
 40
43.00000000000065
100
AcDbArc
 50
15.29305939409936
 51
17.40266339170016
  0
ARC
  5
165
100
AcDbEntity
  8
0
  6
CONTINUOUS
 62
             3
100
AcDbCircle
 10
354.52434781973471
 20
278.95127758009301
 40
43.00000000000011
100
AcDbArc
 50
-95.56108666229876
 51
-93.53421623779948
  0
ARC
  5
164
100
AcDbEntity
  8
0
  6
CONTINUOUS
 62
             3
100
AcDbCircle
 10
354.52434781973471
 20
278.95127758009301
 40
43.00000000000028
100
AcDbArc
 50
-104.70694060579957
 51
-102.59733660789939
  0
ARC
  5
163
100
AcDbEntity
  8
0
  6
CONTINUOUS
 62
             3
100
AcDbCircle
 10
354.52434781973471
 20
278.95127758009301
 40
42.99999999999957
100
AcDbArc
 50
133.68387232230089
 51
135.81437209930053
  0
ARC
  5
162
100
AcDbEntity
  8
0
  6
CONTINUOUS
 62
             3
100
AcDbCircle
 10
354.52434781973471
 20
278.95127758009301
 40
42.99999999999947
100
AcDbArc
 50
145.52197218290027
 51
147.54279424970034
  0
ARC
  5
161
100
AcDbEntity
  8
1
  6
CONTINUOUS
 62
             3
100
AcDbCircle
 10
354.52434781973471
 20
278.95127758009301
 40
17.46000000000096
100
AcDbArc
 50
17.41271975970902
 51
90.0
  0
ARC
  5
160
100
AcDbEntity
  8
1
  6
CONTINUOUS
 62
             3
100
AcDbCircle
 10
354.52434781973471
 20
278.95127758009301
 40
17.4600000000003
100
AcDbArc
 50
-102.58728024133413
 51
-16.44531807491414
  0
ARC
  5
15F
100
AcDbEntity
  8
1
  6
CONTINUOUS
 62
             3
100
AcDbCircle
 10
354.52434781973471
 20
278.95127758009301
 40
17.46000000000008
100
AcDbArc
 50
2.5048680042044
 51
17.41271975970902
  0
ARC
  5
15E
100
AcDbEntity
  8
1
  6
CONTINUOUS
 62
             3
100
AcDbCircle
 10
354.52434781973471
 20
278.95127758009301
 40
17.46000000000021
100
AcDbArc
 50
90.0
 51
98.14430865602526
  0
ARC
  5
15D
100
AcDbEntity
  8
1
  6
CONTINUOUS
 62
             3
100
AcDbCircle
 10
354.52434781973471
 20
278.95127758009301
 40
17.46000000000007
100
AcDbArc
 50
-117.49513199630013
 51
-102.58728024133413
  0
ARC
  5
15C
100
AcDbEntity
  8
1
  6
CONTINUOUS
 62
             3
100
AcDbCircle
 10
354.52434781973471
 20
278.95127758009301
 40
17.45999999999954
100
AcDbArc
 50
141.95186100731235
 51
-136.44531807521545
  0
ARC
  5
15B
100
AcDbEntity
  8
0
  6
CONTINUOUS
 62
             3
100
AcDbCircle
 10
337.91580840743478
 20
295.390584700293
 40
0.50000000000023
100
AcDbArc
 50
-25.00000000014575
 51
65.00000000001759
  0
ARC
  5
15A
100
AcDbEntity
  8
0
  6
CONTINUOUS
 62
             3
100
AcDbCircle
 10
390.16186173953491
 20
236.45127758009301
 40
1.5
100
AcDbArc
 50
-90.0
 51
12.55585779859783
  0
ARC
  5
159
100
AcDbEntity
  8
0
  6
CONTINUOUS
 62
             3
100
AcDbCircle
 10
395.77434781973471
 20
237.70127758009301
 40
4.24999999999947
100
AcDbArc
 50
141.04232841909928
 51
-167.44414220139544
  0
ARC
  5
158
100
AcDbEntity
  8
0
  6
CONTINUOUS
 62
             3
100
AcDbCircle
 10
392.08069712513571
 20
240.6878214933929
 40
0.49999999999892
100
AcDbArc
 50
-38.95767158096716
 51
45.0
  0
ARC
  5
157
100
AcDbEntity
  8
0
  6
CONTINUOUS
 62
             3
100
AcDbCircle
 10
391.29221681573478
 20
241.47630180289309
 40
0.50000000000049
100
AcDbArc
 50
44.99999999991709
 51
134.45431765996196
  0
ARC
  5
156
100
AcDbEntity
  8
0
  6
CONTINUOUS
 62
             3
100
AcDbCircle
 10
354.52434781973471
 20
278.95127758009301
 40
52.00000000000019
100
AcDbArc
 50
-52.59791555009987
 51
-45.5456823400005
  0
ARC
  5
155
100
AcDbEntity
  8
0
  6
CONTINUOUS
 62
             3
100
AcDbCircle
 10
387.0205014383348
 20
236.45127758009301
 40
1.49999999999957
100
AcDbArc
 50
127.40208444990515
 51
-90.0
  0
ARC
  5
154
100
AcDbEntity
  8
0
  6
CONTINUOUS
 62
             3
100
AcDbCircle
 10
397.02434781973471
 20
314.58879149989241
 40
1.50000000000011
100
AcDbArc
 50
0.0
 51
102.55585779859558
  0
ARC
  5
153
100
AcDbEntity
  8
0
  6
CONTINUOUS
 62
             3
100
AcDbCircle
 10
395.77434781973471
 20
320.20127758009301
 40
4.25000000000016
100
AcDbArc
 50
-128.95767158089026
 51
-77.44414220139061
  0
ARC
  5
152
100
AcDbEntity
  8
0
  6
CONTINUOUS
 62
             3
100
AcDbCircle
 10
392.78780390643482
 20
316.50762688549281
 40
0.49999999999972
100
AcDbArc
 50
51.04232841910657
 51
134.99999999998619
  0
ARC
  5
151
100
AcDbEntity
  8
0
  6
CONTINUOUS
 62
             3
100
AcDbCircle
 10
391.9993235969348
 20
315.71914657609238
 40
0.49999999999976
100
AcDbArc
 50
134.99999999998158
 51
-135.54568233998648
  0
ARC
  5
150
100
AcDbEntity
  8
0
  6
CONTINUOUS
 62
             3
100
AcDbCircle
 10
354.52434781973471
 20
278.95127758009301
 40
51.99999999999995
100
AcDbArc
 50
37.40208444989963
 51
44.45431765999952
  0
ARC
  5
14F
100
AcDbEntity
  8
0
  6
CONTINUOUS
 62
             3
100
AcDbCircle
 10
397.02434781973471
 20
311.4474311986927
 40
1.49999999999933
100
AcDbArc
 50
-142.59791555007436
 51
0.00000000000434
  0
LINE
  5
14E
100
AcDbEntity
  8
1
  6
CONTINUOUS
 62
             2
100
AcDbLine
 10
411.25080169221002
 20
219.49250421355191
 11
382.54717184329468
 21
219.4925042135535
  0
LINE
  5
14D
100
AcDbEntity
  8
1
  6
CONTINUOUS
 62
             3
100
AcDbLine
 10
298.77391873283489
 20
312.95127758009221
 11
287.7226228140679
 21
312.95127758009221
  0
LINE
  5
14C
100
AcDbEntity
  8
1
  6
CONTINUOUS
 62
             3
100
AcDbLine
 10
298.77391873283489
 20
311.95127758009221
 11
287.7226228140679
 21
311.95127758009221
  0
LINE
  5
14B
100
AcDbEntity
  8
1
  6
CONTINUOUS
 62
             3
100
AcDbLine
 10
298.77391873283489
 20
309.95127758009221
 11
287.7226228140679
 21
309.95127758009221
  0
LINE
  5
14A
100
AcDbEntity
  8
1
  6
CONTINUOUS
 62
             3
100
AcDbLine
 10
300.08109434036299
 20
308.95127758009221
 11
308.52434781973471
 21
308.95127758009221
  0
LINE
  5
149
100
AcDbEntity
  8
1
  6
CONTINUOUS
 62
             3
100
AcDbLine
 10
398.52434781973483
 20
292.05917772429268
 11
399.02434781954491
 21
292.40928149325941
  0
LINE
  5
148
100
AcDbEntity
  8
1
  6
CONTINUOUS
 62
             3
100
AcDbLine
 10
343.81846137053492
 20
234.95127758009301
 11
343.86220570229472
 21
234.45127758009301
  0
LINE
  5
147
100
AcDbEntity
  8
1
  6
CONTINUOUS
 62
             3
100
AcDbLine
 10
311.23565695060489
 20
312.6364414846845
 11
310.73565695060489
 21
312.8695953137622
  0
LINE
  5
146
100
AcDbEntity
  8
1
  6
CONTINUOUS
 62
             3
100
AcDbLine
 10
310.81303868886482
 20
308.8613511083455
 11
310.31303868886482
 21
309.09450493742321
  0
LINE
  5
145
100
AcDbEntity
  8
1
  6
CONTINUOUS
 62
             3
100
AcDbLine
 10
311.49860898781083
 20
308.5416644277401
 11
310.81303868886482
 21
308.8613511083455
  0
LINE
  5
144
100
AcDbEntity
  8
1
  6
CONTINUOUS
 62
             3
100
AcDbLine
 10
320.72365092006481
 20
308.21211723619581
 11
320.74839117917293
 21
308.26517289306321
  0
LINE
  5
143
100
AcDbEntity
  8
0
  6
CONTINUOUS
 62
             3
100
AcDbLine
 10
319.09465401044378
 20
304.7187220903254
 11
334.9550402836158
 21
297.32290250988569
  0
LINE
  5
142
100
AcDbEntity
  8
1
  6
CONTINUOUS
 62
             3
100
AcDbLine
 10
320.72365092006481
 20
308.21211723619581
 11
315.92021964877267
 21
310.45199402342121
  0
LINE
  5
141
100
AcDbEntity
  8
0
  6
CONTINUOUS
 62
             3
100
AcDbLine
 10
319.07846412103493
 20
303.29188026519239
 11
336.35237514243482
 21
295.2409514136923
  0
LINE
  5
140
100
AcDbEntity
  8
0
  6
CONTINUOUS
 62
             3
100
AcDbLine
 10
393.66983696793483
 20
296.74154040949321
 11
374.23972512585078
 21
283.13642962943601
  0
LINE
  5
13F
100
AcDbEntity
  8
0
  6
CONTINUOUS
 62
             3
100
AcDbLine
 10
350.35842279563468
 20
236.15515811949251
 11
348.29110715976168
 21
259.78468396319988
  0
LINE
  5
13E
100
AcDbEntity
  8
0
  6
CONTINUOUS
 62
             3
100
AcDbLine
 10
331.72632158933482
 20
323.45127758009272
 11
334.12214205653493
 21
322.95127758009301
  0
LINE
  5
13D
100
AcDbEntity
  8
0
  6
CONTINUOUS
 62
             3
100
AcDbLine
 10
377.3223740500348
 20
323.45127758009272
 11
374.92655358293479
 21
322.95127758009272
  0
LINE
  5
13C
100
AcDbEntity
  8
0
  6
CONTINUOUS
 62
             3
100
AcDbLine
 10
399.02434781973483
 20
301.74930381049302
 11
398.63800006483592
 21
299.9137378467924
  0
LINE
  5
139
100
AcDbEntity
  8
0
  6
CONTINUOUS
 62
             3
100
AcDbLine
 10
399.02434781973483
 20
256.15325134979309
 11
398.52434781973483
 21
258.54907181689271
  0
LINE
  5
138
100
AcDbEntity
  8
0
  6
CONTINUOUS
 62
             3
100
AcDbLine
 10
377.3223740500348
 20
234.45127758009301
 11
374.92655358293479
 21
234.95127758009301
  0
LINE
  5
137
100
AcDbEntity
  8
0
  6
CONTINUOUS
 62
             3
100
AcDbLine
 10
314.05373139833478
 20
305.7394365784927
 11
314.94284001183479
 21
305.22121711869238
  0
LINE
  5
136
100
AcDbEntity
  8
0
  6
CONTINUOUS
 62
             3
100
AcDbLine
 10
331.72632158933482
 20
234.45127758009301
 11
334.12214205653493
 21
234.95127758009301
  0
LINE
  5
135
100
AcDbEntity
  8
0
  6
CONTINUOUS
 62
             3
100
AcDbLine
 10
310.02434781973471
 20
256.15325134979309
 11
310.52434781973471
 21
258.5490718168931
  0
LINE
  5
134
100
AcDbEntity
  8
0
  6
CONTINUOUS
 62
             3
100
AcDbLine
 10
310.02434781973471
 20
301.74930381049302
 11
310.52434781973471
 21
299.35348334339261
  0
LINE
  5
133
100
AcDbEntity
  8
0
  6
CONTINUOUS
 62
             3
100
AcDbLine
 10
313.39259168853488
 20
304.32161789549241
 11
311.86614487963482
 21
305.03341173219258
  0
LINE
  5
132
100
AcDbEntity
  8
0
  6
CONTINUOUS
 62
             3
100
AcDbLine
 10
314.05373139833478
 20
305.7394365784927
 11
313.39259168853488
 21
304.32161789549241
  0
LINE
  5
131
100
AcDbEntity
  8
0
  6
CONTINUOUS
 62
             3
100
AcDbLine
 10
319.07758431113467
 20
303.29315418739259
 11
314.94284001183479
 21
305.22121711869238
  0
LINE
  5
130
100
AcDbEntity
  8
0
  6
CONTINUOUS
 62
             3
100
AcDbLine
 10
314.05373139833478
 20
305.7394365784927
 11
314.24887321923489
 21
306.15791956399221
  0
LINE
  5
12F
100
AcDbEntity
  8
0
  6
CONTINUOUS
 62
             3
100
AcDbLine
 10
314.24887321923489
 20
306.15791956399221
 11
338.26602957573579
 21
294.95853562779268
  0
LINE
  5
12E
100
AcDbEntity
  8
0
  6
CONTINUOUS
 62
             3
100
AcDbLine
 10
334.9550402836158
 20
297.32290250988569
 11
336.76765585771568
 21
296.4776659863856
  0
LINE
  5
12D
100
AcDbEntity
  8
0
  6
CONTINUOUS
 62
             3
100
AcDbLine
 10
317.40746517513492
 20
312.93154187229271
 11
314.23538792032269
 21
314.4107057884799
  0
LINE
  5
12C
100
AcDbEntity
  8
0
  6
CONTINUOUS
 62
             3
100
AcDbLine
 10
314.23538792032269
 20
314.4107057884799
 11
313.02003473004481
 21
311.80437246108681
  0
LINE
  5
12B
100
AcDbEntity
  8
0
  6
CONTINUOUS
 62
             3
100
AcDbLine
 10
310.02434781973471
 20
312.41644142024359
 11
310.02434781973471
 21
311.50127758009251
  0
LINE
  5
12A
100
AcDbEntity
  8
0
  6
CONTINUOUS
 62
             3
100
AcDbLine
 10
308.52434781973471
 20
312.00127758009251
 11
308.52434781973471
 21
320.95127758009301
  0
LINE
  5
129
100
AcDbEntity
  8
0
  6
CONTINUOUS
 62
             3
100
AcDbLine
 10
312.52434781973471
 20
324.95127758009301
 11
396.52434781973471
 21
324.95127758009301
  0
LINE
  5
128
100
AcDbEntity
  8
0
  6
CONTINUOUS
 62
             3
100
AcDbLine
 10
400.52434781973483
 20
320.95127758009301
 11
400.52434781973483
 21
236.95127758009301
  0
LINE
  5
127
100
AcDbEntity
  8
0
  6
CONTINUOUS
 62
             3
100
AcDbLine
 10
396.52434781973471
 20
232.95127758009301
 11
312.52434781973471
 21
232.95127758009301
  0
LINE
  5
126
100
AcDbEntity
  8
0
  6
CONTINUOUS
 62
             3
100
AcDbLine
 10
308.52434781973471
 20
236.95127758009301
 11
308.52434781973471
 21
309.90127758009243
  0
LINE
  5
125
100
AcDbEntity
  8
0
  6
CONTINUOUS
 62
             3
100
AcDbLine
 10
309.02434781973471
 20
310.40127758009243
 11
310.02434781973471
 21
310.40127758009243
  0
LINE
  5
124
100
AcDbEntity
  8
0
  6
CONTINUOUS
 62
             3
100
AcDbLine
 10
310.02434781973471
 20
310.40127758009243
 11
310.02434781973471
 21
309.5476588309412
  0
LINE
  5
123
100
AcDbEntity
  8
0
  6
CONTINUOUS
 62
             3
100
AcDbLine
 10
311.49860898781083
 20
308.5416644277401
 11
310.22051443382281
 21
305.8007818115799
  0
LINE
  5
122
100
AcDbEntity
  8
0
  6
CONTINUOUS
 62
             3
100
AcDbLine
 10
310.22051443382281
 20
305.8007818115799
 11
311.86614487963482
 21
305.03341173219258
  0
LINE
  5
121
100
AcDbEntity
  8
0
  6
CONTINUOUS
 62
             3
100
AcDbLine
 10
310.02434781973471
 20
301.74930381049302
 11
310.02434781973471
 21
256.15325134979309
  0
LINE
  5
120
100
AcDbEntity
  8
0
  6
CONTINUOUS
 62
             3
100
AcDbLine
 10
331.72632158933482
 20
234.45127758009301
 11
343.86220570229472
 21
234.45127758009301
  0
LINE
  5
11F
100
AcDbEntity
  8
0
  6
CONTINUOUS
 62
             3
100
AcDbLine
 10
345.14613916429772
 20
236.98642082571939
 11
342.68522026943879
 21
265.1148525053967
  0
LINE
  5
11E
100
AcDbEntity
  8
0
  6
CONTINUOUS
 62
             3
100
AcDbLine
 10
341.75074956933469
 20
293.7219135098926
 11
341.76128916313479
 21
293.6621405031924
  0
LINE
  5
11D
100
AcDbEntity
  8
0
  6
CONTINUOUS
 62
             3
100
AcDbLine
 10
342.80856745373472
 20
296.41833400289261
 11
341.82924953523491
 21
294.31817994929321
  0
LINE
  5
113
100
AcDbEntity
  8
0
  6
CONTINUOUS
 62
             3
100
AcDbLine
 10
342.49977806803582
 20
298.12233461129239
 11
320.74839117917293
 21
308.26517289306321
  0
LINE
  5
112
100
AcDbEntity
  8
0
  6
CONTINUOUS
 62
             3
100
AcDbLine
 10
316.19211198482782
 20
310.3252085449252
 11
317.40746517513492
 21
312.93154187229271
  0
LINE
  5
111
100
AcDbEntity
  8
0
  6
CONTINUOUS
 62
             3
100
AcDbLine
 10
399.02434781963473
 20
298.6596473876923
 11
399.02434781973483
 21
301.74930381049302
  0
LINE
  5
110
100
AcDbEntity
  8
0
  6
CONTINUOUS
 62
             3
100
AcDbLine
 10
377.3223740500348
 20
323.45127758009272
 11
331.72632158933482
 21
323.45127758009272
  0
LINE
  5
10F
100
AcDbEntity
  8
0
  6
CONTINUOUS
 62
             3
100
AcDbLine
 10
323.68967294063469
 20
308.9216433620926
 11
350.35799017065989
 21
296.4860028075318
  0
LINE
  5
10E
100
AcDbEntity
  8
0
  6
CONTINUOUS
 62
             3
100
AcDbLine
 10
316.61444512363488
 20
241.04137488409279
 11
317.40292543313473
 21
241.82985519359261
  0
LINE
  5
10D
100
AcDbEntity
  8
0
  6
CONTINUOUS
 62
             3
100
AcDbLine
 10
318.88683389993491
 20
234.95127758009301
 11
322.0281942011348
 21
234.95127758009301
  0
LINE
  5
10C
100
AcDbEntity
  8
0
  6
CONTINUOUS
 62
             3
100
AcDbLine
 10
349.00176327043488
 20
234.45127758009301
 11
377.3223740500348
 21
234.45127758009301
  0
LINE
  5
10B
100
AcDbEntity
  8
0
  6
CONTINUOUS
 62
             3
100
AcDbLine
 10
399.02434781973483
 20
256.15325134979309
 11
399.02434781954491
 21
292.40928149325941
  0
LINE
  5
10A
100
AcDbEntity
  8
0
  6
CONTINUOUS
 62
             3
100
AcDbLine
 10
395.55608416303482
 20
291.81193901939241
 11
372.42660720718783
 21
275.61650490036311
  0
LINE
  5
109
100
AcDbEntity
  8
0
  6
CONTINUOUS
 62
             3
100
AcDbLine
 10
397.42007825343472
 20
299.36602211149261
 11
393.67167184753481
 21
296.7413596897926
  0
LINE
  5
103
100
AcDbEntity
  8
0
  6
CONTINUOUS
 62
             3
100
AcDbLine
 10
350.46254362903488
 20
234.95127758009301
 11
350.35734884813479
 21
236.15365942709241
  0
LINE
  5
FC
100
AcDbEntity
  8
0
  6
CONTINUOUS
 62
             3
100
AcDbLine
 10
398.52434781973483
 20
258.54907181689271
 11
398.52434781973483
 21
292.05917772429268
  0
LINE
  5
FB
100
AcDbEntity
  8
0
  6
CONTINUOUS
 62
             3
100
AcDbLine
 10
350.32265144563468
 20
234.95127758009301
 11
374.92655358293479
 21
234.95127758009301
  0
LINE
  5
FA
100
AcDbEntity
  8
0
  6
CONTINUOUS
 62
             3
100
AcDbLine
 10
374.92655358293479
 20
322.95127758009272
 11
334.12214205653493
 21
322.95127758009301
  0
LINE
  5
F9
100
AcDbEntity
  8
0
  6
CONTINUOUS
 62
             3
100
AcDbLine
 10
334.12214205653493
 20
234.95127758009301
 11
343.81846137053492
 21
234.95127758009301
  0
LINE
  5
F8
100
AcDbEntity
  8
0
  6
CONTINUOUS
 62
             3
100
AcDbLine
 10
342.37714832923473
 20
295.51698356699251
 11
342.1209898402347
 21
295.6364322320926
  0
LINE
  5
F7
100
AcDbEntity
  8
0
  6
CONTINUOUS
 62
             3
100
AcDbLine
 10
314.24887321923489
 20
306.15791956399221
 11
314.6706862425097
 21
307.0625005116176
  0
LINE
  5
F6
100
AcDbEntity
  8
0
  6
CONTINUOUS
 62
             3
100
AcDbLine
 10
310.52434781973471
 20
299.35348334339261
 11
310.52434781973471
 21
258.5490718168931
  0
LINE
  5
F5
100
AcDbEntity
  8
0
  6
CONTINUOUS
 62
             3
100
AcDbLine
 10
396.74629876043468
 20
300.72539851459271
 11
393.01797641883468
 21
298.11479910609239
  0
LINE
  5
F4
100
AcDbEntity
  8
0
  6
CONTINUOUS
 62
             3
100
AcDbLine
 10
396.00169098853468
 20
290.29279439479239
 11
398.52434781973483
 21
292.05917772429268
  0
LINE
  5
F3
100
AcDbEntity
  8
0
  6
CONTINUOUS
 62
             3
100
AcDbLine
 10
351.96827338533473
 20
234.95127758009301
 11
351.8736299875348
 21
236.03305656649241
  0
LINE
  5
F2
100
AcDbEntity
  8
0
  6
CONTINUOUS
 62
             3
100
AcDbLine
 10
343.60771791433473
 20
237.36008630709259
 11
343.81846137053492
 21
234.95127758009301
  0
LINE
  5
F1
100
AcDbEntity
  8
0
  6
CONTINUOUS
 62
             3
100
AcDbLine
 10
324.82515588773492
 20
310.04722584659243
 11
318.08624712929969
 21
313.1896306081477
  0
LINE
  5
F0
100
AcDbEntity
  8
0
  6
CONTINUOUS
 62
             3
100
AcDbLine
 10
314.12609232133468
 20
303.94700594309211
 11
318.24126946373468
 21
302.02806732689271
  0
LINE
  5
EF
100
AcDbEntity
  8
0
  6
CONTINUOUS
 62
             3
100
AcDbLine
 10
316.77353778253479
 20
311.57208019169218
 11
316.50164544642291
 21
311.69886567021581
  0
LINE
  5
EE
100
AcDbEntity
  8
1
  6
DOT_CENTER
 62
             1
100
AcDbLine
 10
354.52434781973471
 20
225.93132802182009
 11
354.52434781973471
 21
334.70407929063128
  0
LINE
  5
ED
100
AcDbEntity
  8
1
  6
DOT_CENTER
 62
             1
100
AcDbLine
 10
301.14670031262392
 20
278.95127758009301
 11
411.75365408739992
 21
278.95127758009301
  0
LINE
  5
EC
100
AcDbEntity
  8
1
  6
DOT_CENTER
 62
             1
100
AcDbLine
 10
313.27434781973471
 20
234.19133194925621
 11
313.27434781973471
 21
241.04975038457351
  0
LINE
  5
EB
100
AcDbEntity
  8
1
  6
DOT_CENTER
 62
             1
100
AcDbLine
 10
309.74602861556178
 20
237.70127758009301
 11
316.26152612911278
 21
237.70127758009301
  0
LINE
  5
EA
100
AcDbEntity
  8
1
  6
DOT_CENTER
 62
             1
100
AcDbLine
 10
313.27434781973471
 20
316.12802760946431
 11
313.27434781973471
 21
324.05078957865021
  0
LINE
  5
E9
100
AcDbEntity
  8
1
  6
DOT_CENTER
 62
             1
100
AcDbLine
 10
309.72625749896389
 20
320.20127758009272
 11
316.13992195020978
 21
320.20127758009272
  0
LINE
  5
E8
100
AcDbEntity
  8
1
  6
DOT_CENTER
 62
             1
100
AcDbLine
 10
395.77434781973471
 20
316.88248923011719
 11
395.77434781973471
 21
323.49877376070532
  0
LINE
  5
E7
100
AcDbEntity
  8
1
  6
DOT_CENTER
 62
             1
100
AcDbLine
 10
392.2811410569858
 20
320.20127758009272
 11
399.22017117443181
 21
320.20127758009272
  0
LINE
  5
E6
100
AcDbEntity
  8
1
  6
DOT_CENTER
 62
             1
100
AcDbLine
 10
395.77434781973471
 20
234.20346737947571
 11
395.77434781973471
 21
241.16651835888149
  0
LINE
  5
E5
100
AcDbEntity
  8
1
  6
DOT_CENTER
 62
             1
100
AcDbLine
 10
392.72878635978668
 20
237.70127758009301
 11
399.02231320655778
 21
237.70127758009301
  0
LINE
  5
E4
100
AcDbEntity
  8
1
  6
CONTINUOUS
 62
             3
100
AcDbLine
 10
319.09465401044378
 20
304.7187220903254
 11
319.20222517769082
 21
304.94940920291452
  0
LINE
  5
E3
100
AcDbEntity
  8
0
  6
CONTINUOUS
 62
             3
100
AcDbLine
 10
338.26602957573579
 20
294.95853562779268
 11
338.05411404903572
 21
294.50408131429219
  0
LINE
  5
E2
100
AcDbEntity
  8
0
  6
CONTINUOUS
 62
             3
100
AcDbLine
 10
338.05411404903572
 20
294.50408131429219
 11
337.14780626203481
 21
294.92669957599242
  0
LINE
  5
DD
100
AcDbEntity
  8
0
  6
CONTINUOUS
 62
             3
100
AcDbLine
 10
338.36896230093572
 20
295.17927556939281
 11
338.26602957573579
 21
294.95853562779268
  0
LINE
  5
DC
100
AcDbEntity
  8
1
  6
CONTINUOUS
 62
             3
100
AcDbLine
 10
336.76765585771568
 20
296.4776659863856
 11
338.12711753830467
 21
295.84373859381071
  0
LINE
  5
DB
100
AcDbEntity
  8
0
  6
CONTINUOUS
 62
             3
100
AcDbLine
 10
392.43425051573467
 20
241.0413748839926
 11
391.64577020623489
 21
241.8298551934929
  0
LINE
  5
DA
100
AcDbEntity
  8
0
  6
CONTINUOUS
 62
             3
100
AcDbLine
 10
387.0205014383348
 20
234.95127758009301
 11
390.16186173953491
 21
234.95127758009301
  0
LINE
  5
D9
100
AcDbEntity
  8
0
  6
CONTINUOUS
 62
             3
100
AcDbLine
 10
392.43425051583478
 20
316.86118027609251
 11
391.64577020633482
 21
316.0726999665925
  0
LINE
  5
D8
100
AcDbEntity
  8
0
  6
CONTINUOUS
 62
             3
100
AcDbLine
 10
398.52434781973483
 20
311.44743119869281
 11
398.52434781973483
 21
314.58879149989241
  0
LINE
  5
D7
100
AcDbEntity
  8
1
  6
CONTINUOUS
 62
             3
100
AcDbLine
 10
310.02434781973471
 20
311.50127758009251
 11
309.02434781973471
 21
311.50127758009251
  0
LINE
  5
D6
100
AcDbEntity
  8
1
  6
CONTINUOUS
 62
             3
100
AcDbLine
 10
308.52434781973471
 20
312.95127758009221
 11
300.08109434036299
 21
312.95127758009221
  0
LINE
  5
D5
100
AcDbEntity
  8
1
  6
CONTINUOUS
 62
             3
100
AcDbLine
 10
287.7226228140679
 20
312.95127758009221
 11
287.7226228140679
 21
311.95127758009221
  0
LINE
  5
D4
100
AcDbEntity
  8
1
  6
CONTINUOUS
 62
             3
100
AcDbLine
 10
287.7226228140679
 20
308.95127758009221
 11
298.77391873283489
 21
308.95127758009221
  0
LINE
  5
D3
100
AcDbEntity
  8
1
  6
CONTINUOUS
 62
             3
100
AcDbLine
 10
308.52685410118181
 20
311.95127758009221
 11
300.08109434036299
 21
311.95127758009221
  0
LINE
  5
D2
100
AcDbEntity
  8
1
  6
CONTINUOUS
 62
             3
100
AcDbLine
 10
308.52685410118181
 20
309.95127758009221
 11
300.08109434036299
 21
309.95127758009221
  0
LINE
  5
D1
100
AcDbEntity
  8
1
  6
CONTINUOUS
 62
             3
100
AcDbLine
 10
310.02434781973471
 20
309.95127758009221
 11
310.62019074785883
 21
309.95127758009221
  0
LINE
  5
D0
100
AcDbEntity
  8
1
  6
CONTINUOUS
 62
             3
100
AcDbLine
 10
311.04280900959873
 20
309.85758536712962
 11
311.92122724963679
 21
309.44797221473698
  0
LINE
  5
CF
100
AcDbEntity
  8
1
  6
CONTINUOUS
 62
             3
100
AcDbLine
 10
342.70515637713089
 20
296.19656823345781
 11
317.96295379098581
 21
307.73404677899231
  0
LINE
  5
CE
100
AcDbEntity
  8
1
  6
CONTINUOUS
 62
             3
100
AcDbLine
 10
342.98463532486682
 20
297.16962297879797
 11
318.17225510065879
 21
308.73982589439203
  0
LINE
  5
CD
100
AcDbEntity
  8
1
  6
CONTINUOUS
 62
             3
100
AcDbLine
 10
320.47007996300277
 20
307.6683325639824
 11
320.72365092006481
 21
308.21211723619581
  0
LINE
  5
CC
100
AcDbEntity
  8
1
  6
CONTINUOUS
 62
             3
100
AcDbLine
 10
341.76128916313479
 20
293.6621405031924
 11
338.26320910814371
 21
297.16450434314299
  0
LINE
  5
CB
100
AcDbEntity
  8
1
  6
CONTINUOUS
 62
             3
100
AcDbLine
 10
338.26936179802789
 20
295.74413809088571
 11
341.80308790855071
 21
292.2104119803638
  0
LINE
  5
CA
100
AcDbEntity
  8
1
  6
CONTINUOUS
 62
             3
100
AcDbLine
 10
311.2645036722418
 20
310.85758536712962
 11
309.88410126686267
 21
311.50127758009251
  0
LINE
  5
C9
100
AcDbEntity
  8
1
  6
CONTINUOUS
 62
             2
100
AcDbLine
 10
282.60718136916711
 20
312.70127758009221
 11
287.7226228140679
 21
312.70127758009221
  0
LINE
  5
C8
100
AcDbEntity
  8
1
  6
CONTINUOUS
 62
             2
100
AcDbLine
 10
287.7226228140679
 20
312.45127758009221
 11
282.60718136916711
 21
312.45127758009221
  0
LINE
  5
C7
100
AcDbEntity
  8
1
  6
CONTINUOUS
 62
             2
100
AcDbLine
 10
282.60718136916711
 20
312.20127758009221
 11
287.7226228140679
 21
312.20127758009221
  0
LINE
  5
C6
100
AcDbEntity
  8
1
  6
CONTINUOUS
 62
             2
100
AcDbLine
 10
287.7226228140679
 20
309.70127758009221
 11
282.60718136916711
 21
309.70127758009221
  0
LINE
  5
C5
100
AcDbEntity
  8
1
  6
CONTINUOUS
 62
             2
100
AcDbLine
 10
282.60718136916711
 20
309.45127758009221
 11
287.7226228140679
 21
309.45127758009221
  0
LINE
  5
C4
100
AcDbEntity
  8
1
  6
CONTINUOUS
 62
             2
100
AcDbLine
 10
287.7226228140679
 20
309.20127758009221
 11
282.60718136916711
 21
309.20127758009221
  0
LINE
  5
C3
100
AcDbEntity
  8
1
  6
CONTINUOUS
 62
             3
100
AcDbLine
 10
317.13557283905982
 20
313.05832735079872
 11
315.90997987999373
 21
310.43003476841011
  0
LINE
  5
C2
100
AcDbEntity
  8
1
  6
CONTINUOUS
 62
             3
100
AcDbLine
 10
316.15182464263592
 20
309.76557174401961
 11
317.96444021658567
 21
308.92033522057761
  0
LINE
  5
C1
100
AcDbEntity
  8
1
  6
CONTINUOUS
 62
             3
100
AcDbLine
 10
318.20628497923468
 20
308.25587219620041
 11
317.48783393430978
 21
306.71514895822241
  0
LINE
  5
C0
100
AcDbEntity
  8
1
  6
CONTINUOUS
 62
             3
100
AcDbLine
 10
316.82337090991268
 20
306.47330419556602
 11
315.0107553359158
 21
307.31854071902978
  0
LINE
  5
BF
100
AcDbEntity
  8
1
  6
CONTINUOUS
 62
             3
100
AcDbLine
 10
314.34629231152468
 20
307.07669595638731
 11
313.12069935245978
 21
304.44840337399859
  0
LINE
  5
BE
100
AcDbEntity
  8
1
  6
CONTINUOUS
 62
             3
100
AcDbLine
 10
310.22051443396168
 20
305.80078181151362
 11
314.23538792032269
 21
314.4107057884799
  0
LINE
  5
BD
100
AcDbEntity
  8
0
  6
CONTINUOUS
 62
             3
100
AcDbLine
 10
313.75462674505991
 20
305.80786505450249
 11
314.02651908113472
 21
305.68107957599238
  0
LINE
  5
BC
100
AcDbEntity
  8
1
  6
CONTINUOUS
 62
             3
100
AcDbLine
 10
319.20222517769082
 20
304.94940920291452
 11
314.41300368565072
 21
307.18265986125181
  0
LINE
  5
BB
100
AcDbEntity
  8
1
  6
CONTINUOUS
 62
             3
100
AcDbLine
 10
317.47391467642581
 20
306.85871154428611
 11
342.28253811538872
 21
295.29026044642148
  0
LINE
  5
BA
100
AcDbEntity
  8
1
  6
CONTINUOUS
 62
             3
100
AcDbLine
 10
313.02003473004481
 20
311.80437246108681
 11
311.23565695060489
 21
312.6364414846845
  0
LINE
  5
B9
100
AcDbEntity
  8
1
  6
CONTINUOUS
 62
             3
100
AcDbLine
 10
312.76646377307782
 20
311.26058778882901
 11
310.03808766792969
 21
312.5328504609854
  0
LINE
  5
B8
100
AcDbEntity
  8
1
  6
CONTINUOUS
 62
             3
100
AcDbLine
 10
312.34384551135668
 20
310.35428000178302
 11
311.2645036722418
 21
310.85758536712962
  0
LINE
  5
B7
100
AcDbEntity
  8
1
  6
CONTINUOUS
 62
             3
100
AcDbLine
 10
287.7226228140679
 20
309.95127758009221
 11
287.7226228140679
 21
308.95127758009221
  0
LINE
  5
B6
100
AcDbEntity
  8
0
  6
CONTINUOUS
 62
             3
100
AcDbLine
 10
434.68558304470002
 20
233.70127758009301
 11
451.68558304459992
 21
233.70127758009301
  0
LINE
  5
B5
100
AcDbEntity
  8
0
  6
CONTINUOUS
 62
             3
100
AcDbLine
 10
451.68558304459992
 20
241.70127758009301
 11
434.68558304470002
 21
241.70127758009301
  0
LINE
  5
B4
100
AcDbEntity
  8
0
  6
CONTINUOUS
 62
             3
100
AcDbLine
 10
435.40887772020022
 20
233.25127758009231
 11
450.96066041549989
 21
233.25127758009231
  0
LINE
  5
A9
100
AcDbEntity
  8
0
  6
CONTINUOUS
 62
             3
100
AcDbLine
 10
434.71804418030001
 20
233.05502173759189
 11
434.71770743990021
 21
233.06110367919251
  0
LINE
  5
A0
100
AcDbEntity
  8
0
  6
CONTINUOUS
 62
             3
100
AcDbLine
 10
451.68558304470002
 20
324.95127758009301
 11
455.68558304470002
 21
324.95127758009301
  0
LINE
  5
9F
100
AcDbEntity
  8
0
  6
CONTINUOUS
 62
             3
100
AcDbLine
 10
455.68558304470002
 20
320.95127758009301
 11
451.68558304470002
 21
320.95127758009301
  0
LINE
  5
9E
100
AcDbEntity
  8
0
  6
CONTINUOUS
 62
             3
100
AcDbLine
 10
451.68558304470002
 20
320.95127758009301
 11
451.68558304470002
 21
324.95127758009301
  0
LINE
  5
9D
100
AcDbEntity
  8
0
  6
CONTINUOUS
 62
             3
100
AcDbLine
 10
455.68558304470002
 20
324.95127758009301
 11
455.68558304470002
 21
320.95127758009301
  0
LINE
  5
9C
100
AcDbEntity
  8
0
  6
CONTINUOUS
 62
             3
100
AcDbLine
 10
430.68558304470002
 20
324.95127758009301
 11
434.68558304470002
 21
324.95127758009301
  0
LINE
  5
9B
100
AcDbEntity
  8
0
  6
CONTINUOUS
 62
             3
100
AcDbLine
 10
434.68558304470002
 20
320.95127758009301
 11
430.68558304470002
 21
320.95127758009301
  0
LINE
  5
9A
100
AcDbEntity
  8
0
  6
CONTINUOUS
 62
             3
100
AcDbLine
 10
430.68558304470002
 20
320.95127758009301
 11
430.68558304470002
 21
324.95127758009301
  0
LINE
  5
99
100
AcDbEntity
  8
0
  6
CONTINUOUS
 62
             3
100
AcDbLine
 10
434.68558304470002
 20
324.95127758009301
 11
434.68558304470002
 21
320.95127758009301
  0
LINE
  5
98
100
AcDbEntity
  8
0
  6
CONTINUOUS
 62
             3
100
AcDbLine
 10
451.68558304470002
 20
270.89584463089238
 11
451.68558304470002
 21
287.00671052939282
  0
LINE
  5
97
100
AcDbEntity
  8
0
  6
CONTINUOUS
 62
             3
100
AcDbLine
 10
451.68558304470002
 20
236.95127758009301
 11
455.68558304470002
 21
236.95127758009301
  0
LINE
  5
96
100
AcDbEntity
  8
0
  6
CONTINUOUS
 62
             3
100
AcDbLine
 10
451.68558304470002
 20
236.95127758009301
 11
451.68558304470002
 21
270.89584463089238
  0
LINE
  5
95
100
AcDbEntity
  8
0
  6
CONTINUOUS
 62
             3
100
AcDbLine
 10
451.68558304470002
 20
287.00671052939282
 11
451.68558304470002
 21
320.95127758009301
  0
LINE
  5
94
100
AcDbEntity
  8
0
  6
CONTINUOUS
 62
             3
100
AcDbLine
 10
455.68558304470002
 20
236.95127758009301
 11
455.68558304470002
 21
320.95127758009301
  0
LINE
  5
93
100
AcDbEntity
  8
0
  6
CONTINUOUS
 62
             3
100
AcDbLine
 10
434.68558304470002
 20
287.00671052939282
 11
434.68558304470002
 21
270.89584463089238
  0
LINE
  5
92
100
AcDbEntity
  8
0
  6
CONTINUOUS
 62
             3
100
AcDbLine
 10
434.68558304470002
 20
270.89584463089238
 11
434.68558304470002
 21
236.95127758009301
  0
LINE
  5
91
100
AcDbEntity
  8
0
  6
CONTINUOUS
 62
             3
100
AcDbLine
 10
430.68558304470002
 20
236.95127758009301
 11
434.68558304470002
 21
236.95127758009301
  0
LINE
  5
90
100
AcDbEntity
  8
0
  6
CONTINUOUS
 62
             3
100
AcDbLine
 10
430.68558304470002
 20
236.95127758009301
 11
430.68558304470002
 21
320.95127758009301
  0
LINE
  5
8F
100
AcDbEntity
  8
0
  6
CONTINUOUS
 62
             3
100
AcDbLine
 10
434.68558304470002
 20
320.95127758009301
 11
434.68558304470002
 21
287.00671052939282
  0
LINE
  5
86
100
AcDbEntity
  8
0
  6
CONTINUOUS
 62
             3
100
AcDbLine
 10
450.68558304470002
 20
286.8342173184929
 11
450.68558304470002
 21
307.53653133579252
  0
LINE
  5
80
100
AcDbEntity
  8
0
  6
CONTINUOUS
 62
             3
100
AcDbLine
 10
435.68558304470002
 20
307.53653133579252
 11
435.68558304470002
 21
286.8342173184929
  0
LINE
  5
55
100
AcDbEntity
  8
0
  6
CONTINUOUS
 62
             3
100
AcDbLine
 10
450.68558304470002
 20
247.35134178549279
 11
450.68558304470002
 21
271.06833784179241
  0
LINE
  5
4F
100
AcDbEntity
  8
0
  6
CONTINUOUS
 62
             3
100
AcDbLine
 10
435.68558304470002
 20
271.06833784179241
 11
435.68558304470002
 21
247.35134178549279
  0
LINE
  5
49
100
AcDbEntity
  8
0
  6
CONTINUOUS
 62
             3
100
AcDbLine
 10
455.68558304470002
 20
232.95127758009301
 11
451.68558304470002
 21
232.95127758009301
  0
LINE
  5
48
100
AcDbEntity
  8
0
  6
CONTINUOUS
 62
             3
100
AcDbLine
 10
451.68558304470002
 20
232.95127758009301
 11
451.68558304470002
 21
236.95127758009301
  0
LINE
  5
47
100
AcDbEntity
  8
0
  6
CONTINUOUS
 62
             3
100
AcDbLine
 10
455.68558304470002
 20
236.95127758009301
 11
455.68558304470002
 21
232.95127758009301
  0
LINE
  5
46
100
AcDbEntity
  8
0
  6
CONTINUOUS
 62
             3
100
AcDbLine
 10
434.68558304470002
 20
232.95127758009301
 11
430.68558304470002
 21
232.95127758009301
  0
LINE
  5
45
100
AcDbEntity
  8
0
  6
CONTINUOUS
 62
             3
100
AcDbLine
 10
434.68558304470002
 20
236.95127758009301
 11
434.68558304470002
 21
232.95127758009301
  0
LINE
  5
44
100
AcDbEntity
  8
0
  6
CONTINUOUS
 62
             3
100
AcDbLine
 10
430.68558304470002
 20
232.95127758009301
 11
430.68558304470002
 21
236.95127758009301
  0
LINE
  5
43
100
AcDbEntity
  8
0
  6
CONTINUOUS
 62
             3
100
AcDbLine
 10
434.68558304470002
 20
317.84215054539231
 11
451.68558304470002
 21
317.84215054539231
  0
LINE
  5
42
100
AcDbEntity
  8
0
  6
CONTINUOUS
 62
             3
100
AcDbLine
 10
435.68558304470002
 20
307.53653133579252
 11
450.68558304470002
 21
307.53653133579252
  0
LINE
  5
41
100
AcDbEntity
  8
0
  6
CONTINUOUS
 62
             3
100
AcDbLine
 10
434.68558304470002
 20
319.25636410779231
 11
451.68558304470002
 21
319.25636410779231
  0
LINE
  5
40
100
AcDbEntity
  8
0
  6
CONTINUOUS
 62
             3
100
AcDbLine
 10
450.68558304470002
 20
247.35134178549279
 11
435.68558304470002
 21
247.35134178549279
  0
LINE
  5
3F
100
AcDbEntity
  8
0
  6
CONTINUOUS
 62
             3
100
AcDbLine
 10
434.68632978590011
 20
324.91321835729292
 11
451.68558304470002
 21
324.91321835729292
  0
LINE
  5
3E
100
AcDbEntity
  8
0
  6
CONTINUOUS
 62
             3
100
AcDbLine
 10
434.68558304470002
 20
323.49900479489321
 11
451.68558304470002
 21
323.49900479489321
  0
LINE
  5
32
100
AcDbEntity
  8
0
  6
CONTINUOUS
 62
             3
100
AcDbLine
 10
451.68558304470002
 20
324.95127758009301
 11
451.68449079630011
 21
324.90525213089211
  0
LINE
  5
31
100
AcDbEntity
  8
0
  6
CONTINUOUS
 62
             3
100
AcDbLine
 10
434.68632978590011
 20
324.91321835729292
 11
434.68558304470002
 21
324.95127758009301
  0
LINE
  5
2B
100
AcDbEntity
  8
0
  6
CONTINUOUS
 62
             3
100
AcDbLine
 10
451.68483630340012
 20
232.9893368029924
 11
451.67981889880002
 21
233.05688554909261
  0
LINE
  5
2A
100
AcDbEntity
  8
0
  6
CONTINUOUS
 62
             3
100
AcDbLine
 10
434.68558304470002
 20
232.9893368029924
 11
451.68483630340012
 21
232.9893368029924
  0
LINE
  5
29
100
AcDbEntity
  8
1
  6
DOT_CENTER
 62
             1
100
AcDbLine
 10
425.67812509071001
 20
278.95127758009301
 11
464.91786823148021
 21
278.95127758009301
  0
POINT
  5
28
100
AcDbEntity
  8
1
 62
             4
100
AcDbPoint
 10
282.60718136916711
 20
219.49250421355191
  0
SOLID
  5
1DA
100
AcDbEntity
  8
1
 62
             2
100
AcDbTrace
 10
393.00249148752096
 20
232.63000633279103
 11
392.26592896664943
 21
233.1838675778483
 12
394.73770714209661
 22
235.70431085391411
 13
394.73770714209661
 23
235.70431085391411
  0
ENDSEC
  0
SECTION
  2
OBJECTS
  0
DICTIONARY
  5
19
100
AcDbDictionary
  3
ACAD_GROUP
350
1A
  3
ACAD_MLINESTYLE
350
1B
  0
DICTIONARY
  5
1A
102
{ACAD_REACTORS
330
19
102
}
100
AcDbDictionary
  0
DICTIONARY
  5
1B
102
{ACAD_REACTORS
330
19
102
}
100
AcDbDictionary
  3
STANDARD
350
1C
  0
MLINESTYLE
  5
1C
102
{ACAD_REACTORS
330
1B
102
}
100
AcDbMlineStyle
  2
STANDARD
 70
             0
  3

 62
             0
 51
90.0
 52
90.0
 71
             2
 49
0.5
 62
           256
  6
BYLAYER
 49
-0.5
 62
           256
  6
BYLAYER
  0
ENDSEC
  0
EOF
