  0
SECTION
  2
HEADER
  9
$ACADVER
  1
AC1014
  9
$ACADMAINTVER
 70
             0
  9
$DWGCODEPAGE
  3
ANSI_1252
  9
$INSBASE
 10
0.0
 20
0.0
 30
0.0
  9
$EXTMIN
 10
48.45448958780437
 20
31.23027962834857
 30
0.0
  9
$EXTMAX
 10
392.06784962209201
 20
241.78429546369441
 30
0.0
  9
$LIMMIN
 10
0.0
 20
0.0
  9
$LIMMAX
 10
0.0
 20
0.0
  9
$ORTHOMODE
 70
             0
  9
$REGENMODE
 70
             1
  9
$FILLMODE
 70
             1
  9
$QTEXTMODE
 70
             0
  9
$MIRRTEXT
 70
             1
  9
$DRAGMODE
 70
             2
  9
$LTSCALE
 40
1.0
  9
$OSMODE
 70
             0
  9
$ATTMODE
 70
             1
  9
$TEXTSIZE
 40
0.2
  9
$TRACEWID
 40
0.05
  9
$TEXTSTYLE
  7
STANDARD
  9
$CLAYER
  8
0
  9
$CELTYPE
  6
CONTINUOUS
  9
$CECOLOR
 62
           256
  9
$CELTSCALE
 40
1.0
  9
$DELOBJ
 70
             1
  9
$DISPSILH
 70
             0
  9
$DIMSCALE
 40
1.0
  9
$DIMASZ
 40
0.18
  9
$DIMEXO
 40
0.0625
  9
$DIMDLI
 40
0.38
  9
$DIMRND
 40
0.0
  9
$DIMDLE
 40
0.0
  9
$DIMEXE
 40
0.18
  9
$DIMTP
 40
0.0
  9
$DIMTM
 40
0.0
  9
$DIMTXT
 40
0.18
  9
$DIMCEN
 40
0.09
  9
$DIMTSZ
 40
0.0
  9
$DIMTOL
 70
             0
  9
$DIMLIM
 70
             0
  9
$DIMTIH
 70
             1
  9
$DIMTOH
 70
             1
  9
$DIMSE1
 70
             0
  9
$DIMSE2
 70
             0
  9
$DIMTAD
 70
             0
  9
$DIMZIN
 70
             0
  9
$DIMBLK
  1

  9
$DIMASO
 70
             1
  9
$DIMSHO
 70
             1
  9
$DIMPOST
  1

  9
$DIMAPOST
  1

  9
$DIMALT
 70
             0
  9
$DIMALTD
 70
             2
  9
$DIMALTF
 40
25.4
  9
$DIMLFAC
 40
1.0
  9
$DIMTOFL
 70
             0
  9
$DIMTVP
 40
0.0
  9
$DIMTIX
 70
             0
  9
$DIMSOXD
 70
             0
  9
$DIMSAH
 70
             0
  9
$DIMBLK1
  1

  9
$DIMBLK2
  1

  9
$DIMSTYLE
  2
STANDARD
  9
$DIMCLRD
 70
             0
  9
$DIMCLRE
 70
             0
  9
$DIMCLRT
 70
             0
  9
$DIMTFAC
 40
1.0
  9
$DIMGAP
 40
0.09
  9
$DIMJUST
 70
             0
  9
$DIMSD1
 70
             0
  9
$DIMSD2
 70
             0
  9
$DIMTOLJ
 70
             1
  9
$DIMTZIN
 70
             0
  9
$DIMALTZ
 70
             0
  9
$DIMALTTZ
 70
             0
  9
$DIMFIT
 70
             3
  9
$DIMUPT
 70
             0
  9
$DIMUNIT
 70
             2
  9
$DIMDEC
 70
             4
  9
$DIMTDEC
 70
             4
  9
$DIMALTU
 70
             2
  9
$DIMALTTD
 70
             2
  9
$DIMTXSTY
  7
STANDARD
  9
$DIMAUNIT
 70
             0
  9
$LUNITS
 70
             2
  9
$LUPREC
 70
             4
  9
$SKETCHINC
 40
0.1
  9
$FILLETRAD
 40
0.0
  9
$AUNITS
 70
             0
  9
$AUPREC
 70
             0
  9
$MENU
  1
acad
  9
$ELEVATION
 40
0.0
  9
$PELEVATION
 40
0.0
  9
$THICKNESS
 40
0.0
  9
$LIMCHECK
 70
             0
  9
$BLIPMODE
 70
             1
  9
$CHAMFERA
 40
0.0
  9
$CHAMFERB
 40
0.0
  9
$CHAMFERC
 40
0.0
  9
$CHAMFERD
 40
0.0
  9
$SKPOLY
 70
             0
  9
$TDCREATE
 40
0.000000000
  9
$TDUPDATE
 40
0.000000000
  9
$TDINDWG
 40
0.0000000000
  9
$TDUSRTIMER
 40
0.0000000000
  9
$USRTIMER
 70
             1
  9
$ANGBASE
 50
0.0
  9
$ANGDIR
 70
             0
  9
$PDMODE
 70
             0
  9
$PDSIZE
 40
0.0
  9
$PLINEWID
 40
0.0
  9
$COORDS
 70
             0
  9
$SPLFRAME
 70
             0
  9
$SPLINETYPE
 70
             6
  9
$SPLINESEGS
 70
             8
  9
$ATTDIA
 70
             0
  9
$ATTREQ
 70
             1
  9
$HANDLING
 70
             1
  9
$HANDSEED
  5
22A
  9
$SURFTAB1
 70
             6
  9
$SURFTAB2
 70
             6
  9
$SURFTYPE
 70
             6
  9
$SURFU
 70
             6
  9
$SURFV
 70
             6
  9
$UCSNAME
  2

  9
$UCSORG
 10
0.0
 20
0.0
 30
0.0
  9
$UCSXDIR
 10
1.0
 20
0.0
 30
0.0
  9
$UCSYDIR
 10
0.0
 20
1.0
 30
0.0
  9
$PUCSNAME
  2

  9
$PUCSORG
 10
0.0
 20
0.0
 30
0.0
  9
$PUCSXDIR
 10
1.0
 20
0.0
 30
0.0
  9
$PUCSYDIR
 10
0.0
 20
1.0
 30
0.0
  9
$USERI1
 70
             0
  9
$USERI2
 70
             0
  9
$USERI3
 70
             0
  9
$USERI4
 70
             0
  9
$USERI5
 70
             0
  9
$USERR1
 40
12.01
  9
$USERR2
 40
0.0
  9
$USERR3
 40
0.0
  9
$USERR4
 40
0.0
  9
$USERR5
 40
0.0
  9
$WORLDVIEW
 70
             1
  9
$SHADEDGE
 70
             3
  9
$SHADEDIF
 70
            70
  9
$TILEMODE
 70
             1
  9
$MAXACTVP
 70
            16
  9
$PINSBASE
 10
0.0
 20
0.0
 30
0.0
  9
$PLIMCHECK
 70
             0
  9
$PEXTMIN
 10
1.00000000000000E+20
 20
1.00000000000000E+20
 30
1.00000000000000E+20
  9
$PEXTMAX
 10
-1.00000000000000E+20
 20
-1.00000000000000E+20
 30
-1.00000000000000E+20
  9
$PLIMMIN
 10
0.0
 20
0.0
  9
$PLIMMAX
 10
12.0
 20
9.0
  9
$UNITMODE
 70
             0
  9
$VISRETAIN
 70
             0
  9
$PLINEGEN
 70
             1
  9
$PSLTSCALE
 70
             0
  9
$TREEDEPTH
 70
          3020
  9
$PICKSTYLE
 70
             1
  9
$CMLSTYLE
  2
STANDARD
  9
$CMLJUST
 70
             0
  9
$CMLSCALE
 40
1.0
  9
$PROXYGRAPHICS
 70
             0
  9
$MEASUREMENT
 70
             1
  0
ENDSEC
  0
SECTION
  2
CLASSES
  0
CLASS
  1
LWPOLYLINE
  2
AcDbPolyline
  3
"AutoCAD"
 90
        0
280
             0
281
             1
  0
CLASS
  1
IMAGE
  2
AcDbRasterImage
  3
ISM
 90
      127
280
             0
281
             1
  0
CLASS
  1
OLE2FRAME
  2
AcDbOle2Frame
  3
""
 90
        0
280
             0
281
             1
  0
CLASS
  1
HATCH
  2
AcDbHatch
  3
"ACAD_SEDONA"
 90
        0
280
             0
281
             1
  0
CLASS
  1
DICTIONARYVAR
  2
AcDbDictionaryVar
  3
"AutoCAD"
 90
        0
280
             0
281
             0
  0
CLASS
  1
RASTERVARIABLES
  2
AcDbRasterVariables
  3
ISM
 90
        0
280
             0
281
             0
  0
CLASS
  1
IMAGEDEF
  2
AcDbRasterImageDef
  3
ISM
 90
        0
280
             0
281
             0
  0
CLASS
  1
IMAGEDEF_REACTOR
  2
AcDbRasterImageDefReactor
  3
ISM
 90
        1
280
             0
281
             0
  0
CLASS
  1
IDBUFFER
  2
AcDbIdBuffer
  3
"Acad"
 90
        0
280
             0
281
             0
  0
CLASS
  1
SPATIAL_FILTER
  2
AcDbSpatialFilter
  3
"Acad"
 90
        0
280
             0
281
             0
  0
CLASS
  1
XRECORD
  2
AcDbXrecord
  3
"<Built In>"
 90
        0
280
             0
281
             0
  0
CLASS
  1
SORTENTSTABLE
  2
AcDbSortentsTable
  3
"AutoCAD"
 90
        0
280
             0
281
             0
  0
CLASS
  1
LAYER_INDEX
  2
AcDbLayerIndex
  3
"Acad"
 90
        0
280
             0
281
             0
  0
CLASS
  1
SPATIAL_INDEX
  2
AcDbSpatialIndex
  3
"Acad"
 90
        0
280
             0
281
             0
  0
CLASS
  1
OBJECT_PTR
  2
CAseDLPNTableRecord
  3
"ASE-LPNTableRecord"
 90
        1
280
             0
281
             0
  0
CLASS
  1
LAYOUT
  2
AcDbLayout
  3
"AutoCAD 2000"
 90
        0
280
             0
281
             0
  0
CLASS
  1
PLOTSETTINGS
  2
AcDbPlotSettings
  3
"AutoCAD 2000"
 90
        0
280
             0
281
             0
  0
CLASS
  1
ACDBDICTIONARYWDFLT
  2
AcDbDictionaryWithDefault
  3
"AutoCAD 2000"
 90
        0
280
             0
281
             0
  0
CLASS
  1
ACDBPLACEHOLDER
  2
AcDbPlaceHolder
  3
"AutoCAD 2000"
 90
        0
280
             0
281
             0
  0
ENDSEC
  0
SECTION
  2
TABLES
  0
TABLE
  2
VPORT
  5
7
100
AcDbSymbolTable
 70
             1
  0
VPORT
  5
15
100
AcDbSymbolTableRecord
100
AcDbViewportTableRecord
  2
*ACTIVE
 70
             0
 10
0.0
 20
0.0
 11
1.0
 21
1.0
 12
220.26116960494818
 22
136.50728754602147
 13
0.0
 23
0.0
 14
1.0
 24
1.0
 15
0.0
 25
0.0
 16
0.0
 26
0.0
 36
1.0
 17
0.0
 27
0.0
 37
0.0
 40
235.83936465863098
 41
1.60267857142857
 42
50.0
 43
0.0
 44
0.0
 50
0.0
 51
0.0
 71
             0
 72
           100
 73
             1
 74
             1
 75
             0
 76
             0
 77
             0
 78
             0
  0
ENDTAB
  0
TABLE
  2
LTYPE
  5
4
100
AcDbSymbolTable
 70
            10
  0
LTYPE
  5
11
100
AcDbSymbolTableRecord
100
AcDbLinetypeTableRecord
  2
BYBLOCK
 70
            64
  3

 72
            65
 73
             0
 40
0.0
  0
LTYPE
  5
12
100
AcDbSymbolTableRecord
100
AcDbLinetypeTableRecord
  2
BYLAYER
 70
            64
  3

 72
            65
 73
             0
 40
0.0
  0
LTYPE
  5
13
100
AcDbSymbolTableRecord
100
AcDbLinetypeTableRecord
  2
CONTINUOUS
 70
            64
  3
Solid line
 72
            65
 73
             0
 40
0.0
  0
LTYPE
  5
1D
100
AcDbSymbolTableRecord
100
AcDbLinetypeTableRecord
  2
DASHED
 70
            64
  3
Dashed
 72
            65
 73
             2
 40
15.0
 49
7.0
 74
             0
 49
-8.0
 74
             0
  0
LTYPE
  5
1E
100
AcDbSymbolTableRecord
100
AcDbLinetypeTableRecord
  2
DOTTED
 70
            64
  3
Dotted
 72
            65
 73
             2
 40
1.0
 49
0.0
 74
             0
 49
-1.0
 74
             0
  0
LTYPE
  5
1F
100
AcDbSymbolTableRecord
100
AcDbLinetypeTableRecord
  2
DOT_CENTER
 70
            64
  3
Dot_Center
 72
            65
 73
             4
 40
14.0
 49
12.0
 74
             0
 49
-1.0
 74
             0
 49
0.0
 74
             0
 49
-1.0
 74
             0
  0
LTYPE
  5
20
100
AcDbSymbolTableRecord
100
AcDbLinetypeTableRecord
  2
LONG_DASHED
 70
            64
  3
Long_Dashed
 72
            65
 73
             2
 40
15.0
 49
10.0
 74
             0
 49
-5.0
 74
             0
  0
LTYPE
  5
21
100
AcDbSymbolTableRecord
100
AcDbLinetypeTableRecord
  2
DASH_CENTER
 70
            64
  3
Dash_Center
 72
            65
 73
             4
 40
14.0
 49
11.0
 74
             0
 49
-1.0
 74
             0
 49
1.0
 74
             0
 49
-1.0
 74
             0
  0
LTYPE
  5
22
100
AcDbSymbolTableRecord
100
AcDbLinetypeTableRecord
  2
PHANTOM
 70
            64
  3
Phantom
 72
            65
 73
             6
 40
13.0
 49
10.0
 74
             0
 49
-1.0
 74
             0
 49
0.0
 74
             0
 49
-1.0
 74
             0
 49
0.0
 74
             0
 49
-1.0
 74
             0
  0
LTYPE
  5
23
100
AcDbSymbolTableRecord
100
AcDbLinetypeTableRecord
  2
CENTER_DASH_DASH
 70
            64
  3
Center_Dash_Dash
 72
            65
 73
             6
 40
14.0
 49
9.0
 74
             0
 49
-1.0
 74
             0
 49
1.0
 74
             0
 49
-1.0
 74
             0
 49
1.0
 74
             0
 49
-1.0
 74
             0
  0
ENDTAB
  0
TABLE
  2
LAYER
  5
2
100
AcDbSymbolTable
 70
             2
  0
LAYER
  5
14
100
AcDbSymbolTableRecord
100
AcDbLayerTableRecord
  2
0
 70
             0
 62
             7
  6
CONTINUOUS
  0
LAYER
  5
24
100
AcDbSymbolTableRecord
100
AcDbLayerTableRecord
  2
1
 70
             0
 62
             7
  6
CONTINUOUS
  0
ENDTAB
  0
TABLE
  2
STYLE
  5
3
100
AcDbSymbolTable
 70
             4
  0
STYLE
  5
17
100
AcDbSymbolTableRecord
100
AcDbTextStyleTableRecord
  2
STANDARD
 70
             0
 40
0.0
 41
1.0
 50
0.0
 71
             0
 42
0.0
  3
txt
  4

  0
STYLE
  5
188
100
AcDbSymbolTableRecord
100
AcDbTextStyleTableRecord
  2
CONVERTER_1
 70
             0
 40
0.0
 41
0.9
 50
0.0
 71
             0
 42
0.0
  3
txt.shx
  4

  0
STYLE
  5
18E
100
AcDbSymbolTableRecord
100
AcDbTextStyleTableRecord
  2
CONVERTER_2
 70
             0
 40
0.0
 41
1.07
 50
0.0
 71
             0
 42
0.0
  3
txt.shx
  4

  0
STYLE
  5
190
100
AcDbSymbolTableRecord
100
AcDbTextStyleTableRecord
  2
CONVERTER_3
 70
             0
 40
0.0
 41
0.63
 50
0.0
 71
             0
 42
0.0
  3
txt.shx
  4

  0
ENDTAB
  0
TABLE
  2
VIEW
  5
5
100
AcDbSymbolTable
 70
             0
  0
ENDTAB
  0
TABLE
  2
UCS
  5
6
100
AcDbSymbolTable
 70
             0
  0
ENDTAB
  0
TABLE
  2
APPID
  5
8
100
AcDbSymbolTable
 70
             1
  0
APPID
  5
16
100
AcDbSymbolTableRecord
100
AcDbRegAppTableRecord
  2
ACAD
 70
             0
  0
ENDTAB
  0
TABLE
  2
DIMSTYLE
  5
9
100
AcDbSymbolTable
 70
            14
  0
DIMSTYLE
105
18
100
AcDbSymbolTableRecord
100
AcDbDimStyleTableRecord
  2
STANDARD
 70
             0
  3

  4

  5

  6

  7

 40
1.0
 41
0.18
 42
0.0625
 43
0.38
 44
0.18
 45
0.0
 46
0.0
 47
0.0
 48
0.0
 71
             0
 72
             0
 73
             1
 74
             1
 75
             0
 76
             0
 77
             0
 78
             0
140
0.18
141
0.09
142
0.0
143
25.4
144
1.0
145
0.0
146
1.0
147
0.09
170
             0
171
             2
172
             0
173
             0
174
             0
175
             0
176
             0
177
             0
178
             0
270
             2
271
             4
272
             4
273
             2
274
             2
275
             0
280
             0
281
             0
282
             0
283
             1
284
             0
285
             0
286
             0
287
             3
288
             0
340
17
  0
DIMSTYLE
105
19B
100
AcDbSymbolTableRecord
100
AcDbDimStyleTableRecord
  2
ME10_DIM_0
 70
             0
  3

  4

  5

  6

  7

 40
1.0
 41
3.2
 42
1.0
 43
0.38
 44
1.5
 45
0.0
 46
0.0
 47
0.0
 48
0.0
 71
             0
 72
             0
 73
             0
 74
             0
 75
             0
 76
             0
 77
             1
 78
             8
140
3.2
141
0.09
142
0.0
143
25.4
144
1.0
145
0.0
146
1.0
147
0.625
170
             0
171
             2
172
             1
173
             1
174
             0
175
             0
176
             2
177
             2
178
             2
270
             2
271
             4
272
             4
273
             2
274
             2
275
             0
280
             0
281
             0
282
             0
283
             1
284
             0
285
             0
286
             0
287
             3
288
             0
340
188
  0
DIMSTYLE
105
1A8
100
AcDbSymbolTableRecord
100
AcDbDimStyleTableRecord
  2
ME10_DIM_1
 70
             0
  3

  4

  5

  6

  7

 40
1.0
 41
3.2
 42
1.0
 43
0.38
 44
1.5
 45
0.0
 46
0.0
 47
0.0
 48
0.0
 71
             0
 72
             0
 73
             0
 74
             0
 75
             0
 76
             0
 77
             1
 78
             8
140
3.2
141
0.09
142
0.0
143
25.4
144
1.0
145
0.0
146
1.0
147
0.625
170
             0
171
             2
172
             1
173
             1
174
             0
175
             0
176
             2
177
             2
178
             2
270
             2
271
             4
272
             4
273
             2
274
             2
275
             0
280
             0
281
             0
282
             0
283
             1
284
             0
285
             0
286
             0
287
             3
288
             0
340
188
  0
DIMSTYLE
105
1B3
100
AcDbSymbolTableRecord
100
AcDbDimStyleTableRecord
  2
ME10_DIM_2
 70
             0
  3
(<>)
  4

  5

  6

  7

 40
1.0
 41
3.2
 42
1.0
 43
0.38
 44
1.5
 45
0.0
 46
0.0
 47
0.0
 48
0.0
 71
             0
 72
             0
 73
             0
 74
             0
 75
             0
 76
             0
 77
             1
 78
             8
140
3.2
141
0.09
142
0.0
143
25.4
144
1.0
145
0.0
146
1.0
147
0.625
170
             0
171
             2
172
             1
173
             1
174
             0
175
             0
176
             2
177
             2
178
             2
270
             2
271
             4
272
             4
273
             2
274
             2
275
             0
280
             0
281
             0
282
             0
283
             1
284
             0
285
             0
286
             0
287
             3
288
             0
340
188
  0
DIMSTYLE
105
1BE
100
AcDbSymbolTableRecord
100
AcDbDimStyleTableRecord
  2
ME10_DIM_3
 70
             0
  3
(<>)
  4

  5

  6

  7

 40
1.0
 41
3.2
 42
1.0
 43
0.38
 44
1.5
 45
0.0
 46
0.0
 47
0.0
 48
0.0
 71
             0
 72
             0
 73
             0
 74
             0
 75
             0
 76
             0
 77
             1
 78
             8
140
3.2
141
0.09
142
0.0
143
25.4
144
1.0
145
0.0
146
1.0
147
0.625
170
             0
171
             2
172
             1
173
             1
174
             0
175
             0
176
             2
177
             2
178
             2
270
             2
271
             4
272
             4
273
             2
274
             2
275
             0
280
             0
281
             0
282
             0
283
             1
284
             0
285
             0
286
             0
287
             3
288
             0
340
188
  0
DIMSTYLE
105
1C9
100
AcDbSymbolTableRecord
100
AcDbDimStyleTableRecord
  2
ME10_DIM_4
 70
             0
  3
(<>)
  4

  5

  6

  7

 40
1.0
 41
3.2
 42
1.0
 43
0.38
 44
1.5
 45
0.0
 46
0.0
 47
0.0
 48
0.0
 71
             0
 72
             0
 73
             0
 74
             0
 75
             0
 76
             0
 77
             1
 78
             8
140
3.2
141
0.09
142
0.0
143
25.4
144
1.0
145
0.0
146
1.0
147
0.625
170
             0
171
             2
172
             1
173
             1
174
             0
175
             0
176
             2
177
             2
178
             2
270
             2
271
             4
272
             4
273
             2
274
             2
275
             0
280
             0
281
             0
282
             0
283
             1
284
             0
285
             0
286
             0
287
             3
288
             0
340
188
  0
DIMSTYLE
105
1D4
100
AcDbSymbolTableRecord
100
AcDbDimStyleTableRecord
  2
ME10_DIM_5
 70
             0
  3

  4

  5

  6

  7

 40
1.0
 41
3.2
 42
1.0
 43
0.38
 44
1.0
 45
0.0
 46
0.0
 47
0.0
 48
0.0
 71
             0
 72
             0
 73
             0
 74
             0
 75
             0
 76
             0
 77
             1
 78
             8
140
3.2
141
0.09
142
0.0
143
25.4
144
1.0
145
0.0
146
1.0
147
0.625
170
             0
171
             2
172
             1
173
             1
174
             0
175
             0
176
             2
177
             2
178
             2
270
             2
271
             2
272
             4
273
             2
274
             2
275
             0
280
             0
281
             0
282
             0
283
             1
284
             0
285
             0
286
             0
287
             3
288
             0
340
188
  0
DIMSTYLE
105
1DF
100
AcDbSymbolTableRecord
100
AcDbDimStyleTableRecord
  2
ME10_DIM_6
 70
             0
  3

  4

  5

  6

  7

 40
1.0
 41
3.2
 42
1.0
 43
0.38
 44
1.0
 45
0.0
 46
0.0
 47
0.0
 48
0.0
 71
             0
 72
             0
 73
             0
 74
             0
 75
             0
 76
             0
 77
             1
 78
             8
140
3.2
141
0.09
142
0.0
143
25.4
144
1.0
145
0.0
146
1.0
147
0.625
170
             0
171
             2
172
             1
173
             1
174
             0
175
             0
176
             2
177
             2
178
             2
270
             2
271
             2
272
             4
273
             2
274
             2
275
             0
280
             0
281
             0
282
             0
283
             1
284
             0
285
             0
286
             0
287
             3
288
             0
340
188
  0
DIMSTYLE
105
1EA
100
AcDbSymbolTableRecord
100
AcDbDimStyleTableRecord
  2
ME10_DIM_7
 70
             0
  3
{\Fgdt;n}<>
  4

  5

  6

  7

 40
1.0
 41
3.2
 42
1.0
 43
0.38
 44
1.0
 45
0.0
 46
0.0
 47
0.0
 48
0.0
 71
             0
 72
             0
 73
             0
 74
             0
 75
             0
 76
             0
 77
             1
 78
             8
140
3.2
141
0.09
142
0.0
143
25.4
144
1.0
145
0.0
146
1.0
147
0.625
170
             0
171
             2
172
             1
173
             1
174
             0
175
             0
176
             2
177
             2
178
             2
270
             2
271
             2
272
             4
273
             2
274
             2
275
             0
280
             0
281
             0
282
             0
283
             1
284
             0
285
             0
286
             0
287
             3
288
             0
340
188
  0
DIMSTYLE
105
1F7
100
AcDbSymbolTableRecord
100
AcDbDimStyleTableRecord
  2
ME10_DIM_8
 70
             0
  3
(<>)
  4

  5

  6

  7

 40
1.0
 41
3.2
 42
1.0
 43
0.38
 44
1.0
 45
0.0
 46
0.0
 47
0.0
 48
0.0
 71
             0
 72
             0
 73
             0
 74
             0
 75
             0
 76
             0
 77
             1
 78
             8
140
3.2
141
0.09
142
0.0
143
25.4
144
1.0
145
0.0
146
1.0
147
0.625
170
             0
171
             2
172
             1
173
             1
174
             0
175
             0
176
             2
177
             2
178
             2
270
             2
271
             2
272
             4
273
             2
274
             2
275
             0
280
             0
281
             0
282
             0
283
             1
284
             0
285
             0
286
             0
287
             3
288
             0
340
188
  0
DIMSTYLE
105
204
100
AcDbSymbolTableRecord
100
AcDbDimStyleTableRecord
  2
ME10_DIM_9
 70
             0
  3
(<>)
  4

  5

  6

  7

 40
1.0
 41
3.2
 42
1.0
 43
0.38
 44
1.0
 45
0.0
 46
0.0
 47
0.0
 48
0.0
 71
             0
 72
             0
 73
             0
 74
             0
 75
             0
 76
             0
 77
             1
 78
             8
140
3.2
141
0.09
142
0.0
143
25.4
144
1.0
145
0.0
146
1.0
147
0.625
170
             0
171
             2
172
             1
173
             1
174
             0
175
             0
176
             2
177
             2
178
             2
270
             2
271
             2
272
             4
273
             2
274
             2
275
             0
280
             0
281
             0
282
             0
283
             1
284
             0
285
             0
286
             0
287
             3
288
             0
340
188
  0
DIMSTYLE
105
211
100
AcDbSymbolTableRecord
100
AcDbDimStyleTableRecord
  2
ME10_DIM_10
 70
             0
  3
(<>)
  4

  5

  6

  7

 40
1.0
 41
3.2
 42
1.0
 43
0.38
 44
1.0
 45
0.0
 46
0.0
 47
0.0
 48
0.0
 71
             0
 72
             0
 73
             0
 74
             0
 75
             0
 76
             0
 77
             1
 78
             8
140
3.2
141
0.09
142
0.0
143
25.4
144
1.0
145
0.0
146
1.0
147
0.625
170
             0
171
             2
172
             1
173
             1
174
             0
175
             0
176
             2
177
             2
178
             2
270
             2
271
             2
272
             4
273
             2
274
             2
275
             0
280
             0
281
             0
282
             0
283
             1
284
             0
285
             0
286
             0
287
             3
288
             0
340
188
  0
DIMSTYLE
105
21C
100
AcDbSymbolTableRecord
100
AcDbDimStyleTableRecord
  2
ME10_DIM_11
 70
             0
  3
(<>)
  4

  5

  6

  7

 40
1.0
 41
3.2
 42
1.0
 43
0.38
 44
1.0
 45
0.0
 46
0.0
 47
0.0
 48
0.0
 71
             0
 72
             0
 73
             0
 74
             0
 75
             0
 76
             0
 77
             1
 78
             8
140
3.2
141
0.09
142
0.0
143
25.4
144
1.0
145
0.0
146
1.0
147
0.625
170
             0
171
             2
172
             1
173
             1
174
             0
175
             0
176
             2
177
             2
178
             2
270
             2
271
             2
272
             4
273
             2
274
             2
275
             0
280
             0
281
             0
282
             0
283
             1
284
             0
285
             0
286
             0
287
             3
288
             0
340
188
  0
DIMSTYLE
105
227
100
AcDbSymbolTableRecord
100
AcDbDimStyleTableRecord
  2
ME10_DIM_12
 70
             0
  3

  4

  5

  6

  7

 40
1.0
 41
3.2
 42
1.0
 43
0.38
 44
1.0
 45
0.0
 46
0.0
 47
0.0
 48
0.0
 71
             0
 72
             0
 73
             0
 74
             0
 75
             0
 76
             0
 77
             1
 78
             8
140
3.2
141
0.09
142
0.0
143
25.4
144
1.0
145
0.0
146
1.0
147
0.625
170
             0
171
             2
172
             1
173
             1
174
             0
175
             0
176
             2
177
             2
178
             2
270
             2
271
             2
272
             4
273
             2
274
             2
275
             0
280
             0
281
             0
282
             0
283
             1
284
             0
285
             0
286
             0
287
             3
288
             0
340
188
  0
ENDTAB
  0
TABLE
  2
BLOCK_RECORD
  5
1
100
AcDbSymbolTable
 70
            13
  0
BLOCK_RECORD
  5
A
100
AcDbSymbolTableRecord
100
AcDbBlockTableRecord
  2
*MODEL_SPACE
  0
BLOCK_RECORD
  5
B
100
AcDbSymbolTableRecord
100
AcDbBlockTableRecord
  2
*PAPER_SPACE
  0
BLOCK_RECORD
  5
192
100
AcDbSymbolTableRecord
100
AcDbBlockTableRecord
  2
*D0
  0
BLOCK_RECORD
  5
19D
100
AcDbSymbolTableRecord
100
AcDbBlockTableRecord
  2
*D1
  0
BLOCK_RECORD
  5
1AA
100
AcDbSymbolTableRecord
100
AcDbBlockTableRecord
  2
*D2
  0
BLOCK_RECORD
  5
1B5
100
AcDbSymbolTableRecord
100
AcDbBlockTableRecord
  2
*D3
  0
BLOCK_RECORD
  5
1C0
100
AcDbSymbolTableRecord
100
AcDbBlockTableRecord
  2
*D4
  0
BLOCK_RECORD
  5
1CB
100
AcDbSymbolTableRecord
100
AcDbBlockTableRecord
  2
*D5
  0
BLOCK_RECORD
  5
1D6
100
AcDbSymbolTableRecord
100
AcDbBlockTableRecord
  2
*D6
  0
BLOCK_RECORD
  5
1E1
100
AcDbSymbolTableRecord
100
AcDbBlockTableRecord
  2
*D7
  0
BLOCK_RECORD
  5
1EC
100
AcDbSymbolTableRecord
100
AcDbBlockTableRecord
  2
*D8
  0
BLOCK_RECORD
  5
1F9
100
AcDbSymbolTableRecord
100
AcDbBlockTableRecord
  2
*D9
  0
BLOCK_RECORD
  5
206
100
AcDbSymbolTableRecord
100
AcDbBlockTableRecord
  2
*D10
  0
BLOCK_RECORD
  5
213
100
AcDbSymbolTableRecord
100
AcDbBlockTableRecord
  2
*D11
  0
BLOCK_RECORD
  5
21E
100
AcDbSymbolTableRecord
100
AcDbBlockTableRecord
  2
*D12
  0
ENDTAB
  0
ENDSEC
  0
SECTION
  2
BLOCKS
  0
BLOCK
  5
D
100
AcDbEntity
  8
0
100
AcDbBlockBegin
  2
*MODEL_SPACE
 70
             0
 10
0.0
 20
0.0
 30
0.0
  3
*MODEL_SPACE
  1

  0
ENDBLK
  5
E
100
AcDbEntity
  8
0
100
AcDbBlockEnd
  0
BLOCK
  5
F
100
AcDbEntity
 67
             1
  8
0
100
AcDbBlockBegin
  2
*PAPER_SPACE
 70
             0
 10
0.0
 20
0.0
 30
0.0
  3
*PAPER_SPACE
  1

  0
ENDBLK
  5
10
100
AcDbEntity
 67
             1
  8
0
100
AcDbBlockEnd
  0
BLOCK
  5
193
100
AcDbEntity
  8
0
100
AcDbBlockBegin
  2
*D0
 70
             1
 10
0.0
 20
0.0
 30
0.0
  3
*D0
  1

  0
LINE
  5
194
100
AcDbEntity
  8
0
  6
CONTINUOUS
 62
             2
100
AcDbLine
 10
390.56784962209201
 20
75.87150524579499
 11
390.56784962209201
 21
87.87150524579499
  0
LINE
  5
195
100
AcDbEntity
  8
0
  6
CONTINUOUS
 62
             2
100
AcDbLine
 10
368.47316894290458
 20
87.87150524579499
 11
392.06784962209201
 21
87.87150524579499
  0
LINE
  5
196
100
AcDbEntity
  8
0
  6
CONTINUOUS
 62
             2
100
AcDbLine
 10
357.47316894290458
 20
75.87150524579499
 11
392.06784962209201
 21
75.87150524579499
  0
SOLID
  5
197
100
AcDbEntity
  8
0
 62
             2
100
AcDbTrace
 10
390.14656162981237
 20
79.071505245795
 11
390.98913761437166
 21
79.071505245795
 12
390.56784962209201
 22
75.87150524579499
 13
390.56784962209201
 23
75.87150524579499
  0
SOLID
  5
198
100
AcDbEntity
  8
0
 62
             2
100
AcDbTrace
 10
390.98913761437166
 20
84.67150524579499
 11
390.14656162981237
 21
84.67150524579499
 12
390.56784962209201
 22
87.87150524579499
 13
390.56784962209201
 23
87.87150524579499
  0
MTEXT
  5
199
100
AcDbEntity
  8
0
 62
             2
100
AcDbMText
 10
388.56784962209201
 20
80.0029620102106
 30
0.0
 40
3.2
 41
0.0
 71
             7
 72
             1
  1
12
  7
CONVERTER_1
 11
0.0
 21
1.0
 31
0.0
  0
ENDBLK
  5
19A
100
AcDbEntity
  8
0
100
AcDbBlockEnd
  0
BLOCK
  5
19E
100
AcDbEntity
  8
0
100
AcDbBlockBegin
  2
*D1
 70
             1
 10
0.0
 20
0.0
 30
0.0
  3
*D1
  1

  0
LINE
  5
19F
100
AcDbEntity
  8
0
  6
CONTINUOUS
 62
             2
100
AcDbLine
 10
390.56784962209201
 20
89.87150524579499
 11
390.56784962209201
 21
96.271505245795
  0
LINE
  5
1A0
100
AcDbEntity
  8
0
  6
CONTINUOUS
 62
             2
100
AcDbLine
 10
390.56784962209201
 20
87.87150524579499
 11
390.56784962209201
 21
89.87150524579499
  0
LINE
  5
1A1
100
AcDbEntity
  8
0
  6
CONTINUOUS
 62
             2
100
AcDbLine
 10
390.56784962209201
 20
81.47150524579499
 11
390.56784962209201
 21
87.87150524579499
  0
LINE
  5
1A2
100
AcDbEntity
  8
0
  6
CONTINUOUS
 62
             2
100
AcDbLine
 10
374.47316894290458
 20
89.87150524579499
 11
392.06784962209201
 21
89.87150524579499
  0
LINE
  5
1A3
100
AcDbEntity
  8
0
  6
CONTINUOUS
 62
             2
100
AcDbLine
 10
368.47316894290458
 20
87.87150524579499
 11
392.06784962209201
 21
87.87150524579499
  0
SOLID
  5
1A4
100
AcDbEntity
  8
0
 62
             2
100
AcDbTrace
 10
390.98913761437166
 20
84.67150524579499
 11
390.14656162981237
 21
84.67150524579499
 12
390.56784962209201
 22
87.87150524579499
 13
390.56784962209201
 23
87.87150524579499
  0
SOLID
  5
1A5
100
AcDbEntity
  8
0
 62
             2
100
AcDbTrace
 10
390.14656162981237
 20
93.071505245795
 11
390.98913761437166
 21
93.071505245795
 12
390.56784962209201
 22
89.87150524579499
 13
390.56784962209201
 23
89.87150524579499
  0
MTEXT
  5
1A6
100
AcDbEntity
  8
0
 62
             2
100
AcDbMText
 10
388.56784962209201
 20
93.7007525270223
 30
0.0
 40
3.2
 41
0.0
 71
             7
 72
             1
  1
2
  7
CONVERTER_1
 11
0.0
 21
1.0
 31
0.0
  0
ENDBLK
  5
1A7
100
AcDbEntity
  8
0
100
AcDbBlockEnd
  0
BLOCK
  5
1AB
100
AcDbEntity
  8
0
100
AcDbBlockBegin
  2
*D2
 70
             1
 10
0.0
 20
0.0
 30
0.0
  3
*D2
  1

  0
LINE
  5
1AC
100
AcDbEntity
  8
0
  6
CONTINUOUS
 62
             2
100
AcDbLine
 10
73.15448958780436
 20
183.25776569983822
 11
104.15448958780441
 21
183.25776569983822
  0
LINE
  5
1AD
100
AcDbEntity
  8
0
  6
CONTINUOUS
 62
             2
100
AcDbLine
 10
104.15448958780441
 20
176.33769320584491
 11
104.15448958780441
 21
184.75776569983822
  0
LINE
  5
1AE
100
AcDbEntity
  8
0
  6
CONTINUOUS
 62
             2
100
AcDbLine
 10
73.15448958780436
 20
176.33769320584491
 11
73.15448958780436
 21
184.75776569983822
  0
SOLID
  5
1AF
100
AcDbEntity
  8
0
 62
             2
100
AcDbTrace
 10
76.35448958780437
 20
183.67905369211789
 11
76.35448958780437
 21
182.83647770755854
 12
73.15448958780436
 22
183.25776569983822
 13
73.15448958780436
 23
183.25776569983822
  0
SOLID
  5
1B0
100
AcDbEntity
  8
0
 62
             2
100
AcDbTrace
 10
100.9544895878044
 20
182.83647770755854
 11
100.9544895878044
 21
183.67905369211789
 12
104.15448958780441
 22
183.25776569983822
 13
104.15448958780441
 23
183.25776569983822
  0
MTEXT
  5
1B1
100
AcDbEntity
  8
0
 62
             2
100
AcDbMText
 10
84.11048958781207
 20
185.25775933908272
 30
0.0
 40
3.2
 41
0.0
 71
             7
 72
             1
  1
\C2;(\C2;31\C2;)
  7
CONVERTER_1
 11
0.99999999999706
 21
0.00000242406841
 31
0.0
  0
ENDBLK
  5
1B2
100
AcDbEntity
  8
0
100
AcDbBlockEnd
  0
BLOCK
  5
1B6
100
AcDbEntity
  8
0
100
AcDbBlockBegin
  2
*D3
 70
             1
 10
0.0
 20
0.0
 30
0.0
  3
*D3
  1

  0
LINE
  5
1B7
100
AcDbEntity
  8
0
  6
CONTINUOUS
 62
             2
100
AcDbLine
 10
68.65448958780436
 20
121.6130597566553
 11
108.65448958780439
 21
121.6130597566553
  0
LINE
  5
1B8
100
AcDbEntity
  8
0
  6
CONTINUOUS
 62
             2
100
AcDbLine
 10
108.65448958780439
 20
104.73673242701329
 11
108.65448958780439
 21
123.1130597566553
  0
LINE
  5
1B9
100
AcDbEntity
  8
0
  6
CONTINUOUS
 62
             2
100
AcDbLine
 10
68.65448958780436
 20
104.73673242701329
 11
68.65448958780436
 21
123.1130597566553
  0
SOLID
  5
1BA
100
AcDbEntity
  8
0
 62
             2
100
AcDbTrace
 10
71.85448958780437
 20
122.03434774893498
 11
71.85448958780437
 21
121.19177176437563
 12
68.65448958780436
 22
121.6130597566553
 13
68.65448958780436
 23
121.6130597566553
  0
SOLID
  5
1BB
100
AcDbEntity
  8
0
 62
             2
100
AcDbTrace
 10
105.45448958780439
 20
121.19177176437564
 11
105.45448958780439
 21
122.03434774893498
 12
108.65448958780439
 22
121.6130597566553
 13
108.65448958780439
 23
121.6130597566553
  0
MTEXT
  5
1BC
100
AcDbEntity
  8
0
 62
             2
100
AcDbMText
 10
83.86664715300249
 20
123.61305339589981
 30
0.0
 40
3.2
 41
0.0
 71
             7
 72
             1
  1
\C2;(\C2;40\C2;)
  7
CONVERTER_1
 11
0.99999999999706
 21
0.00000242406841
 31
0.0
  0
ENDBLK
  5
1BD
100
AcDbEntity
  8
0
100
AcDbBlockEnd
  0
BLOCK
  5
1C1
100
AcDbEntity
  8
0
100
AcDbBlockBegin
  2
*D4
 70
             1
 10
0.0
 20
0.0
 30
0.0
  3
*D4
  1

  0
LINE
  5
1C2
100
AcDbEntity
  8
0
  6
CONTINUOUS
 62
             2
100
AcDbLine
 10
330.94585836564005
 20
89.87150524579499
 11
330.94585836564005
 21
77.87150524579499
  0
LINE
  5
1C3
100
AcDbEntity
  8
0
  6
CONTINUOUS
 62
             2
100
AcDbLine
 10
343.7392230334309
 20
77.87150524579499
 11
329.44585836564005
 21
77.87150524579499
  0
LINE
  5
1C4
100
AcDbEntity
  8
0
  6
CONTINUOUS
 62
             2
100
AcDbLine
 10
332.47316894290458
 20
89.87150524579499
 11
329.44585836564005
 21
89.87150524579499
  0
SOLID
  5
1C5
100
AcDbEntity
  8
0
 62
             2
100
AcDbTrace
 10
331.36714635791969
 20
86.67150524579499
 11
330.5245703733604
 21
86.67150524579499
 12
330.94585836564005
 22
89.87150524579499
 13
330.94585836564005
 23
89.87150524579499
  0
SOLID
  5
1C6
100
AcDbEntity
  8
0
 62
             2
100
AcDbTrace
 10
330.5245703733604
 20
81.071505245795
 11
331.36714635791969
 21
81.071505245795
 12
330.94585836564005
 22
77.87150524579499
 13
330.94585836564005
 23
77.87150524579499
  0
MTEXT
  5
1C7
100
AcDbEntity
  8
0
 62
             2
100
AcDbMText
 10
328.94585836564005
 20
79.39581171163
 30
0.0
 40
3.2
 41
0.0
 71
             7
 72
             1
  1
\C2;(\C2;12\C2;)
  7
CONVERTER_1
 11
0.0
 21
1.0
 31
0.0
  0
ENDBLK
  5
1C8
100
AcDbEntity
  8
0
100
AcDbBlockEnd
  0
BLOCK
  5
1CC
100
AcDbEntity
  8
0
100
AcDbBlockBegin
  2
*D5
 70
             1
 10
0.0
 20
0.0
 30
0.0
  3
*D5
  1

  0
LINE
  5
1CD
100
AcDbEntity
  8
0
  6
CONTINUOUS
 62
             2
100
AcDbLine
 10
248.19564973839522
 20
227.688932506209
 11
298.19564973839522
 21
227.688932506209
  0
LINE
  5
1CE
100
AcDbEntity
  8
0
  6
CONTINUOUS
 62
             2
100
AcDbLine
 10
298.19564973839522
 20
215.688932506209
 11
298.19564973839522
 21
228.688932506209
  0
LINE
  5
1CF
100
AcDbEntity
  8
0
  6
CONTINUOUS
 62
             2
100
AcDbLine
 10
248.19564973839522
 20
215.688932506209
 11
248.19564973839522
 21
228.688932506209
  0
SOLID
  5
1D0
100
AcDbEntity
  8
0
 62
             2
100
AcDbTrace
 10
251.39564973839521
 20
228.11022049848867
 11
251.39564973839521
 21
227.26764451392933
 12
248.19564973839522
 22
227.688932506209
 13
248.19564973839522
 23
227.688932506209
  0
SOLID
  5
1D1
100
AcDbEntity
  8
0
 62
             2
100
AcDbTrace
 10
294.99564973839523
 20
227.26764451392933
 11
294.99564973839523
 21
228.11022049848867
 12
298.19564973839522
 22
227.688932506209
 13
298.19564973839522
 23
227.688932506209
  0
MTEXT
  5
1D2
100
AcDbEntity
  8
0
 62
             2
100
AcDbMText
 10
270.79564973839524
 20
229.688932506209
 30
0.0
 40
3.2
 41
0.0
 71
             7
 72
             1
  1
50
  7
CONVERTER_1
 11
0.99999999999706
 21
0.00000242406841
 31
0.0
  0
ENDBLK
  5
1D3
100
AcDbEntity
  8
0
100
AcDbBlockEnd
  0
BLOCK
  5
1D7
100
AcDbEntity
  8
0
100
AcDbBlockBegin
  2
*D6
 70
             1
 10
0.0
 20
0.0
 30
0.0
  3
*D6
  1

  0
LINE
  5
1D8
100
AcDbEntity
  8
0
  6
CONTINUOUS
 62
             2
100
AcDbLine
 10
308.19564973839516
 20
177.688932506209
 11
308.19564973839516
 21
217.688932506209
  0
LINE
  5
1D9
100
AcDbEntity
  8
0
  6
CONTINUOUS
 62
             2
100
AcDbLine
 10
296.19564973839522
 20
217.688932506209
 11
309.19564973839522
 21
217.688932506209
  0
LINE
  5
1DA
100
AcDbEntity
  8
0
  6
CONTINUOUS
 62
             2
100
AcDbLine
 10
296.19564973839522
 20
177.688932506209
 11
309.19564973839522
 21
177.688932506209
  0
SOLID
  5
1DB
100
AcDbEntity
  8
0
 62
             2
100
AcDbTrace
 10
307.77436174611552
 20
180.88893250620899
 11
308.61693773067481
 21
180.88893250620899
 12
308.19564973839516
 22
177.688932506209
 13
308.19564973839516
 23
177.688932506209
  0
SOLID
  5
1DC
100
AcDbEntity
  8
0
 62
             2
100
AcDbTrace
 10
308.61693773067481
 20
214.48893250620901
 11
307.77436174611552
 21
214.48893250620901
 12
308.19564973839516
 22
217.688932506209
 13
308.19564973839516
 23
217.688932506209
  0
MTEXT
  5
1DD
100
AcDbEntity
  8
0
 62
             2
100
AcDbMText
 10
306.19564973839522
 20
195.28893250620899
 30
0.0
 40
3.2
 41
0.0
 71
             7
 72
             1
  1
40
  7
CONVERTER_1
 11
0.0
 21
1.0
 31
0.0
  0
ENDBLK
  5
1DE
100
AcDbEntity
  8
0
100
AcDbBlockEnd
  0
BLOCK
  5
1E2
100
AcDbEntity
  8
0
100
AcDbBlockBegin
  2
*D7
 70
             1
 10
0.0
 20
0.0
 30
0.0
  3
*D7
  1

  0
LINE
  5
1E3
100
AcDbEntity
  8
0
  6
CONTINUOUS
 62
             2
100
AcDbLine
 10
259.19564973839522
 20
65.87150524579501
 11
287.19564973839522
 21
65.87150524579501
  0
LINE
  5
1E4
100
AcDbEntity
  8
0
  6
CONTINUOUS
 62
             2
100
AcDbLine
 10
287.19564973839522
 20
86.87150524579499
 11
287.19564973839522
 21
64.87150524579501
  0
LINE
  5
1E5
100
AcDbEntity
  8
0
  6
CONTINUOUS
 62
             2
100
AcDbLine
 10
259.19564973839522
 20
86.87150524579499
 11
259.19564973839522
 21
64.87150524579501
  0
SOLID
  5
1E6
100
AcDbEntity
  8
0
 62
             2
100
AcDbTrace
 10
262.39564973839521
 20
66.29279323807468
 11
262.39564973839521
 21
65.45021725351533
 12
259.19564973839522
 22
65.87150524579501
 13
259.19564973839522
 23
65.87150524579501
  0
SOLID
  5
1E7
100
AcDbEntity
  8
0
 62
             2
100
AcDbTrace
 10
283.99564973839523
 20
65.45021725351535
 11
283.99564973839523
 21
66.29279323807468
 12
287.19564973839522
 22
65.87150524579501
 13
287.19564973839522
 23
65.87150524579501
  0
MTEXT
  5
1E8
100
AcDbEntity
  8
0
 62
             2
100
AcDbMText
 10
267.46764973841061
 20
67.87149252428401
 30
0.0
 40
3.2
 41
0.0
 71
             7
 72
             1
  1
\C2;{\Fgdt;n}\C2;28
  7
CONVERTER_1
 11
0.99999999999706
 21
0.00000242406841
 31
0.0
  0
ENDBLK
  5
1E9
100
AcDbEntity
  8
0
100
AcDbBlockEnd
  0
BLOCK
  5
1ED
100
AcDbEntity
  8
0
100
AcDbBlockBegin
  2
*D8
 70
             1
 10
0.0
 20
0.0
 30
0.0
  3
*D8
  1

  0
LINE
  5
1EE
100
AcDbEntity
  8
0
  6
CONTINUOUS
 62
             2
100
AcDbLine
 10
123.65448958780439
 20
172.83769320584491
 11
123.65448958780439
 21
166.43769320584491
  0
LINE
  5
1EF
100
AcDbEntity
  8
0
  6
CONTINUOUS
 62
             2
100
AcDbLine
 10
123.65448958780439
 20
175.33769320584491
 11
123.65448958780439
 21
172.83769320584491
  0
LINE
  5
1F0
100
AcDbEntity
  8
0
  6
CONTINUOUS
 62
             2
100
AcDbLine
 10
123.65448958780439
 20
186.63889111142592
 11
123.65448958780439
 21
175.33769320584491
  0
LINE
  5
1F1
100
AcDbEntity
  8
0
  6
CONTINUOUS
 62
             2
100
AcDbLine
 10
114.65448958780441
 20
172.83769320584491
 11
124.65448958780439
 21
172.83769320584491
  0
LINE
  5
1F2
100
AcDbEntity
  8
0
  6
CONTINUOUS
 62
             2
100
AcDbLine
 10
105.15448958780441
 20
175.33769320584491
 11
124.65448958780439
 21
175.33769320584491
  0
SOLID
  5
1F3
100
AcDbEntity
  8
0
 62
             2
100
AcDbTrace
 10
123.23320159552472
 20
178.5376932058449
 11
124.07577758008406
 21
178.5376932058449
 12
123.65448958780439
 22
175.33769320584491
 13
123.65448958780439
 23
175.33769320584491
  0
SOLID
  5
1F4
100
AcDbEntity
  8
0
 62
             2
100
AcDbTrace
 10
124.07577758008405
 20
169.63769320584493
 11
123.23320159552472
 21
169.63769320584493
 12
123.65448958780439
 22
172.83769320584491
 13
123.65448958780439
 23
172.83769320584491
  0
MTEXT
  5
1F5
100
AcDbEntity
  8
0
 62
             2
100
AcDbMText
 10
121.65448958780439
 20
175.93489111142591
 30
0.0
 40
3.2
 41
0.0
 71
             7
 72
             1
  1
\C2;(\C2;2.5\C2;)
  7
CONVERTER_1
 11
0.0
 21
1.0
 31
0.0
  0
ENDBLK
  5
1F6
100
AcDbEntity
  8
0
100
AcDbBlockEnd
  0
BLOCK
  5
1FA
100
AcDbEntity
  8
0
100
AcDbBlockBegin
  2
*D9
 70
             1
 10
0.0
 20
0.0
 30
0.0
  3
*D9
  1

  0
LINE
  5
1FB
100
AcDbEntity
  8
0
  6
CONTINUOUS
 62
             2
100
AcDbLine
 10
123.65448958780438
 20
162.337693205845
 11
123.65448958780438
 21
161.23468720988501
  0
LINE
  5
1FC
100
AcDbEntity
  8
0
  6
CONTINUOUS
 62
             2
100
AcDbLine
 10
123.65448958780438
 20
172.837693205845
 11
123.65448958780438
 21
162.337693205845
  0
LINE
  5
1FD
100
AcDbEntity
  8
0
  6
CONTINUOUS
 62
             2
100
AcDbLine
 10
123.65448958780438
 20
173.31468720988499
 11
123.65448958780438
 21
172.837693205845
  0
LINE
  5
1FE
100
AcDbEntity
  8
0
  6
CONTINUOUS
 62
             2
100
AcDbLine
 10
105.15448958780439
 20
162.337693205845
 11
124.65448958780438
 21
162.337693205845
  0
LINE
  5
1FF
100
AcDbEntity
  8
0
  6
CONTINUOUS
 62
             2
100
AcDbLine
 10
114.65448958780439
 20
172.837693205845
 11
124.65448958780438
 21
172.837693205845
  0
SOLID
  5
200
100
AcDbEntity
  8
0
 62
             2
100
AcDbTrace
 10
124.07577758008404
 20
169.63769320584501
 11
123.2332015955247
 21
169.63769320584501
 12
123.65448958780438
 22
172.837693205845
 13
123.65448958780438
 23
172.837693205845
  0
SOLID
  5
201
100
AcDbEntity
  8
0
 62
             2
100
AcDbTrace
 10
123.2332015955247
 20
165.53769320584499
 11
124.07577758008405
 21
165.53769320584499
 12
123.65448958780438
 22
162.337693205845
 13
123.65448958780438
 23
162.337693205845
  0
MTEXT
  5
202
100
AcDbEntity
  8
0
 62
             2
100
AcDbMText
 10
129.70772658691598
 20
160.690687209885
 30
0.0
 40
3.2
 41
0.0
 71
             7
 72
             1
  1
\C2;(\C2;10.5\C2;)
  7
CONVERTER_1
 11
0.0
 21
1.0
 31
0.0
  0
ENDBLK
  5
203
100
AcDbEntity
  8
0
100
AcDbBlockEnd
  0
BLOCK
  5
207
100
AcDbEntity
  8
0
100
AcDbBlockBegin
  2
*D10
 70
             1
 10
0.0
 20
0.0
 30
0.0
  3
*D10
  1

  0
LINE
  5
208
100
AcDbEntity
  8
0
  6
CONTINUOUS
 62
             2
100
AcDbLine
 10
53.65448958780437
 20
211.7957935693515
 11
53.65448958780437
 21
205.3957935693515
  0
LINE
  5
209
100
AcDbEntity
  8
0
  6
CONTINUOUS
 62
             2
100
AcDbLine
 10
53.65448958780437
 20
214.7957935693515
 11
53.65448958780437
 21
211.7957935693515
  0
LINE
  5
20A
100
AcDbEntity
  8
0
  6
CONTINUOUS
 62
             2
100
AcDbLine
 10
53.65448958780437
 20
221.19579356935151
 11
53.65448958780437
 21
214.7957935693515
  0
LINE
  5
20B
100
AcDbEntity
  8
0
  6
CONTINUOUS
 62
             2
100
AcDbLine
 10
67.65448958780436
 20
211.7957935693515
 11
52.65448958780437
 21
211.7957935693515
  0
LINE
  5
20C
100
AcDbEntity
  8
0
  6
CONTINUOUS
 62
             2
100
AcDbLine
 10
67.65448958780436
 20
214.7957935693515
 11
52.65448958780437
 21
214.7957935693515
  0
SOLID
  5
20D
100
AcDbEntity
  8
0
 62
             2
100
AcDbTrace
 10
53.2332015955247
 20
217.99579356935149
 11
54.07577758008404
 21
217.99579356935149
 12
53.65448958780437
 22
214.7957935693515
 13
53.65448958780437
 23
214.7957935693515
  0
SOLID
  5
20E
100
AcDbEntity
  8
0
 62
             2
100
AcDbTrace
 10
54.07577758008404
 20
208.59579356935151
 11
53.2332015955247
 21
208.59579356935151
 12
53.65448958780437
 22
211.7957935693515
 13
53.65448958780437
 23
211.7957935693515
  0
MTEXT
  5
20F
100
AcDbEntity
  8
0
 62
             2
100
AcDbMText
 10
51.65448958780437
 20
209.7117935693515
 30
0.0
 40
3.2
 41
0.0
 71
             7
 72
             1
  1
\C2;(\C2;3\C2;)
  7
CONVERTER_1
 11
0.0
 21
1.0
 31
0.0
  0
ENDBLK
  5
210
100
AcDbEntity
  8
0
100
AcDbBlockEnd
  0
BLOCK
  5
214
100
AcDbEntity
  8
0
100
AcDbBlockBegin
  2
*D11
 70
             1
 10
0.0
 20
0.0
 30
0.0
  3
*D11
  1

  0
LINE
  5
215
100
AcDbEntity
  8
0
  6
CONTINUOUS
 62
             2
100
AcDbLine
 10
68.65448958780436
 20
236.58429546369442
 11
108.65448958780439
 21
236.58429546369442
  0
LINE
  5
216
100
AcDbEntity
  8
0
  6
CONTINUOUS
 62
             2
100
AcDbLine
 10
108.65448958780439
 20
215.7957935693515
 11
108.65448958780439
 21
237.58429546369442
  0
LINE
  5
217
100
AcDbEntity
  8
0
  6
CONTINUOUS
 62
             2
100
AcDbLine
 10
68.65448958780436
 20
215.7957935693515
 11
68.65448958780436
 21
237.58429546369442
  0
SOLID
  5
218
100
AcDbEntity
  8
0
 62
             2
100
AcDbTrace
 10
71.85448958780437
 20
237.00558345597409
 11
71.85448958780437
 21
236.16300747141474
 12
68.65448958780436
 22
236.58429546369442
 13
68.65448958780436
 23
236.58429546369442
  0
SOLID
  5
219
100
AcDbEntity
  8
0
 62
             2
100
AcDbTrace
 10
105.45448958780439
 20
236.16300747141474
 11
105.45448958780439
 21
237.00558345597409
 12
108.65448958780439
 22
236.58429546369442
 13
108.65448958780439
 23
236.58429546369442
  0
MTEXT
  5
21A
100
AcDbEntity
  8
0
 62
             2
100
AcDbMText
 10
83.63048958781207
 20
238.58428910293892
 30
0.0
 40
3.2
 41
0.0
 71
             7
 72
             1
  1
\C2;(\C2;40\C2;)
  7
CONVERTER_1
 11
0.99999999999706
 21
0.00000242406841
 31
0.0
  0
ENDBLK
  5
21B
100
AcDbEntity
  8
0
100
AcDbBlockEnd
  0
BLOCK
  5
21F
100
AcDbEntity
  8
0
100
AcDbBlockBegin
  2
*D12
 70
             1
 10
0.0
 20
0.0
 30
0.0
  3
*D12
  1

  0
LINE
  5
220
100
AcDbEntity
  8
0
  6
CONTINUOUS
 62
             2
100
AcDbLine
 10
383.42683008768722
 20
89.87150524579499
 11
383.42683008768722
 21
159.87150524579499
  0
LINE
  5
221
100
AcDbEntity
  8
0
  6
CONTINUOUS
 62
             2
100
AcDbLine
 10
373.47316894290464
 20
159.87150524579499
 11
384.42683008768722
 21
159.87150524579499
  0
LINE
  5
222
100
AcDbEntity
  8
0
  6
CONTINUOUS
 62
             2
100
AcDbLine
 10
374.47316894290464
 20
89.87150524579499
 11
384.42683008768722
 21
89.87150524579499
  0
SOLID
  5
223
100
AcDbEntity
  8
0
 62
             2
100
AcDbTrace
 10
383.84811807996687
 20
156.671505245795
 11
383.00554209540758
 21
156.671505245795
 12
383.42683008768722
 22
159.87150524579499
 13
383.42683008768722
 23
159.87150524579499
  0
SOLID
  5
224
100
AcDbEntity
  8
0
 62
             2
100
AcDbTrace
 10
383.00554209540758
 20
93.071505245795
 11
383.84811807996687
 21
93.071505245795
 12
383.42683008768722
 22
89.87150524579499
 13
383.42683008768722
 23
89.87150524579499
  0
MTEXT
  5
225
100
AcDbEntity
  8
0
 62
             2
100
AcDbMText
 10
381.42683008768722
 20
122.471505245795
 30
0.0
 40
3.2
 41
0.0
 71
             7
 72
             1
  1
70
  7
CONVERTER_1
 11
0.0
 21
1.0
 31
0.0
  0
ENDBLK
  5
226
100
AcDbEntity
  8
0
100
AcDbBlockEnd
  0
ENDSEC
  0
SECTION
  2
ENTITIES
  0
DIMENSION
  5
228
100
AcDbEntity
  8
1
100
AcDbDimension
  2
*D12
 10
383.42683008768722
 20
159.87150524579499
 11
379.8268300876872
 21
124.87150524579501
 31
0.0
 53
90.0
  1
<>
  3
ME10_DIM_12
100
AcDbAlignedDimension
 13
373.47316894290458
 23
89.87150524579499
 14
372.47316894290458
 24
159.87150524579499
 50
90.0
100
AcDbRotatedDimension
  0
DIMENSION
  5
21D
100
AcDbEntity
  8
1
100
AcDbDimension
  2
*D11
 10
68.65448958780436
 20
236.58429546369442
 11
88.65448958780436
 21
240.18429546369441
 31
0.0
 53
0.00013888888889
  1
<>
  3
ME10_DIM_11
100
AcDbAlignedDimension
 13
108.65448958780441
 23
214.7957935693515
 14
68.65448958780436
 24
214.7957935693515
100
AcDbRotatedDimension
  0
DIMENSION
  5
212
100
AcDbEntity
  8
1
100
AcDbDimension
  2
*D10
 10
53.65448958780437
 20
214.7957935693515
 11
50.05448958780437
 21
213.2957935693515
 31
0.0
 53
90.0
  1
<>
  3
ME10_DIM_10
100
AcDbAlignedDimension
 13
68.65448958780436
 23
211.7957935693515
 14
68.65448958780436
 24
214.7957935693515
 50
90.0
100
AcDbRotatedDimension
  0
DIMENSION
  5
205
100
AcDbEntity
  8
1
100
AcDbDimension
  2
*D9
 10
123.65448958780438
 20
172.837693205845
 11
128.10772658691599
 21
167.274687209885
 31
0.0
 53
90.0
  1
<>
  3
ME10_DIM_9
100
AcDbAlignedDimension
 13
104.15448958780441
 23
162.33769320584489
 14
113.65448958780441
 24
172.83769320584489
 50
90.0
100
AcDbRotatedDimension
  0
DIMENSION
  5
1F8
100
AcDbEntity
  8
1
100
AcDbDimension
  2
*D8
 10
123.65448958780439
 20
175.33769320584491
 11
120.0544895878044
 21
181.55889111142591
 31
0.0
 53
90.0
  1
<>
  3
ME10_DIM_8
100
AcDbAlignedDimension
 13
113.65448958780441
 23
172.83769320584489
 14
104.15448958780441
 24
175.33769320584489
 50
90.0
100
AcDbRotatedDimension
  0
DIMENSION
  5
1EB
100
AcDbEntity
  8
1
100
AcDbDimension
  2
*D7
 10
259.19564973839522
 20
65.87150524579501
 11
273.19564973839522
 21
69.471505245795
 31
0.0
 53
0.00013888888889
  1
<>
  3
ME10_DIM_7
100
AcDbAlignedDimension
 13
287.19564973839522
 23
87.87150524579499
 14
259.19564973839522
 24
87.87150524579499
100
AcDbRotatedDimension
  0
DIMENSION
  5
1E0
100
AcDbEntity
  8
1
100
AcDbDimension
  2
*D6
 10
308.19564973839516
 20
177.688932506209
 11
304.5956497383952
 21
197.688932506209
 31
0.0
 53
90.0
  1
<>
  3
ME10_DIM_6
100
AcDbAlignedDimension
 13
295.19564973839522
 23
217.688932506209
 14
295.19564973839522
 24
177.688932506209
 50
90.0
100
AcDbRotatedDimension
  0
DIMENSION
  5
1D5
100
AcDbEntity
  8
1
100
AcDbDimension
  2
*D5
 10
248.19564973839522
 20
227.688932506209
 11
273.19564973839522
 21
231.28893250620899
 31
0.0
 53
0.00013888888889
  1
<>
  3
ME10_DIM_5
100
AcDbAlignedDimension
 13
298.19564973839522
 23
214.688932506209
 14
248.19564973839519
 24
214.688932506209
100
AcDbRotatedDimension
  0
DIMENSION
  5
1CA
100
AcDbEntity
  8
1
100
AcDbDimension
  2
*D4
 10
330.94585836564005
 20
89.87150524579499
 11
327.34585836564003
 21
83.93981171163
 31
0.0
 53
90.0
  1
<>
  3
ME10_DIM_4
100
AcDbAlignedDimension
 13
344.7392230334309
 23
77.87150524579499
 14
333.47316894290458
 24
89.87150524579499
 50
90.0
100
AcDbRotatedDimension
  0
DIMENSION
  5
1BF
100
AcDbEntity
  8
1
100
AcDbDimension
  2
*D3
 10
68.65448958780436
 20
121.6130597566553
 11
88.89064715299479
 21
125.2130597566553
 31
0.0
 70
             1
 53
0.00013888888889
  1
<>
  3
ME10_DIM_3
100
AcDbAlignedDimension
 13
108.65448958780441
 23
103.73673242701329
 14
68.65448958780436
 24
103.73673242701329
  0
DIMENSION
  5
1B4
100
AcDbEntity
  8
1
100
AcDbDimension
  2
*D2
 10
73.15448958780436
 20
183.25776569983822
 11
88.65448958780436
 21
186.85776569983821
 31
0.0
 70
             1
 53
0.00013888888889
  1
<>
  3
ME10_DIM_2
100
AcDbAlignedDimension
 13
104.15448958780441
 23
175.33769320584489
 14
73.15448958780436
 24
175.33769320584489
  0
DIMENSION
  5
1A9
100
AcDbEntity
  8
1
100
AcDbDimension
  2
*D1
 10
390.56784962209201
 20
87.87150524579499
 11
386.96784962209199
 21
94.6607525270223
 31
0.0
 53
90.0
  1
<>
  3
ME10_DIM_1
100
AcDbAlignedDimension
 13
373.47316894290458
 23
89.87150524579499
 14
367.47316894290458
 24
87.87150524579499
 50
90.0
100
AcDbRotatedDimension
  0
DIMENSION
  5
19C
100
AcDbEntity
  8
1
100
AcDbDimension
  2
*D0
 10
390.56784962209201
 20
75.87150524579499
 11
386.96784962209199
 21
81.9229620102106
 31
0.0
 53
90.0
  1
<>
  3
ME10_DIM_0
100
AcDbAlignedDimension
 13
367.47316894290458
 23
87.87150524579499
 14
356.47316894290458
 24
75.87150524579499
 50
90.0
100
AcDbRotatedDimension
  0
MTEXT
  5
191
100
AcDbEntity
  8
1
 62
             2
100
AcDbMText
 10
53.77642737393782
 20
135.8669434592419
 30
0.0
 40
3.5
 41
0.0
 71
             7
 72
             1
  1
itr\Pbg@rW|SORa|OO@eNjJdqij£j
  7
CONVERTER_3
  0
TEXT
  5
18F
100
AcDbEntity
  8
1
 62
             2
100
AcDbText
 10
317.49690937471013
 20
129.040432944646
 40
4.0
  1
V[
 41
1.07
  7
CONVERTER_2
100
AcDbText
  0
MTEXT
  5
18D
100
AcDbEntity
  8
1
 62
             2
100
AcDbMText
 10
68.10595552605037
 20
70.69186265159829
 30
0.0
 40
3.5
 41
0.0
 71
             7
 72
             1
  1
tÛ\PbgäÌ%%ct£
  7
CONVERTER_1
  0
MTEXT
  5
18C
100
AcDbEntity
  8
1
 62
             2
100
AcDbMText
 10
78.65112129455643
 20
141.5751983667609
 30
0.0
 40
3.5
 41
0.0
 71
             7
 72
             1
  1
tÛ\Pbg
  7
CONVERTER_1
  0
TEXT
  5
18B
100
AcDbEntity
  8
1
 62
             2
100
AcDbText
 10
104.81227678012939
 20
80.73673242701329
 40
3.5
  1
(Æ32)
 41
0.9
  7
CONVERTER_1
100
AcDbText
  0
TEXT
  5
18A
100
AcDbEntity
  8
1
 62
             2
100
AcDbText
 10
115.49225577246141
 20
90.82381481208429
 40
3.5
  1
(2-Æ3.5)
 41
0.9
  7
CONVERTER_1
100
AcDbText
  0
TEXT
  5
189
100
AcDbEntity
  8
1
 62
             2
100
AcDbText
 10
323.85251413639043
 20
31.23027962834857
 40
5.0
  1
C-30AN
 41
0.9
  7
CONVERTER_1
100
AcDbText
  0
LEADER
  5
187
100
AcDbEntity
  8
1
  6
CONTINUOUS
 62
             2
100
AcDbLeader
  3
Standard
 71
             0
 73
             3
 74
             0
 75
             0
 40
0.0
 76
             3
 10
351.05967076320252
 20
116.00868517153791
 30
0.0
 10
329.39845416119402
 20
128.66305111747499
 30
0.0
 10
317.34770297453002
 20
128.66305111747499
 30
0.0
 77
             2
  0
LEADER
  5
185
100
AcDbEntity
  8
1
  6
CONTINUOUS
 62
             2
100
AcDbLeader
  3
Standard
 71
             0
 73
             3
 74
             0
 75
             0
 40
0.0
 76
             3
 10
98.28197452038337
 20
86.95739230817449
 30
0.0
 10
104.8562752395674
 20
79.73673242701329
 30
0.0
 10
113.65448958780441
 20
79.73673242701329
 30
0.0
 77
             2
  0
LEADER
  5
183
100
AcDbEntity
  8
1
  6
CONTINUOUS
 62
             2
100
AcDbLeader
  3
Standard
 71
             0
 73
             3
 74
             0
 75
             0
 40
0.0
 76
             3
 10
109.76838140092759
 20
98.38701207499321
 30
0.0
 10
115.0859170588314
 20
89.82381481208429
 30
0.0
 10
132.13532009093839
 20
89.82381481208429
 30
0.0
 77
             2
  0
ARC
  5
181
100
AcDbEntity
  8
1
  6
CONTINUOUS
 62
             3
100
AcDbCircle
 10
173.9181305338858
 20
158.87150524579499
 40
1.0
100
AcDbArc
 50
90.0
 51
180.0
  0
ARC
  5
180
100
AcDbEntity
  8
1
  6
CONTINUOUS
 62
             3
100
AcDbCircle
 10
211.9181305338858
 20
158.87150524579499
 40
1.0
100
AcDbArc
 50
0.0
 51
90.0
  0
ARC
  5
17F
100
AcDbEntity
  8
1
  6
CONTINUOUS
 62
             3
100
AcDbCircle
 10
189.9181305338858
 20
76.87150524579499
 40
1.0
100
AcDbArc
 50
180.0
 51
-90.0
  0
ARC
  5
17E
100
AcDbEntity
  8
1
  6
CONTINUOUS
 62
             3
100
AcDbCircle
 10
195.9181305338858
 20
76.87150524579499
 40
1.0
100
AcDbArc
 50
-90.0
 51
0.0
  0
ARC
  5
17D
100
AcDbEntity
  8
1
  6
CONTINUOUS
 62
             3
100
AcDbCircle
 10
184.18418462441221
 20
78.37150524579499
 40
0.5
100
AcDbArc
 50
180.0
 51
-90.0
  0
ARC
  5
17C
100
AcDbEntity
  8
1
  6
CONTINUOUS
 62
             3
100
AcDbCircle
 10
185.48418462441199
 20
78.37150524579499
 40
0.5
100
AcDbArc
 50
-90.0
 51
0.0
  0
ARC
  5
17B
100
AcDbEntity
  8
1
  6
CONTINUOUS
 62
             3
100
AcDbCircle
 10
190.2196505006913
 20
78.37150524579499
 40
0.5
100
AcDbArc
 50
-90.0
 51
0.0
  0
ARC
  5
17A
100
AcDbEntity
  8
1
  6
CONTINUOUS
 62
             3
100
AcDbCircle
 10
188.91965050069129
 20
78.37150524579499
 40
0.5
100
AcDbArc
 50
180.0
 51
-90.0
  0
ARC
  5
179
100
AcDbEntity
  8
1
  6
CONTINUOUS
 62
             3
100
AcDbCircle
 10
195.61661056708039
 20
78.37150524579499
 40
0.5
100
AcDbArc
 50
180.0
 51
-90.0
  0
ARC
  5
178
100
AcDbEntity
  8
1
  6
CONTINUOUS
 62
             3
100
AcDbCircle
 10
196.91661056708031
 20
78.37150524579499
 40
0.5
100
AcDbArc
 50
-90.0
 51
0.0
  0
ARC
  5
177
100
AcDbEntity
  8
1
  6
CONTINUOUS
 62
             3
100
AcDbCircle
 10
200.35207644335961
 20
78.37150524579499
 40
0.5
100
AcDbArc
 50
180.0
 51
-90.0
  0
ARC
  5
176
100
AcDbEntity
  8
1
  6
CONTINUOUS
 62
             3
100
AcDbCircle
 10
201.6520764433595
 20
78.37150524579499
 40
0.5
100
AcDbArc
 50
-90.0
 51
0.0
  0
ARC
  5
175
100
AcDbEntity
  8
1
  6
CONTINUOUS
 62
             3
100
AcDbCircle
 10
72.65448958780436
 20
168.83769320584489
 40
2.0
100
AcDbArc
 50
180.0
 51
-90.0
  0
ARC
  5
174
100
AcDbEntity
  8
1
  6
CONTINUOUS
 62
             3
100
AcDbCircle
 10
104.65448958780441
 20
168.83769320584489
 40
2.0
100
AcDbArc
 50
-90.0
 51
0.0
  0
ARC
  5
173
100
AcDbEntity
  8
1
  6
CONTINUOUS
 62
             3
100
AcDbCircle
 10
109.65448958780441
 20
213.2957935693515
 40
1.5
100
AcDbArc
 50
0.0
 51
90.0
  0
ARC
  5
172
100
AcDbEntity
  8
1
  6
CONTINUOUS
 62
             3
100
AcDbCircle
 10
109.65448958780441
 20
213.2957935693515
 40
1.5
100
AcDbArc
 50
-90.0
 51
0.0
  0
ARC
  5
171
100
AcDbEntity
  8
1
  6
CONTINUOUS
 62
             3
100
AcDbCircle
 10
107.65448958780441
 20
213.2957935693515
 40
1.5
100
AcDbArc
 50
90.0
 51
180.0
  0
ARC
  5
170
100
AcDbEntity
  8
1
  6
CONTINUOUS
 62
             3
100
AcDbCircle
 10
107.65448958780441
 20
213.2957935693515
 40
1.5
100
AcDbArc
 50
180.0
 51
-90.0
  0
ARC
  5
16F
100
AcDbEntity
  8
1
  6
CONTINUOUS
 62
             3
100
AcDbCircle
 10
67.65448958780436
 20
213.2957935693515
 40
1.5
100
AcDbArc
 50
180.0
 51
-90.0
  0
ARC
  5
16E
100
AcDbEntity
  8
1
  6
CONTINUOUS
 62
             3
100
AcDbCircle
 10
67.65448958780436
 20
213.2957935693515
 40
1.5
100
AcDbArc
 50
90.0
 51
180.0
  0
ARC
  5
16D
100
AcDbEntity
  8
1
  6
CONTINUOUS
 62
             3
100
AcDbCircle
 10
69.65448958780436
 20
213.2957935693515
 40
1.5
100
AcDbArc
 50
0.0
 51
90.0
  0
ARC
  5
16C
100
AcDbEntity
  8
1
  6
CONTINUOUS
 62
             3
100
AcDbCircle
 10
69.65448958780436
 20
213.2957935693515
 40
1.5
100
AcDbArc
 50
-90.0
 51
0.0
  0
ARC
  5
16B
100
AcDbEntity
  8
1
  6
CONTINUOUS
 62
             3
100
AcDbCircle
 10
344.7392230334309
 20
78.37150524579499
 40
0.5
100
AcDbArc
 50
180.0
 51
-90.0
  0
ARC
  5
16A
100
AcDbEntity
  8
1
  6
CONTINUOUS
 62
             3
100
AcDbCircle
 10
346.03922303343091
 20
78.37150524579499
 40
0.5
100
AcDbArc
 50
-90.0
 51
0.0
  0
ARC
  5
169
100
AcDbEntity
  8
1
  6
CONTINUOUS
 62
             3
100
AcDbCircle
 10
349.47468890971021
 20
78.37150524579499
 40
0.5
100
AcDbArc
 50
180.0
 51
-90.0
  0
ARC
  5
168
100
AcDbEntity
  8
1
  6
CONTINUOUS
 62
             3
100
AcDbCircle
 10
350.77468890971011
 20
78.37150524579499
 40
0.5
100
AcDbArc
 50
-90.0
 51
0.0
  0
ARC
  5
167
100
AcDbEntity
  8
1
  6
CONTINUOUS
 62
             3
100
AcDbCircle
 10
357.47164897609912
 20
78.37150524579499
 40
0.5
100
AcDbArc
 50
-90.0
 51
0.0
  0
ARC
  5
166
100
AcDbEntity
  8
1
  6
CONTINUOUS
 62
             3
100
AcDbCircle
 10
356.17164897609911
 20
78.37150524579499
 40
0.5
100
AcDbArc
 50
180.0
 51
-90.0
  0
ARC
  5
165
100
AcDbEntity
  8
1
  6
CONTINUOUS
 62
             3
100
AcDbCircle
 10
360.90711485237841
 20
78.37150524579499
 40
0.5
100
AcDbArc
 50
180.0
 51
-90.0
  0
ARC
  5
164
100
AcDbEntity
  8
1
  6
CONTINUOUS
 62
             3
100
AcDbCircle
 10
362.2071148523782
 20
78.37150524579499
 40
0.5
100
AcDbArc
 50
-90.0
 51
0.0
  0
ARC
  5
163
100
AcDbEntity
  8
1
  6
CONTINUOUS
 62
             3
100
AcDbCircle
 10
350.47316894290458
 20
76.87150524579499
 40
1.0
100
AcDbArc
 50
180.0
 51
-90.0
  0
ARC
  5
162
100
AcDbEntity
  8
1
  6
CONTINUOUS
 62
             3
100
AcDbCircle
 10
356.47316894290458
 20
76.87150524579499
 40
1.0
100
AcDbArc
 50
-90.0
 51
0.0
  0
ARC
  5
161
100
AcDbEntity
  8
1
  6
CONTINUOUS
 62
             3
100
AcDbCircle
 10
334.47316894290458
 20
158.87150524579499
 40
1.0
100
AcDbArc
 50
90.0
 51
180.0
  0
ARC
  5
160
100
AcDbEntity
  8
1
  6
CONTINUOUS
 62
             3
100
AcDbCircle
 10
372.47316894290458
 20
158.87150524579499
 40
1.0
100
AcDbArc
 50
0.0
 51
90.0
  0
ARC
  5
15F
100
AcDbEntity
  8
1
  6
CONTINUOUS
 62
             3
100
AcDbCircle
 10
268.99564973839517
 20
78.17150524579499
 40
0.29999999999995
100
AcDbArc
 50
180.0
 51
-90.0
  0
ARC
  5
15E
100
AcDbEntity
  8
1
  6
CONTINUOUS
 62
             3
100
AcDbCircle
 10
264.26170382892161
 20
78.17150524579499
 40
0.30000000000013
100
AcDbArc
 50
180.0
 51
-90.0
  0
ARC
  5
15D
100
AcDbEntity
  8
1
  6
CONTINUOUS
 62
             3
100
AcDbCircle
 10
265.96170382892137
 20
78.17150524579499
 40
0.3
100
AcDbArc
 50
-90.0
 51
0.0
  0
ARC
  5
15C
100
AcDbEntity
  8
1
  6
CONTINUOUS
 62
             3
100
AcDbCircle
 10
270.69716970520062
 20
78.17150524579499
 40
0.3
100
AcDbArc
 50
-90.0
 51
0.0
  0
ARC
  5
15B
100
AcDbEntity
  8
1
  6
CONTINUOUS
 62
             3
100
AcDbCircle
 10
275.69412977158981
 20
78.17150524579499
 40
0.2999999999999
100
AcDbArc
 50
180.0
 51
-90.0
  0
ARC
  5
15A
100
AcDbEntity
  8
1
  6
CONTINUOUS
 62
             3
100
AcDbCircle
 10
277.3941297715898
 20
78.17150524579499
 40
0.3
100
AcDbArc
 50
-90.0
 51
0.0
  0
ARC
  5
159
100
AcDbEntity
  8
1
  6
CONTINUOUS
 62
             3
100
AcDbCircle
 10
280.42959564786912
 20
78.17150524579499
 40
0.30000000000013
100
AcDbArc
 50
180.0
 51
-90.0
  0
ARC
  5
158
100
AcDbEntity
  8
1
  6
CONTINUOUS
 62
             3
100
AcDbCircle
 10
282.12959564786888
 20
78.17150524579499
 40
0.3
100
AcDbArc
 50
-90.0
 51
0.0
  0
ARC
  5
157
100
AcDbEntity
  8
1
  6
CONTINUOUS
 62
             3
100
AcDbCircle
 10
269.19564973839522
 20
76.37150524579499
 40
0.5
100
AcDbArc
 50
180.0
 51
-90.0
  0
ARC
  5
156
100
AcDbEntity
  8
1
  6
CONTINUOUS
 62
             3
100
AcDbCircle
 10
276.19564973839522
 20
76.87150524579499
 40
1.0
100
AcDbArc
 50
-90.0
 51
0.0
  0
ARC
  5
155
100
AcDbEntity
  8
1
  6
CONTINUOUS
 62
             3
100
AcDbCircle
 10
249.19564973839519
 20
158.87150524579499
 40
1.0
100
AcDbArc
 50
90.0
 51
180.0
  0
ARC
  5
154
100
AcDbEntity
  8
1
  6
CONTINUOUS
 62
             3
100
AcDbCircle
 10
297.19564973839522
 20
158.87150524579499
 40
1.0
100
AcDbArc
 50
0.0
 51
90.0
  0
ARC
  5
153
100
AcDbEntity
  8
1
  6
CONTINUOUS
 62
             3
100
AcDbCircle
 10
251.19564973839519
 20
180.688932506209
 40
3.0
100
AcDbArc
 50
180.0
 51
-90.0
  0
ARC
  5
152
100
AcDbEntity
  8
1
  6
CONTINUOUS
 62
             3
100
AcDbCircle
 10
251.19564973839519
 20
214.688932506209
 40
3.0
100
AcDbArc
 50
90.0
 51
180.0
  0
ARC
  5
151
100
AcDbEntity
  8
1
  6
CONTINUOUS
 62
             3
100
AcDbCircle
 10
295.19564973839522
 20
214.688932506209
 40
3.0
100
AcDbArc
 50
0.0
 51
90.0
  0
ARC
  5
150
100
AcDbEntity
  8
1
  6
CONTINUOUS
 62
             3
100
AcDbCircle
 10
295.19564973839522
 20
180.688932506209
 40
3.0
100
AcDbArc
 50
-90.0
 51
0.0
  0
ARC
  5
14F
100
AcDbEntity
  8
1
  6
CONTINUOUS
 62
             3
100
AcDbCircle
 10
251.19564973839519
 20
180.688932506209
 40
1.0
100
AcDbArc
 50
180.0
 51
-90.0
  0
ARC
  5
14E
100
AcDbEntity
  8
1
  6
CONTINUOUS
 62
             3
100
AcDbCircle
 10
251.19564973839519
 20
214.688932506209
 40
1.0
100
AcDbArc
 50
90.0
 51
180.0
  0
ARC
  5
14D
100
AcDbEntity
  8
1
  6
CONTINUOUS
 62
             3
100
AcDbCircle
 10
295.19564973839522
 20
214.688932506209
 40
1.0
100
AcDbArc
 50
0.0
 51
90.0
  0
ARC
  5
14C
100
AcDbEntity
  8
1
  6
CONTINUOUS
 62
             3
100
AcDbCircle
 10
295.19564973839522
 20
180.688932506209
 40
1.0
100
AcDbArc
 50
-90.0
 51
0.0
  0
CIRCLE
  5
14B
100
AcDbEntity
  8
1
  6
CONTINUOUS
 62
             3
100
AcDbCircle
 10
88.65448958780436
 20
213.2957935693515
 40
12.30000000000004
  0
CIRCLE
  5
14A
100
AcDbEntity
  8
1
  6
CONTINUOUS
 62
             3
100
AcDbCircle
 10
88.65448958780436
 20
213.2957935693515
 40
15.50000000000004
  0
CIRCLE
  5
149
100
AcDbEntity
  8
1
  6
CONTINUOUS
 62
             3
100
AcDbCircle
 10
68.65448958780436
 20
99.73673242701329
 40
1.75
  0
CIRCLE
  5
148
100
AcDbEntity
  8
1
  6
CONTINUOUS
 62
             3
100
AcDbCircle
 10
108.65448958780441
 20
99.73673242701329
 40
1.75
  0
CIRCLE
  5
147
100
AcDbEntity
  8
1
  6
CONTINUOUS
 62
             3
100
AcDbCircle
 10
88.65448958780436
 20
99.73673242701329
 40
16.00000000000004
  0
ARC
  5
146
100
AcDbEntity
  8
1
  6
CONTINUOUS
 62
             3
100
AcDbCircle
 10
78.23213290062367
 20
156.83769320584489
 40
0.5
100
AcDbArc
 50
180.0
 51
0.0
  0
ARC
  5
145
100
AcDbEntity
  8
1
  6
CONTINUOUS
 62
             3
100
AcDbCircle
 10
78.23213290062367
 20
158.83769320584489
 40
0.5
100
AcDbArc
 50
0.0
 51
180.0
  0
ARC
  5
144
100
AcDbEntity
  8
1
  6
CONTINUOUS
 62
             3
100
AcDbCircle
 10
78.48213290062367
 20
156.33769320584489
 40
1.0
100
AcDbArc
 50
180.0
 51
0.0
  0
ARC
  5
143
100
AcDbEntity
  8
1
  6
CONTINUOUS
 62
             3
100
AcDbCircle
 10
97.69221666989357
 20
156.83769320584489
 40
0.5
100
AcDbArc
 50
180.0
 51
0.0
  0
ARC
  5
142
100
AcDbEntity
  8
1
  6
CONTINUOUS
 62
             3
100
AcDbCircle
 10
97.69221666989357
 20
158.83769320584489
 40
0.5
100
AcDbArc
 50
0.0
 51
180.0
  0
ARC
  5
141
100
AcDbEntity
  8
1
  6
CONTINUOUS
 62
             3
100
AcDbCircle
 10
97.44221666989357
 20
156.3148213821143
 40
1.00026152596247
100
AcDbArc
 50
178.6897694680134
 51
1.31023053198663
  0
ARC
  5
140
100
AcDbEntity
  8
1
  6
CONTINUOUS
 62
             3
100
AcDbCircle
 10
85.03408357565417
 20
157.33769320584489
 40
1.0
100
AcDbArc
 50
180.0
 51
0.0
  0
ARC
  5
13F
100
AcDbEntity
  8
1
  6
CONTINUOUS
 62
             3
100
AcDbCircle
 10
85.03408357565417
 20
158.33769320584489
 40
1.0
100
AcDbArc
 50
0.0
 51
180.0
  0
ARC
  5
13E
100
AcDbEntity
  8
1
  6
CONTINUOUS
 62
             3
100
AcDbCircle
 10
92.06311518768507
 20
158.33769320584489
 40
1.0
100
AcDbArc
 50
0.0
 51
180.0
  0
ARC
  5
13D
100
AcDbEntity
  8
1
  6
CONTINUOUS
 62
             3
100
AcDbCircle
 10
92.06311518768507
 20
157.33769320584489
 40
1.0
100
AcDbArc
 50
180.0
 51
0.0
  0
ARC
  5
13C
100
AcDbEntity
  8
1
  6
CONTINUOUS
 62
             3
100
AcDbCircle
 10
85.03408357565417
 20
157.33769320584489
 40
2.0
100
AcDbArc
 50
180.0
 51
0.0
  0
ARC
  5
13B
100
AcDbEntity
  8
1
  6
CONTINUOUS
 62
             3
100
AcDbCircle
 10
92.06311518768507
 20
157.33769320584489
 40
2.0
100
AcDbArc
 50
180.0
 51
0.0
  0
ARC
  5
13A
100
AcDbEntity
  8
1
  6
CONTINUOUS
 62
             3
100
AcDbCircle
 10
88.65448958780436
 20
213.2957935693515
 40
5.50000000000005
100
AcDbArc
 50
-12.60226484146482
 51
12.60226484146482
  0
ARC
  5
139
100
AcDbEntity
  8
1
  6
CONTINUOUS
 62
             3
100
AcDbCircle
 10
88.65448958780436
 20
213.2957935693515
 40
5.50000000000005
100
AcDbArc
 50
12.60226484146482
 51
-12.60226484146482
  0
ARC
  5
138
100
AcDbEntity
  8
1
  6
CONTINUOUS
 62
             3
100
AcDbCircle
 10
88.65448958780436
 20
213.2957935693515
 40
4.19999999999997
100
AcDbArc
 50
16.60154959902018
 51
-16.60154959902018
  0
ARC
  5
137
100
AcDbEntity
  8
1
  6
CONTINUOUS
 62
             3
100
AcDbCircle
 10
96.82981538864176
 20
210.32021832241821
 40
2.29999999999997
100
AcDbArc
 50
70.0000000000007
 51
-110.00000000000105
  0
ARC
  5
136
100
AcDbEntity
  8
1
  6
CONTINUOUS
 62
             3
100
AcDbCircle
 10
92.33126846494847
 20
205.41091582213261
 40
2.29999999999995
100
AcDbArc
 50
25.00000000000268
 51
-155.00000000000136
  0
ARC
  5
135
100
AcDbEntity
  8
1
  6
CONTINUOUS
 62
             3
100
AcDbCircle
 10
85.67891434087107
 20
205.12046776851409
 40
2.30000000000002
100
AcDbArc
 50
-20.00000000000151
 51
159.99999999999864
  0
ARC
  5
134
100
AcDbEntity
  8
1
  6
CONTINUOUS
 62
             3
100
AcDbCircle
 10
80.76961184058557
 20
209.61901469220749
 40
2.29999999999996
100
AcDbArc
 50
-65.00000000000253
 51
115.00000000000165
  0
ARC
  5
133
100
AcDbEntity
  8
1
  6
CONTINUOUS
 62
             3
100
AcDbCircle
 10
80.47916378696696
 20
216.27136881628479
 40
2.3
100
AcDbArc
 50
-109.99999999999906
 51
69.99999999999788
  0
ARC
  5
132
100
AcDbEntity
  8
1
  6
CONTINUOUS
 62
             3
100
AcDbCircle
 10
84.97771071066026
 20
221.18067131657031
 40
2.3
100
AcDbArc
 50
-155.00000000000031
 51
24.99999999999971
  0
ARC
  5
131
100
AcDbEntity
  8
1
  6
CONTINUOUS
 62
             3
100
AcDbCircle
 10
91.63006483473767
 20
221.47111937018889
 40
2.30000000000003
100
AcDbArc
 50
159.99999999999864
 51
-20.00000000000072
  0
ARC
  5
130
100
AcDbEntity
  8
1
  6
CONTINUOUS
 62
             3
100
AcDbCircle
 10
96.53936733502327
 20
216.9725724464956
 40
2.30000000000004
100
AcDbArc
 50
115.00000000000196
 51
-65.0000000000003
  0
ARC
  5
12F
100
AcDbEntity
  8
1
  6
CONTINUOUS
 62
             3
100
AcDbCircle
 10
65.65448958780436
 20
213.2957935693515
 40
2.0
100
AcDbArc
 50
131.40962210927097
 51
-131.40962210927097
  0
ARC
  5
12E
100
AcDbEntity
  8
1
  6
CONTINUOUS
 62
             3
100
AcDbCircle
 10
111.65448958780441
 20
213.2957935693515
 40
1.99999999999998
100
AcDbArc
 50
-46.79879505319527
 51
46.79879505319359
  0
ARC
  5
12D
100
AcDbEntity
  8
1
  6
CONTINUOUS
 62
             3
100
AcDbCircle
 10
88.65448958780436
 20
213.2957935693515
 40
17.50000000000002
100
AcDbArc
 50
-135.0
 51
-44.99999999999991
  0
ARC
  5
12C
100
AcDbEntity
  8
1
  6
CONTINUOUS
 62
             3
100
AcDbCircle
 10
88.65448958780436
 20
213.2957935693515
 40
17.49999999999999
100
AcDbArc
 50
44.99999999999971
 51
135.00000000000097
  0
LWPOLYLINE
  5
12B
100
AcDbEntity
  8
1
  6
CONTINUOUS
 62
             3
100
AcDbPolyline
 90
        2
 70
             1
 10
365.16917224546683
 20
112.2266900339
 42
1.0
 10
350.1771656403422
 20
112.71632045769
 42
1.0
  0
LINE
  5
12A
100
AcDbEntity
  8
1
  6
CONTINUOUS
 62
             3
100
AcDbLine
 10
175.9181305338858
 20
94.3605528863384
 11
209.9181305338858
 21
158.36055288633841
  0
LINE
  5
129
100
AcDbEntity
  8
1
  6
CONTINUOUS
 62
             3
100
AcDbLine
 10
175.9181305338858
 20
158.36055288633841
 11
209.9181305338858
 21
94.3605528863384
  0
LINE
  5
128
100
AcDbEntity
  8
1
  6
CONTINUOUS
 62
             2
100
AcDbLine
 10
52.9187963367819
 20
140.636879868086
 11
129.17546440600699
 21
140.636879868086
  0
LINE
  5
127
100
AcDbEntity
  8
1
  6
CONTINUOUS
 62
             3
100
AcDbLine
 10
172.9181305338858
 20
90.87150524579499
 11
212.9181305338858
 21
90.87150524579499
  0
LINE
  5
126
100
AcDbEntity
  8
1
  6
CONTINUOUS
 62
             3
100
AcDbLine
 10
206.9181305338858
 20
89.87150524579499
 11
212.9181305338858
 21
89.87150524579499
  0
LINE
  5
125
100
AcDbEntity
  8
1
  6
CONTINUOUS
 62
             3
100
AcDbLine
 10
172.9181305338858
 20
89.87150524579499
 11
172.9181305338858
 21
158.87150524579499
  0
LINE
  5
124
100
AcDbEntity
  8
1
  6
CONTINUOUS
 62
             3
100
AcDbLine
 10
212.9181305338858
 20
89.87150524579499
 11
212.9181305338858
 21
158.87150524579499
  0
LINE
  5
123
100
AcDbEntity
  8
1
  6
CONTINUOUS
 62
             3
100
AcDbLine
 10
202.1520764433595
 20
87.87150524579499
 11
206.9181305338858
 21
87.87150524579499
  0
LINE
  5
122
100
AcDbEntity
  8
1
  6
CONTINUOUS
 62
             3
100
AcDbLine
 10
178.9181305338858
 20
89.87150524579499
 11
178.9181305338858
 21
87.87150524579499
  0
LINE
  5
121
100
AcDbEntity
  8
1
  6
CONTINUOUS
 62
             3
100
AcDbLine
 10
172.9181305338858
 20
89.87150524579499
 11
178.9181305338858
 21
89.87150524579499
  0
LINE
  5
120
100
AcDbEntity
  8
1
  6
CONTINUOUS
 62
             3
100
AcDbLine
 10
206.9181305338858
 20
89.87150524579499
 11
206.9181305338858
 21
87.87150524579499
  0
LINE
  5
11F
100
AcDbEntity
  8
1
  6
CONTINUOUS
 62
             3
100
AcDbLine
 10
178.9181305338858
 20
89.87150524579499
 11
206.9181305338858
 21
89.87150524579499
  0
LINE
  5
11E
100
AcDbEntity
  8
1
  6
CONTINUOUS
 62
             3
100
AcDbLine
 10
188.9181305338858
 20
77.87150524579499
 11
188.9181305338858
 21
76.87150524579499
  0
LINE
  5
11D
100
AcDbEntity
  8
1
  6
CONTINUOUS
 62
             3
100
AcDbLine
 10
188.41965050069129
 20
87.87150524579499
 11
188.9181305338858
 21
87.87150524579499
  0
LINE
  5
11C
100
AcDbEntity
  8
1
  6
CONTINUOUS
 62
             3
100
AcDbLine
 10
196.9181305338858
 20
77.87150524579499
 11
196.9181305338858
 21
76.87150524579499
  0
LINE
  5
11B
100
AcDbEntity
  8
1
  6
CONTINUOUS
 62
             3
100
AcDbLine
 10
195.11661056708039
 20
87.87150524579499
 11
196.9181305338858
 21
87.87150524579499
  0
LINE
  5
11A
100
AcDbEntity
  8
1
  6
CONTINUOUS
 62
             3
100
AcDbLine
 10
195.9181305338858
 20
75.87150524579499
 11
189.9181305338858
 21
75.87150524579499
  0
LINE
  5
119
100
AcDbEntity
  8
1
  6
CONTINUOUS
 62
             3
100
AcDbLine
 10
189.9181305338858
 20
94.771505245795
 11
195.9181305338858
 21
94.771505245795
  0
LINE
  5
118
100
AcDbEntity
  8
1
  6
CONTINUOUS
 62
             3
100
AcDbLine
 10
189.9181305338858
 20
92.771505245795
 11
195.9181305338858
 21
92.771505245795
  0
LINE
  5
117
100
AcDbEntity
  8
1
  6
CONTINUOUS
 62
             3
100
AcDbLine
 10
189.9181305338858
 20
92.771505245795
 11
189.9181305338858
 21
94.771505245795
  0
LINE
  5
116
100
AcDbEntity
  8
1
  6
CONTINUOUS
 62
             3
100
AcDbLine
 10
195.9181305338858
 20
92.771505245795
 11
195.9181305338858
 21
94.771505245795
  0
LINE
  5
115
100
AcDbEntity
  8
1
  6
CONTINUOUS
 62
             3
100
AcDbLine
 10
184.18418462441221
 20
77.87150524579499
 11
185.48418462441199
 21
77.87150524579499
  0
LINE
  5
114
100
AcDbEntity
  8
1
  6
CONTINUOUS
 62
             3
100
AcDbLine
 10
188.91965050069129
 20
77.87150524579499
 11
190.2196505006913
 21
77.87150524579499
  0
LINE
  5
113
100
AcDbEntity
  8
1
  6
CONTINUOUS
 62
             3
100
AcDbLine
 10
196.91661056708031
 20
77.87150524579499
 11
195.61661056708039
 21
77.87150524579499
  0
LINE
  5
112
100
AcDbEntity
  8
1
  6
CONTINUOUS
 62
             3
100
AcDbLine
 10
200.35207644335961
 20
77.87150524579499
 11
201.6520764433595
 21
77.87150524579499
  0
LINE
  5
111
100
AcDbEntity
  8
1
  6
CONTINUOUS
 62
             3
100
AcDbLine
 10
183.68418462441221
 20
87.87150524579499
 11
183.68418462441221
 21
78.37150524579499
  0
LINE
  5
110
100
AcDbEntity
  8
1
  6
CONTINUOUS
 62
             3
100
AcDbLine
 10
178.9181305338858
 20
87.87150524579499
 11
183.68418462441221
 21
87.87150524579499
  0
LINE
  5
10F
100
AcDbEntity
  8
1
  6
CONTINUOUS
 62
             3
100
AcDbLine
 10
185.98418462441199
 20
87.87150524579499
 11
185.98418462441199
 21
78.37150524579499
  0
LINE
  5
10E
100
AcDbEntity
  8
1
  6
CONTINUOUS
 62
             3
100
AcDbLine
 10
183.68418462441221
 20
87.87150524579499
 11
185.98418462441199
 21
87.87150524579499
  0
LINE
  5
10D
100
AcDbEntity
  8
1
  6
CONTINUOUS
 62
             3
100
AcDbLine
 10
190.7196505006913
 20
87.87150524579499
 11
190.7196505006913
 21
78.37150524579499
  0
LINE
  5
10C
100
AcDbEntity
  8
1
  6
CONTINUOUS
 62
             3
100
AcDbLine
 10
188.9181305338858
 20
87.87150524579499
 11
190.7196505006913
 21
87.87150524579499
  0
LINE
  5
10B
100
AcDbEntity
  8
1
  6
CONTINUOUS
 62
             3
100
AcDbLine
 10
188.41965050069129
 20
87.87150524579499
 11
188.41965050069129
 21
78.37150524579499
  0
LINE
  5
10A
100
AcDbEntity
  8
1
  6
CONTINUOUS
 62
             3
100
AcDbLine
 10
185.98418462441199
 20
87.87150524579499
 11
188.41965050069129
 21
87.87150524579499
  0
LINE
  5
109
100
AcDbEntity
  8
1
  6
CONTINUOUS
 62
             3
100
AcDbLine
 10
195.11661056708039
 20
87.87150524579499
 11
195.11661056708039
 21
78.37150524579499
  0
LINE
  5
108
100
AcDbEntity
  8
1
  6
CONTINUOUS
 62
             3
100
AcDbLine
 10
190.7196505006913
 20
87.87150524579499
 11
195.11661056708039
 21
87.87150524579499
  0
LINE
  5
107
100
AcDbEntity
  8
1
  6
CONTINUOUS
 62
             3
100
AcDbLine
 10
197.41661056708031
 20
87.87150524579499
 11
197.41661056708031
 21
78.37150524579499
  0
LINE
  5
106
100
AcDbEntity
  8
1
  6
CONTINUOUS
 62
             3
100
AcDbLine
 10
196.9181305338858
 20
87.87150524579499
 11
197.41661056708031
 21
87.87150524579499
  0
LINE
  5
105
100
AcDbEntity
  8
1
  6
CONTINUOUS
 62
             3
100
AcDbLine
 10
199.85207644335961
 20
87.87150524579499
 11
199.85207644335961
 21
78.37150524579499
  0
LINE
  5
104
100
AcDbEntity
  8
1
  6
CONTINUOUS
 62
             3
100
AcDbLine
 10
197.41661056708031
 20
87.87150524579499
 11
199.85207644335961
 21
87.87150524579499
  0
LINE
  5
103
100
AcDbEntity
  8
1
  6
CONTINUOUS
 62
             3
100
AcDbLine
 10
202.1520764433595
 20
87.87150524579499
 11
202.1520764433595
 21
78.37150524579499
  0
LINE
  5
102
100
AcDbEntity
  8
1
  6
CONTINUOUS
 62
             3
100
AcDbLine
 10
199.85207644335961
 20
87.87150524579499
 11
202.1520764433595
 21
87.87150524579499
  0
LINE
  5
101
100
AcDbEntity
  8
1
  6
CONTINUOUS
 62
             3
100
AcDbLine
 10
188.4181305338858
 20
159.87150524579499
 11
197.4181305338858
 21
159.87150524579499
  0
LINE
  5
100
100
AcDbEntity
  8
1
  6
CONTINUOUS
 62
             3
100
AcDbLine
 10
173.9181305338858
 20
159.87150524579499
 11
188.4181305338858
 21
159.87150524579499
  0
LINE
  5
FF
100
AcDbEntity
  8
1
  6
CONTINUOUS
 62
             3
100
AcDbLine
 10
211.9181305338858
 20
159.87150524579499
 11
197.4181305338858
 21
159.87150524579499
  0
LINE
  5
FE
100
AcDbEntity
  8
1
  6
CONTINUOUS
 62
             3
100
AcDbLine
 10
348.97316894290458
 20
159.87150524579499
 11
334.47316894290458
 21
159.87150524579499
  0
LINE
  5
FD
100
AcDbEntity
  8
1
  6
CONTINUOUS
 62
             3
100
AcDbLine
 10
357.97316894290458
 20
159.87150524579499
 11
372.47316894290458
 21
159.87150524579499
  0
LINE
  5
FC
100
AcDbEntity
  8
1
  6
CONTINUOUS
 62
             3
100
AcDbLine
 10
348.97316894290458
 20
159.87150524579499
 11
357.97316894290458
 21
159.87150524579499
  0
LINE
  5
FB
100
AcDbEntity
  8
1
  6
DASH_CENTER
 62
             1
100
AcDbLine
 10
88.65448958780436
 20
177.33769320584489
 11
88.65448958780436
 21
153.4791793703597
  0
LINE
  5
FA
100
AcDbEntity
  8
1
  6
CONTINUOUS
 62
             3
100
AcDbLine
 10
78.73213290062367
 20
156.83769320584489
 11
78.73213290062367
 21
158.83769320584489
  0
LINE
  5
F9
100
AcDbEntity
  8
1
  6
CONTINUOUS
 62
             3
100
AcDbLine
 10
77.73213290062367
 20
156.83769320584489
 11
77.73213290062367
 21
158.83769320584489
  0
LINE
  5
F8
100
AcDbEntity
  8
1
  6
CONTINUOUS
 62
             3
100
AcDbLine
 10
79.48213290062367
 20
162.33769320584489
 11
83.03408357565417
 21
162.33769320584489
  0
LINE
  5
F7
100
AcDbEntity
  8
1
  6
CONTINUOUS
 62
             3
100
AcDbLine
 10
79.48213290062367
 20
156.33769320584489
 11
79.48213290062367
 21
162.33769320584489
  0
LINE
  5
F6
100
AcDbEntity
  8
1
  6
CONTINUOUS
 62
             3
100
AcDbLine
 10
77.48213290062367
 20
162.33769320584489
 11
79.48213290062367
 21
162.33769320584489
  0
LINE
  5
F5
100
AcDbEntity
  8
1
  6
CONTINUOUS
 62
             3
100
AcDbLine
 10
77.48213290062367
 20
156.33769320584489
 11
77.48213290062367
 21
162.33769320584489
  0
LINE
  5
F4
100
AcDbEntity
  8
1
  6
CONTINUOUS
 62
             3
100
AcDbLine
 10
97.19221666989357
 20
156.83769320584489
 11
97.19221666989357
 21
158.83769320584489
  0
LINE
  5
F3
100
AcDbEntity
  8
1
  6
CONTINUOUS
 62
             3
100
AcDbLine
 10
98.19221666989357
 20
156.83769320584489
 11
98.19221666989357
 21
158.83769320584489
  0
LINE
  5
F2
100
AcDbEntity
  8
1
  6
CONTINUOUS
 62
             3
100
AcDbLine
 10
96.44221666989357
 20
162.33769320584489
 11
98.44221666989357
 21
162.33769320584489
  0
LINE
  5
F1
100
AcDbEntity
  8
1
  6
CONTINUOUS
 62
             3
100
AcDbLine
 10
96.44221666989357
 20
156.33769320584489
 11
96.44221666989357
 21
162.33769320584489
  0
LINE
  5
F0
100
AcDbEntity
  8
1
  6
CONTINUOUS
 62
             3
100
AcDbLine
 10
98.44221666989357
 20
162.33769320584489
 11
104.15448958780441
 21
162.33769320584489
  0
LINE
  5
EF
100
AcDbEntity
  8
1
  6
CONTINUOUS
 62
             3
100
AcDbLine
 10
98.44221666989357
 20
156.33769320584489
 11
98.44221666989357
 21
162.33769320584489
  0
LINE
  5
EE
100
AcDbEntity
  8
1
  6
CONTINUOUS
 62
             3
100
AcDbLine
 10
84.03408357565417
 20
158.33769320584489
 11
84.03408357565417
 21
157.33769320584489
  0
LINE
  5
ED
100
AcDbEntity
  8
1
  6
CONTINUOUS
 62
             3
100
AcDbLine
 10
86.03408357565417
 20
158.33769320584489
 11
86.03408357565417
 21
157.33769320584489
  0
LINE
  5
EC
100
AcDbEntity
  8
1
  6
CONTINUOUS
 62
             3
100
AcDbLine
 10
91.06311518768507
 20
158.33769320584489
 11
91.06311518768507
 21
157.33769320584489
  0
LINE
  5
EB
100
AcDbEntity
  8
1
  6
CONTINUOUS
 62
             3
100
AcDbLine
 10
93.06311518768507
 20
158.33769320584489
 11
93.06311518768507
 21
157.33769320584489
  0
LINE
  5
EA
100
AcDbEntity
  8
1
  6
CONTINUOUS
 62
             3
100
AcDbLine
 10
83.03408357565417
 20
162.33769320584489
 11
87.03408357565417
 21
162.33769320584489
  0
LINE
  5
E9
100
AcDbEntity
  8
1
  6
CONTINUOUS
 62
             3
100
AcDbLine
 10
83.03408357565417
 20
157.33769320584489
 11
83.03408357565417
 21
162.33769320584489
  0
LINE
  5
E8
100
AcDbEntity
  8
1
  6
CONTINUOUS
 62
             3
100
AcDbLine
 10
87.03408357565417
 20
162.33769320584489
 11
90.06311518768507
 21
162.33769320584489
  0
LINE
  5
E7
100
AcDbEntity
  8
1
  6
CONTINUOUS
 62
             3
100
AcDbLine
 10
87.03408357565417
 20
157.33769320584489
 11
87.03408357565417
 21
162.33769320584489
  0
LINE
  5
E6
100
AcDbEntity
  8
1
  6
CONTINUOUS
 62
             3
100
AcDbLine
 10
90.06311518768507
 20
162.33769320584489
 11
94.06311518768507
 21
162.33769320584489
  0
LINE
  5
E5
100
AcDbEntity
  8
1
  6
CONTINUOUS
 62
             3
100
AcDbLine
 10
90.06311518768507
 20
157.33769320584489
 11
90.06311518768507
 21
162.33769320584489
  0
LINE
  5
E4
100
AcDbEntity
  8
1
  6
CONTINUOUS
 62
             3
100
AcDbLine
 10
94.06311518768507
 20
162.33769320584489
 11
96.44221666989357
 21
162.33769320584489
  0
LINE
  5
E3
100
AcDbEntity
  8
1
  6
CONTINUOUS
 62
             3
100
AcDbLine
 10
94.06311518768507
 20
157.33769320584489
 11
94.06311518768507
 21
162.33769320584489
  0
LINE
  5
E2
100
AcDbEntity
  8
1
  6
CONTINUOUS
 62
             3
100
AcDbLine
 10
70.65448958780436
 20
172.83769320584489
 11
106.65448958780441
 21
172.83769320584489
  0
LINE
  5
E1
100
AcDbEntity
  8
1
  6
CONTINUOUS
 62
             3
100
AcDbLine
 10
70.65448958780436
 20
168.83769320584489
 11
70.65448958780436
 21
172.83769320584489
  0
LINE
  5
E0
100
AcDbEntity
  8
1
  6
CONTINUOUS
 62
             3
100
AcDbLine
 10
73.15448958780436
 20
166.83769320584489
 11
104.15448958780441
 21
166.83769320584489
  0
LINE
  5
DF
100
AcDbEntity
  8
1
  6
CONTINUOUS
 62
             3
100
AcDbLine
 10
73.15448958780436
 20
162.33769320584489
 11
73.15448958780436
 21
166.83769320584489
  0
LINE
  5
DE
100
AcDbEntity
  8
1
  6
CONTINUOUS
 62
             3
100
AcDbLine
 10
104.15448958780441
 20
166.83769320584489
 11
104.65448958780441
 21
166.83769320584489
  0
LINE
  5
DD
100
AcDbEntity
  8
1
  6
CONTINUOUS
 62
             3
100
AcDbLine
 10
104.15448958780441
 20
162.33769320584489
 11
104.15448958780441
 21
166.83769320584489
  0
LINE
  5
DC
100
AcDbEntity
  8
1
  6
CONTINUOUS
 62
             3
100
AcDbLine
 10
106.65448958780441
 20
172.83769320584489
 11
113.65448958780441
 21
172.83769320584489
  0
LINE
  5
DB
100
AcDbEntity
  8
1
  6
CONTINUOUS
 62
             3
100
AcDbLine
 10
106.65448958780441
 20
168.83769320584489
 11
106.65448958780441
 21
172.83769320584489
  0
LINE
  5
DA
100
AcDbEntity
  8
1
  6
CONTINUOUS
 62
             3
100
AcDbLine
 10
73.15448958780436
 20
162.33769320584489
 11
77.48213290062367
 21
162.33769320584489
  0
LINE
  5
D9
100
AcDbEntity
  8
1
  6
CONTINUOUS
 62
             3
100
AcDbLine
 10
72.65448958780436
 20
166.83769320584489
 11
73.15448958780436
 21
166.83769320584489
  0
LINE
  5
D8
100
AcDbEntity
  8
1
  6
CONTINUOUS
 62
             3
100
AcDbLine
 10
63.65448958780436
 20
172.83769320584489
 11
70.65448958780436
 21
172.83769320584489
  0
LINE
  5
D7
100
AcDbEntity
  8
1
  6
CONTINUOUS
 62
             3
100
AcDbLine
 10
113.65448958780441
 20
173.5376932058449
 11
113.65448958780441
 21
172.83769320584489
  0
LINE
  5
D6
100
AcDbEntity
  8
1
  6
CONTINUOUS
 62
             3
100
AcDbLine
 10
63.65448958780436
 20
173.5376932058449
 11
63.65448958780436
 21
172.83769320584489
  0
LINE
  5
D5
100
AcDbEntity
  8
1
  6
CONTINUOUS
 62
             3
100
AcDbLine
 10
73.15448958780436
 20
173.5376932058449
 11
104.15448958780441
 21
173.5376932058449
  0
LINE
  5
D4
100
AcDbEntity
  8
1
  6
CONTINUOUS
 62
             3
100
AcDbLine
 10
73.15448958780436
 20
175.33769320584489
 11
73.15448958780436
 21
173.5376932058449
  0
LINE
  5
D3
100
AcDbEntity
  8
1
  6
CONTINUOUS
 62
             3
100
AcDbLine
 10
104.15448958780441
 20
173.5376932058449
 11
113.65448958780441
 21
173.5376932058449
  0
LINE
  5
D2
100
AcDbEntity
  8
1
  6
CONTINUOUS
 62
             3
100
AcDbLine
 10
104.15448958780441
 20
175.33769320584489
 11
104.15448958780441
 21
173.5376932058449
  0
LINE
  5
D1
100
AcDbEntity
  8
1
  6
CONTINUOUS
 62
             3
100
AcDbLine
 10
63.65448958780436
 20
173.5376932058449
 11
73.15448958780436
 21
173.5376932058449
  0
LINE
  5
D0
100
AcDbEntity
  8
1
  6
CONTINUOUS
 62
             3
100
AcDbLine
 10
73.15448958780436
 20
175.33769320584489
 11
104.15448958780441
 21
175.33769320584489
  0
LINE
  5
CF
100
AcDbEntity
  8
1
  6
DASH_CENTER
 62
             1
100
AcDbLine
 10
88.65448958780436
 20
232.7957935693515
 11
88.65448958780436
 21
193.79579356935159
  0
LINE
  5
CE
100
AcDbEntity
  8
1
  6
DASH_CENTER
 62
             1
100
AcDbLine
 10
61.65448958780436
 20
213.2957935693515
 11
115.65448958780441
 21
213.2957935693515
  0
LINE
  5
CD
100
AcDbEntity
  8
1
  6
CONTINUOUS
 62
             3
100
AcDbLine
 10
92.67941194730396
 20
212.09579356935151
 11
94.02198434793228
 21
212.09579356935151
  0
LINE
  5
CC
100
AcDbEntity
  8
1
  6
CONTINUOUS
 62
             3
100
AcDbLine
 10
92.67941194730396
 20
214.49579356935149
 11
94.02198434793228
 21
214.49579356935149
  0
LINE
  5
CB
100
AcDbEntity
  8
1
  6
CONTINUOUS
 62
             3
100
AcDbLine
 10
96.04316905899268
 20
208.15892529461061
 11
98.20446208680036
 21
207.37227896496151
  0
LINE
  5
CA
100
AcDbEntity
  8
1
  6
CONTINUOUS
 62
             3
100
AcDbLine
 10
99.77775474609837
 20
211.69486502057671
 11
98.20446208680036
 21
207.37227896496151
  0
LINE
  5
C9
100
AcDbEntity
  8
1
  6
CONTINUOUS
 62
             3
100
AcDbLine
 10
99.77775474609837
 20
211.69486502057671
 11
98.20446208680036
 21
207.37227896496151
  0
LINE
  5
C8
100
AcDbEntity
  8
1
  6
CONTINUOUS
 62
             3
100
AcDbLine
 10
99.77775474609837
 20
211.69486502057671
 11
98.20446208680036
 21
207.37227896496151
  0
LINE
  5
C7
100
AcDbEntity
  8
1
  6
CONTINUOUS
 62
             3
100
AcDbLine
 10
99.77775474609837
 20
211.69486502057671
 11
98.20446208680036
 21
207.37227896496151
  0
LINE
  5
C6
100
AcDbEntity
  8
1
  6
CONTINUOUS
 62
             3
100
AcDbLine
 10
97.61646171829077
 20
212.48151135022579
 11
99.77775474609837
 21
211.69486502057671
  0
LINE
  5
C5
100
AcDbEntity
  8
1
  6
CONTINUOUS
 62
             3
100
AcDbLine
 10
90.24676055476407
 20
204.43889382012901
 11
91.21878255676776
 21
202.35438590994471
  0
LINE
  5
C4
100
AcDbEntity
  8
1
  6
CONTINUOUS
 62
             3
100
AcDbLine
 10
95.38779837713636
 20
204.29842991395199
 11
91.21878255676776
 21
202.35438590994471
  0
LINE
  5
C3
100
AcDbEntity
  8
1
  6
CONTINUOUS
 62
             3
100
AcDbLine
 10
95.38779837713636
 20
204.29842991395199
 11
91.21878255676776
 21
202.35438590994471
  0
LINE
  5
C2
100
AcDbEntity
  8
1
  6
CONTINUOUS
 62
             3
100
AcDbLine
 10
95.38779837713636
 20
204.29842991395199
 11
91.21878255676776
 21
202.35438590994471
  0
LINE
  5
C1
100
AcDbEntity
  8
1
  6
CONTINUOUS
 62
             3
100
AcDbLine
 10
95.38779837713636
 20
204.29842991395199
 11
91.21878255676776
 21
202.35438590994471
  0
LINE
  5
C0
100
AcDbEntity
  8
1
  6
CONTINUOUS
 62
             3
100
AcDbLine
 10
94.41577637513267
 20
206.38293782413629
 11
95.38779837713636
 21
204.29842991395199
  0
LINE
  5
BF
100
AcDbEntity
  8
1
  6
CONTINUOUS
 62
             3
100
AcDbLine
 10
83.51762131306347
 20
205.90711409816319
 11
82.73097498341437
 21
203.74582107035559
  0
LINE
  5
BE
100
AcDbEntity
  8
1
  6
CONTINUOUS
 62
             3
100
AcDbLine
 10
87.05356103902957
 20
202.17252841105741
 11
82.73097498341437
 21
203.74582107035559
  0
LINE
  5
BD
100
AcDbEntity
  8
1
  6
CONTINUOUS
 62
             3
100
AcDbLine
 10
87.05356103902957
 20
202.17252841105741
 11
82.73097498341437
 21
203.74582107035559
  0
LINE
  5
BC
100
AcDbEntity
  8
1
  6
CONTINUOUS
 62
             3
100
AcDbLine
 10
87.05356103902957
 20
202.17252841105741
 11
82.73097498341437
 21
203.74582107035559
  0
LINE
  5
BB
100
AcDbEntity
  8
1
  6
CONTINUOUS
 62
             3
100
AcDbLine
 10
87.05356103902957
 20
202.17252841105741
 11
82.73097498341437
 21
203.74582107035559
  0
LINE
  5
BA
100
AcDbEntity
  8
1
  6
CONTINUOUS
 62
             3
100
AcDbLine
 10
87.84020736867866
 20
204.33382143886499
 11
87.05356103902957
 21
202.17252841105741
  0
LINE
  5
B9
100
AcDbEntity
  8
1
  6
CONTINUOUS
 62
             3
100
AcDbLine
 10
79.79758983858187
 20
211.70352260239181
 11
77.71308192839757
 21
210.73150060038819
  0
LINE
  5
B8
100
AcDbEntity
  8
1
  6
CONTINUOUS
 62
             3
100
AcDbLine
 10
79.65712593240477
 20
206.5624847800195
 11
77.71308192839757
 21
210.73150060038819
  0
LINE
  5
B7
100
AcDbEntity
  8
1
  6
CONTINUOUS
 62
             3
100
AcDbLine
 10
79.65712593240477
 20
206.5624847800195
 11
77.71308192839757
 21
210.73150060038819
  0
LINE
  5
B6
100
AcDbEntity
  8
1
  6
CONTINUOUS
 62
             3
100
AcDbLine
 10
79.65712593240477
 20
206.5624847800195
 11
77.71308192839757
 21
210.73150060038819
  0
LINE
  5
B5
100
AcDbEntity
  8
1
  6
CONTINUOUS
 62
             3
100
AcDbLine
 10
79.65712593240477
 20
206.5624847800195
 11
77.71308192839757
 21
210.73150060038819
  0
LINE
  5
B4
100
AcDbEntity
  8
1
  6
CONTINUOUS
 62
             3
100
AcDbLine
 10
81.74163384258907
 20
207.53450678202319
 11
79.65712593240477
 21
206.5624847800195
  0
LINE
  5
B3
100
AcDbEntity
  8
1
  6
CONTINUOUS
 62
             3
100
AcDbLine
 10
81.26581011661607
 20
218.43266184409231
 11
79.10451708880846
 21
219.21930817374141
  0
LINE
  5
B2
100
AcDbEntity
  8
1
  6
CONTINUOUS
 62
             3
100
AcDbLine
 10
77.53122442951037
 20
214.89672211812629
 11
79.10451708880846
 21
219.21930817374141
  0
LINE
  5
B1
100
AcDbEntity
  8
1
  6
CONTINUOUS
 62
             3
100
AcDbLine
 10
77.53122442951037
 20
214.89672211812629
 11
79.10451708880846
 21
219.21930817374141
  0
LINE
  5
B0
100
AcDbEntity
  8
1
  6
CONTINUOUS
 62
             3
100
AcDbLine
 10
77.53122442951037
 20
214.89672211812629
 11
79.10451708880846
 21
219.21930817374141
  0
LINE
  5
AF
100
AcDbEntity
  8
1
  6
CONTINUOUS
 62
             3
100
AcDbLine
 10
77.53122442951037
 20
214.89672211812629
 11
79.10451708880846
 21
219.21930817374141
  0
LINE
  5
AE
100
AcDbEntity
  8
1
  6
CONTINUOUS
 62
             3
100
AcDbLine
 10
79.69251745731796
 20
214.11007578847719
 11
77.53122442951037
 21
214.89672211812629
  0
LINE
  5
AD
100
AcDbEntity
  8
1
  6
CONTINUOUS
 62
             3
100
AcDbLine
 10
87.06221862084456
 20
222.15269331857391
 11
86.09019661884096
 21
224.23720122875821
  0
LINE
  5
AC
100
AcDbEntity
  8
1
  6
CONTINUOUS
 62
             3
100
AcDbLine
 10
81.92118079847236
 20
222.29315722475101
 11
86.09019661884096
 21
224.23720122875821
  0
LINE
  5
AB
100
AcDbEntity
  8
1
  6
CONTINUOUS
 62
             3
100
AcDbLine
 10
81.92118079847236
 20
222.29315722475101
 11
86.09019661884096
 21
224.23720122875821
  0
LINE
  5
AA
100
AcDbEntity
  8
1
  6
CONTINUOUS
 62
             3
100
AcDbLine
 10
82.89320280047596
 20
220.20864931456671
 11
81.92118079847236
 21
222.29315722475101
  0
LINE
  5
A9
100
AcDbEntity
  8
1
  6
CONTINUOUS
 62
             3
100
AcDbLine
 10
93.79135786254527
 20
220.68447304053981
 11
94.57800419219437
 21
222.84576606834739
  0
LINE
  5
A8
100
AcDbEntity
  8
1
  6
CONTINUOUS
 62
             3
100
AcDbLine
 10
90.25541813657917
 20
224.41905872764551
 11
94.57800419219437
 21
222.84576606834739
  0
LINE
  5
A7
100
AcDbEntity
  8
1
  6
CONTINUOUS
 62
             3
100
AcDbLine
 10
89.46877180693006
 20
222.25776569983799
 11
90.25541813657917
 21
224.41905872764551
  0
LINE
  5
A6
100
AcDbEntity
  8
1
  6
CONTINUOUS
 62
             3
100
AcDbLine
 10
97.65185324320387
 20
220.0291023586835
 11
99.59589724721117
 21
215.8600865383149
  0
LINE
  5
A5
100
AcDbEntity
  8
1
  6
CONTINUOUS
 62
             3
100
AcDbLine
 10
97.51138933702687
 20
214.8880645363113
 11
99.59589724721117
 21
215.8600865383149
  0
LINE
  5
A4
100
AcDbEntity
  8
1
  6
CONTINUOUS
 62
             3
100
AcDbLine
 10
95.56734533301957
 20
219.0570803566799
 11
97.65185324320387
 21
220.0291023586835
  0
LINE
  5
A3
100
AcDbEntity
  8
1
  6
CONTINUOUS
 62
             3
100
AcDbLine
 10
64.33161393227206
 20
211.7957935693515
 11
76.28012091703977
 21
200.92142489858691
  0
LINE
  5
A2
100
AcDbEntity
  8
1
  6
CONTINUOUS
 62
             3
100
AcDbLine
 10
64.33161393227206
 20
214.7957935693515
 11
76.28012091703967
 21
225.67016224011579
  0
LINE
  5
A1
100
AcDbEntity
  8
1
  6
CONTINUOUS
 62
             3
100
AcDbLine
 10
113.0236144602009
 20
211.83788510727811
 11
101.028858258569
 21
200.92142489858691
  0
LINE
  5
A0
100
AcDbEntity
  8
1
  6
CONTINUOUS
 62
             3
100
AcDbLine
 10
101.028858258569
 20
225.67016224011601
 11
113.0236144602009
 21
214.75370203142481
  0
LINE
  5
9F
100
AcDbEntity
  8
1
  6
CONTINUOUS
 62
             3
100
AcDbLine
 10
68.65448958780436
 20
211.7957935693515
 11
69.65448958780436
 21
211.7957935693515
  0
LINE
  5
9E
100
AcDbEntity
  8
1
  6
CONTINUOUS
 62
             3
100
AcDbLine
 10
68.65448958780436
 20
214.7957935693515
 11
69.65448958780436
 21
214.7957935693515
  0
LINE
  5
9D
100
AcDbEntity
  8
1
  6
CONTINUOUS
 62
             3
100
AcDbLine
 10
68.65448958780436
 20
214.7957935693515
 11
68.65448958780436
 21
211.7957935693515
  0
LINE
  5
9C
100
AcDbEntity
  8
1
  6
CONTINUOUS
 62
             3
100
AcDbLine
 10
108.65448958780441
 20
211.7957935693515
 11
109.65448958780441
 21
211.7957935693515
  0
LINE
  5
9B
100
AcDbEntity
  8
1
  6
CONTINUOUS
 62
             3
100
AcDbLine
 10
108.65448958780441
 20
214.7957935693515
 11
109.65448958780441
 21
214.7957935693515
  0
LINE
  5
9A
100
AcDbEntity
  8
1
  6
CONTINUOUS
 62
             3
100
AcDbLine
 10
108.65448958780441
 20
214.7957935693515
 11
108.65448958780441
 21
211.7957935693515
  0
LINE
  5
99
100
AcDbEntity
  8
1
  6
CONTINUOUS
 62
             3
100
AcDbLine
 10
67.65448958780436
 20
214.7957935693515
 11
68.65448958780436
 21
214.7957935693515
  0
LINE
  5
98
100
AcDbEntity
  8
1
  6
CONTINUOUS
 62
             3
100
AcDbLine
 10
67.65448958780436
 20
211.7957935693515
 11
68.65448958780436
 21
211.7957935693515
  0
LINE
  5
97
100
AcDbEntity
  8
1
  6
CONTINUOUS
 62
             3
100
AcDbLine
 10
107.65448958780441
 20
211.7957935693515
 11
108.65448958780441
 21
211.7957935693515
  0
LINE
  5
96
100
AcDbEntity
  8
1
  6
CONTINUOUS
 62
             3
100
AcDbLine
 10
107.65448958780441
 20
214.7957935693515
 11
108.65448958780441
 21
214.7957935693515
  0
LINE
  5
95
100
AcDbEntity
  8
1
  6
DASH_CENTER
 62
             1
100
AcDbLine
 10
68.65448958780436
 20
103.73673242701329
 11
68.65448958780436
 21
95.73673242701329
  0
LINE
  5
94
100
AcDbEntity
  8
1
  6
DASH_CENTER
 62
             1
100
AcDbLine
 10
108.65448958780441
 20
103.73673242701329
 11
108.65448958780441
 21
95.73673242701329
  0
LINE
  5
93
100
AcDbEntity
  8
1
  6
DASH_CENTER
 62
             1
100
AcDbLine
 10
88.65448958780436
 20
119.73673242701329
 11
88.65448958780436
 21
79.73673242701329
  0
LINE
  5
92
100
AcDbEntity
  8
1
  6
DASH_CENTER
 62
             1
100
AcDbLine
 10
63.65448958780436
 20
99.73673242701329
 11
113.65448958780441
 21
99.73673242701329
  0
LINE
  5
91
100
AcDbEntity
  8
1
  6
CONTINUOUS
 62
             3
100
AcDbLine
 10
344.2392230334309
 20
87.87150524579499
 11
346.53922303343091
 21
87.87150524579499
  0
LINE
  5
90
100
AcDbEntity
  8
1
  6
CONTINUOUS
 62
             3
100
AcDbLine
 10
344.2392230334309
 20
78.37150524579499
 11
344.2392230334309
 21
87.87150524579499
  0
LINE
  5
8F
100
AcDbEntity
  8
1
  6
CONTINUOUS
 62
             3
100
AcDbLine
 10
346.53922303343091
 20
87.87150524579499
 11
348.97468890971021
 21
87.87150524579499
  0
LINE
  5
8E
100
AcDbEntity
  8
1
  6
CONTINUOUS
 62
             3
100
AcDbLine
 10
346.53922303343091
 20
78.37150524579499
 11
346.53922303343091
 21
87.87150524579499
  0
LINE
  5
8D
100
AcDbEntity
  8
1
  6
CONTINUOUS
 62
             3
100
AcDbLine
 10
348.97468890971021
 20
87.87150524579499
 11
349.47316894290458
 21
87.87150524579499
  0
LINE
  5
8C
100
AcDbEntity
  8
1
  6
CONTINUOUS
 62
             3
100
AcDbLine
 10
348.97468890971021
 20
78.37150524579499
 11
348.97468890971021
 21
87.87150524579499
  0
LINE
  5
8B
100
AcDbEntity
  8
1
  6
CONTINUOUS
 62
             3
100
AcDbLine
 10
351.27468890971011
 20
87.87150524579499
 11
355.67164897609911
 21
87.87150524579499
  0
LINE
  5
8A
100
AcDbEntity
  8
1
  6
CONTINUOUS
 62
             3
100
AcDbLine
 10
351.27468890971011
 20
78.37150524579499
 11
351.27468890971011
 21
87.87150524579499
  0
LINE
  5
89
100
AcDbEntity
  8
1
  6
CONTINUOUS
 62
             3
100
AcDbLine
 10
357.97164897609912
 20
87.87150524579499
 11
360.40711485237841
 21
87.87150524579499
  0
LINE
  5
88
100
AcDbEntity
  8
1
  6
CONTINUOUS
 62
             3
100
AcDbLine
 10
357.97164897609912
 20
78.37150524579499
 11
357.97164897609912
 21
87.87150524579499
  0
LINE
  5
87
100
AcDbEntity
  8
1
  6
CONTINUOUS
 62
             3
100
AcDbLine
 10
355.67164897609911
 20
87.87150524579499
 11
357.47316894290458
 21
87.87150524579499
  0
LINE
  5
86
100
AcDbEntity
  8
1
  6
CONTINUOUS
 62
             3
100
AcDbLine
 10
355.67164897609911
 20
78.37150524579499
 11
355.67164897609911
 21
87.87150524579499
  0
LINE
  5
85
100
AcDbEntity
  8
1
  6
CONTINUOUS
 62
             3
100
AcDbLine
 10
360.40711485237841
 20
87.87150524579499
 11
362.7071148523782
 21
87.87150524579499
  0
LINE
  5
84
100
AcDbEntity
  8
1
  6
CONTINUOUS
 62
             3
100
AcDbLine
 10
360.40711485237841
 20
78.37150524579499
 11
360.40711485237841
 21
87.87150524579499
  0
LINE
  5
83
100
AcDbEntity
  8
1
  6
CONTINUOUS
 62
             3
100
AcDbLine
 10
362.7071148523782
 20
87.87150524579499
 11
367.47316894290458
 21
87.87150524579499
  0
LINE
  5
82
100
AcDbEntity
  8
1
  6
CONTINUOUS
 62
             3
100
AcDbLine
 10
362.7071148523782
 20
78.37150524579499
 11
362.7071148523782
 21
87.87150524579499
  0
LINE
  5
81
100
AcDbEntity
  8
1
  6
CONTINUOUS
 62
             3
100
AcDbLine
 10
344.7392230334309
 20
77.87150524579499
 11
346.03922303343091
 21
77.87150524579499
  0
LINE
  5
80
100
AcDbEntity
  8
1
  6
CONTINUOUS
 62
             3
100
AcDbLine
 10
350.77468890971011
 20
77.87150524579499
 11
349.47468890971021
 21
77.87150524579499
  0
LINE
  5
7F
100
AcDbEntity
  8
1
  6
CONTINUOUS
 62
             3
100
AcDbLine
 10
356.17164897609911
 20
77.87150524579499
 11
357.47164897609912
 21
77.87150524579499
  0
LINE
  5
7E
100
AcDbEntity
  8
1
  6
CONTINUOUS
 62
             3
100
AcDbLine
 10
360.90711485237841
 20
77.87150524579499
 11
362.2071148523782
 21
77.87150524579499
  0
LINE
  5
7D
100
AcDbEntity
  8
1
  6
CONTINUOUS
 62
             3
100
AcDbLine
 10
350.47316894290458
 20
94.771505245795
 11
350.47316894290458
 21
92.771505245795
  0
LINE
  5
7C
100
AcDbEntity
  8
1
  6
CONTINUOUS
 62
             3
100
AcDbLine
 10
356.47316894290458
 20
94.771505245795
 11
356.47316894290458
 21
92.771505245795
  0
LINE
  5
7B
100
AcDbEntity
  8
1
  6
CONTINUOUS
 62
             3
100
AcDbLine
 10
350.47316894290458
 20
92.771505245795
 11
356.47316894290458
 21
92.771505245795
  0
LINE
  5
7A
100
AcDbEntity
  8
1
  6
CONTINUOUS
 62
             3
100
AcDbLine
 10
350.47316894290458
 20
94.771505245795
 11
356.47316894290458
 21
94.771505245795
  0
LINE
  5
79
100
AcDbEntity
  8
1
  6
CONTINUOUS
 62
             3
100
AcDbLine
 10
356.47316894290458
 20
75.87150524579499
 11
350.47316894290458
 21
75.87150524579499
  0
LINE
  5
78
100
AcDbEntity
  8
1
  6
CONTINUOUS
 62
             3
100
AcDbLine
 10
349.47316894290458
 20
87.87150524579499
 11
351.27468890971011
 21
87.87150524579499
  0
LINE
  5
77
100
AcDbEntity
  8
1
  6
CONTINUOUS
 62
             3
100
AcDbLine
 10
349.47316894290458
 20
76.87150524579499
 11
349.47316894290458
 21
77.87150524579499
  0
LINE
  5
76
100
AcDbEntity
  8
1
  6
CONTINUOUS
 62
             3
100
AcDbLine
 10
357.47316894290458
 20
87.87150524579499
 11
357.97164897609912
 21
87.87150524579499
  0
LINE
  5
75
100
AcDbEntity
  8
1
  6
CONTINUOUS
 62
             3
100
AcDbLine
 10
357.47316894290458
 20
76.87150524579499
 11
357.47316894290458
 21
77.87150524579499
  0
LINE
  5
74
100
AcDbEntity
  8
1
  6
CONTINUOUS
 62
             3
100
AcDbLine
 10
339.47316894290458
 20
89.87150524579499
 11
367.47316894290458
 21
89.87150524579499
  0
LINE
  5
73
100
AcDbEntity
  8
1
  6
CONTINUOUS
 62
             3
100
AcDbLine
 10
339.47316894290458
 20
87.87150524579499
 11
339.47316894290458
 21
89.87150524579499
  0
LINE
  5
72
100
AcDbEntity
  8
1
  6
CONTINUOUS
 62
             3
100
AcDbLine
 10
367.47316894290458
 20
89.87150524579499
 11
373.47316894290458
 21
89.87150524579499
  0
LINE
  5
71
100
AcDbEntity
  8
1
  6
CONTINUOUS
 62
             3
100
AcDbLine
 10
367.47316894290458
 20
87.87150524579499
 11
367.47316894290458
 21
89.87150524579499
  0
LINE
  5
70
100
AcDbEntity
  8
1
  6
CONTINUOUS
 62
             3
100
AcDbLine
 10
339.47316894290458
 20
87.87150524579499
 11
344.2392230334309
 21
87.87150524579499
  0
LINE
  5
6F
100
AcDbEntity
  8
1
  6
CONTINUOUS
 62
             3
100
AcDbLine
 10
333.47316894290458
 20
158.87150524579499
 11
333.47316894290458
 21
89.87150524579499
  0
LINE
  5
6E
100
AcDbEntity
  8
1
  6
CONTINUOUS
 62
             3
100
AcDbLine
 10
373.47316894290458
 20
158.87150524579499
 11
373.47316894290458
 21
89.87150524579499
  0
LINE
  5
6D
100
AcDbEntity
  8
1
  6
CONTINUOUS
 62
             3
100
AcDbLine
 10
333.47316894290458
 20
89.87150524579499
 11
339.47316894290458
 21
89.87150524579499
  0
LINE
  5
6C
100
AcDbEntity
  8
1
  6
CONTINUOUS
 62
             3
100
AcDbLine
 10
333.47316894290458
 20
90.87150524579499
 11
373.47316894290458
 21
90.87150524579499
  0
LINE
  5
6B
100
AcDbEntity
  8
1
  6
DASH_CENTER
 62
             1
100
AcDbLine
 10
273.19564973839522
 20
219.688932506209
 11
273.19564973839522
 21
175.688932506209
  0
LINE
  5
6A
100
AcDbEntity
  8
1
  6
DASH_CENTER
 62
             1
100
AcDbLine
 10
245.9956497383952
 20
197.688932506209
 11
300.89564973839532
 21
197.688932506209
  0
LINE
  5
69
100
AcDbEntity
  8
1
  6
CONTINUOUS
 62
             3
100
AcDbLine
 10
248.19564973839519
 20
182.688932506209
 11
248.19564973839519
 21
180.688932506209
  0
LINE
  5
68
100
AcDbEntity
  8
1
  6
CONTINUOUS
 62
             3
100
AcDbLine
 10
247.9956497383952
 20
182.688932506209
 11
248.19564973839519
 21
182.688932506209
  0
LINE
  5
67
100
AcDbEntity
  8
1
  6
CONTINUOUS
 62
             3
100
AcDbLine
 10
247.9956497383952
 20
212.688932506209
 11
247.9956497383952
 21
182.688932506209
  0
LINE
  5
66
100
AcDbEntity
  8
1
  6
CONTINUOUS
 62
             3
100
AcDbLine
 10
248.19564973839519
 20
212.688932506209
 11
248.19564973839519
 21
182.688932506209
  0
LINE
  5
65
100
AcDbEntity
  8
1
  6
CONTINUOUS
 62
             3
100
AcDbLine
 10
247.9956497383952
 20
212.688932506209
 11
248.19564973839519
 21
212.688932506209
  0
LINE
  5
64
100
AcDbEntity
  8
1
  6
CONTINUOUS
 62
             3
100
AcDbLine
 10
248.19564973839519
 20
94.87150524579499
 11
248.19564973839519
 21
89.87150524579499
  0
LINE
  5
63
100
AcDbEntity
  8
1
  6
CONTINUOUS
 62
             3
100
AcDbLine
 10
247.9956497383952
 20
94.87150524579499
 11
248.19564973839519
 21
94.87150524579499
  0
LINE
  5
62
100
AcDbEntity
  8
1
  6
CONTINUOUS
 62
             3
100
AcDbLine
 10
247.9956497383952
 20
154.87150524579499
 11
247.9956497383952
 21
94.87150524579499
  0
LINE
  5
61
100
AcDbEntity
  8
1
  6
CONTINUOUS
 62
             3
100
AcDbLine
 10
248.19564973839519
 20
154.87150524579499
 11
248.19564973839519
 21
94.87150524579499
  0
LINE
  5
60
100
AcDbEntity
  8
1
  6
CONTINUOUS
 62
             3
100
AcDbLine
 10
247.9956497383952
 20
154.87150524579499
 11
248.19564973839519
 21
154.87150524579499
  0
LINE
  5
5F
100
AcDbEntity
  8
1
  6
CONTINUOUS
 62
             3
100
AcDbLine
 10
268.69564973839522
 20
76.37150524579499
 11
268.69564973839522
 21
78.17150524579499
  0
LINE
  5
5E
100
AcDbEntity
  8
1
  6
CONTINUOUS
 62
             3
100
AcDbLine
 10
269.19564973839522
 20
77.87150524579499
 11
268.99564973839517
 21
77.87150524579499
  0
LINE
  5
5D
100
AcDbEntity
  8
1
  6
CONTINUOUS
 62
             3
100
AcDbLine
 10
277.19564973839522
 20
77.87150524579499
 11
277.3941297715898
 21
77.87150524579499
  0
LINE
  5
5C
100
AcDbEntity
  8
1
  6
CONTINUOUS
 62
             3
100
AcDbLine
 10
263.96170382892149
 20
87.87150524579499
 11
266.26170382892138
 21
87.87150524579499
  0
LINE
  5
5B
100
AcDbEntity
  8
1
  6
CONTINUOUS
 62
             3
100
AcDbLine
 10
263.96170382892149
 20
78.17150524579499
 11
263.96170382892149
 21
87.87150524579499
  0
LINE
  5
5A
100
AcDbEntity
  8
1
  6
CONTINUOUS
 62
             3
100
AcDbLine
 10
266.26170382892138
 20
87.87150524579499
 11
268.69564973839522
 21
87.87150524579499
  0
LINE
  5
59
100
AcDbEntity
  8
1
  6
CONTINUOUS
 62
             3
100
AcDbLine
 10
266.26170382892138
 20
78.17150524579499
 11
266.26170382892138
 21
87.87150524579499
  0
LINE
  5
58
100
AcDbEntity
  8
1
  6
CONTINUOUS
 62
             3
100
AcDbLine
 10
270.99716970520058
 20
87.87150524579499
 11
275.39412977158992
 21
87.87150524579499
  0
LINE
  5
57
100
AcDbEntity
  8
1
  6
CONTINUOUS
 62
             3
100
AcDbLine
 10
270.99716970520058
 20
78.17150524579499
 11
270.99716970520058
 21
87.87150524579499
  0
LINE
  5
56
100
AcDbEntity
  8
1
  6
CONTINUOUS
 62
             3
100
AcDbLine
 10
282.42959564786901
 20
87.87150524579499
 11
287.19564973839522
 21
87.87150524579499
  0
LINE
  5
55
100
AcDbEntity
  8
1
  6
CONTINUOUS
 62
             3
100
AcDbLine
 10
282.42959564786901
 20
78.17150524579499
 11
282.42959564786901
 21
87.87150524579499
  0
LINE
  5
54
100
AcDbEntity
  8
1
  6
CONTINUOUS
 62
             3
100
AcDbLine
 10
280.129595647869
 20
87.87150524579499
 11
282.42959564786901
 21
87.87150524579499
  0
LINE
  5
53
100
AcDbEntity
  8
1
  6
CONTINUOUS
 62
             3
100
AcDbLine
 10
280.129595647869
 20
78.17150524579499
 11
280.129595647869
 21
87.87150524579499
  0
LINE
  5
52
100
AcDbEntity
  8
1
  6
CONTINUOUS
 62
             3
100
AcDbLine
 10
277.6941297715897
 20
87.87150524579499
 11
280.129595647869
 21
87.87150524579499
  0
LINE
  5
51
100
AcDbEntity
  8
1
  6
CONTINUOUS
 62
             3
100
AcDbLine
 10
277.6941297715897
 20
78.17150524579499
 11
277.6941297715897
 21
87.87150524579499
  0
LINE
  5
50
100
AcDbEntity
  8
1
  6
CONTINUOUS
 62
             3
100
AcDbLine
 10
275.39412977158992
 20
87.87150524579499
 11
277.19564973839522
 21
87.87150524579499
  0
LINE
  5
4F
100
AcDbEntity
  8
1
  6
CONTINUOUS
 62
             3
100
AcDbLine
 10
275.39412977158992
 20
78.17150524579499
 11
275.39412977158992
 21
87.87150524579499
  0
LINE
  5
4E
100
AcDbEntity
  8
1
  6
CONTINUOUS
 62
             3
100
AcDbLine
 10
268.69564973839522
 20
78.17150524579499
 11
268.69564973839522
 21
87.87150524579499
  0
LINE
  5
4D
100
AcDbEntity
  8
1
  6
CONTINUOUS
 62
             3
100
AcDbLine
 10
270.69716970520062
 20
77.87150524579499
 11
269.19564973839522
 21
77.87150524579499
  0
LINE
  5
4C
100
AcDbEntity
  8
1
  6
CONTINUOUS
 62
             3
100
AcDbLine
 10
275.69412977158981
 20
77.87150524579499
 11
277.19564973839522
 21
77.87150524579499
  0
LINE
  5
4B
100
AcDbEntity
  8
1
  6
CONTINUOUS
 62
             3
100
AcDbLine
 10
264.26170382892161
 20
77.87150524579499
 11
265.96170382892137
 21
77.87150524579499
  0
LINE
  5
4A
100
AcDbEntity
  8
1
  6
CONTINUOUS
 62
             3
100
AcDbLine
 10
280.42959564786912
 20
77.87150524579499
 11
282.12959564786888
 21
77.87150524579499
  0
LINE
  5
49
100
AcDbEntity
  8
1
  6
CONTINUOUS
 62
             3
100
AcDbLine
 10
269.19564973839522
 20
87.87150524579499
 11
270.99716970520058
 21
87.87150524579499
  0
LINE
  5
48
100
AcDbEntity
  8
1
  6
CONTINUOUS
 62
             3
100
AcDbLine
 10
269.19564973839522
 20
75.87150524579499
 11
276.19564973839522
 21
75.87150524579499
  0
LINE
  5
47
100
AcDbEntity
  8
1
  6
CONTINUOUS
 62
             3
100
AcDbLine
 10
269.19564973839522
 20
75.87150524579499
 11
269.19564973839522
 21
77.87150524579499
  0
LINE
  5
46
100
AcDbEntity
  8
1
  6
CONTINUOUS
 62
             3
100
AcDbLine
 10
268.69564973839522
 20
87.87150524579499
 11
269.19564973839522
 21
87.87150524579499
  0
LINE
  5
45
100
AcDbEntity
  8
1
  6
CONTINUOUS
 62
             3
100
AcDbLine
 10
277.19564973839522
 20
87.87150524579499
 11
277.6941297715897
 21
87.87150524579499
  0
LINE
  5
44
100
AcDbEntity
  8
1
  6
CONTINUOUS
 62
             3
100
AcDbLine
 10
277.19564973839522
 20
76.87150524579499
 11
277.19564973839522
 21
77.87150524579499
  0
LINE
  5
43
100
AcDbEntity
  8
1
  6
CONTINUOUS
 62
             3
100
AcDbLine
 10
259.19564973839522
 20
89.87150524579499
 11
287.19564973839522
 21
89.87150524579499
  0
LINE
  5
42
100
AcDbEntity
  8
1
  6
CONTINUOUS
 62
             3
100
AcDbLine
 10
259.19564973839522
 20
87.87150524579499
 11
259.19564973839522
 21
89.87150524579499
  0
LINE
  5
41
100
AcDbEntity
  8
1
  6
CONTINUOUS
 62
             3
100
AcDbLine
 10
287.19564973839522
 20
89.87150524579499
 11
298.19564973839522
 21
89.87150524579499
  0
LINE
  5
40
100
AcDbEntity
  8
1
  6
CONTINUOUS
 62
             3
100
AcDbLine
 10
287.19564973839522
 20
87.87150524579499
 11
287.19564973839522
 21
89.87150524579499
  0
LINE
  5
3F
100
AcDbEntity
  8
1
  6
CONTINUOUS
 62
             3
100
AcDbLine
 10
259.19564973839522
 20
87.87150524579499
 11
263.96170382892149
 21
87.87150524579499
  0
LINE
  5
3E
100
AcDbEntity
  8
1
  6
CONTINUOUS
 62
             3
100
AcDbLine
 10
248.19564973839519
 20
158.87150524579499
 11
248.19564973839519
 21
154.87150524579499
  0
LINE
  5
3D
100
AcDbEntity
  8
1
  6
CONTINUOUS
 62
             3
100
AcDbLine
 10
298.19564973839522
 20
158.87150524579499
 11
298.19564973839522
 21
89.87150524579499
  0
LINE
  5
3C
100
AcDbEntity
  8
1
  6
CONTINUOUS
 62
             3
100
AcDbLine
 10
249.19564973839519
 20
159.87150524579499
 11
297.19564973839522
 21
159.87150524579499
  0
LINE
  5
3B
100
AcDbEntity
  8
1
  6
CONTINUOUS
 62
             3
100
AcDbLine
 10
248.19564973839519
 20
89.87150524579499
 11
259.19564973839522
 21
89.87150524579499
  0
LINE
  5
3A
100
AcDbEntity
  8
1
  6
CONTINUOUS
 62
             3
100
AcDbLine
 10
248.19564973839519
 20
90.87150524579499
 11
298.19564973839522
 21
90.87150524579499
  0
LINE
  5
39
100
AcDbEntity
  8
1
  6
CONTINUOUS
 62
             3
100
AcDbLine
 10
251.19564973839519
 20
177.688932506209
 11
295.19564973839522
 21
177.688932506209
  0
LINE
  5
38
100
AcDbEntity
  8
1
  6
CONTINUOUS
 62
             3
100
AcDbLine
 10
251.19564973839519
 20
217.688932506209
 11
295.19564973839522
 21
217.688932506209
  0
LINE
  5
37
100
AcDbEntity
  8
1
  6
CONTINUOUS
 62
             3
100
AcDbLine
 10
248.19564973839519
 20
214.688932506209
 11
248.19564973839519
 21
212.688932506209
  0
LINE
  5
36
100
AcDbEntity
  8
1
  6
CONTINUOUS
 62
             3
100
AcDbLine
 10
250.19564973839519
 20
214.688932506209
 11
250.19564973839519
 21
180.688932506209
  0
LINE
  5
35
100
AcDbEntity
  8
1
  6
CONTINUOUS
 62
             3
100
AcDbLine
 10
296.19564973839522
 20
214.688932506209
 11
296.19564973839522
 21
180.688932506209
  0
LINE
  5
34
100
AcDbEntity
  8
1
  6
CONTINUOUS
 62
             3
100
AcDbLine
 10
251.19564973839519
 20
179.688932506209
 11
295.19564973839522
 21
179.688932506209
  0
LINE
  5
33
100
AcDbEntity
  8
1
  6
CONTINUOUS
 62
             3
100
AcDbLine
 10
251.19564973839519
 20
215.688932506209
 11
295.19564973839522
 21
215.688932506209
  0
LINE
  5
32
100
AcDbEntity
  8
1
  6
DASH_CENTER
 62
             1
100
AcDbLine
 10
273.19564973839522
 20
161.87150524579499
 11
273.19564973839522
 21
73.87150524579499
  0
LINE
  5
31
100
AcDbEntity
  8
1
  6
CONTINUOUS
 62
             3
100
AcDbLine
 10
191.9181305338858
 20
87.87150524579499
 11
191.9181305338858
 21
75.87150524579499
  0
LINE
  5
30
100
AcDbEntity
  8
1
  6
CONTINUOUS
 62
             3
100
AcDbLine
 10
193.9181305338858
 20
75.87150524579499
 11
193.9181305338858
 21
87.87150524579499
  0
LINE
  5
2F
100
AcDbEntity
  8
1
  6
CONTINUOUS
 62
             3
100
AcDbLine
 10
298.19564973839522
 20
119.971505245795
 11
298.24564973839517
 21
119.971505245795
  0
LINE
  5
2E
100
AcDbEntity
  8
1
  6
CONTINUOUS
 62
             3
100
AcDbLine
 10
298.24564973839517
 20
119.971505245795
 11
298.24564973839517
 21
104.971505245795
  0
LINE
  5
2D
100
AcDbEntity
  8
1
  6
CONTINUOUS
 62
             3
100
AcDbLine
 10
298.24564973839517
 20
104.971505245795
 11
298.19564973839522
 21
104.971505245795
  0
LINE
  5
2C
100
AcDbEntity
  8
1
  6
CONTINUOUS
 62
             3
100
AcDbLine
 10
298.19564973839522
 20
214.688932506209
 11
298.19564973839522
 21
180.688932506209
  0
LINE
  5
2B
100
AcDbEntity
  8
1
  6
CONTINUOUS
 62
             3
100
AcDbLine
 10
298.19564973839522
 20
209.38893250620899
 11
298.24564973839517
 21
209.38893250620899
  0
LINE
  5
2A
100
AcDbEntity
  8
1
  6
CONTINUOUS
 62
             3
100
AcDbLine
 10
298.24564973839517
 20
209.38893250620899
 11
298.24564973839517
 21
194.38893250620899
  0
LINE
  5
29
100
AcDbEntity
  8
1
  6
CONTINUOUS
 62
             3
100
AcDbLine
 10
298.24564973839517
 20
194.38893250620899
 11
298.19564973839522
 21
194.38893250620899
  0
LINE
  5
28
100
AcDbEntity
  8
1
  6
CONTINUOUS
 62
             2
100
AcDbLine
 10
66.90823037205598
 20
69.8740955226593
 11
110.61506390061901
 21
69.8740955226593
  0
SOLID
  5
182
100
AcDbEntity
  8
1
 62
             2
100
AcDbTrace
 10
112.00621514498221
 20
95.65673337301922
 11
111.22331468274245
 21
95.17057137105513
 12
109.76838140092759
 22
98.38701207499321
 13
109.76838140092759
 23
98.38701207499321
  0
SOLID
  5
184
100
AcDbEntity
  8
1
 62
             2
100
AcDbTrace
 10
100.97901950712883
 20
84.67961488358853
 11
100.29758774975684
 21
84.05918165916071
 12
98.28197452038337
 22
86.95739230817449
 13
98.28197452038337
 23
86.95739230817449
  0
SOLID
  5
186
100
AcDbEntity
  8
1
 62
             2
100
AcDbTrace
 10
348.08410607055384
 20
117.25908444069222
 11
348.50912312361868
 21
117.98661093117914
 12
351.05967076320252
 22
116.00868517153791
 13
351.05967076320252
 23
116.00868517153791
  0
ENDSEC
  0
SECTION
  2
OBJECTS
  0
DICTIONARY
  5
19
100
AcDbDictionary
  3
ACAD_GROUP
350
1A
  3
ACAD_MLINESTYLE
350
1B
  0
DICTIONARY
  5
1A
102
{ACAD_REACTORS
330
19
102
}
100
AcDbDictionary
  0
DICTIONARY
  5
1B
102
{ACAD_REACTORS
330
19
102
}
100
AcDbDictionary
  3
STANDARD
350
1C
  0
MLINESTYLE
  5
1C
102
{ACAD_REACTORS
330
1B
102
}
100
AcDbMlineStyle
  2
STANDARD
 70
             0
  3

 62
             0
 51
90.0
 52
90.0
 71
             2
 49
0.5
 62
           256
  6
BYLAYER
 49
-0.5
 62
           256
  6
BYLAYER
  0
ENDSEC
  0
EOF
