  0
SECTION
  2
HEADER
  9
$ACADVER
  1
AC1009
  9
$INSBASE
 10
0
 20
0
  9
$EXTMIN
 10
11.8978361299282
 20
117.047504182191
  9
$EXTMAX
 10
383.6448340240289
 20
326.1801273463389
  9
$LIMMIN
 10
11.8978361299282
 20
117.047504182191
  9
$LIMMAX
 10
383.6448340240289
 20
326.1801273463389
  9
$VIEWCTR
 10
10
 20
10
  9
$VIEWSIZE
 40
10
  9
$SNAPMODE
 70
0
  9
$SNAPUNIT
 10
1
 20
1
  9
$SNAPBASE
 10
0
 20
0
  9
$SNAPANG
 50
0
  9
$SNAPSTYLE
 70
0
  9
$SNAPISOPAIR
 70
0
  9
$GRIDMODE
 70
0
  9
$GRIDUNIT
 10
0
 20
0
  9
$ORTHOMODE
 70
0
  9
$REGENMODE
 70
1
  9
$FILLMODE
 70
1
  9
$QTEXTMODE
 70
0
  9
$DRAGMODE
 70
2
  9
$LTSCALE
 40
1
  9
$OSMODE
 70
0
  9
$ATTMODE
 70
1
  9
$TEXTSIZE
 40
3.5
  9
$TRACEWID
 40
0.5
  9
$TEXTSTYLE
  7
STANDARD
  9
$CLAYER
  8
0
  9
$CELTYPE
  6
BYLAYER
  9
$CECOLOR
 62
256
  9
$DIMSCALE
 40
1
  9
$DIMASZ
 40
0.18
  9
$DIMEXO
 40
0.0625
  9
$DIMDLI
 40
0.38
  9
$DIMRND
 40
0
  9
$DIMDLE
 40
0
  9
$DIMEXE
 40
0.18
  9
$DIMTP
 40
0
  9
$DIMTM
 40
0
  9
$DIMTXT
 40
0.18
  9
$DIMCEN
 40
0.09
  9
$DIMTSZ
 40
0
  9
$DIMTOL
 70
0
  9
$DIMLIM
 70
0
  9
$DIMTIH
 70
1
  9
$DIMTOH
 70
1
  9
$DIMSE1
 70
0
  9
$DIMSE2
 70
0
  9
$DIMTAD
 70
0
  9
$DIMZIN
 70
0
  9
$DIMBLK
  1

  9
$DIMASO
 70
1
  9
$DIMSHO
 70
1
  9
$DIMPOST
  1

  9
$DIMAPOST
  1

  9
$DIMALT
 70
0
  9
$DIMALTD
 70
2
  9
$DIMALTF
 40
25.4
  9
$DIMLFAC
 40
1
  9
$DIMTOFL
 70
0
  9
$DIMTVP
 40
0
  9
$DIMTIX
 70
0
  9
$DIMSOXD
 70
0
  9
$DIMSAH
 70
0
  9
$DIMBLK1
  1

  9
$DIMBLK2
  1

  9
$DIMSTYLE
  2
*UNNAMED
  9
$DIMCLRD
 70
0
  9
$DIMCLRE
 70
0
  9
$DIMCLRT
 70
0
  9
$DIMTFAC
 40
1
  9
$DIMGAP
 40
0.09
  9
$LUNITS
 70
2
  9
$LUPREC
 70
4
  9
$AXISMODE
 70
0
  9
$AXISUNIT
 10
0
 20
0
  9
$SKETCHINC
 40
0.1
  9
$FILLETRAD
 40
2
  9
$AUNITS
 70
0
  9
$AUPREC
 70
0
  9
$MENU
  1
ACAD
  9
$ELEVATION
 40
0
  9
$THICKNESS
 40
0
  9
$VIEWDIR
 10
0
 20
0
 30
1
  9
$LIMCHECK
 70
0
  9
$BLIPMODE
 70
1
  9
$CHAMFERA
 40
0
  9
$CHAMFERB
 40
0
  9
$FASTZOOM
 70
1
  9
$SKPOLY
 70
0
  9
$ANGBASE
 50
0
  9
$ANGDIR
 70
0
  9
$PDMODE
 70
0
  9
$PDSIZE
 40
0
  9
$PLINEWID
 40
0
  9
$COORDS
 70
2
  0
ENDSEC
  0
SECTION
  2
TABLES
  0
TABLE
  2
DIMSTYLE
 70
7
  0
DIMSTYLE
  2
DMST_1
 70
0
  3

  4

  5

  6

  7

 40
1
 41
3.2
 42
1
 43
7
 44
1.5
 45
0
 46
0
 47
0
 48
0
140
3.2
141
0
142
0
143
25.4
144
1
145
0
146
0.6
147
0.09
 71
1
 72
0
 73
0
 74
0
 75
0
 76
0
 77
1
 78
9
170
0
171
2
172
0
173
0
174
0
175
0
176
2
177
2
178
2
  0
DIMSTYLE
  2
DMST_2
 70
0
  3

  4

  5

  6
DOT
  7

 40
1
 41
1.6
 42
1
 43
7
 44
1.5
 45
0
 46
0
 47
0
 48
0
140
3.2
141
0
142
0
143
25.4
144
1
145
0
146
1
147
0.09
 71
0
 72
0
 73
1
 74
1
 75
0
 76
0
 77
1
 78
9
170
0
171
2
172
0
173
1
174
0
175
0
176
2
177
2
178
2
  0
DIMSTYLE
  2
DMST_3
 70
0
  3

  4

  5

  6

  7

 40
1
 41
3.2
 42
1
 43
7
 44
1.5
 45
0
 46
0
 47
0
 48
0
140
3.2
141
0
142
0
143
25.4
144
1
145
0
146
1
147
0.09
 71
0
 72
0
 73
0
 74
0
 75
0
 76
0
 77
1
 78
9
170
0
171
2
172
0
173
0
174
0
175
0
176
2
177
2
178
2
  0
DIMSTYLE
  2
DMST_4
 70
0
  3

  4

  5

  6

  7

 40
1
 41
3.2
 42
1
 43
7
 44
1.5
 45
0
 46
0
 47
0.4
 48
0.4
140
3.2
141
0
142
0
143
25.4
144
1
145
0
146
0.6
147
0.09
 71
1
 72
0
 73
0
 74
0
 75
0
 76
0
 77
1
 78
9
170
0
171
2
172
0
173
0
174
0
175
0
176
2
177
2
178
2
  0
DIMSTYLE
  2
DMST_5
 70
0
  3

  4

  5

  6

  7

 40
1
 41
0
 42
1
 43
7
 44
1.5
 45
0
 46
0
 47
0
 48
0
140
3.2
141
0
142
0
143
25.4
144
1
145
0
146
0.6
147
0.09
 71
1
 72
0
 73
0
 74
0
 75
0
 76
0
 77
1
 78
9
170
0
171
2
172
1
173
0
174
0
175
0
176
2
177
2
178
2
  0
DIMSTYLE
  2
DMST_6
 70
0
  3
)
  4

  5

  6

  7

 40
1
 41
3.2
 42
1
 43
7
 44
2
 45
0
 46
0
 47
0
 48
0
140
3.2
141
0
142
0
143
25.4
144
1
145
0
146
1
147
0.09
 71
0
 72
0
 73
0
 74
0
 75
0
 76
0
 77
1
 78
9
170
0
171
2
172
0
173
0
174
0
175
0
176
2
177
2
178
2
  0
DIMSTYLE
  2
DMST_7
 70
0
  3
)
  4

  5

  6

  7

 40
1
 41
3.2
 42
1
 43
7
 44
1.5
 45
0
 46
0
 47
0
 48
0
140
3.2
141
0
142
0
143
25.4
144
1
145
0
146
1
147
0.09
 71
0
 72
0
 73
0
 74
0
 75
0
 76
0
 77
1
 78
9
170
0
171
2
172
0
173
0
174
1
175
0
176
2
177
2
178
2
  0
ENDTAB
  0
TABLE
  2
LTYPE
 70
9
  0
LTYPE
  2
CONTINUOUS
 70
64
  3
Solid line
 72
65
 73
0
 40
0
  0
LTYPE
  2
BORDER
 70
64
  3
__ __ . __ __ .
 72
65
 73
6
 40
17.11992753459674
 49
4.891407867027641
 49
-2.44570393351382
 49
4.891407867027641
 49
-2.44570393351382
 49
0
 49
-2.44570393351382
  0
LTYPE
  2
CENTER
 70
64
  3
____ _ ____ _
 72
65
 73
4
 40
19.56563146811056
 49
12.2285196675691
 49
-2.44570393351382
 49
2.44570393351382
 49
-2.44570393351382
  0
LTYPE
  2
DASHDOT
 70
64
  3
__ . __ . __ .
 72
65
 73
4
 40
9.782815734055282
 49
4.891407867027641
 49
-2.44570393351382
 49
0
 49
-2.44570393351382
  0
LTYPE
  2
DASHED
 70
64
  3
__ __ __ __ __
 72
65
 73
2
 40
7.337111800541461
 49
4.891407867027641
 49
-2.44570393351382
  0
LTYPE
  2
DIVIDE
 70
64
  3
__ . . __ . . 
 72
65
 73
6
 40
12.2285196675691
 49
4.891407867027641
 49
-2.44570393351382
 49
0
 49
-2.44570393351382
 49
0
 49
-2.44570393351382
  0
LTYPE
  2
DOT
 70
64
  3
..............
 72
65
 73
4
 40
4.891407867027641
 49
0
 49
-2.44570393351382
 49
0
 49
-2.44570393351382
  0
LTYPE
  2
HIDDEN
 70
64
  3
_ _ _ _ _ _ _
 72
65
 73
2
 40
3.66855590027073
 49
2.44570393351382
 49
-1.22285196675691
  0
LTYPE
  2
PHANTOM
 70
64
  3
_____ _ _ _____ _ _ 
 72
65
 73
6
 40
24.45703933513821
 49
12.2285196675691
 49
-2.44570393351382
 49
2.44570393351382
 49
-2.44570393351382
 49
2.44570393351382
 49
-2.44570393351382
  0
ENDTAB
  0
TABLE
  2
LAYER
 70
3
  0
LAYER
  2
1
 70
0
 62
7
  6
CONTINUOUS
  0
LAYER
  2
0
 70
0
 62
7
  6
CONTINUOUS
  0
ENDTAB
  0
TABLE
  2
STYLE
 70
4
  0
STYLE
  2
STANDARD
 70
0
 40
0
 41
1
 50
0
 71
0
 42
3.5
  3
txt
  4

  0
STYLE
  2
SIMPLEX
 70
0
 40
0
 41
1
 50
0
 71
0
 42
3.5
  3
simplex
  4

  0
STYLE
  2
COMPLEX
 70
0
 40
0
 41
1
 50
0
 71
0
 42
3.5
  3
complex
  4

  0
STYLE
  2
ITALIC
 70
0
 40
0
 41
1
 50
0
 71
0
 42
3.5
  3
italic
  4

  0
ENDTAB
  0
TABLE
  2
VIEW
 70
0
  0
ENDTAB
  0
ENDSEC
  0
SECTION
  2
BLOCKS
  0
BLOCK
  8
0
  2
_O_L_____4__1
 70
0
 10
27.64406918479926
 20
245.9801273463388
 30
0
  0
LINE
  8
1
 62
3
 10
27.64406918479926
 20
242.1801273463386
 30
0
 11
28.44406918480036
 21
242.1801273463386
 31
0
  0
LINE
  8
1
 62
3
 10
27.64406918479926
 20
249.7801273463376
 30
0
 11
27.64406918479926
 21
242.1801273463386
 31
0
  0
LINE
  8
1
 62
3
 10
28.44406918480036
 20
249.7801273463376
 30
0
 11
27.64406918479926
 21
249.7801273463376
 31
0
  0
LINE
  8
1
 62
3
 10
28.44406918480036
 20
246.2051273463387
 30
0
 11
27.64406918479926
 21
246.1051273463388
 31
0
  0
LINE
  8
1
 62
3
 10
28.44406918480036
 20
245.8301273463387
 30
0
 11
27.64406918479926
 21
245.7301273463388
 31
0
  0
ENDBLK
  8
0
  0
BLOCK
  8
0
  2
_O_L_____4__2
 70
0
 10
119.244069184798
 20
245.9801273463388
 30
0
  0
LINE
  8
1
 62
3
 10
119.244069184798
 20
249.780127346339
 30
0
 11
118.4440691848002
 21
249.780127346339
 31
0
  0
LINE
  8
1
 62
3
 10
119.2440691847981
 20
242.18012734634
 30
0
 11
119.244069184798
 21
249.780127346339
 31
0
  0
LINE
  8
1
 62
3
 10
118.4440691848002
 20
242.18012734634
 30
0
 11
119.2440691847981
 21
242.18012734634
 31
0
  0
LINE
  8
1
 62
3
 10
118.4440691848002
 20
245.7551273463389
 30
0
 11
119.244069184798
 21
245.8551273463388
 31
0
  0
LINE
  8
1
 62
3
 10
118.4440691848002
 20
246.1301273463389
 30
0
 11
119.244069184798
 21
246.2301273463388
 31
0
  0
ENDBLK
  8
0
  0
BLOCK
  8
0
  2
_O_L_____4__3
 70
0
 10
343.1448340240288
 20
200.1801273463386
 30
0
  0
LINE
  8
1
 62
3
 10
346.9448340240267
 20
200.1801273463386
 30
0
 11
346.9448340240267
 21
201.1801273463386
 31
0
  0
LINE
  8
1
 62
3
 10
339.3448340240277
 20
200.1801273463386
 30
0
 11
346.9448340240267
 21
200.1801273463386
 31
0
  0
LINE
  8
1
 62
3
 10
339.3448340240277
 20
201.1801273463386
 30
0
 11
339.3448340240277
 21
200.1801273463386
 31
0
  0
LINE
  8
1
 62
3
 10
346.9448340240267
 20
201.1801273463386
 30
0
 11
339.3448340240277
 21
201.1801273463386
 31
0
  0
LINE
  8
1
 62
3
 10
343.2698340240288
 20
200.1801273463386
 30
0
 11
343.3948340240288
 21
201.1801273463386
 31
0
  0
LINE
  8
1
 62
3
 10
342.8948340240288
 20
200.1801273463386
 30
0
 11
343.0198340240288
 21
201.1801273463386
 31
0
  0
ENDBLK
  8
0
  0
BLOCK
  8
0
  2
_O_L_____4__4
 70
0
 10
343.1448340240288
 20
291.7801273463392
 30
0
  0
LINE
  8
1
 62
3
 10
343.0198340240288
 20
290.7801273463391
 30
0
 11
342.8948340240288
 21
291.7801273463392
 31
0
  0
LINE
  8
1
 62
3
 10
343.3948340240288
 20
290.7801273463392
 30
0
 11
343.2698340240288
 21
291.7801273463391
 31
0
  0
LINE
  8
1
 62
3
 10
339.3448340240277
 20
290.7801273463392
 30
0
 11
346.9448340240267
 21
290.7801273463392
 31
0
  0
LINE
  8
1
 62
3
 10
339.3448340240277
 20
291.7801273463392
 30
0
 11
339.3448340240277
 21
290.7801273463392
 31
0
  0
LINE
  8
1
 62
3
 10
346.9448340240267
 20
291.7801273463392
 30
0
 11
339.3448340240277
 21
291.7801273463392
 31
0
  0
LINE
  8
1
 62
3
 10
346.9448340240267
 20
290.7801273463392
 30
0
 11
346.9448340240267
 21
291.7801273463392
 31
0
  0
ENDBLK
  8
0
  0
BLOCK
  8
0
  2
____M4__5
 70
0
 10
313.1448340240277
 20
291.7801273463392
 30
0
  0
LINE
  8
1
 62
1
 10
21.56774579274816
 20
245.9801273463388
 30
0
 11
31.64406918479926
 21
245.9801273463388
 31
0
  0
LINE
  8
1
 62
3
 10
25.94807078608028
 20
241.9801273463388
 30
0
 11
27.64406918479926
 21
241.9801273463388
 31
0
  0
LINE
  8
1
 62
3
 10
27.64406918479926
 20
241.9801273463388
 30
0
 11
27.64406918479926
 21
249.9801273463388
 31
0
  0
LINE
  8
1
 62
3
 10
27.64406918479926
 20
249.9801273463388
 30
0
 11
25.94807078608028
 21
249.9801273463388
 31
0
  0
LINE
  8
1
 62
3
 10
24.56774579274816
 20
245.4301273463386
 30
0
 11
24.80274579274919
 21
245.4301273463386
 31
0
  0
LINE
  8
1
 62
3
 10
24.80274579274919
 20
245.4301273463386
 30
0
 11
24.80274579274919
 21
246.5301273463376
 31
0
  0
LINE
  8
1
 62
3
 10
24.80274579274919
 20
246.5301273463376
 30
0
 11
24.56774579274816
 21
246.5301273463376
 31
0
  0
LINE
  8
1
 62
1
 10
125.3203925768493
 20
245.9801273463388
 30
0
 11
115.244069184798
 21
245.9801273463388
 31
0
  0
LINE
  8
1
 62
3
 10
120.9400675835172
 20
249.9801273463388
 30
0
 11
119.244069184798
 21
249.9801273463388
 31
0
  0
LINE
  8
1
 62
3
 10
119.244069184798
 20
249.9801273463388
 30
0
 11
119.244069184798
 21
241.9801273463388
 31
0
  0
LINE
  8
1
 62
3
 10
119.244069184798
 20
241.9801273463388
 30
0
 11
120.9400675835172
 21
241.9801273463388
 31
0
  0
LINE
  8
1
 62
3
 10
122.3203925768493
 20
246.530127346339
 30
0
 11
122.0853925768492
 21
246.530127346339
 31
0
  0
LINE
  8
1
 62
3
 10
122.0853925768492
 20
246.530127346339
 30
0
 11
122.0853925768492
 21
245.43012734634
 31
0
  0
LINE
  8
1
 62
3
 10
122.0853925768492
 20
245.43012734634
 30
0
 11
122.3203925768493
 21
245.43012734634
 31
0
  0
LINE
  8
1
 62
1
 10
343.1448340240288
 20
252.9801273463388
 30
0
 11
343.1448340240288
 21
238.9801273463388
 31
0
  0
LINE
  8
1
 62
1
 10
343.1448340240288
 20
204.1801273463386
 30
0
 11
343.1448340240288
 21
194.1038039542889
 31
0
  0
LINE
  8
1
 62
1
 10
343.1448340240288
 20
297.8564507383885
 30
0
 11
343.1448340240288
 21
287.7801273463392
 31
0
  0
LINE
  8
1
 62
3
 10
339.1448340240288
 20
293.476125745058
 30
0
 11
339.1448340240288
 21
291.7801273463392
 31
0
  0
LINE
  8
1
 62
3
 10
339.1448340240288
 20
291.7801273463392
 30
0
 11
347.1448340240288
 21
291.7801273463392
 31
0
  0
LINE
  8
1
 62
3
 10
347.1448340240288
 20
291.7801273463392
 30
0
 11
347.1448340240288
 21
293.476125745058
 31
0
  0
LINE
  8
1
 62
3
 10
342.5948340240277
 20
294.8564507383885
 30
0
 11
342.5948340240277
 21
294.6214507383888
 31
0
  0
LINE
  8
1
 62
3
 10
342.5948340240277
 20
294.6214507383888
 30
0
 11
343.6948340240267
 21
294.6214507383887
 31
0
  0
LINE
  8
1
 62
3
 10
343.6948340240267
 20
294.6214507383887
 30
0
 11
343.6948340240267
 21
294.8564507383885
 31
0
  0
LINE
  8
1
 62
3
 10
339.1448340240288
 20
200.1801273463386
 30
0
 11
339.1448340240288
 21
198.4841289476199
 31
0
  0
LINE
  8
1
 62
3
 10
347.1448340240288
 20
200.1801273463386
 30
0
 11
339.1448340240288
 21
200.1801273463386
 31
0
  0
LINE
  8
1
 62
3
 10
347.1448340240288
 20
198.4841289476199
 30
0
 11
347.1448340240288
 21
200.1801273463386
 31
0
  0
LINE
  8
1
 62
3
 10
342.5948340240277
 20
197.338803954289
 30
0
 11
342.5948340240277
 21
197.1038039542889
 31
0
  0
LINE
  8
1
 62
3
 10
343.6948340240267
 20
197.338803954289
 30
0
 11
342.5948340240277
 21
197.338803954289
 31
0
  0
LINE
  8
1
 62
3
 10
343.6948340240267
 20
197.1038039542889
 30
0
 11
343.6948340240267
 21
197.338803954289
 31
0
  0
ARC
  8
1
 62
3
 10
30.94406918480036
 20
245.9801273463388
 30
0
 40
6.400000000001062
 50
141.3178125465182
 51
175.0700630628307
  0
ARC
  8
1
 62
3
 10
30.94406918480036
 20
245.9801273463388
 30
0
 40
6.400000000002524
 50
184.9299369371819
 51
218.6821874534818
  0
ARC
  8
1
 62
3
 10
115.9440691848005
 20
245.9801273463388
 30
0
 40
6.39999999999843
 50
321.3178125464993
 51
355.0700630628278
  0
ARC
  8
1
 62
3
 10
115.9440691848005
 20
245.9801273463388
 30
0
 40
6.399999999999138
 50
4.929936937184292
 51
38.68218745350069
  0
ARC
  8
1
 62
3
 10
343.1448340240288
 20
288.480127346339
 30
0
 40
6.400000000000261
 50
51.31781254651243
 51
85.07006306283655
  0
ARC
  8
1
 62
3
 10
343.1448340240288
 20
288.480127346339
 30
0
 40
6.399999999999937
 50
94.92993693719184
 51
128.6821874534876
  0
ARC
  8
1
 62
3
 10
343.1448340240288
 20
203.4801273463388
 30
0
 40
6.400000000000032
 50
274.9299369371632
 51
308.6821874534884
  0
ARC
  8
1
 62
3
 10
343.1448340240288
 20
203.4801273463388
 30
0
 40
6.40000000000015
 50
231.3178125465116
 51
265.0700630628085
  0
INSERT
  8
0
  2
_O_L_____4__1
 10
27.64406918479926
 20
245.9801273463388
 30
0
  0
INSERT
  8
0
  2
_O_L_____4__2
 10
119.244069184798
 20
245.9801273463388
 30
0
  0
INSERT
  8
0
  2
_O_L_____4__3
 10
343.1448340240288
 20
200.1801273463386
 30
0
  0
INSERT
  8
0
  2
_O_L_____4__4
 10
343.1448340240288
 20
291.7801273463392
 30
0
  0
ENDBLK
  8
0
  0
BLOCK
  8
0
  2
____M4_________6
 70
0
 10
343.1448340240289
 20
245.9801273463388
 30
0
  0
LINE
  8
1
 62
3
 10
341.9965828619237
 20
247.8566984930649
 30
0
 11
342.9558213489007
 21
246.8974600060876
 31
0
  0
LINE
  8
1
 62
3
 10
344.2930851861329
 20
247.8566984930649
 30
0
 11
343.3338466991549
 21
246.8974600060876
 31
0
  0
LINE
  8
1
 62
3
 10
341.2682628773008
 20
244.8318761842352
 30
0
 11
342.2275013642789
 21
245.791114671212
 31
0
  0
LINE
  8
1
 62
3
 10
341.2682628773008
 20
247.1283785084427
 30
0
 11
342.2275013642789
 21
246.1691400214647
 31
0
  0
LINE
  8
1
 62
3
 10
344.2930851861329
 20
244.1035561996116
 30
0
 11
343.3338466991549
 21
245.06279468659
 31
0
  0
LINE
  8
1
 62
3
 10
341.9965828619237
 20
244.1035561996116
 30
0
 11
342.9558213489007
 21
245.06279468659
 31
0
  0
LINE
  8
1
 62
3
 10
345.0214051707546
 20
247.1283785084427
 30
0
 11
344.0621666837768
 21
246.1691400214647
 31
0
  0
LINE
  8
1
 62
3
 10
345.0214051707546
 20
244.8318761842352
 30
0
 11
344.0621666837768
 21
245.791114671212
 31
0
  0
ARC
  8
1
 62
3
 10
343.1448340240289
 20
245.9801273463388
 30
0
 40
2.19999999999914
 50
31.46195895465434
 51
58.53804104534957
  0
ARC
  8
1
 62
3
 10
343.1448340240289
 20
245.9801273463388
 30
0
 40
0.9150000000004058
 50
80.83777127597448
 51
99.1622287241204
  0
ARC
  8
1
 62
3
 10
343.1448340240289
 20
245.9801273463388
 30
0
 40
2.200000000000201
 50
121.4619589546782
 51
148.5380410453789
  0
ARC
  8
1
 62
3
 10
343.1448340240289
 20
245.9801273463388
 30
0
 40
0.9150000000002212
 50
170.8377712759456
 51
189.1622287240369
  0
ARC
  8
1
 62
3
 10
343.1448340240289
 20
245.9801273463388
 30
0
 40
2.200000000001076
 50
211.4619589546148
 51
238.5380410453368
  0
ARC
  8
1
 62
3
 10
343.1448340240289
 20
245.9801273463388
 30
0
 40
0.9150000000003697
 50
260.8377712758768
 51
279.1622287240284
  0
ARC
  8
1
 62
3
 10
343.1448340240289
 20
245.9801273463388
 30
0
 40
2.200000000000494
 50
301.4619589546354
 51
328.538041045352
  0
ARC
  8
1
 62
3
 10
343.1448340240289
 20
245.9801273463388
 30
0
 40
0.9150000000000075
 50
350.8377712759614
 51
9.16222872405613
  0
CIRCLE
  8
1
 62
3
 10
343.1448340240289
 20
245.9801273463388
 30
0
 40
4
  0
ARC
  8
1
 62
3
 10
342.9911766879608
 20
246.9328153451468
 30
0
 40
0.05000000000041441
 50
224.9999999992861
 51
279.1622287234891
  0
ARC
  8
1
 62
3
 10
343.2984913600948
 20
246.9328153451468
 30
0
 40
0.04999999999940079
 50
260.8377712773469
 51
315.0000000007599
  0
ARC
  8
1
 62
3
 10
342.1921460252196
 20
245.8264700102718
 30
0
 40
0.05000000000033402
 50
314.9999999996085
 51
9.162228723488077
  0
ARC
  8
1
 62
3
 10
342.1921460252196
 20
246.133784682406
 30
0
 40
0.05000000000111693
 50
350.8377712766084
 51
44.99999999949335
  0
ARC
  8
1
 62
3
 10
343.2984913600948
 20
245.0274393475311
 30
0
 40
0.05000000000025363
 50
44.99999999900972
 51
99.16222872265313
  0
ARC
  8
1
 62
3
 10
342.9911766879608
 20
245.0274393475311
 30
0
 40
0.04999999999951846
 50
80.83777127651089
 51
135.0000000009442
  0
ARC
  8
1
 62
3
 10
344.097522022837
 20
246.133784682406
 30
0
 40
0.05000000000015314
 50
135.0000000011975
 51
189.1622287235887
  0
ARC
  8
1
 62
3
 10
344.097522022837
 20
245.8264700102718
 30
0
 40
0.05000000000006426
 50
170.8377712763149
 51
224.9999999997006
  0
ENDBLK
  8
0
  0
BLOCK
  8
0
  2
_O_L_____4__7
 70
0
 10
73.44406918479854
 20
291.780127346339
 30
0
  0
LINE
  8
1
 62
3
 10
73.3190691848024
 20
291.780127346339
 30
0
 11
73.21906918480238
 21
290.9801273463388
 31
0
  0
LINE
  8
1
 62
3
 10
73.6940691848024
 20
291.780127346339
 30
0
 11
73.59406918480238
 21
290.9801273463388
 31
0
  0
LINE
  8
1
 62
3
 10
69.64406918480245
 20
291.780127346339
 30
0
 11
69.64406918480245
 21
290.9801273463388
 31
0
  0
LINE
  8
1
 62
3
 10
77.24406918480236
 20
291.780127346339
 30
0
 11
69.64406918480245
 21
291.780127346339
 31
0
  0
LINE
  8
1
 62
3
 10
77.24406918480054
 20
290.9801273463388
 30
0
 11
77.24406918480236
 21
291.780127346339
 31
0
  0
ENDBLK
  8
0
  0
BLOCK
  8
0
  2
____M4__8
 70
0
 10
73.44406918480047
 20
-299.8198726536614
 30
0
  0
LINE
  8
1
 62
1
 10
73.44406918480047
 20
288.7801273463394
 30
0
 11
73.44406918480047
 21
297.7801273463394
 31
0
  0
LINE
  8
1
 62
3
 10
77.44406918480047
 20
291.7801273463394
 30
0
 11
77.44406918480047
 21
293.4761257450582
 31
0
  0
LINE
  8
1
 62
3
 10
69.44406918480047
 20
291.7801273463394
 30
0
 11
77.44406918480047
 21
291.7801273463394
 31
0
  0
LINE
  8
1
 62
3
 10
69.44406918480047
 20
293.4761257450582
 30
0
 11
69.44406918480047
 21
291.7801273463394
 31
0
  0
LINE
  8
1
 62
3
 10
73.99406918480042
 20
294.6214507383891
 30
0
 11
73.99406918480042
 21
294.8564507383892
 31
0
  0
LINE
  8
1
 62
3
 10
72.89406918480029
 20
294.6214507383891
 30
0
 11
73.99406918480042
 21
294.6214507383891
 31
0
  0
LINE
  8
1
 62
3
 10
72.89406918480029
 20
294.8564507383892
 30
0
 11
72.89406918480029
 21
294.6214507383891
 31
0
  0
ARC
  8
1
 62
3
 10
73.44406918480047
 20
288.4801273463395
 30
0
 40
6.400000000000029
 50
94.92993693718361
 51
110.1055097879165
  0
ARC
  8
1
 62
3
 10
73.44406918480047
 20
288.4801273463395
 30
0
 40
6.399999999999994
 50
51.31781254651052
 51
69.89449021208537
  0
ARC
  8
1
 62
3
 10
73.44406918480047
 20
288.4801273463395
 30
0
 40
6.399999999999891
 50
69.89449021208537
 51
85.07006306281843
  0
ARC
  8
1
 62
3
 10
73.44406918480047
 20
288.4801273463395
 30
0
 40
6.39999999999997
 50
110.1055097879165
 51
128.6821874534895
  0
INSERT
  8
0
  2
_O_L_____4__7
 10
73.44406918479854
 20
291.780127346339
 30
0
  0
ENDBLK
  8
0
  0
BLOCK
  8
1
  2
*D0
 70
1
 10
0
 20
0
 30
0
  0
LINE
  8
1
 62
2
 10
219.6448340240274
 20
204.4801273463388
 30
0
 11
219.6448340240274
 21
287.4801273463388
 31
0
  0
LINE
  8
1
 62
2
 10
229.6448340240274
 20
204.4801273463388
 30
0
 11
218.1448340240274
 21
204.4801273463388
 31
0
  0
LINE
  8
1
 62
2
 10
229.6448340240277
 20
287.4801273463388
 30
0
 11
218.1448340240274
 21
287.4801273463388
 31
0
  0
SOLID
  8
1
 62
2
 10
219.6448340240274
 20
287.4801273463388
 30
0
 11
220.0608340240274
 21
284.2801273463388
 31
0
 12
219.2288340240274
 22
284.2801273463388
 32
0
 13
219.2288340240274
 23
284.2801273463388
 33
0
  0
SOLID
  8
1
 62
2
 10
219.6448340240274
 20
204.4801273463388
 30
0
 11
219.2288340240274
 21
207.6801273463388
 31
0
 12
220.0608340240274
 22
207.6801273463388
 32
0
 13
220.0608340240274
 23
207.6801273463388
 33
0
  0
TEXT
  8
1
 62
2
 10
216.791500690694
 20
215.7380506142967
 30
0
 40
3.2
  1
83h7
 50
90
 41
0.9
  0
TEXT
  8
1
 62
2
 10
214.711500690694
 20
227.8980506142967
 30
0
 40
1.92
  1
 0
 50
90
 41
0.9
  0
TEXT
  8
1
 62
2
 10
217.591500690694
 20
227.8980506142967
 30
0
 40
1.92
  1
-0.035
 50
90
 41
0.9
  0
TEXT
  8
1
 62
2
 10
216.791500690694
 20
211.6909917907673
 30
0
 40
3.2
  1
âË
 50
90
 41
0.9
  0
ENDBLK
  8
0
  0
BLOCK
  8
1
  2
*D1
 70
1
 10
0
 20
0
 30
0
  0
LINE
  8
1
 62
2
 10
229.6448340240276
 20
305.9801273463389
 30
0
 11
223.2448340240276
 21
305.9801273463389
 31
0
  0
LINE
  8
1
 62
2
 10
229.6448340240276
 20
305.9801273463389
 30
0
 11
231.6448340240276
 21
305.9801273463389
 31
0
  0
LINE
  8
1
 62
2
 10
231.6448340240276
 20
291.9801273463389
 30
0
 11
231.6448340240276
 21
307.4801273463389
 31
0
  0
LINE
  8
1
 62
2
 10
229.6448340240276
 20
287.4801273463389
 30
0
 11
229.6448340240276
 21
307.4801273463389
 31
0
  0
CIRCLE
  8
1
 62
2
 10
231.6448340240276
 20
305.9801273463389
 30
0
 40
0.8
  0
SOLID
  8
1
 62
2
 10
229.6448340240276
 20
305.9801273463389
 30
0
 11
226.4448340240276
 21
305.5641273463389
 31
0
 12
226.4448340240276
 22
306.3961273463389
 32
0
 13
226.4448340240276
 23
306.3961273463389
 33
0
  0
TEXT
  8
1
 62
2
 10
225.332499900452
 20
307.9801273463389
 30
0
 40
3.2
  1
2
 41
0.9
  0
ENDBLK
  8
0
  0
BLOCK
  8
0
  2
H_H9_______
 70
0
 10
517.4281902030903
 20
534.1795858186938
 30
0
  0
POINT
  8
1
 62
4
  6
DIVIDE
 10
231.6448340240274
 20
290.9801273463388
 30
0
  0
LINE
  8
1
 62
3
 10
229.6448340240277
 20
205.4801273463388
 30
0
 11
229.6448340240274
 21
245.9801273463388
 31
0
  0
LINE
  8
1
 62
3
 10
231.6448340240277
 20
204.4801273463388
 30
0
 11
230.6448340240274
 21
204.4801273463388
 31
0
  0
LINE
  8
1
 62
3
 10
229.6448340240277
 20
205.4801273463388
 30
0
 11
230.6448340240274
 21
204.4801273463388
 31
0
  0
LINE
  8
1
 62
3
 10
229.6448340240274
 20
245.9801273463388
 30
0
 11
229.6448340240274
 21
286.4801273463388
 31
0
  0
LINE
  8
1
 62
3
 10
230.6448340240277
 20
287.4801273463388
 30
0
 11
231.6448340240274
 21
287.4801273463388
 31
0
  0
LINE
  8
1
 62
3
 10
230.6448340240277
 20
287.4801273463388
 30
0
 11
229.6448340240274
 21
286.4801273463388
 31
0
  0
DIMENSION
  8
1
  6
CONTINUOUS
 62
2
  2
*D0
  3
DMST_1
 10
219.6448340240274
 20
204.4801273463388
 30
0
 11
215.2181673573607
 21
224.042521202532
 31
0
 12
0
 22
0
 32
0
 70
1
  1
83h7
 13
230.6448340240277
 23
287.4801273463388
 33
0
 14
230.6448340240274
 24
204.4801273463388
 34
0
 53
0
  0
DIMENSION
  8
1
  6
CONTINUOUS
 62
2
  2
*D1
  3
DMST_2
 10
229.6448340240276
 20
305.9801273463389
 30
0
 11
226.292499900452
 21
309.5801273463389
 31
0
 12
0
 22
0
 32
0
 70
0
 13
231.6448340240274
 23
290.9801273463388
 33
0
 14
229.6448340240274
 24
286.4801273463388
 34
0
 53
0
  0
ENDBLK
  8
0
  0
BLOCK
  8
1
  2
*D2
 70
1
 10
0
 20
0
 30
0
  0
LINE
  8
1
 62
2
 10
194.6448340240277
 20
266.9801273463362
 30
0
 11
224.6448340240277
 21
266.9801273463362
 31
0
  0
LINE
  8
1
 62
2
 10
194.6448340240277
 20
251.9801273463387
 30
0
 11
194.6448340240277
 21
268.4801273463362
 31
0
  0
LINE
  8
1
 62
2
 10
224.6448340240277
 20
252.9801273463381
 30
0
 11
224.6448340240277
 21
268.4801273463362
 31
0
  0
SOLID
  8
1
 62
2
 10
224.6448340240277
 20
266.9801273463362
 30
0
 11
221.4448340240277
 21
266.5641273463362
 31
0
 12
221.4448340240277
 22
267.3961273463362
 32
0
 13
221.4448340240277
 23
267.3961273463362
 33
0
  0
SOLID
  8
1
 62
2
 10
194.6448340240277
 20
266.9801273463362
 30
0
 11
197.8448340240276
 21
267.3961273463362
 31
0
 12
197.8448340240276
 22
266.5641273463362
 32
0
 13
197.8448340240276
 23
266.5641273463362
 33
0
  0
TEXT
  8
1
 62
2
 10
207.772833180628
 20
268.9801273463362
 30
0
 40
3.2
  1
30
 41
0.9
  0
ENDBLK
  8
0
  0
BLOCK
  8
1
  2
*D3
 70
1
 10
0
 20
0
 30
0
  0
LINE
  8
1
 62
2
 10
184.6448340240278
 20
251.9801273463379
 30
0
 11
184.6448340240278
 21
258.3801273463379
 31
0
  0
LINE
  8
1
 62
2
 10
184.6448340240278
 20
250.9801273463385
 30
0
 11
184.6448340240278
 21
251.9801273463379
 31
0
  0
LINE
  8
1
 62
2
 10
184.6448340240278
 20
244.5801273463385
 30
0
 11
184.6448340240278
 21
250.9801273463385
 31
0
  0
LINE
  8
1
 62
2
 10
223.6448340240278
 20
251.9801273463379
 30
0
 11
183.1448340240278
 21
251.9801273463379
 31
0
  0
LINE
  8
1
 62
2
 10
193.6448340240278
 20
250.9801273463385
 30
0
 11
183.1448340240278
 21
250.9801273463385
 31
0
  0
SOLID
  8
1
 62
2
 10
184.6448340240278
 20
250.9801273463385
 30
0
 11
185.0608340240278
 21
247.7801273463385
 31
0
 12
184.2288340240278
 22
247.7801273463385
 32
0
 13
184.2288340240278
 23
247.7801273463385
 33
0
  0
SOLID
  8
1
 62
2
 10
184.6448340240278
 20
251.9801273463379
 30
0
 11
184.2288340240278
 21
255.1801273463379
 31
0
 12
185.0608340240278
 22
255.1801273463379
 32
0
 13
185.0608340240278
 23
255.1801273463379
 33
0
  0
TEXT
  8
1
 62
2
 10
182.6448340240278
 20
255.5263707388267
 30
0
 40
3.2
  1
1
 50
90
 41
0.9
  0
ENDBLK
  8
0
  0
BLOCK
  8
1
  2
*D4
 70
1
 10
0
 20
0
 30
0
  0
LINE
  8
1
 62
2
 10
174.6448340240277
 20
239.9801273463388
 30
0
 11
174.6448340240277
 21
251.9801273463381
 31
0
  0
LINE
  8
1
 62
2
 10
194.1448340240277
 20
239.9801273463388
 30
0
 11
173.1448340240277
 21
239.9801273463388
 31
0
  0
LINE
  8
1
 62
2
 10
223.6448340240277
 20
251.9801273463381
 30
0
 11
173.1448340240277
 21
251.9801273463381
 31
0
  0
SOLID
  8
1
 62
2
 10
174.6448340240277
 20
251.9801273463381
 30
0
 11
175.0608340240277
 21
248.7801273463381
 31
0
 12
174.2288340240277
 22
248.7801273463381
 32
0
 13
174.2288340240277
 23
248.7801273463381
 33
0
  0
SOLID
  8
1
 62
2
 10
174.6448340240277
 20
239.9801273463388
 30
0
 11
174.2288340240277
 21
243.1801273463388
 31
0
 12
175.0608340240277
 22
243.1801273463388
 32
0
 13
175.0608340240277
 23
243.1801273463388
 33
0
  0
TEXT
  8
1
 62
2
 10
171.7915006906943
 20
241.8996567581035
 30
0
 40
3.2
  1
12
 50
90
 41
0.9
  0
TEXT
  8
1
 62
2
 10
169.7115006906944
 20
247.3396567581035
 30
0
 40
1.92
  1
 0
 50
90
 41
0.9
  0
TEXT
  8
1
 62
2
 10
172.5915006906943
 20
247.3396567581035
 30
0
 40
1.92
  1
-0.02
 50
90
 41
0.9
  0
TEXT
  8
1
 62
2
 10
171.7915006906943
 20
237.8525979345741
 30
0
 40
3.2
  1
âË
 50
90
 41
0.9
  0
ENDBLK
  8
0
  0
BLOCK
  8
1
  2
*D5
 70
1
 10
0
 20
0
 30
0
  0
LINE
  8
1
 62
2
 10
194.6448340240277
 20
320.9801273463389
 30
0
 11
231.6448340240274
 21
320.9801273463389
 31
0
  0
LINE
  8
1
 62
2
 10
194.6448340240277
 20
251.9801273463387
 30
0
 11
194.6448340240277
 21
322.4801273463389
 31
0
  0
LINE
  8
1
 62
2
 10
231.6448340240274
 20
291.9801273463389
 30
0
 11
231.6448340240274
 21
322.4801273463389
 31
0
  0
SOLID
  8
1
 62
2
 10
231.6448340240274
 20
320.9801273463389
 30
0
 11
228.4448340240274
 21
320.5641273463389
 31
0
 12
228.4448340240274
 22
321.3961273463389
 32
0
 13
228.4448340240274
 23
321.3961273463389
 33
0
  0
SOLID
  8
1
 62
2
 10
194.6448340240277
 20
320.9801273463389
 30
0
 11
197.8448340240277
 21
321.3961273463389
 31
0
 12
197.8448340240277
 22
320.5641273463389
 32
0
 13
197.8448340240277
 23
320.5641273463389
 33
0
  0
TEXT
  8
1
 62
2
 10
210.645235858096
 20
322.9801273463389
 30
0
 40
3.2
  1
37
 41
0.9
  0
ENDBLK
  8
0
  0
BLOCK
  8
0
  2
G9M3__9
 70
0
 10
525.8590569585776
 20
290.5743998472301
 30
0
  0
POINT
  8
1
 62
4
  6
DIVIDE
 10
231.6448340240274
 20
290.9801273463388
 30
0
  0
LINE
  8
1
 62
3
 10
194.6448340240277
 20
250.9801273463386
 30
0
 11
224.6448340240277
 21
250.9801273463399
 31
0
  0
LINE
  8
1
 62
3
 10
76.76069397515653
 20
250.9801273463385
 30
0
 11
70.1274443944443
 21
250.9801273463386
 31
0
  0
LINE
  8
1
 62
1
 10
231.6448340240277
 20
245.9801273463388
 30
0
 11
189.6448340240277
 21
245.9801273463388
 31
0
  0
LINE
  8
1
 62
3
 10
194.6448340240277
 20
240.4801273463388
 30
0
 11
195.1448340240277
 21
239.9801273463388
 31
0
  0
LINE
  8
1
 62
3
 10
224.6448340240277
 20
251.9801273463381
 30
0
 11
224.6448340240277
 21
250.9801273463399
 31
0
  0
LINE
  8
1
 62
3
 10
194.6448340240277
 20
240.4801273463388
 30
0
 11
194.6448340240277
 21
250.9801273463386
 31
0
  0
LINE
  8
1
 62
3
 10
229.6448340240274
 20
239.9801273463388
 30
0
 11
195.1448340240277
 21
239.9801273463388
 31
0
  0
LINE
  8
1
 62
3
 10
224.6448340240277
 20
251.9801273463381
 30
0
 11
229.6448340240274
 21
251.9801273463388
 31
0
  0
CIRCLE
  8
1
 62
3
 10
73.44406918480047
 20
245.9801273463386
 30
0
 40
7
  0
CIRCLE
  8
1
 62
3
 10
73.44406918480047
 20
245.9801273463386
 30
0
 40
6
  0
DIMENSION
  8
1
  6
CONTINUOUS
 62
2
  2
*D2
  3
DMST_3
 10
224.6448340240277
 20
266.9801273463362
 30
0
 11
210.172833180628
 21
270.5801273463362
 31
0
 12
0
 22
0
 32
0
 70
0
 13
194.6448340240277
 23
250.9801273463386
 33
0
 14
224.6448340240277
 24
251.9801273463381
 34
0
 53
0
  0
DIMENSION
  8
1
  6
CONTINUOUS
 62
2
  2
*D3
  3
DMST_3
 10
184.6448340240278
 20
251.9801273463379
 30
0
 11
181.0448340240278
 21
256.0063707388267
 31
0
 12
0
 22
0
 32
0
 70
0
 13
194.6448340240277
 23
250.9801273463386
 33
0
 14
224.6448340240277
 24
251.9801273463381
 34
0
 50
90
 53
0
  0
DIMENSION
  8
1
  6
CONTINUOUS
 62
2
  2
*D4
  3
DMST_1
 10
174.6448340240277
 20
251.9801273463381
 30
0
 11
170.218167357361
 21
245.9801273463388
 31
0
 12
0
 22
0
 32
0
 70
0
  1
âË<>
 13
195.1448340240277
 23
239.9801273463388
 33
0
 14
224.6448340240277
 24
251.9801273463381
 34
0
 50
90
 53
0
  0
DIMENSION
  8
1
  6
CONTINUOUS
 62
2
  2
*D5
  3
DMST_3
 10
194.6448340240277
 20
320.9801273463389
 30
0
 11
213.045235858096
 21
324.5801273463389
 31
0
 12
0
 22
0
 32
0
 70
0
 13
231.6448340240274
 23
290.9801273463388
 33
0
 14
194.6448340240277
 24
250.9801273463386
 34
0
 53
0
  0
INSERT
  8
0
  2
H_H9_______
 10
517.4281902030903
 20
534.1795858186938
 30
0
  0
ENDBLK
  8
0
  0
BLOCK
  8
0
  2
MOJINOMUKI
 70
0
 10
284.5332760323361
 20
292.7101543279068
 30
0
  0
LINE
  8
1
 62
2
 10
284.5332760323361
 20
294.2101543279068
 30
0
 11
284.5332760323361
 21
296.7101543279068
 31
0
  0
LINE
  8
1
 62
2
 10
282.0332760323361
 20
295.7101543279068
 30
0
 11
284.5332760323361
 21
294.2101543279068
 31
0
  0
LINE
  8
1
 62
2
 10
287.0332760323361
 20
295.7101543279068
 30
0
 11
282.0332760323361
 21
295.7101543279068
 31
0
  0
LINE
  8
1
 62
2
 10
281.5332760323361
 20
298.7101543279068
 30
0
 11
287.5332760323361
 21
298.7101543279068
 31
0
  0
LINE
  8
1
 62
2
 10
287.5332760323361
 20
292.7101543279068
 30
0
 11
281.5332760323361
 21
292.7101543279068
 31
0
  0
LINE
  8
1
 62
2
 10
287.5332760323361
 20
318.7101543279068
 30
0
 11
287.5332760323361
 21
292.7101543279068
 31
0
  0
LINE
  8
1
 62
2
 10
281.5332760323361
 20
318.7101543279068
 30
0
 11
287.5332760323361
 21
318.7101543279068
 31
0
  0
LINE
  8
1
 62
2
 10
281.5332760323361
 20
292.7101543279068
 30
0
 11
281.5332760323361
 21
318.7101543279068
 31
0
  0
TEXT
  8
1
 62
2
 10
286.5332760323361
 20
290.7568998900372
 30
0
 40
4
  1
òÂÄÜé╠î³é½
 50
90
 41
0.9
 72
1
 73
2
 11
284.5332760323361
 21
308.7568998900372
 31
0
  0
ENDBLK
  8
0
  0
BLOCK
  8
0
  2
Z__10
 70
0
 10
825.487141538209
 20
-276.9191041279589
 30
0
  0
LINE
  8
1
 62
3
 10
239.3448340240275
 20
200.1992708044701
 30
0
 11
238.8448340240275
 21
200.19927080447
 31
0
  0
LINE
  8
1
 62
3
 10
239.3448340240275
 20
200.1992708044701
 30
0
 11
239.3448340240275
 21
200.1671131742819
 31
0
  0
LINE
  8
1
 62
3
 10
239.3448340240275
 20
200.1671131742819
 30
0
 11
249.3448340240275
 21
200.1671131742819
 31
0
  0
LINE
  8
1
 62
3
 10
249.3448340240275
 20
200.9801273463386
 30
0
 11
249.3448340240275
 21
200.1671131742819
 31
0
  0
LINE
  8
1
 62
3
 10
238.8448340240275
 20
200.9801273463386
 30
0
 11
238.8448340240275
 21
200.19927080447
 31
0
  0
ARC
  8
1
 62
3
 10
73.44406918480047
 20
235.1671131742821
 30
0
 40
34.99999999999996
 50
257.6263748838113
 51
282.3736251161886
  0
ENDBLK
  8
0
  0
BLOCK
  8
0
  2
G9M
 70
0
 10
825.487141538209
 20
-276.9191041279589
 30
0
  0
INSERT
  8
0
  2
Z__10
 10
825.487141538209
 20
-276.9191041279589
 30
0
  0
ENDBLK
  8
0
  0
BLOCK
  8
0
  2
G9M3__11
 70
0
 10
50.65021369188366
 20
332.8934075472662
 30
0
  0
LINE
  8
1
 62
3
 10
247.3448340240275
 20
185.8030395926785
 30
0
 11
246.3448340240275
 21
200.1671131742818
 31
0
  0
LINE
  8
1
 62
3
 10
240.3448340240275
 20
200.1671131742819
 30
0
 11
239.3448340240275
 21
185.8030395926785
 31
0
  0
LINE
  8
1
 62
3
 10
241.3448340240275
 20
200.1671131742819
 30
0
 11
241.3448340240275
 21
186.3030395926785
 31
0
  0
LINE
  8
1
 62
3
 10
243.3448340240275
 20
200.1671131742819
 30
0
 11
243.3448340240275
 21
185.8030395926785
 31
0
  0
LINE
  8
1
 62
3
 10
245.3448340240275
 20
200.1671131742819
 30
0
 11
245.3448340240275
 21
185.3030395926785
 31
0
  0
LINE
  8
1
 62
2
 10
69.94406918480036
 20
147.6423534971026
 30
0
 11
69.94406918480036
 21
137.6423534971027
 31
0
  0
LINE
  8
1
 62
2
 10
70.44406918480036
 20
147.6423534971027
 30
0
 11
70.44406918480036
 21
137.6423534971027
 31
0
  0
LINE
  8
1
 62
2
 10
70.94406918480036
 20
147.6423534971027
 30
0
 11
70.94406918480036
 21
137.6423534971027
 31
0
  0
LINE
  8
1
 62
3
 10
71.44406918480036
 20
147.6423534971027
 30
0
 11
69.44406918480036
 21
147.6423534971027
 31
0
  0
LINE
  8
1
 62
3
 10
69.44406918480036
 20
147.6423534971027
 30
0
 11
69.44406918480036
 21
181.4900828570062
 31
0
  0
LINE
  8
1
 62
2
 10
71.94406918480036
 20
147.6423534971027
 30
0
 11
71.94406918480036
 21
137.6423534971027
 31
0
  0
LINE
  8
1
 62
2
 10
72.44406918480036
 20
147.6423534971027
 30
0
 11
72.44406918480036
 21
137.6423534971027
 31
0
  0
LINE
  8
1
 62
2
 10
72.94406918480036
 20
147.6423534971027
 30
0
 11
72.94406918480036
 21
137.6423534971027
 31
0
  0
LINE
  8
1
 62
3
 10
73.44406918480036
 20
147.6423534971027
 30
0
 11
71.44406918480036
 21
147.6423534971027
 31
0
  0
LINE
  8
1
 62
2
 10
73.94406918480036
 20
147.6423534971027
 30
0
 11
73.94406918480036
 21
137.6423534971027
 31
0
  0
LINE
  8
1
 62
2
 10
74.44406918480036
 20
147.6423534971027
 30
0
 11
74.44406918480036
 21
137.6423534971027
 31
0
  0
LINE
  8
1
 62
2
 10
74.94406918480036
 20
147.6423534971027
 30
0
 11
74.94406918480036
 21
137.6423534971027
 31
0
  0
LINE
  8
1
 62
3
 10
75.44406918480036
 20
147.6423534971027
 30
0
 11
73.44406918480036
 21
147.6423534971027
 31
0
  0
LINE
  8
1
 62
2
 10
75.94406918480036
 20
147.6423534971027
 30
0
 11
75.94406918480036
 21
137.6423534971027
 31
0
  0
LINE
  8
1
 62
2
 10
76.44406918480036
 20
147.6423534971027
 30
0
 11
76.44406918480036
 21
137.6423534971027
 31
0
  0
LINE
  8
1
 62
2
 10
76.94406918480036
 20
147.6423534971027
 30
0
 11
76.94406918480036
 21
137.6423534971027
 31
0
  0
LINE
  8
1
 62
3
 10
77.44406918480036
 20
147.6423534971027
 30
0
 11
75.44406918480036
 21
147.6423534971027
 31
0
  0
LINE
  8
1
 62
3
 10
77.44406918480036
 20
181.4900828570062
 30
0
 11
77.44406918480036
 21
147.6423534971027
 31
0
  0
LINE
  8
1
 62
3
 10
75.44406918480036
 20
180.9900828570062
 30
0
 11
75.44406918480036
 21
147.6423534971027
 31
0
  0
LINE
  8
1
 62
3
 10
73.44406918480036
 20
181.4900828570062
 30
0
 11
73.44406918480036
 21
147.6423534971027
 31
0
  0
LINE
  8
1
 62
3
 10
71.44406918480036
 20
181.9900828570062
 30
0
 11
71.44406918480036
 21
147.6423534971027
 31
0
  0
LINE
  8
1
 62
3
 10
69.44406918480036
 20
182.2900828570064
 30
0
 11
69.44406918480036
 21
200.3964358728545
 31
0
  0
LINE
  8
1
 62
3
 10
77.44406918480036
 20
200.3964358728545
 30
0
 11
77.44406918480036
 21
182.2900828570064
 31
0
  0
LINE
  8
1
 62
3
 10
75.44406918480036
 20
200.2243027549694
 30
0
 11
75.44406918480036
 21
181.7900828570064
 31
0
  0
LINE
  8
1
 62
3
 10
73.44406918480036
 20
200.1671131742819
 30
0
 11
73.44406918480036
 21
182.2900828570064
 31
0
  0
LINE
  8
1
 62
3
 10
71.44406918480036
 20
200.2243027549694
 30
0
 11
71.44406918480036
 21
182.7900828570064
 31
0
  0
POLYLINE
  8
1
 62
2
 66
1
  0
VERTEX
  8
1
 10
239.3448340240275
 20
185.8030395926785
 30
0
 42
-0.0032984480476967
  0
VERTEX
  8
1
 10
239.7448340240275
 20
185.9510395926785
 30
0
 42
-0.01008437812748474
  0
VERTEX
  8
1
 10
240.1448340240275
 20
186.0870395926785
 30
0
 42
-0.01738728140017787
  0
VERTEX
  8
1
 10
240.5448340240275
 20
186.1990395926785
 30
0
 42
-0.02533597904401724
  0
VERTEX
  8
1
 10
240.9448340240275
 20
186.2750395926785
 30
0
 42
-0.03358561680842513
  0
VERTEX
  8
1
 10
241.3448340240275
 20
186.3030395926785
 30
0
 42
-0.03358561680837467
  0
VERTEX
  8
1
 10
241.7448340240275
 20
186.2750395926785
 30
0
 42
-0.02533597904399813
  0
VERTEX
  8
1
 10
242.1448340240275
 20
186.1990395926785
 30
0
 42
-0.01738728140024695
  0
VERTEX
  8
1
 10
242.5448340240275
 20
186.0870395926785
 30
0
 42
-0.01008437812737903
  0
VERTEX
  8
1
 10
242.9448340240275
 20
185.9510395926785
 30
0
 42
-0.003298448047570355
  0
VERTEX
  8
1
 10
243.3448340240275
 20
185.8030395926785
 30
0
 42
0.003298448047640078
  0
VERTEX
  8
1
 10
243.7448340240275
 20
185.6550395926785
 30
0
 42
0.01002260566458576
  0
VERTEX
  8
1
 10
244.1448340240275
 20
185.5190395926785
 30
0
 42
0.01734437066672111
  0
VERTEX
  8
1
 10
244.5448340240275
 20
185.4070395926785
 30
0
 42
0.02528613368045074
  0
VERTEX
  8
1
 10
244.9448340240275
 20
185.3310395926785
 30
0
 42
0.03366994074321101
  0
VERTEX
  8
1
 10
245.3448340240275
 20
185.3030395926785
 30
0
 42
0.03624463442829508
  0
VERTEX
  8
1
 10
245.7448340240275
 20
185.3310395926785
 30
0
 42
0.0227131012926564
  0
VERTEX
  8
1
 10
246.1448340240275
 20
185.4070395926785
 30
0
 42
0.01991681447202074
  0
VERTEX
  8
1
 10
246.5448340240275
 20
185.5190395926785
 30
0
 42
0.007450858153138007
  0
VERTEX
  8
1
 10
246.9448340240275
 20
185.6550395926785
 30
0
 42
0.005870053313718103
  0
VERTEX
  8
1
 10
247.3448340240275
 20
185.8030395926785
 30
0
  0
SEQEND
  8
1
  0
POLYLINE
  8
1
 62
2
 66
1
  0
VERTEX
  8
1
 10
69.44406918480036
 20
182.2900828570064
 30
0
 42
-0.003298448047594114
  0
VERTEX
  8
1
 10
69.84406918480036
 20
182.4380828570064
 30
0
 42
-0.01008437812730264
  0
VERTEX
  8
1
 10
70.24406918480035
 20
182.5740828570064
 30
0
 42
-0.01738728140018009
  0
VERTEX
  8
1
 10
70.64406918480036
 20
182.6860828570064
 30
0
 42
-0.02533597904387326
  0
VERTEX
  8
1
 10
71.04406918480035
 20
182.7620828570064
 30
0
 42
-0.03358561680850116
  0
VERTEX
  8
1
 10
71.44406918480036
 20
182.7900828570064
 30
0
 42
-0.0335856168085056
  0
VERTEX
  8
1
 10
71.84406918480036
 20
182.7620828570064
 30
0
 42
-0.02533597904386437
  0
VERTEX
  8
1
 10
72.24406918480037
 20
182.6860828570064
 30
0
 42
-0.0173872814001701
  0
VERTEX
  8
1
 10
72.64406918480036
 20
182.5740828570064
 30
0
 42
-0.01008437812727089
  0
VERTEX
  8
1
 10
73.04406918480036
 20
182.4380828570064
 30
0
 42
-0.003298448047583012
  0
VERTEX
  8
1
 10
73.44406918480036
 20
182.2900828570064
 30
0
 42
0.003298448047594281
  0
VERTEX
  8
1
 10
73.84406918480036
 20
182.1420828570064
 30
0
 42
0.01002260566465905
  0
VERTEX
  8
1
 10
74.24406918480035
 20
182.0060828570064
 30
0
 42
0.01734437066665454
  0
VERTEX
  8
1
 10
74.64406918480036
 20
181.8940828570064
 30
0
 42
0.02528613368042897
  0
VERTEX
  8
1
 10
75.04406918480035
 20
181.8180828570064
 30
0
 42
0.03366994074333249
  0
VERTEX
  8
1
 10
75.44406918480036
 20
181.7900828570064
 30
0
 42
0.03624463442813956
  0
VERTEX
  8
1
 10
75.84406918480036
 20
181.8180828570064
 30
0
 42
0.02271310129285034
  0
VERTEX
  8
1
 10
76.24406918480035
 20
181.8940828570064
 30
0
 42
0.01991681447172458
  0
VERTEX
  8
1
 10
76.64406918480036
 20
182.0060828570064
 30
0
 42
0.007450858153525718
  0
VERTEX
  8
1
 10
77.04406918480035
 20
182.1420828570064
 30
0
 42
0.00587005331330331
  0
VERTEX
  8
1
 10
77.44406918480036
 20
182.2900828570064
 30
0
  0
SEQEND
  8
1
  0
POLYLINE
  8
1
 62
2
 66
1
  0
VERTEX
  8
1
 10
69.44406918480036
 20
181.4900828570062
 30
0
 42
-0.003298448047656509
  0
VERTEX
  8
1
 10
69.84406918480036
 20
181.6380828570062
 30
0
 42
-0.010084378127431
  0
VERTEX
  8
1
 10
70.24406918480035
 20
181.7740828570062
 30
0
 42
-0.01738728140017876
  0
VERTEX
  8
1
 10
70.64406918480036
 20
181.8860828570062
 30
0
 42
-0.02533597904380615
  0
VERTEX
  8
1
 10
71.04406918480035
 20
181.9620828570062
 30
0
 42
-0.03358561680835933
  0
VERTEX
  8
1
 10
71.44406918480036
 20
181.9900828570062
 30
0
 42
-0.03358561680850627
  0
VERTEX
  8
1
 10
71.84406918480036
 20
181.9620828570062
 30
0
 42
-0.0253359790439328
  0
VERTEX
  8
1
 10
72.24406918480037
 20
181.8860828570062
 30
0
 42
-0.01738728140016899
  0
VERTEX
  8
1
 10
72.64406918480036
 20
181.7740828570062
 30
0
 42
-0.01008437812733418
  0
VERTEX
  8
1
 10
73.04406918480036
 20
181.6380828570062
 30
0
 42
-0.003298448047707802
  0
VERTEX
  8
1
 10
73.44406918480036
 20
181.4900828570062
 30
0
 42
0.003298448047594003
  0
VERTEX
  8
1
 10
73.84406918480036
 20
181.3420828570062
 30
0
 42
0.01002260566465955
  0
VERTEX
  8
1
 10
74.24406918480035
 20
181.2060828570062
 30
0
 42
0.01734437066665432
  0
VERTEX
  8
1
 10
74.64406918480036
 20
181.0940828570062
 30
0
 42
0.02528613368042897
  0
VERTEX
  8
1
 10
75.04406918480035
 20
181.0180828570062
 30
0
 42
0.03366994074333249
  0
VERTEX
  8
1
 10
75.44406918480036
 20
180.9900828570062
 30
0
 42
0.03624463442810431
  0
VERTEX
  8
1
 10
75.84406918480036
 20
181.0180828570062
 30
0
 42
0.02271310129292194
  0
VERTEX
  8
1
 10
76.24406918480035
 20
181.0940828570062
 30
0
 42
0.01991681447171913
  0
VERTEX
  8
1
 10
76.64406918480036
 20
181.2060828570062
 30
0
 42
0.007450858153464042
  0
VERTEX
  8
1
 10
77.04406918480035
 20
181.3420828570062
 30
0
 42
0.005870053313334009
  0
VERTEX
  8
1
 10
77.44406918480036
 20
181.4900828570062
 30
0
  0
SEQEND
  8
1
  0
LINE
  8
1
 62
2
 10
89.30614184161698
 20
180.1729880609669
 30
0
 11
77.44406918480036
 21
167.1817479925548
 31
0
  0
SOLID
  8
1
 62
2
 10
79.29067226750013
 20
169.8289239646811
 30
0
 11
79.91289035060913
 21
169.2607875842157
 31
0
 12
77.44406918480036
 22
167.1817479925548
 32
0
 13
77.44406918480036
 23
167.1817479925548
 33
0
  0
ENDBLK
  8
0
  0
BLOCK
  8
1
  2
*D6
 70
1
 10
0
 20
0
 30
0
  0
LINE
  8
1
 62
2
 10
238.1448340240277
 20
305.9801273463389
 30
0
 11
244.5448340240277
 21
305.9801273463389
 31
0
  0
LINE
  8
1
 62
2
 10
231.6448340240277
 20
305.9801273463389
 30
0
 11
238.1448340240277
 21
305.9801273463389
 31
0
  0
LINE
  8
1
 62
2
 10
238.1448340240277
 20
291.9801273463389
 30
0
 11
238.1448340240277
 21
307.4801273463389
 31
0
  0
LINE
  8
1
 62
2
 10
231.6448340240277
 20
291.9801273463389
 30
0
 11
231.6448340240277
 21
307.4801273463389
 31
0
  0
CIRCLE
  8
1
 62
2
 10
231.6448340240277
 20
305.9801273463389
 30
0
 40
0.8
  0
SOLID
  8
1
 62
2
 10
238.1448340240277
 20
305.9801273463389
 30
0
 11
241.3448340240277
 21
306.3961273463389
 31
0
 12
241.3448340240277
 22
305.5641273463389
 32
0
 13
241.3448340240277
 23
305.5641273463389
 33
0
  0
TEXT
  8
1
 62
2
 10
232.9501114530891
 20
307.9801273463389
 30
0
 40
3.2
  1
6.5
 41
0.9
  0
ENDBLK
  8
0
  0
BLOCK
  8
1
  2
*D7
 70
1
 10
0
 20
0
 30
0
  0
LINE
  8
1
 62
2
 10
28.44406918480059
 20
320.9801273463389
 30
0
 11
118.4440691848006
 21
320.9801273463389
 31
0
  0
LINE
  8
1
 62
2
 10
118.4440691848006
 20
282.9801273463389
 30
0
 11
118.4440691848006
 21
322.4801273463389
 31
0
  0
LINE
  8
1
 62
2
 10
28.44406918480059
 20
282.9801273463389
 30
0
 11
28.44406918480059
 21
322.4801273463389
 31
0
  0
SOLID
  8
1
 62
2
 10
118.4440691848006
 20
320.9801273463389
 30
0
 11
115.2440691848006
 21
320.5641273463389
 31
0
 12
115.2440691848006
 22
321.3961273463389
 32
0
 13
115.2440691848006
 23
321.3961273463389
 33
0
  0
SOLID
  8
1
 62
2
 10
28.44406918480059
 20
320.9801273463389
 30
0
 11
31.64406918480059
 21
321.3961273463389
 31
0
 12
31.64406918480059
 22
320.5641273463389
 32
0
 13
31.64406918480059
 23
320.5641273463389
 33
0
  0
TEXT
  8
1
 62
2
 10
71.04406918480058
 20
322.9801273463389
 30
0
 40
3.2
  1
90
 41
0.9
  0
ENDBLK
  8
0
  0
BLOCK
  8
1
  2
*D8
 70
1
 10
0
 20
0
 30
0
  0
LINE
  8
1
 62
2
 10
36.67406918480048
 20
305.9801273463389
 30
0
 11
110.2140691848005
 21
305.9801273463389
 31
0
  0
LINE
  8
1
 62
2
 10
36.67406918480048
 20
289.250127346339
 30
0
 11
36.67406918480048
 21
307.4801273463389
 31
0
  0
LINE
  8
1
 62
2
 10
110.2140691848005
 20
289.250127346339
 30
0
 11
110.2140691848005
 21
307.4801273463389
 31
0
  0
SOLID
  8
1
 62
2
 10
110.2140691848005
 20
305.9801273463389
 30
0
 11
107.0140691848005
 21
305.5641273463389
 31
0
 12
107.0140691848005
 22
306.3961273463389
 32
0
 13
107.0140691848005
 23
306.3961273463389
 33
0
  0
SOLID
  8
1
 62
2
 10
36.67406918480048
 20
305.9801273463389
 30
0
 11
39.87406918480048
 21
306.3961273463389
 31
0
 12
39.87406918480048
 22
305.5641273463389
 32
0
 13
39.87406918480048
 23
305.5641273463389
 33
0
  0
TEXT
  8
1
 62
2
 10
65.38006918480059
 20
307.9801273463389
 30
0
 40
3.2
  1
73.5
 41
0.9
  0
TEXT
  8
1
 62
2
 10
75.70006918480058
 20
308.6201273463389
 30
0
 40
1.92
  1
%%p0.4
 41
0.9
  0
ENDBLK
  8
0
  0
BLOCK
  8
1
  2
*D9
 70
1
 10
0
 20
0
 30
0
  0
LINE
  8
1
 62
2
 10
231.6448340240277
 20
320.9801273463389
 30
0
 11
366.644834024029
 21
320.9801273463389
 31
0
  0
LINE
  8
1
 62
2
 10
366.644834024029
 20
287.7301273463389
 30
0
 11
366.644834024029
 21
322.4801273463389
 31
0
  0
LINE
  8
1
 62
2
 10
231.6448340240277
 20
291.9801273463389
 30
0
 11
231.6448340240277
 21
322.4801273463389
 31
0
  0
SOLID
  8
1
 62
2
 10
366.644834024029
 20
320.9801273463389
 30
0
 11
363.444834024029
 21
320.5641273463389
 31
0
 12
363.444834024029
 22
321.3961273463389
 32
0
 13
363.444834024029
 23
321.3961273463389
 33
0
  0
SOLID
  8
1
 62
2
 10
231.6448340240277
 20
320.9801273463389
 30
0
 11
234.8448340240277
 21
321.3961273463389
 31
0
 12
234.8448340240277
 22
320.5641273463389
 32
0
 13
234.8448340240277
 23
320.5641273463389
 33
0
  0
TEXT
  8
1
 62
2
 10
294.3930555537674
 20
322.9801273463389
 30
0
 40
3.2
  1
135
 41
0.9
  0
ENDBLK
  8
0
  0
BLOCK
  8
1
  2
*D10
 70
1
 10
0
 20
0
 30
0
  0
LINE
  8
1
 62
2
 10
89.30614184161698
 20
180.1729880609669
 30
0
 11
127.8965542992069
 21
180.1729880609667
 31
0
  0
TEXT
  8
1
 62
2
 10
114.2005542992069
 20
182.9729880609668
 30
0
 40
3.2
  1
300
 50
359.9999999999997
 41
0.9
  0
TEXT
  8
1
 62
2
 10
123.4805542992069
 20
185.0529880609668
 30
0
 40
1.92
  1
+40
 50
359.9999999999997
 41
0.9
  0
TEXT
  8
1
 62
2
 10
123.4805542992069
 20
182.1729880609668
 30
0
 40
1.92
  1
 0
 50
359.9999999999997
 41
0.9
  0
TEXT
  8
1
 62
2
 10
91.14173076979512
 20
182.9729880609668
 30
0
 40
3.2
  1
âèü|âhÉ³ÆÀé%%d
 50
359.9999999999997
 41
0.9
  0
ENDBLK
  8
0
  0
BLOCK
  8
1
  2
*D11
 70
1
 10
0
 20
0
 30
0
  0
LINE
  8
1
 62
2
 10
111.9316126264323
 20
285.5092113476168
 30
0
 11
124.674859117484
 21
305.9801273463389
 31
0
  0
LINE
  8
1
 62
2
 10
124.674859117484
 20
305.9801273463389
 30
0
 11
149.154859117484
 21
305.9801273463389
 31
0
  0
SOLID
  8
1
 62
2
 10
111.9316126264323
 20
285.5092113476168
 30
0
 11
113.2695695706447
 21
288.4456934632501
 31
0
 12
113.9758950749718
 22
288.0060023421923
 32
0
 13
113.9758950749718
 23
288.0060023421923
 33
0
  0
TEXT
  8
1
 62
2
 10
138.9593035619285
 20
307.9801273463389
 30
0
 40
3.2
  1
6.5
 41
0.9
  0
TEXT
  8
1
 62
2
 10
129.874859117484
 20
307.9801273463389
 30
0
 40
3.2
  1
4-âË
 41
0.9
  0
TEXT
  8
1
 62
2
 10
146.3993035619285
 20
307.9801273463389
 30
0
 40
3.2
  1
îè
 41
0.9
  0
ENDBLK
  8
0
  0
BLOCK
  8
0
  2
G9M3__12
 70
0
 10
382.8279619603535
 20
797.7798987673468
 30
0
  0
POINT
  8
1
 62
4
  6
DIVIDE
 10
238.1448340240277
 20
290.9801273463388
 30
0
  0
POINT
  8
1
 62
4
  6
DIVIDE
 10
118.4440691848005
 20
281.9801273463388
 30
0
  0
POINT
  8
1
 62
4
  6
DIVIDE
 10
110.2140691848005
 20
288.2501273463389
 30
0
  0
POINT
  8
1
 62
4
  6
DIVIDE
 10
28.44406918480058
 20
281.9801273463388
 30
0
  0
POINT
  8
1
 62
4
  6
DIVIDE
 10
36.67406918480049
 20
288.250127346339
 30
0
  0
POINT
  8
1
 62
4
  6
DIVIDE
 10
231.6448340240277
 20
290.9801273463388
 30
0
  0
POINT
  8
1
 62
4
  6
DIVIDE
 10
366.6448340240289
 20
286.7301273463388
 30
0
  0
LINE
  8
1
 62
3
 10
268.7763924418596
 20
283.6040901610338
 30
0
 11
268.7763924418596
 21
290.6046230799527
 31
0
  0
LINE
  8
1
 62
3
 10
308.7763924418596
 20
283.1105019211409
 30
0
 11
268.7763924418596
 21
283.6040901610338
 31
0
  0
LINE
  8
1
 62
3
 10
308.7763924418596
 20
290.1110348400589
 30
0
 11
308.7763924418596
 21
283.1105019211409
 31
0
  0
LINE
  8
1
 62
3
 10
238.8448340240275
 20
290.9739697108712
 30
0
 11
326.6448340240267
 21
289.8905435243043
 31
0
  0
LINE
  8
1
 62
3
 10
288.6448340240274
 20
200.9801273463388
 30
0
 11
238.8448340240275
 21
200.9801273463388
 31
0
  0
LINE
  8
1
 62
3
 10
286.6448340240274
 20
210.5774179867331
 30
0
 11
238.8448340240275
 21
209.9862849818064
 31
0
  0
LINE
  8
1
 62
3
 10
288.6448340240274
 20
209.8754202786517
 30
0
 11
288.6448340240274
 21
200.9801273463388
 31
0
  0
LINE
  8
1
 62
3
 10
238.8448340240275
 20
290.9729019128126
 30
0
 11
238.8448340240275
 21
200.987352779865
 31
0
  0
LINE
  8
1
 62
3
 10
326.6448340240267
 20
202.0700288241712
 30
0
 11
288.6448340240274
 21
201.6020485286047
 31
0
  0
CIRCLE
  8
1
 62
4
  6
DIVIDE
 10
89.30614184161698
 20
180.1729880609669
 30
0
 40
1
  0
CIRCLE
  8
1
 62
4
  6
DIVIDE
 10
110.2140691848005
 20
282.750127346339
 30
0
 40
3.25
  0
POLYLINE
  8
1
 62
3
 66
1
  0
VERTEX
  8
1
 10
286.6448340240274
 20
210.5774115348902
 30
0
 42
-6.856891216155339e-05
  0
VERTEX
  8
1
 10
286.6587344433551
 20
210.5773588681312
 30
0
 42
-0.0002057067109602607
  0
VERTEX
  8
1
 10
286.6726348328382
 20
210.5772985762825
 30
0
 42
-0.0003428437857013953
  0
VERTEX
  8
1
 10
286.686535162632
 20
210.5772230342545
 30
0
 42
-0.0004799775932054883
  0
VERTEX
  8
1
 10
286.7004354028921
 20
210.5771246169573
 30
0
 42
-0.0006171025098014485
  0
VERTEX
  8
1
 10
286.7143355237738
 20
210.5769956993013
 30
0
 42
-0.005371782735093175
  0
VERTEX
  8
1
 10
286.825510680746
 20
210.5746225302595
 30
0
 42
-0.005102969537277537
  0
VERTEX
  8
1
 10
286.9366190853911
 20
210.5699308082168
 30
0
 42
-0.006955587150297025
  0
VERTEX
  8
1
 10
287.0933594364005
 20
210.5595415692633
 30
0
 42
-0.00648824017457628
  0
VERTEX
  8
1
 10
287.2277209990435
 20
210.5469470347716
 30
0
 42
-0.005026889227148222
  0
VERTEX
  8
1
 10
287.3274414638332
 20
210.5352670211572
 30
0
 42
-0.00442060132458023
  0
VERTEX
  8
1
 10
287.4113683328806
 20
210.5238177053765
 30
0
 42
-0.002809720319388636
  0
VERTEX
  8
1
 10
287.4620287907709
 20
210.5161529608389
 30
0
 42
-0.002910206477023665
  0
VERTEX
  8
1
 10
287.5125980271541
 20
210.5079074493095
 30
0
 42
-0.004521205785275649
  0
VERTEX
  8
1
 10
287.588258683726
 20
210.4944114650097
 30
0
 42
-0.003803261767342724
  0
VERTEX
  8
1
 10
287.6490661766894
 20
210.4825115422722
 30
0
 42
-0.002339957970409374
  0
VERTEX
  8
1
 10
287.6846433878089
 20
210.4750906527766
 30
0
 42
-0.002783665643160796
  0
VERTEX
  8
1
 10
287.7253794183139
 20
210.4661561466326
 30
0
 42
-0.003296105412341246
  0
VERTEX
  8
1
 10
287.7712261296867
 20
210.4555130892859
 30
0
 42
-0.00346390146400957
  0
VERTEX
  8
1
 10
287.8169244734302
 20
210.4442485447073
 30
0
 42
-0.003629354077397388
  0
VERTEX
  8
1
 10
287.8624579868325
 20
210.4323341940368
 30
0
 42
-0.003791804176397499
  0
VERTEX
  8
1
 10
287.907808536283
 20
210.4197430401557
 30
0
 42
-0.003291771145829961
  0
VERTEX
  8
1
 10
287.9454416752288
 20
210.4087156849498
 30
0
 42
-0.002784991580181315
  0
VERTEX
  8
1
 10
287.9754315279497
 20
210.3995289819514
 30
0
 42
-0.002938002373785696
  0
VERTEX
  8
1
 10
288.0053137930611
 20
210.3899980993733
 30
0
 42
-0.003092981931059111
  0
VERTEX
  8
1
 10
288.0350781200943
 20
210.3801060881725
 30
0
 42
-0.003251265306950729
  0
VERTEX
  8
1
 10
288.0647138219688
 20
210.3698357244368
 30
0
 42
-0.003986364172130964
  0
VERTEX
  8
1
 10
288.0991109871189
 20
210.3573527727502
 30
0
 42
-0.003565838200006423
  0
VERTEX
  8
1
 10
288.1284288073723
 20
210.3462063090183
 30
0
 42
-0.003553808755365949
  0
VERTEX
  8
1
 10
288.1561940589337
 20
210.3351937407095
 30
0
 42
-0.003745497592762793
  0
VERTEX
  8
1
 10
288.1837950905647
 20
210.3237751780216
 30
0
 42
-0.003744217487231851
  0
VERTEX
  8
1
 10
288.2098434321065
 20
210.3125372003
 30
0
 42
-0.001886654097501622
  0
VERTEX
  8
1
 10
288.2221174296633
 20
210.307075582037
 30
0
 42
-0.001958997412725339
  0
VERTEX
  8
1
 10
288.2343489818087
 20
210.3015197582453
 30
0
 42
-0.002031447154033367
  0
VERTEX
  8
1
 10
288.2465357597554
 20
210.2958665149635
 30
0
 42
-0.002103973039586501
  0
VERTEX
  8
1
 10
288.258675434716
 20
210.2901126382303
 30
0
 42
-0.00439216750970351
  0
VERTEX
  8
1
 10
288.2827986030085
 20
210.2782933121482
 30
0
 42
-0.004663506228311749
  0
VERTEX
  8
1
 10
288.3067027417569
 20
210.2660368559547
 30
0
 42
-0.004936555371144512
  0
VERTEX
  8
1
 10
288.330367949597
 20
210.2533205402858
 30
0
 42
-0.005209765134093193
  0
VERTEX
  8
1
 10
288.3537708813739
 20
210.24012350662
 30
0
 42
-0.005484996017145229
  0
VERTEX
  8
1
 10
288.3768848315965
 20
210.2264269234809
 30
0
 42
-0.002386161883171823
  0
VERTEX
  8
1
 10
288.3863292674343
 20
210.2206263601126
 30
0
 42
-0.002500313643330016
  0
VERTEX
  8
1
 10
288.3957165148626
 20
210.2147338079434
 30
0
 42
-0.002614791722590684
  0
VERTEX
  8
1
 10
288.4050428500565
 20
210.2087456234703
 30
0
 42
-0.002729526111629125
  0
VERTEX
  8
1
 10
288.4143045491908
 20
210.2026581631902
 30
0
 42
-0.002844430137878612
  0
VERTEX
  8
1
 10
288.4234978884406
 20
210.1964677835999
 30
0
 42
-0.00296189339905597
  0
VERTEX
  8
1
 10
288.4326176178011
 20
210.190171854689
 30
0
 42
-0.003083190106298008
  0
VERTEX
  8
1
 10
288.4416607093277
 20
210.1837660290892
 30
0
 42
-0.003205036583110018
  0
VERTEX
  8
1
 10
288.4506225869354
 20
210.1772469404597
 30
0
 42
-0.006736471348971386
  0
VERTEX
  8
1
 10
288.4682843960538
 20
210.1638555087486
 30
0
 42
-0.007201821552318605
  0
VERTEX
  8
1
 10
288.4855734348682
 20
210.1499661399301
 30
0
 42
-0.007631540018941001
  0
VERTEX
  8
1
 10
288.5024397045794
 20
210.1355686781282
 30
0
 42
-0.006453123226423782
  0
VERTEX
  8
1
 10
288.5156288081468
 20
210.1236481478252
 30
0
 42
-0.005145800315027255
  0
VERTEX
  8
1
 10
288.5253453048165
 20
210.11444554903
 30
0
 42
-0.005419672814504919
  0
VERTEX
  8
1
 10
288.5348659522497
 20
210.1050372252598
 30
0
 42
-0.005166737269165837
  0
VERTEX
  8
1
 10
288.5431926398978
 20
210.0964525885239
 30
0
 42
-0.005538969932661003
  0
VERTEX
  8
1
 10
288.5513347275167
 20
210.087690492732
 30
0
 42
-0.005916586458445941
  0
VERTEX
  8
1
 10
288.5592737195281
 20
210.078744454253
 30
0
 42
-0.006298651567824118
  0
VERTEX
  8
1
 10
288.5669911203534
 20
210.069607989456
 30
0
 42
-0.006683810001343987
  0
VERTEX
  8
1
 10
288.5744684344147
 20
210.0602746147097
 30
0
 42
-0.005259231309483918
  0
VERTEX
  8
1
 10
288.5798994009207
 20
210.0531526154713
 30
0
 42
-0.00548061169467374
  0
VERTEX
  8
1
 10
288.5851761329921
 20
210.0459156518939
 30
0
 42
-0.005705373832246505
  0
VERTEX
  8
1
 10
288.5902894101558
 20
210.0385628235325
 30
0
 42
-0.005932863369181025
  0
VERTEX
  8
1
 10
288.5952300119387
 20
210.0310932299417
 30
0
 42
-0.01215119791300156
  0
VERTEX
  8
1
 10
288.6043372052592
 20
210.0161810554626
 30
0
 42
-0.01247477469466715
  0
VERTEX
  8
1
 10
288.6124863376255
 20
210.0012202689484
 30
0
 42
-0.013096273227988
  0
VERTEX
  8
1
 10
288.6198561782942
 20
209.9858627748358
 30
0
 42
-0.01842039436747543
  0
VERTEX
  8
1
 10
288.6284277497115
 20
209.9646594949312
 30
0
 42
-0.01280700268119957
  0
VERTEX
  8
1
 10
288.63324421844
 20
209.9501887337535
 30
0
 42
-0.01330912289130868
  0
VERTEX
  8
1
 10
288.6372891029691
 20
209.9355158939417
 30
0
 42
-0.01405265777686526
  0
VERTEX
  8
1
 10
288.6405211061488
 20
209.9206471999447
 30
0
 42
-0.02960543695535174
  0
VERTEX
  8
1
 10
288.6443465070116
 20
209.8905619546225
 30
0
 42
-0.00653706477490708
  0
VERTEX
  8
1
 10
288.644599509546
 20
209.8855223649052
 30
0
 42
-0.002380467961369178
  0
VERTEX
  8
1
 10
288.6446821311667
 20
209.8830017644586
 30
0
 42
-0.001699944750246957
  0
VERTEX
  8
1
 10
288.6447441873586
 20
209.8804802848213
 30
0
 42
-0.001019735589648127
  0
VERTEX
  8
1
 10
288.6447925332645
 20
209.8779582190569
 30
0
 42
-0.000339865758120238
  0
VERTEX
  8
1
 10
288.6448340240274
 20
209.8754358602289
 30
0
  0
SEQEND
  8
1
  0
LINE
  8
1
 62
2
 10
327.976524600082
 20
305.9801273463389
 30
0
 11
299.7672065632071
 21
305.980127346339
 31
0
  0
LINE
  8
1
 62
2
 10
299.7672065632071
 20
305.980127346339
 30
0
 11
294.7934955847627
 21
290.2835796762665
 31
0
  0
SOLID
  8
1
 62
2
 10
295.3584946915524
 20
293.4613555622859
 30
0
 11
296.1617117342104
 21
293.2068429454281
 31
0
 12
294.7934955847627
 22
290.2835796762665
 32
0
 13
294.7934955847627
 23
290.2835796762665
 33
0
  0
TEXT
  8
1
 62
2
 10
300.001560175134
 20
307.3735655496698
 30
0
 40
4
  1
âlü|âÇâvâîü|âg
 41
0.9
  0
DIMENSION
  8
1
  6
CONTINUOUS
 62
2
  2
*D6
  3
DMST_2
 10
238.1448340240277
 20
305.9801273463389
 30
0
 11
235.8701114530891
 21
309.5801273463389
 31
0
 12
0
 22
0
 32
0
 70
0
 13
231.6448340240277
 23
290.9801273463388
 33
0
 14
238.1448340240277
 24
290.9801273463388
 34
0
 53
0
  0
DIMENSION
  8
1
  6
CONTINUOUS
 62
2
  2
*D7
  3
DMST_3
 10
28.44406918480059
 20
320.9801273463389
 30
0
 11
73.44406918480058
 21
324.5801273463389
 31
0
 12
0
 22
0
 32
0
 70
0
 13
118.4440691848005
 23
281.9801273463388
 33
0
 14
28.44406918480058
 24
281.9801273463388
 34
0
 53
0
  0
DIMENSION
  8
1
  6
CONTINUOUS
 62
2
  2
*D8
  3
DMST_4
 10
110.2140691848005
 20
305.9801273463389
 30
0
 11
73.44406918480058
 21
309.5801273463389
 31
0
 12
0
 22
0
 32
0
 70
0
  1
73.5
 13
36.67406918480049
 23
288.250127346339
 33
0
 14
110.2140691848005
 24
288.2501273463389
 34
0
 53
0
  0
DIMENSION
  8
1
  6
CONTINUOUS
 62
2
  2
*D9
  3
DMST_3
 10
231.6448340240277
 20
320.9801273463389
 30
0
 11
297.7530555537674
 21
324.5801273463389
 31
0
 12
0
 22
0
 32
0
 70
0
 13
366.6448340240289
 23
286.7301273463388
 33
0
 14
231.6448340240277
 24
290.9801273463388
 34
0
 53
0
  0
DIMENSION
  8
1
  6
CONTINUOUS
 62
2
  2
*D10
  3
DMST_5
 10
89.30614184161698
 20
180.1729880609669
 30
0
 11
109.519142534501
 21
184.5729880609668
 31
0
 12
0
 22
0
 32
0
 70
4
  1
300
 15
90.30614184161698
 25
180.1729880609669
 35
0
 40
0
 53
0
  0
INSERT
  8
0
  2
____M4__8
 10
73.44406918480047
 20
-299.8198726536614
 30
0
  0
INSERT
  8
0
  2
G9M3__9
 10
525.8590569585776
 20
290.5743998472301
 30
0
  0
INSERT
  8
0
  2
MOJINOMUKI
 10
284.5332760323361
 20
292.7101543279068
 30
0
  0
INSERT
  8
0
  2
G9M
 10
825.487141538209
 20
-276.9191041279589
 30
0
  0
INSERT
  8
0
  2
G9M3__11
 10
50.65021369188366
 20
332.8934075472662
 30
0
  0
INSERT
  8
1
  2
*D11
 10
0
 20
0
 30
0
  0
ENDBLK
  8
0
  0
BLOCK
  8
1
  2
*D12
 70
1
 10
0
 20
0
 30
0
  0
LINE
  8
1
 62
2
 10
381.6448340240289
 20
197.1038039542889
 30
0
 11
381.6448340240289
 21
294.8564507383886
 31
0
  0
LINE
  8
1
 62
2
 10
344.6948340240267
 20
294.8564507383886
 30
0
 11
383.6448340240289
 21
294.8564507383886
 31
0
  0
LINE
  8
1
 62
2
 10
344.6948340240267
 20
197.1038039542889
 30
0
 11
383.6448340240289
 21
197.1038039542889
 31
0
  0
SOLID
  8
1
 62
2
 10
381.6448340240289
 20
294.8564507383886
 30
0
 11
382.0608340240289
 21
291.6564507383886
 31
0
 12
381.2288340240289
 22
291.6564507383886
 32
0
 13
381.2288340240289
 23
291.6564507383886
 33
0
  0
SOLID
  8
1
 62
2
 10
381.6448340240289
 20
197.1038039542889
 30
0
 11
381.2288340240289
 21
200.3038039542889
 31
0
 12
382.0608340240289
 22
200.3038039542889
 32
0
 13
382.0608340240289
 23
200.3038039542889
 33
0
  0
TEXT
  8
1
 62
2
 10
379.6448340240289
 20
243.5801273463388
 30
0
 40
3.2
  1
98
 50
90
 41
0.9
  0
TEXT
  8
1
 62
2
 10
379.6448340240289
 20
241.5001273463388
 30
0
 40
3.2
  1
(
 50
90
 41
0.9
  0
TEXT
  8
1
 62
2
 10
379.6448340240289
 20
249.9801273463388
 30
0
 40
3.2
  1
)
 50
90
 41
0.9
  0
ENDBLK
  8
0
  0
BLOCK
  8
0
  2
G9M3__13
 70
0
 10
18.25625258645857
 20
890.0400093896408
 30
0
  0
LINE
  8
1
 62
1
 10
238.8448340240276
 20
245.9801273463388
 30
0
 11
371.6448340240289
 21
245.9801273463388
 31
0
  0
LINE
  8
1
 62
3
 10
359.8448340240278
 20
290.7801273463392
 30
0
 11
326.6448340240267
 21
290.7801273463392
 31
0
  0
LINE
  8
1
 62
3
 10
366.6448340240289
 20
283.980127346339
 30
0
 11
366.6448340240289
 21
245.9801273463388
 31
0
  0
LINE
  8
1
 62
3
 10
326.6448340240267
 20
290.7801273463392
 30
0
 11
326.6448340240267
 21
245.9801273463388
 31
0
  0
LINE
  8
1
 62
3
 10
326.6448340240267
 20
269.9300751542148
 30
0
 11
359.8448340240279
 21
269.9300751542148
 31
0
  0
LINE
  8
1
 62
3
 10
326.6448340240267
 20
201.1801273463386
 30
0
 11
359.8448340240279
 21
201.1801273463386
 31
0
  0
LINE
  8
1
 62
3
 10
366.6448340240289
 20
245.9801273463388
 30
0
 11
366.6448340240289
 21
207.9801273463388
 31
0
  0
LINE
  8
1
 62
3
 10
326.6448340240267
 20
245.9801273463388
 30
0
 11
326.6448340240267
 21
201.1801273463386
 31
0
  0
LINE
  8
1
 62
3
 10
359.8448340240279
 20
222.030179538463
 30
0
 11
326.6448340240267
 21
222.030179538463
 31
0
  0
POLYLINE
  8
1
 62
3
 66
1
  0
VERTEX
  8
1
 10
359.8448340240279
 20
269.9300751542148
 30
0
 42
-0.0004981845501877645
  0
VERTEX
  8
1
 10
360.0812217139019
 20
269.9247250878252
 30
0
 42
-0.001494975348330635
  0
VERTEX
  8
1
 10
360.3175528617141
 20
269.9184337009848
 30
0
 42
-0.002492794316779719
  0
VERTEX
  8
1
 10
360.5537709254031
 20
269.9102596732429
 30
0
 42
-0.003491534983926536
  0
VERTEX
  8
1
 10
360.7898193629069
 20
269.8992616841489
 30
0
 42
-0.004489898255049611
  0
VERTEX
  8
1
 10
361.0256416321639
 20
269.8844984132518
 30
0
 42
-0.0047805077779619
  0
VERTEX
  8
1
 10
361.2554444707079
 20
269.8657389216523
 30
0
 42
-0.004609549209806197
  0
VERTEX
  8
1
 10
361.4849085156281
 20
269.8426619867042
 30
0
 42
-0.004440699770395565
  0
VERTEX
  8
1
 10
361.7139640779243
 20
269.815430257888
 30
0
 42
-0.00427423731368506
  0
VERTEX
  8
1
 10
361.9425414685957
 20
269.7842063846841
 30
0
 42
-0.01203168800632128
  0
VERTEX
  8
1
 10
362.6026130871516
 20
269.6720313314483
 30
0
 42
-0.004413642435112255
  0
VERTEX
  8
1
 10
362.8175600162567
 20
269.6280201026867
 30
0
 42
-0.004647221955822997
  0
VERTEX
  8
1
 10
363.0316651032251
 20
269.5801231478733
 30
0
 42
-0.004880801067592677
  0
VERTEX
  8
1
 10
363.2448340240289
 20
269.5281513655689
 30
0
 42
-0.004758723105031093
  0
VERTEX
  8
1
 10
363.4414194281655
 20
269.4761897122631
 30
0
 42
-0.005018044285492162
  0
VERTEX
  8
1
 10
363.6369639109732
 20
269.4203909552879
 30
0
 42
-0.005280841787267409
  0
VERTEX
  8
1
 10
363.8313112662993
 20
269.3605787367659
 30
0
 42
-0.005546549672969751
  0
VERTEX
  8
1
 10
364.0243052879911
 20
269.2965766988196
 30
0
 42
-0.005814418963174446
  0
VERTEX
  8
1
 10
364.2157897698958
 20
269.2282084835715
 30
0
 42
-0.005577358650077462
  0
VERTEX
  8
1
 10
364.386966194789
 20
269.1626676862857
 30
0
 42
-0.006009427342329691
  0
VERTEX
  8
1
 10
364.556579019405
 20
269.0931778635086
 30
0
 42
-0.006443994926038841
  0
VERTEX
  8
1
 10
364.7244182783087
 20
269.0194813893447
 30
0
 42
-0.00687913807817245
  0
VERTEX
  8
1
 10
364.8902740060648
 20
268.9413206378986
 30
0
 42
-0.007312340001099265
  0
VERTEX
  8
1
 10
365.0539362372378
 20
268.8584379832748
 30
0
 42
-0.006973460490406134
  0
VERTEX
  8
1
 10
365.1954702290466
 20
268.7816239941784
 30
0
 42
-0.007731357590464743
  0
VERTEX
  8
1
 10
365.3346896047573
 20
268.7006796678363
 30
0
 42
-0.008511314327995734
  0
VERTEX
  8
1
 10
365.4711290378162
 20
268.6153060531362
 30
0
 42
-0.009310591044751848
  0
VERTEX
  8
1
 10
365.6043232016693
 20
268.5252041989664
 30
0
 42
-0.01012386456644134
  0
VERTEX
  8
1
 10
365.7338067697629
 20
268.4300751542148
 30
0
 42
-0.009434305174868087
  0
VERTEX
  8
1
 10
365.8416034615684
 20
268.3441891457509
 30
0
 42
-0.01022153781884288
  0
VERTEX
  8
1
 10
365.9459600996996
 20
268.2541163715774
 30
0
 42
-0.01099599411594165
  0
VERTEX
  8
1
 10
366.0465120994888
 20
268.1595926446336
 30
0
 42
-0.01174404594103276
  0
VERTEX
  8
1
 10
366.1428948762687
 20
268.0603537778586
 30
0
 42
-0.01244948180862648
  0
VERTEX
  8
1
 10
366.2347438453717
 20
267.9561355841918
 30
0
 42
-0.01211952424701857
  0
VERTEX
  8
1
 10
366.3093585856617
 20
267.8626929429833
 30
0
 42
-0.01461684643883966
  0
VERTEX
  8
1
 10
366.3788600498245
 20
267.7654296992968
 30
0
 42
-0.01736409689990244
  0
VERTEX
  8
1
 10
366.4417324337562
 20
267.6643761865168
 30
0
 42
-0.0203504801868125
  0
VERTEX
  8
1
 10
366.496459933353
 20
267.5595627380283
 30
0
 42
-0.04492788025694509
  0
VERTEX
  8
1
 10
366.5730193703946
 20
267.3504157524242
 30
0
 42
-0.01566272199652072
  0
VERTEX
  8
1
 10
366.5972912162915
 20
267.2474218364268
 30
0
 42
-0.01105059974862367
  0
VERTEX
  8
1
 10
366.6161474771984
 20
267.1426354345251
 30
0
 42
-0.006555895200222725
  0
VERTEX
  8
1
 10
366.631393348112
 20
267.0366540420207
 30
0
 42
-0.002171051452742373
  0
VERTEX
  8
1
 10
366.6448340240289
 20
266.9300751542148
 30
0
  0
SEQEND
  8
1
  0
POLYLINE
  8
1
 62
3
 66
1
  0
VERTEX
  8
1
 10
359.8448340240279
 20
222.030179538463
 30
0
 42
0.0004981845500671388
  0
VERTEX
  8
1
 10
360.0812217139019
 20
222.0355296048525
 30
0
 42
0.001494841192352764
  0
VERTEX
  8
1
 10
360.3175528617141
 20
222.0418209916928
 30
0
 42
0.002492743149552952
  0
VERTEX
  8
1
 10
360.5537709254031
 20
222.0499950194346
 30
0
 42
0.003491516340253693
  0
VERTEX
  8
1
 10
360.7898193629069
 20
222.0609930085286
 30
0
 42
0.004490213342668416
  0
VERTEX
  8
1
 10
361.0256416321639
 20
222.0757562794256
 30
0
 42
0.004975151713613815
  0
VERTEX
  8
1
 10
361.2554444707079
 20
222.0945157710251
 30
0
 42
0.004414650054847105
  0
VERTEX
  8
1
 10
361.4849085156281
 20
222.1175927059732
 30
0
 42
0.004635284134321233
  0
VERTEX
  8
1
 10
361.7139640779243
 20
222.1448244347895
 30
0
 42
0.004079291120942492
  0
VERTEX
  8
1
 10
361.9425414685957
 20
222.1760483079935
 30
0
 42
0.01220877592505498
  0
VERTEX
  8
1
 10
362.6026130871516
 20
222.2882233612293
 30
0
 42
0.004605335014923507
  0
VERTEX
  8
1
 10
362.8175600162567
 20
222.3322345899909
 30
0
 42
0.004455539105618235
  0
VERTEX
  8
1
 10
363.0316651032251
 20
222.3801315448042
 30
0
 42
0.00507261208957834
  0
VERTEX
  8
1
 10
363.2448340240289
 20
222.4321033271087
 30
0
 42
0.004562947765430375
  0
VERTEX
  8
1
 10
363.4414194281656
 20
222.4840649804144
 30
0
 42
0.005213281058977646
  0
VERTEX
  8
1
 10
363.6369639109732
 20
222.5398637373896
 30
0
 42
0.005085158485015383
  0
VERTEX
  8
1
 10
363.8313112662993
 20
222.5996759559116
 30
0
 42
0.00574191143602196
  0
VERTEX
  8
1
 10
364.0243052879911
 20
222.6636779938578
 30
0
 42
0.005618891821277524
  0
VERTEX
  8
1
 10
364.2157897698958
 20
222.7320462091059
 30
0
 42
0.005746049995439806
  0
VERTEX
  8
1
 10
364.3869661947891
 20
222.7975870063917
 30
0
 42
0.005840318756780032
  0
VERTEX
  8
1
 10
364.5565790194051
 20
222.8670768291689
 30
0
 42
0.006612992520994541
  0
VERTEX
  8
1
 10
364.7244182783088
 20
222.9407733033329
 30
0
 42
0.006710432705991039
  0
VERTEX
  8
1
 10
364.8902740060648
 20
223.018934054779
 30
0
 42
0.007481851144458543
  0
VERTEX
  8
1
 10
365.0539362372378
 20
223.1018167094028
 30
0
 42
0.006751370270550686
  0
VERTEX
  8
1
 10
365.1954702290466
 20
223.1786306984993
 30
0
 42
0.007949932778934736
  0
VERTEX
  8
1
 10
365.3346896047573
 20
223.2595750248415
 30
0
 42
0.008289575637979725
  0
VERTEX
  8
1
 10
365.4711290378162
 20
223.3449486395415
 30
0
 42
0.009529945157867771
  0
VERTEX
  8
1
 10
365.6043232016693
 20
223.4350504937113
 30
0
 42
0.009903385341161383
  0
VERTEX
  8
1
 10
365.7338067697629
 20
223.530179538463
 30
0
 42
0.00966029030625839
  0
VERTEX
  8
1
 10
365.8416034615685
 20
223.6160655469268
 30
0
 42
0.00999732879306872
  0
VERTEX
  8
1
 10
365.9459600996996
 20
223.7061383211003
 30
0
 42
0.01122418579956229
  0
VERTEX
  8
1
 10
366.0465120994888
 20
223.800662048044
 30
0
 42
0.01152250659208665
  0
VERTEX
  8
1
 10
366.1428948762687
 20
223.8999009148189
 30
0
 42
0.01268075412570992
  0
VERTEX
  8
1
 10
366.2347438453717
 20
224.0041191084856
 30
0
 42
0.01160253464337033
  0
VERTEX
  8
1
 10
366.3093585856618
 20
224.0975617496941
 30
0
 42
0.01509545344985876
  0
VERTEX
  8
1
 10
366.3788600498245
 20
224.1948249933806
 30
0
 42
0.01684582066251739
  0
VERTEX
  8
1
 10
366.4417324337563
 20
224.2958785061605
 30
0
 42
0.02083740382904237
  0
VERTEX
  8
1
 10
366.496459933353
 20
224.400691954649
 30
0
 42
0.04434353073830413
  0
VERTEX
  8
1
 10
366.5730193703946
 20
224.6098389402533
 30
0
 42
0.01541972438892506
  0
VERTEX
  8
1
 10
366.5972912162915
 20
224.7128328562507
 30
0
 42
0.01128000519981432
  0
VERTEX
  8
1
 10
366.6161474771984
 20
224.8176192581523
 30
0
 42
0.006305540935755073
  0
VERTEX
  8
1
 10
366.631393348112
 20
224.9236006506569
 30
0
 42
0.002407634606088099
  0
VERTEX
  8
1
 10
366.6448340240289
 20
225.0301795384628
 30
0
  0
SEQEND
  8
1
  0
ARC
  8
1
 62
3
 10
359.8448340240278
 20
283.980127346339
 30
0
 40
6.800000000001091
 50
0
 51
90
  0
ARC
  8
1
 62
3
 10
359.8448340240278
 20
207.9801273463388
 30
0
 40
6.80000000000021
 50
270
 51
0
  0
DIMENSION
  8
1
  6
CONTINUOUS
 62
2
  2
*D12
  3
DMST_6
 10
381.6448340240289
 20
294.8564507383886
 30
0
 11
378.0448340240289
 21
245.9801273463388
 31
0
 12
0
 22
0
 32
0
 70
0
  1
98
 13
343.6948340240267
 23
197.1038039542889
 33
0
 14
343.6948340240267
 24
294.8564507383885
 34
0
 50
90
 53
0
  0
INSERT
  8
0
  2
____M4__5
 10
313.1448340240277
 20
291.7801273463392
 30
0
  0
INSERT
  8
0
  2
____M4_________6
 10
343.1448340240289
 20
245.9801273463388
 30
0
  0
INSERT
  8
0
  2
G9M3__12
 10
382.8279619603535
 20
797.7798987673468
 30
0
  0
ENDBLK
  8
0
  0
BLOCK
  8
0
  2
G9M3__14
 70
0
 10
69.27475309822955
 20
884.7489892599917
 30
0
  0
INSERT
  8
0
  2
G9M3__13
 10
18.25625258645857
 20
890.0400093896408
 30
0
  0
ENDBLK
  8
0
  0
BLOCK
  8
0
  2
Z__15
 70
0
 10
-13.55025767146759
 20
93.48115088779218
 30
0
  0
LINE
  8
1
 62
3
 10
238.1448340240276
 20
215.487352779865
 30
0
 11
262.8702732285369
 21
215.8374313810862
 31
0
  0
LINE
  8
1
 62
3
 10
238.1448340240276
 20
226.7417529356416
 30
0
 11
262.8702732285369
 21
227.0918315368627
 31
0
  0
LINE
  8
1
 62
3
 10
254.7500684531104
 20
220.8866145927594
 30
0
 11
262.8702732285369
 21
227.0918315368627
 31
0
  0
LINE
  8
1
 62
3
 10
262.8702732285369
 20
264.8684231558149
 30
0
 11
254.7500684531104
 21
271.0736400999182
 31
0
  0
LINE
  8
1
 62
3
 10
262.8702732285369
 20
264.8684231558149
 30
0
 11
238.1448340240276
 21
265.2185017570361
 31
0
  0
LINE
  8
1
 62
3
 10
262.8702732285369
 20
276.1228233115914
 30
0
 11
238.1448340240276
 21
276.4729019128126
 31
0
  0
ARC
  8
1
 62
3
 10
256.4584340629718
 20
218.6510314200303
 30
0
 40
2.813600038944147
 50
127.38597766211
 51
253.4376811403179
  0
ARC
  8
1
 62
3
 10
259.3254172326908
 20
203.0556859330623
 30
0
 40
13.26420071958221
 50
74.49931624128361
 51
103.7233919025213
  0
ARC
  8
1
 62
3
 10
256.4584340629718
 20
273.3092232726472
 30
0
 40
2.813600038944178
 50
106.5623188596816
 51
232.6140223378893
  0
ARC
  8
1
 62
3
 10
259.3254172326908
 20
288.9045687596153
 30
0
 40
13.26420071958221
 50
256.2766080974788
 51
285.5006837587164
  0
ARC
  8
1
 62
3
 10
255.9414527628189
 20
216.9126771878468
 30
0
 40
0.9999999999999977
 50
253.4376811403166
 51
283.7233919025202
  0
ARC
  8
1
 62
3
 10
255.9414527628189
 20
275.0475775048307
 30
0
 40
1.000000000000086
 50
76.27660809747937
 51
106.5623188596821
  0
ENDBLK
  8
0
  0
BLOCK
  8
0
  2
____M4_________16
 70
0
 10
34.4440691848005
 20
219.9801273463388
 30
0
  0
LINE
  8
1
 62
3
 10
36.3206403315269
 20
218.8318761842345
 30
0
 11
35.36140184454909
 21
219.7911146712123
 31
0
  0
LINE
  8
1
 62
3
 10
36.3206403315269
 20
221.1283785084431
 30
0
 11
35.36140184454909
 21
220.1691400214653
 31
0
  0
LINE
  8
1
 62
3
 10
33.2958180226962
 20
218.1035561996124
 30
0
 11
34.25505650967399
 21
219.0627946865901
 31
0
  0
LINE
  8
1
 62
3
 10
35.5923203469048
 20
218.1035561996124
 30
0
 11
34.63308185992699
 21
219.0627946865901
 31
0
  0
LINE
  8
1
 62
3
 10
32.56749803807399
 20
221.1283785084431
 30
0
 11
33.5267365250518
 21
220.1691400214654
 31
0
  0
LINE
  8
1
 62
3
 10
32.56749803807399
 20
218.8318761842345
 30
0
 11
33.5267365250518
 21
219.7911146712123
 31
0
  0
LINE
  8
1
 62
3
 10
35.5923203469048
 20
221.8566984930652
 30
0
 11
34.63308185992699
 21
220.8974600060874
 31
0
  0
LINE
  8
1
 62
3
 10
33.2958180226962
 20
221.8566984930652
 30
0
 11
34.25505650967399
 21
220.8974600060874
 31
0
  0
LINE
  8
1
 62
3
 10
35.36140184454909
 20
272.1691400214653
 30
0
 11
36.3206403315269
 21
273.1283785084431
 31
0
  0
LINE
  8
1
 62
3
 10
35.36140184454909
 20
271.7911146712123
 30
0
 11
36.3206403315269
 21
270.8318761842345
 31
0
  0
LINE
  8
1
 62
3
 10
34.25505650967399
 20
272.8974600060874
 30
0
 11
33.2958180226962
 21
273.8566984930652
 31
0
  0
LINE
  8
1
 62
3
 10
34.63308185992699
 20
272.8974600060874
 30
0
 11
35.5923203469048
 21
273.8566984930652
 31
0
  0
LINE
  8
1
 62
3
 10
33.5267365250518
 20
271.7911146712123
 30
0
 11
32.56749803807399
 21
270.8318761842345
 31
0
  0
LINE
  8
1
 62
3
 10
33.5267365250518
 20
272.1691400214653
 30
0
 11
32.56749803807399
 21
273.1283785084431
 31
0
  0
LINE
  8
1
 62
3
 10
34.63308185992699
 20
271.0627946865902
 30
0
 11
35.5923203469048
 21
270.1035561996123
 31
0
  0
LINE
  8
1
 62
3
 10
34.25505650967399
 20
271.0627946865902
 30
0
 11
33.2958180226962
 21
270.1035561996123
 31
0
  0
LINE
  8
1
 62
3
 10
111.5267365250519
 20
219.7911146712123
 30
0
 11
110.5674980380741
 21
218.8318761842345
 31
0
  0
LINE
  8
1
 62
3
 10
111.5267365250519
 20
220.1691400214653
 30
0
 11
110.5674980380741
 21
221.1283785084431
 31
0
  0
LINE
  8
1
 62
3
 10
112.633081859927
 20
219.0627946865901
 30
0
 11
113.5923203469048
 21
218.1035561996124
 31
0
  0
LINE
  8
1
 62
3
 10
112.2550565096741
 20
219.0627946865901
 30
0
 11
111.2958180226962
 21
218.1035561996124
 31
0
  0
LINE
  8
1
 62
3
 10
113.3614018445492
 20
220.1691400214654
 30
0
 11
114.320640331527
 21
221.1283785084431
 31
0
  0
LINE
  8
1
 62
3
 10
113.3614018445492
 20
219.7911146712123
 30
0
 11
114.320640331527
 21
218.8318761842345
 31
0
  0
LINE
  8
1
 62
3
 10
112.2550565096741
 20
220.8974600060874
 30
0
 11
111.2958180226962
 21
221.8566984930652
 31
0
  0
LINE
  8
1
 62
3
 10
112.633081859927
 20
220.8974600060874
 30
0
 11
113.5923203469048
 21
221.8566984930652
 31
0
  0
LINE
  8
1
 62
3
 10
110.5674980380741
 20
273.1283785084431
 30
0
 11
111.5267365250519
 21
272.1691400214653
 31
0
  0
LINE
  8
1
 62
3
 10
110.5674980380741
 20
270.8318761842345
 30
0
 11
111.5267365250519
 21
271.7911146712123
 31
0
  0
LINE
  8
1
 62
3
 10
113.5923203469048
 20
273.8566984930652
 30
0
 11
112.633081859927
 21
272.8974600060874
 31
0
  0
LINE
  8
1
 62
3
 10
111.2958180226962
 20
273.8566984930652
 30
0
 11
112.2550565096741
 21
272.8974600060874
 31
0
  0
LINE
  8
1
 62
3
 10
114.320640331527
 20
270.8318761842345
 30
0
 11
113.3614018445492
 21
271.7911146712123
 31
0
  0
LINE
  8
1
 62
3
 10
114.320640331527
 20
273.1283785084431
 30
0
 11
113.3614018445492
 21
272.1691400214653
 31
0
  0
LINE
  8
1
 62
3
 10
111.2958180226962
 20
270.1035561996123
 30
0
 11
112.2550565096741
 21
271.0627946865902
 31
0
  0
LINE
  8
1
 62
3
 10
113.5923203469048
 20
270.1035561996123
 30
0
 11
112.633081859927
 21
271.0627946865902
 31
0
  0
ARC
  8
1
 62
3
 10
34.4440691848005
 20
219.9801273463388
 30
0
 40
0.9149999999999195
 50
350.8377712759677
 51
9.162228724032241
  0
ARC
  8
1
 62
3
 10
34.4440691848005
 20
219.9801273463388
 30
0
 40
2.199999999999986
 50
301.4619589546534
 51
328.5380410453462
  0
ARC
  8
1
 62
3
 10
34.4440691848005
 20
219.9801273463388
 30
0
 40
0.9150000000000199
 50
260.8377712759678
 51
279.1622287240312
  0
ARC
  8
1
 62
3
 10
34.4440691848005
 20
219.9801273463388
 30
0
 40
2.200000000000077
 50
211.4619589546524
 51
238.5380410453467
  0
ARC
  8
1
 62
3
 10
34.4440691848005
 20
219.9801273463388
 30
0
 40
0.9150000000000317
 50
170.8377712759689
 51
189.1622287240311
  0
ARC
  8
1
 62
3
 10
34.4440691848005
 20
219.9801273463388
 30
0
 40
2.199999999999982
 50
121.4619589546533
 51
148.5380410453482
  0
ARC
  8
1
 62
3
 10
34.4440691848005
 20
219.9801273463388
 30
0
 40
0.9149999999999335
 50
80.8377712759679
 51
99.16222872403212
  0
ARC
  8
1
 62
3
 10
34.4440691848005
 20
219.9801273463388
 30
0
 40
2.199999999999978
 50
31.46195895465314
 51
58.53804104534655
  0
ARC
  8
1
 62
3
 10
34.4440691848005
 20
271.9801273463388
 30
0
 40
0.9149999999999239
 50
350.837771275966
 51
9.162228724033998
  0
ARC
  8
1
 62
3
 10
34.4440691848005
 20
271.9801273463388
 30
0
 40
2.199999999999993
 50
31.46195895465376
 51
58.53804104534655
  0
ARC
  8
1
 62
3
 10
34.4440691848005
 20
271.9801273463388
 30
0
 40
0.9150000000000457
 50
80.83777127596903
 51
99.16222872403185
  0
ARC
  8
1
 62
3
 10
34.4440691848005
 20
271.9801273463388
 30
0
 40
2.199999999999982
 50
121.4619589546533
 51
148.5380410453476
  0
ARC
  8
1
 62
3
 10
34.4440691848005
 20
271.9801273463388
 30
0
 40
0.9150000000000361
 50
170.8377712759671
 51
189.1622287240329
  0
ARC
  8
1
 62
3
 10
34.4440691848005
 20
271.9801273463388
 30
0
 40
2.200000000000077
 50
211.4619589546524
 51
238.5380410453483
  0
ARC
  8
1
 62
3
 10
34.4440691848005
 20
271.9801273463388
 30
0
 40
0.9150000000000481
 50
260.8377712759681
 51
279.162228724031
  0
ARC
  8
1
 62
3
 10
34.4440691848005
 20
271.9801273463388
 30
0
 40
2.200000000000082
 50
301.4619589546519
 51
328.5380410453462
  0
ARC
  8
1
 62
3
 10
112.4440691848006
 20
219.9801273463388
 30
0
 40
0.9150000000001158
 50
170.8377712759697
 51
189.1622287240303
  0
ARC
  8
1
 62
3
 10
112.4440691848006
 20
219.9801273463388
 30
0
 40
2.200000000000065
 50
211.4619589546526
 51
238.5380410453443
  0
ARC
  8
1
 62
3
 10
112.4440691848006
 20
219.9801273463388
 30
0
 40
0.9150000000000335
 50
260.8377712759626
 51
279.162228724026
  0
ARC
  8
1
 62
3
 10
112.4440691848006
 20
219.9801273463388
 30
0
 40
2.199999999999934
 50
301.4619589546512
 51
328.5380410453462
  0
ARC
  8
1
 62
3
 10
112.4440691848006
 20
219.9801273463388
 30
0
 40
0.9149999999999335
 50
350.8377712759679
 51
9.162228724032099
  0
ARC
  8
1
 62
3
 10
112.4440691848006
 20
219.9801273463388
 30
0
 40
2.199999999999978
 50
31.46195895465314
 51
58.53804104534876
  0
ARC
  8
1
 62
3
 10
112.4440691848006
 20
219.9801273463388
 30
0
 40
0.915000000000004
 50
80.83777127597402
 51
99.16222872403824
  0
ARC
  8
1
 62
3
 10
112.4440691848006
 20
219.9801273463388
 30
0
 40
2.200000000000037
 50
121.4619589546557
 51
148.538041045348
  0
ARC
  8
1
 62
3
 10
112.4440691848006
 20
271.9801273463388
 30
0
 40
0.9150000000001204
 50
170.837771275968
 51
189.162228724032
  0
ARC
  8
1
 62
3
 10
112.4440691848006
 20
271.9801273463388
 30
0
 40
2.200000000000037
 50
121.4619589546557
 51
148.5380410453474
  0
ARC
  8
1
 62
3
 10
112.4440691848006
 20
271.9801273463388
 30
0
 40
0.9150000000000322
 50
80.83777127597432
 51
99.16222872403712
  0
ARC
  8
1
 62
3
 10
112.4440691848006
 20
271.9801273463388
 30
0
 40
2.199999999999993
 50
31.46195895465376
 51
58.53804104534876
  0
ARC
  8
1
 62
3
 10
112.4440691848006
 20
271.9801273463388
 30
0
 40
0.9149999999999379
 50
350.8377712759661
 51
9.162228724033856
  0
ARC
  8
1
 62
3
 10
112.4440691848006
 20
271.9801273463388
 30
0
 40
2.20000000000003
 50
301.4619589546497
 51
328.5380410453462
  0
ARC
  8
1
 62
3
 10
112.4440691848006
 20
271.9801273463388
 30
0
 40
0.9150000000000615
 50
260.8377712759628
 51
279.1622287240257
  0
ARC
  8
1
 62
3
 10
112.4440691848006
 20
271.9801273463388
 30
0
 40
2.200000000000065
 50
211.4619589546526
 51
238.5380410453459
  0
CIRCLE
  8
1
 62
3
 10
34.4440691848005
 20
219.9801273463388
 30
0
 40
3.5
  0
CIRCLE
  8
1
 62
3
 10
34.4440691848005
 20
271.9801273463388
 30
0
 40
3.5
  0
CIRCLE
  8
1
 62
3
 10
112.4440691848006
 20
219.9801273463388
 30
0
 40
3.5
  0
CIRCLE
  8
1
 62
3
 10
112.4440691848006
 20
271.9801273463388
 30
0
 40
3.5
  0
ARC
  8
1
 62
3
 10
35.3967571836084
 20
219.8264700102716
 30
0
 40
0.05000000000001583
 50
170.837771275943
 51
224.9999999999885
  0
ARC
  8
1
 62
3
 10
35.3967571836084
 20
220.133784682406
 30
0
 40
0.04999999999996222
 50
135.0000000000115
 51
189.162228724057
  0
ARC
  8
1
 62
3
 10
34.2904118487333
 20
219.0274393475308
 30
0
 40
0.05000000000002761
 50
80.8377712759617
 51
134.9999999999885
  0
ARC
  8
1
 62
3
 10
34.5977265208676
 20
219.0274393475308
 30
0
 40
0.05000000000003758
 50
44.99999999994818
 51
99.16222872394988
  0
ARC
  8
1
 62
3
 10
33.49138118599249
 20
220.133784682406
 30
0
 40
0.05000000000000882
 50
350.8377712759417
 51
45.00000000007485
  0
ARC
  8
1
 62
3
 10
33.49138118599249
 20
219.8264700102716
 30
0
 40
0.04999999999996724
 50
315.0000000000172
 51
9.162228724058281
  0
ARC
  8
1
 62
3
 10
34.5977265208676
 20
220.9328153451468
 30
0
 40
0.05000000000007127
 50
260.8377712760604
 51
315.0000000000057
  0
ARC
  8
1
 62
3
 10
34.2904118487333
 20
220.9328153451468
 30
0
 40
0.05000000000002251
 50
225.0000000000576
 51
279.1622287240435
  0
ARC
  8
1
 62
3
 10
35.3967571836084
 20
272.133784682406
 30
0
 40
0.04999999999998232
 50
134.9999999999885
 51
189.1622287239927
  0
ARC
  8
1
 62
3
 10
35.3967571836084
 20
271.8264700102716
 30
0
 40
0.05000000000001583
 50
170.837771275943
 51
224.9999999999654
  0
ARC
  8
1
 62
3
 10
34.2904118487333
 20
272.9328153451468
 30
0
 40
0.05000000000006271
 50
225.0000000001036
 51
279.1622287240435
  0
ARC
  8
1
 62
3
 10
34.5977265208676
 20
272.9328153451468
 30
0
 40
0.0499999999999871
 50
260.8377712760449
 51
314.9999999999597
  0
ARC
  8
1
 62
3
 10
33.49138118599249
 20
271.8264700102716
 30
0
 40
0.04999999999994715
 50
315.0000000000403
 51
9.162228724058281
  0
ARC
  8
1
 62
3
 10
33.49138118599249
 20
272.133784682406
 30
0
 40
0.04999999999999977
 50
350.837771276006
 51
45.00000000000576
  0
ARC
  8
1
 62
3
 10
34.5977265208676
 20
271.0274393475308
 30
0
 40
0.05000000000011798
 50
45.0000000000403
 51
99.16222872395508
  0
ARC
  8
1
 62
3
 10
34.2904118487333
 20
271.0274393475308
 30
0
 40
0.04999999999999954
 50
80.8377712759565
 51
134.9999999998964
  0
ARC
  8
1
 62
3
 10
111.4913811859926
 20
219.8264700102716
 30
0
 40
0.04999999999996222
 50
315.0000000000115
 51
9.162228724075135
  0
ARC
  8
1
 62
3
 10
111.4913811859926
 20
220.133784682406
 30
0
 40
0.04999999999991762
 50
350.8377712759249
 51
44.99999999998848
  0
ARC
  8
1
 62
3
 10
112.5977265208677
 20
219.0274393475308
 30
0
 40
0.04999999999998232
 50
45.00000000001152
 51
99.16222872403831
  0
ARC
  8
1
 62
3
 10
112.2904118487333
 20
219.0274393475308
 30
0
 40
0.05000000000002986
 50
80.83777127594561
 51
134.9999999998964
  0
ARC
  8
1
 62
3
 10
113.3967571836085
 20
220.133784682406
 30
0
 40
0.05000000000003256
 50
134.9999999999079
 51
189.1622287240596
  0
ARC
  8
1
 62
3
 10
113.3967571836085
 20
219.8264700102716
 30
0
 40
0.0500000000000018
 50
170.8377712759404
 51
225
  0
ARC
  8
1
 62
3
 10
112.2904118487333
 20
220.9328153451468
 30
0
 40
0.04999999999994213
 50
225.0000000001497
 51
279.162228724044
  0
ARC
  8
1
 62
3
 10
112.5977265208677
 20
220.9328153451468
 30
0
 40
0.04999999999999954
 50
260.8377712759565
 51
314.9999999999424
  0
ARC
  8
1
 62
3
 10
111.4913811859926
 20
272.133784682406
 30
0
 40
0.04999999999990858
 50
350.8377712759892
 51
45.00000000001152
  0
ARC
  8
1
 62
3
 10
111.4913811859926
 20
271.8264700102716
 30
0
 40
0.04999999999994213
 50
315.0000000000346
 51
9.162228724075135
  0
ARC
  8
1
 62
3
 10
112.5977265208677
 20
272.9328153451468
 30
0
 40
0.04999999999999954
 50
260.8377712759565
 51
314.9999999998963
  0
ARC
  8
1
 62
3
 10
112.2904118487333
 20
272.9328153451468
 30
0
 40
0.04999999999998231
 50
225.0000000001957
 51
279.1622287240596
  0
ARC
  8
1
 62
3
 10
113.3967571836085
 20
271.8264700102716
 30
0
 40
0.0500000000000018
 50
170.8377712759404
 51
224.999999999977
  0
ARC
  8
1
 62
3
 10
113.3967571836085
 20
272.133784682406
 30
0
 40
0.04999999999997226
 50
134.999999999977
 51
189.1622287239953
  0
ARC
  8
1
 62
3
 10
112.2904118487333
 20
271.0274393475308
 30
0
 40
0.0500000000000018
 50
80.83777127594043
 51
134.9999999998043
  0
ARC
  8
1
 62
3
 10
112.5977265208677
 20
271.0274393475308
 30
0
 40
0.05000000000006271
 50
45.00000000010363
 51
99.1622287240435
  0
ENDBLK
  8
0
  0
BLOCK
  8
1
  2
*D13
 70
1
 10
0
 20
0
 30
0
  0
LINE
  8
1
 62
2
 10
133.4440691848005
 20
209.2101273463388
 30
0
 11
133.4440691848005
 21
282.7501273463389
 31
0
  0
LINE
  8
1
 62
2
 10
116.7140691848005
 20
209.2101273463388
 30
0
 11
134.9440691848005
 21
209.2101273463388
 31
0
  0
LINE
  8
1
 62
2
 10
116.7140691848005
 20
282.7501273463389
 30
0
 11
134.9440691848005
 21
282.7501273463389
 31
0
  0
SOLID
  8
1
 62
2
 10
133.4440691848005
 20
282.7501273463389
 30
0
 11
133.8600691848005
 21
279.5501273463389
 31
0
 12
133.0280691848005
 22
279.5501273463389
 32
0
 13
133.0280691848005
 23
279.5501273463389
 33
0
  0
SOLID
  8
1
 62
2
 10
133.4440691848005
 20
209.2101273463388
 30
0
 11
133.0280691848005
 21
212.4101273463388
 31
0
 12
133.8600691848005
 22
212.4101273463388
 32
0
 13
133.8600691848005
 23
212.4101273463388
 33
0
  0
TEXT
  8
1
 62
2
 10
131.4440691848005
 20
237.9161273463388
 30
0
 40
3.2
  1
73.5
 50
90
 41
0.9
  0
TEXT
  8
1
 62
2
 10
130.8040691848005
 20
248.2361273463388
 30
0
 40
1.92
  1
%%p0.4
 50
90
 41
0.9
  0
ENDBLK
  8
0
  0
BLOCK
  8
1
  2
*D14
 70
1
 10
0
 20
0
 30
0
  0
LINE
  8
1
 62
2
 10
143.4440691848005
 20
200.9801273463388
 30
0
 11
143.4440691848005
 21
290.9801273463388
 31
0
  0
LINE
  8
1
 62
2
 10
110.4440691848005
 20
200.9801273463388
 30
0
 11
144.9440691848005
 21
200.9801273463388
 31
0
  0
LINE
  8
1
 62
2
 10
110.4440691848005
 20
290.9801273463388
 30
0
 11
144.9440691848005
 21
290.9801273463388
 31
0
  0
SOLID
  8
1
 62
2
 10
143.4440691848005
 20
290.9801273463388
 30
0
 11
143.8600691848005
 21
287.7801273463388
 31
0
 12
143.0280691848005
 22
287.7801273463388
 32
0
 13
143.0280691848005
 23
287.7801273463388
 33
0
  0
SOLID
  8
1
 62
2
 10
143.4440691848005
 20
200.9801273463388
 30
0
 11
143.0280691848005
 21
204.1801273463388
 31
0
 12
143.8600691848005
 22
204.1801273463388
 32
0
 13
143.8600691848005
 23
204.1801273463388
 33
0
  0
TEXT
  8
1
 62
2
 10
141.4440691848005
 20
243.5801273463388
 30
0
 40
3.2
  1
90
 50
90
 41
0.9
  0
ENDBLK
  8
0
  0
BLOCK
  8
1
  2
*D15
 70
1
 10
0
 20
0
 30
0
  0
LINE
  8
1
 62
2
 10
121.9155391332982
 20
264.808738581156
 30
0
 11
24.97259923630279
 21
227.1515161115217
 31
0
  0
SOLID
  8
1
 62
2
 10
24.97259923630279
 20
227.1515161115217
 30
0
 11
27.80483003556257
 21
228.6979716394061
 31
0
 12
28.10608781531965
 22
227.9224281202301
 32
0
 13
28.10608781531965
 23
227.9224281202301
 33
0
  0
SOLID
  8
1
 62
2
 10
121.9155391332982
 20
264.808738581156
 30
0
 11
119.0833083340384
 21
263.2622830532716
 31
0
 12
118.7820505542813
 22
264.0378265724476
 32
0
 13
118.7820505542813
 23
264.0378265724476
 33
0
  0
TEXT
  8
1
 62
2
 10
48.02181314466386
 20
238.2505128723027
 30
0
 40
3.2
  1
104
 50
21.22852439283648
 41
0.9
  0
TEXT
  8
1
 62
2
 10
43.28238052747741
 20
236.4094931071206
 30
0
 40
3.2
  1
(âË
 50
21.22852439283648
 41
0.9
  0
TEXT
  8
1
 62
2
 10
55.7772483364235
 20
241.2630906698734
 30
0
 40
3.2
  1
)
 50
21.22852439283648
 41
0.9
  0
ENDBLK
  8
0
  0
ENDSEC
  0
SECTION
  2
ENTITIES
  0
LINE
  8
1
 62
1
 10
73.44406918480047
 20
245.9801273463388
 30
0
 11
123.4440691848005
 21
245.9801273463388
 31
0
  0
LINE
  8
1
 62
1
 10
73.44406918480048
 20
295.9801273463388
 30
0
 11
73.44406918480047
 21
245.9801273463388
 31
0
  0
LINE
  8
1
 62
3
 10
118.4440691848005
 20
281.9801273463388
 30
0
 11
118.4440691848005
 21
245.9801273463388
 31
0
  0
LINE
  8
1
 62
3
 10
109.4440691848005
 20
290.9801273463388
 30
0
 11
73.44406918480048
 21
290.9801273463388
 31
0
  0
LINE
  8
1
 62
1
 10
104.7140691848005
 20
282.7501273463389
 30
0
 11
115.7140691848005
 21
282.7501273463389
 31
0
  0
LINE
  8
1
 62
1
 10
110.2140691848005
 20
288.2501273463389
 30
0
 11
110.2140691848005
 21
277.2501273463389
 31
0
  0
LINE
  8
1
 62
1
 10
119.4440691848005
 20
271.9801273463388
 30
0
 11
105.4440691848005
 21
271.9801273463388
 31
0
  0
LINE
  8
1
 62
1
 10
112.4440691848005
 20
264.9801273463388
 30
0
 11
112.4440691848005
 21
278.9801273463388
 31
0
  0
LINE
  8
1
 62
1
 10
73.44406918480047
 20
245.9801273463388
 30
0
 11
73.44406918480048
 21
195.9801273463388
 31
0
  0
LINE
  8
1
 62
3
 10
118.4440691848005
 20
245.9801273463388
 30
0
 11
118.4440691848005
 21
209.9801273463388
 31
0
  0
LINE
  8
1
 62
3
 10
73.44406918480048
 20
200.9801273463388
 30
0
 11
109.4440691848005
 21
200.9801273463388
 31
0
  0
LINE
  8
1
 62
1
 10
115.7140691848005
 20
209.2101273463388
 30
0
 11
104.7140691848005
 21
209.2101273463388
 31
0
  0
LINE
  8
1
 62
1
 10
110.2140691848005
 20
214.7101273463388
 30
0
 11
110.2140691848005
 21
203.7101273463388
 31
0
  0
LINE
  8
1
 62
1
 10
105.4440691848005
 20
219.9801273463388
 30
0
 11
119.4440691848005
 21
219.9801273463388
 31
0
  0
LINE
  8
1
 62
1
 10
112.4440691848005
 20
212.9801273463388
 30
0
 11
112.4440691848005
 21
226.9801273463388
 31
0
  0
LINE
  8
1
 62
1
 10
23.4440691848005
 20
245.9801273463388
 30
0
 11
73.44406918480047
 21
245.9801273463388
 31
0
  0
LINE
  8
1
 62
3
 10
28.4440691848005
 20
245.9801273463388
 30
0
 11
28.4440691848005
 21
281.9801273463388
 31
0
  0
LINE
  8
1
 62
3
 10
73.44406918480048
 20
290.9801273463388
 30
0
 11
37.4440691848005
 21
290.9801273463388
 31
0
  0
LINE
  8
1
 62
1
 10
31.1740691848005
 20
282.7501273463389
 30
0
 11
42.17406918480049
 21
282.7501273463389
 31
0
  0
LINE
  8
1
 62
1
 10
36.6740691848005
 20
277.2501273463389
 30
0
 11
36.6740691848005
 21
288.2501273463389
 31
0
  0
LINE
  8
1
 62
1
 10
41.44406918480047
 20
271.9801273463388
 30
0
 11
27.4440691848005
 21
271.9801273463388
 31
0
  0
LINE
  8
1
 62
1
 10
34.4440691848005
 20
278.9801273463388
 30
0
 11
34.4440691848005
 21
264.9801273463388
 31
0
  0
LINE
  8
1
 62
3
 10
28.4440691848005
 20
209.9801273463388
 30
0
 11
28.4440691848005
 21
245.9801273463388
 31
0
  0
LINE
  8
1
 62
3
 10
37.4440691848005
 20
200.9801273463388
 30
0
 11
73.44406918480048
 21
200.9801273463388
 31
0
  0
LINE
  8
1
 62
1
 10
42.17406918480049
 20
209.2101273463388
 30
0
 11
31.1740691848005
 21
209.2101273463388
 31
0
  0
LINE
  8
1
 62
1
 10
36.6740691848005
 20
203.7101273463388
 30
0
 11
36.6740691848005
 21
214.7101273463388
 31
0
  0
LINE
  8
1
 62
1
 10
27.4440691848005
 20
219.9801273463388
 30
0
 11
41.44406918480047
 21
219.9801273463388
 31
0
  0
LINE
  8
1
 62
1
 10
34.4440691848005
 20
226.9801273463388
 30
0
 11
34.4440691848005
 21
212.9801273463388
 31
0
  0
LINE
  8
1
 62
3
 10
238.8448340240276
 20
200.9801273463388
 30
0
 11
231.6448340240276
 21
200.9801273463388
 31
0
  0
LINE
  8
1
 62
3
 10
238.1448340240276
 20
245.9801273463388
 30
0
 11
238.1448340240276
 21
200.9801273463388
 31
0
  0
LINE
  8
1
 62
3
 10
238.8448340240276
 20
245.9801273463388
 30
0
 11
238.8448340240276
 21
200.9801273463388
 31
0
  0
LINE
  8
1
 62
3
 10
231.6448340240276
 20
245.9801273463388
 30
0
 11
231.6448340240276
 21
200.9801273463388
 31
0
  0
LINE
  8
1
 62
3
 10
231.6448340240276
 20
290.9801273463388
 30
0
 11
238.8448340240276
 21
290.9801273463388
 31
0
  0
LINE
  8
1
 62
3
 10
238.1448340240276
 20
290.9801273463388
 30
0
 11
238.1448340240276
 21
245.9801273463388
 31
0
  0
LINE
  8
1
 62
3
 10
238.8448340240276
 20
290.9801273463388
 30
0
 11
238.8448340240276
 21
245.9801273463388
 31
0
  0
LINE
  8
1
 62
3
 10
231.6448340240276
 20
290.9801273463388
 30
0
 11
231.6448340240276
 21
245.9801273463388
 31
0
  0
LINE
  8
1
 62
1
 10
238.8448340240276
 20
245.9801273463388
 30
0
 11
231.6448340240276
 21
245.9801273463388
 31
0
  0
ARC
  8
1
 62
2
 10
73.44406918480047
 20
245.9801273463388
 30
0
 40
52.00000000000008
 50
18.58142329693161
 51
53.21590253118705
  0
ARC
  8
1
 62
2
 10
73.44406918480047
 20
245.9801273463388
 30
0
 40
52.00000000000001
 50
198.5814232969317
 51
233.2159025311872
  0
ARC
  8
1
 62
3
 10
73.44406918480047
 20
245.9801273463388
 30
0
 40
37.00000000000003
 50
0
 51
90
  0
ARC
  8
1
 62
3
 10
73.44406918480047
 20
245.9801273463388
 30
0
 40
37
 50
270
 51
0
  0
ARC
  8
1
 62
3
 10
73.44406918480047
 20
245.9801273463388
 30
0
 40
37
 50
90
 51
180
  0
ARC
  8
1
 62
3
 10
73.44406918480047
 20
245.9801273463388
 30
0
 40
36.99999999999997
 50
180
 51
270
  0
CIRCLE
  8
1
 62
4
  6
DIVIDE
 10
73.44406918480047
 20
245.9801273463388
 30
0
 40
52.00000000000003
  0
CIRCLE
  8
1
 62
3
 10
73.44406918480047
 20
245.9801273463388
 30
0
 40
41.50000000000003
  0
CIRCLE
  8
1
 62
3
 10
110.2140691848005
 20
282.7501273463389
 30
0
 40
3.25
  0
CIRCLE
  8
1
 62
3
 10
110.2140691848005
 20
209.2101273463388
 30
0
 40
3.25
  0
CIRCLE
  8
1
 62
3
 10
36.6740691848005
 20
282.7501273463389
 30
0
 40
3.25
  0
CIRCLE
  8
1
 62
3
 10
36.6740691848005
 20
209.2101273463388
 30
0
 40
3.25
  0
CIRCLE
  8
1
 62
3
 10
34.4440691848005
 20
219.9801273463388
 30
0
 40
4.200000000000006
  0
CIRCLE
  8
1
 62
3
 10
34.4440691848005
 20
271.9801273463388
 30
0
 40
4.200000000000006
  0
CIRCLE
  8
1
 62
3
 10
112.4440691848005
 20
271.9801273463388
 30
0
 40
4.200000000000003
  0
CIRCLE
  8
1
 62
3
 10
112.4440691848005
 20
219.9801273463388
 30
0
 40
4.200000000000003
  0
ARC
  8
1
 62
3
 10
109.4440691848005
 20
281.9801273463388
 30
0
 40
9
 50
0
 51
90
  0
ARC
  8
1
 62
3
 10
109.4440691848005
 20
209.9801273463388
 30
0
 40
9
 50
270
 51
0
  0
ARC
  8
1
 62
3
 10
37.4440691848005
 20
281.9801273463388
 30
0
 40
9
 50
90
 51
180
  0
ARC
  8
1
 62
3
 10
37.4440691848005
 20
209.9801273463388
 30
0
 40
8.999999999999996
 50
180
 51
270
  0
TEXT
  8
1
 62
2
 10
11.8978361299282
 20
117.047504182191
 30
0
 40
8
  1
IHF9S90N
 41
0.9
  0
DIMENSION
  8
1
  6
CONTINUOUS
 62
2
  2
*D13
  3
DMST_4
 10
133.4440691848005
 20
209.2101273463388
 30
0
 11
129.8440691848005
 21
245.9801273463388
 31
0
 12
0
 22
0
 32
0
 70
0
  1
73.5
 13
115.7140691848005
 23
282.7501273463389
 33
0
 14
115.7140691848005
 24
209.2101273463388
 34
0
 50
90
 53
0
  0
DIMENSION
  8
1
  6
CONTINUOUS
 62
2
  2
*D14
  3
DMST_3
 10
143.4440691848005
 20
200.9801273463388
 30
0
 11
139.8440691848005
 21
245.9801273463388
 31
0
 12
0
 22
0
 32
0
 70
0
 13
109.4440691848005
 23
290.9801273463388
 33
0
 14
109.4440691848005
 24
200.9801273463388
 34
0
 50
90
 53
0
  0
DIMENSION
  8
1
  6
CONTINUOUS
 62
2
  2
*D15
  3
DMST_7
 10
121.9155391332982
 20
264.808738581156
 30
0
 11
49.17418702448761
 21
240.4146230156884
 31
0
 12
0
 22
0
 32
0
 70
3
  1
(âË<>
 15
24.9725992363027
 25
227.1515161115216
 35
0
 40
0
 53
0
  0
INSERT
  8
0
  2
G9M3__14
 10
69.27475309822955
 20
884.7489892599917
 30
0
  0
INSERT
  8
0
  2
Z__15
 10
-13.55025767146759
 20
93.48115088779218
 30
0
  0
INSERT
  8
0
  2
____M4_________16
 10
34.4440691848005
 20
219.9801273463388
 30
0
  0
ENDSEC
  0
EOF
