  0
SECTION
  2
HEADER
  9
$ACADVER
  1
AC1009
  9
$INSBASE
 10
0
 20
0
  9
$EXTMIN
 10
-1.612660984062927
 20
569.6171986512403
  9
$EXTMAX
 10
355.750537009062
 20
766.4198443830824
  9
$LIMMIN
 10
-1.612660984062927
 20
569.6171986512403
  9
$LIMMAX
 10
355.750537009062
 20
766.4198443830824
  9
$VIEWCTR
 10
10
 20
10
  9
$VIEWSIZE
 40
10
  9
$SNAPMODE
 70
0
  9
$SNAPUNIT
 10
1
 20
1
  9
$SNAPBASE
 10
0
 20
0
  9
$SNAPANG
 50
0
  9
$SNAPSTYLE
 70
0
  9
$SNAPISOPAIR
 70
0
  9
$GRIDMODE
 70
0
  9
$GRIDUNIT
 10
0
 20
0
  9
$ORTHOMODE
 70
0
  9
$REGENMODE
 70
1
  9
$FILLMODE
 70
1
  9
$QTEXTMODE
 70
0
  9
$DRAGMODE
 70
2
  9
$LTSCALE
 40
1
  9
$OSMODE
 70
0
  9
$ATTMODE
 70
1
  9
$TEXTSIZE
 40
3.5
  9
$TRACEWID
 40
0.5
  9
$TEXTSTYLE
  7
STANDARD
  9
$CLAYER
  8
0
  9
$CELTYPE
  6
BYLAYER
  9
$CECOLOR
 62
256
  9
$DIMSCALE
 40
1
  9
$DIMASZ
 40
0.18
  9
$DIMEXO
 40
0.0625
  9
$DIMDLI
 40
0.38
  9
$DIMRND
 40
0
  9
$DIMDLE
 40
0
  9
$DIMEXE
 40
0.18
  9
$DIMTP
 40
0
  9
$DIMTM
 40
0
  9
$DIMTXT
 40
0.18
  9
$DIMCEN
 40
0.09
  9
$DIMTSZ
 40
0
  9
$DIMTOL
 70
0
  9
$DIMLIM
 70
0
  9
$DIMTIH
 70
1
  9
$DIMTOH
 70
1
  9
$DIMSE1
 70
0
  9
$DIMSE2
 70
0
  9
$DIMTAD
 70
0
  9
$DIMZIN
 70
0
  9
$DIMBLK
  1

  9
$DIMASO
 70
1
  9
$DIMSHO
 70
1
  9
$DIMPOST
  1

  9
$DIMAPOST
  1

  9
$DIMALT
 70
0
  9
$DIMALTD
 70
2
  9
$DIMALTF
 40
25.4
  9
$DIMLFAC
 40
1
  9
$DIMTOFL
 70
0
  9
$DIMTVP
 40
0
  9
$DIMTIX
 70
0
  9
$DIMSOXD
 70
0
  9
$DIMSAH
 70
0
  9
$DIMBLK1
  1

  9
$DIMBLK2
  1

  9
$DIMSTYLE
  2
*UNNAMED
  9
$DIMCLRD
 70
0
  9
$DIMCLRE
 70
0
  9
$DIMCLRT
 70
0
  9
$DIMTFAC
 40
1
  9
$DIMGAP
 40
0.09
  9
$LUNITS
 70
2
  9
$LUPREC
 70
4
  9
$AXISMODE
 70
0
  9
$AXISUNIT
 10
0
 20
0
  9
$SKETCHINC
 40
0.1
  9
$FILLETRAD
 40
2
  9
$AUNITS
 70
0
  9
$AUPREC
 70
0
  9
$MENU
  1
ACAD
  9
$ELEVATION
 40
0
  9
$THICKNESS
 40
0
  9
$VIEWDIR
 10
0
 20
0
 30
1
  9
$LIMCHECK
 70
0
  9
$BLIPMODE
 70
1
  9
$CHAMFERA
 40
0
  9
$CHAMFERB
 40
0
  9
$FASTZOOM
 70
1
  9
$SKPOLY
 70
0
  9
$ANGBASE
 50
0
  9
$ANGDIR
 70
0
  9
$PDMODE
 70
0
  9
$PDSIZE
 40
0
  9
$PLINEWID
 40
0
  9
$COORDS
 70
2
  0
ENDSEC
  0
SECTION
  2
TABLES
  0
TABLE
  2
DIMSTYLE
 70
8
  0
DIMSTYLE
  2
DMST_1
 70
0
  3

  4

  5

  6

  7

 40
1
 41
3.2
 42
1
 43
7
 44
1.5
 45
0
 46
0
 47
0.03
 48
0
140
3.2
141
0
142
0
143
25.4
144
1
145
0
146
0.7
147
0.09
 71
1
 72
0
 73
0
 74
0
 75
0
 76
0
 77
1
 78
9
170
0
171
2
172
0
173
0
174
0
175
0
176
2
177
2
178
2
  0
DIMSTYLE
  2
DMST_2
 70
0
  3

  4

  5

  6

  7

 40
1
 41
3.2
 42
1
 43
7
 44
1.5
 45
0
 46
0
 47
0
 48
0
140
3.2
141
0
142
0
143
25.4
144
1
145
0
146
0.6
147
0.09
 71
1
 72
0
 73
0
 74
0
 75
0
 76
0
 77
1
 78
9
170
0
171
2
172
0
173
0
174
0
175
0
176
2
177
2
178
2
  0
DIMSTYLE
  2
DMST_3
 70
0
  3

  4

  5

  6

  7

 40
1
 41
3.2
 42
1
 43
7
 44
1.5
 45
0
 46
0
 47
0
 48
0
140
3.2
141
0
142
0
143
25.4
144
1
145
0
146
1
147
0.09
 71
0
 72
0
 73
0
 74
0
 75
0
 76
0
 77
1
 78
9
170
0
171
2
172
0
173
0
174
0
175
0
176
2
177
2
178
2
  0
DIMSTYLE
  2
DMST_4
 70
0
  3

  4

  5

  6

  7

 40
1
 41
3.2
 42
0
 43
7
 44
1
 45
0
 46
0
 47
0
 48
0
140
3.2
141
0
142
0
143
25.4
144
1
145
0
146
0.7000000000000001
147
0.09
 71
1
 72
0
 73
0
 74
0
 75
0
 76
0
 77
1
 78
9
170
0
171
2
172
0
173
0
174
0
175
0
176
2
177
2
178
2
  0
DIMSTYLE
  2
DMST_5
 70
0
  3

  4

  5

  6

  7

 40
1
 41
3.2
 42
1
 43
7
 44
1
 45
0
 46
0
 47
0
 48
0
140
3.2
141
0
142
0
143
25.4
144
1
145
0
146
0.7000000000000001
147
0.09
 71
1
 72
0
 73
0
 74
0
 75
0
 76
0
 77
1
 78
9
170
0
171
2
172
0
173
0
174
0
175
0
176
2
177
2
178
2
  0
DIMSTYLE
  2
DMST_6
 70
0
  3

  4

  5

  6

  7

 40
1
 41
3.2
 42
1
 43
7
 44
1
 45
0
 46
0
 47
0
 48
0
140
3.2
141
0
142
0
143
25.4
144
1
145
0
146
1
147
0.09
 71
0
 72
0
 73
0
 74
0
 75
0
 76
0
 77
1
 78
9
170
0
171
2
172
0
173
0
174
0
175
0
176
2
177
2
178
2
  0
DIMSTYLE
  2
DMST_7
 70
0
  3

  4

  5

  6

  7

 40
1
 41
3.2
 42
1
 43
7
 44
1
 45
0
 46
0
 47
0
 48
0
140
3.2
141
0
142
0
143
25.4
144
1
145
0
146
1
147
0.09
 71
0
 72
0
 73
1
 74
1
 75
0
 76
0
 77
1
 78
9
170
0
171
2
172
0
173
0
174
0
175
0
176
2
177
2
178
2
  0
DIMSTYLE
  2
DMST_8
 70
0
  3
)
  4

  5

  6

  7

 40
1
 41
3.2
 42
1
 43
7
 44
1
 45
0
 46
0
 47
0
 48
0
140
3.2
141
0
142
0
143
25.4
144
1
145
0
146
1
147
0.09
 71
0
 72
0
 73
0
 74
0
 75
0
 76
0
 77
1
 78
9
170
0
171
2
172
0
173
0
174
1
175
0
176
2
177
2
178
2
  0
ENDTAB
  0
TABLE
  2
LTYPE
 70
9
  0
LTYPE
  2
CONTINUOUS
 70
64
  3
Solid line
 72
65
 73
0
 40
0
  0
LTYPE
  2
BORDER
 70
64
  3
__ __ . __ __ .
 72
65
 73
6
 40
16.4575156970518
 49
4.702147342014801
 49
-2.351073671007401
 49
4.702147342014801
 49
-2.351073671007401
 49
0
 49
-2.351073671007401
  0
LTYPE
  2
CENTER
 70
64
  3
____ _ ____ _
 72
65
 73
4
 40
18.80858936805921
 49
11.755368355037
 49
-2.351073671007401
 49
2.351073671007401
 49
-2.351073671007401
  0
LTYPE
  2
DASHDOT
 70
64
  3
__ . __ . __ .
 72
65
 73
4
 40
9.404294684029603
 49
4.702147342014801
 49
-2.351073671007401
 49
0
 49
-2.351073671007401
  0
LTYPE
  2
DASHED
 70
64
  3
__ __ __ __ __
 72
65
 73
2
 40
7.053221013022203
 49
4.702147342014801
 49
-2.351073671007401
  0
LTYPE
  2
DIVIDE
 70
64
  3
__ . . __ . . 
 72
65
 73
6
 40
11.755368355037
 49
4.702147342014801
 49
-2.351073671007401
 49
0
 49
-2.351073671007401
 49
0
 49
-2.351073671007401
  0
LTYPE
  2
DOT
 70
64
  3
..............
 72
65
 73
4
 40
4.702147342014801
 49
0
 49
-2.351073671007401
 49
0
 49
-2.351073671007401
  0
LTYPE
  2
HIDDEN
 70
64
  3
_ _ _ _ _ _ _
 72
65
 73
2
 40
3.526610506511101
 49
2.351073671007401
 49
-1.1755368355037
  0
LTYPE
  2
PHANTOM
 70
64
  3
_____ _ _ _____ _ _ 
 72
65
 73
6
 40
23.51073671007401
 49
11.755368355037
 49
-2.351073671007401
 49
2.351073671007401
 49
-2.351073671007401
 49
2.351073671007401
 49
-2.351073671007401
  0
ENDTAB
  0
TABLE
  2
LAYER
 70
4
  0
LAYER
  2
1
 70
0
 62
7
  6
CONTINUOUS
  0
LAYER
  2
2
 70
0
 62
7
  6
CONTINUOUS
  0
LAYER
  2
0
 70
0
 62
7
  6
CONTINUOUS
  0
ENDTAB
  0
TABLE
  2
STYLE
 70
4
  0
STYLE
  2
STANDARD
 70
0
 40
0
 41
1
 50
0
 71
0
 42
3.5
  3
txt
  4

  0
STYLE
  2
SIMPLEX
 70
0
 40
0
 41
1
 50
0
 71
0
 42
3.5
  3
simplex
  4

  0
STYLE
  2
COMPLEX
 70
0
 40
0
 41
1
 50
0
 71
0
 42
3.5
  3
complex
  4

  0
STYLE
  2
ITALIC
 70
0
 40
0
 41
1
 50
0
 71
0
 42
3.5
  3
italic
  4

  0
ENDTAB
  0
TABLE
  2
VIEW
 70
0
  0
ENDTAB
  0
ENDSEC
  0
SECTION
  2
BLOCKS
  0
BLOCK
  8
1
  2
*D0
 70
1
 10
0
 20
0
 30
0
  0
LINE
  8
1
 62
2
 10
296.4036469326281
 20
652.4478537992125
 30
0
 11
296.4036469326281
 21
725.4478537992125
 31
0
  0
LINE
  8
1
 62
2
 10
286.8950687946251
 20
652.4478537992125
 30
0
 11
297.9036469326281
 21
652.4478537992125
 31
0
  0
LINE
  8
1
 62
2
 10
286.8950687946251
 20
725.4478537992125
 30
0
 11
297.9036469326281
 21
725.4478537992125
 31
0
  0
SOLID
  8
1
 62
2
 10
296.4036469326281
 20
725.4478537992125
 30
0
 11
296.8196469326281
 21
722.2478537992124
 31
0
 12
295.9876469326281
 22
722.2478537992124
 32
0
 13
295.9876469326281
 23
722.2478537992124
 33
0
  0
SOLID
  8
1
 62
2
 10
296.4036469326281
 20
652.4478537992125
 30
0
 11
295.9876469326281
 21
655.6478537992125
 31
0
 12
296.8196469326281
 22
655.6478537992125
 32
0
 13
296.8196469326281
 23
655.6478537992125
 33
0
  0
TEXT
  8
1
 62
2
 10
293.2036469326282
 20
681.823426187611
 30
0
 40
3.2
  1
73H7
 50
90
 41
0.9
  0
TEXT
  8
1
 62
2
 10
291.0436469326281
 20
694.303426187611
 30
0
 40
2.24
  1
+0.03
 50
90
 41
0.9900000000000001
  0
TEXT
  8
1
 62
2
 10
294.4036469326281
 20
694.303426187611
 30
0
 40
2.24
  1
 0
 50
90
 41
0.9900000000000001
  0
TEXT
  8
1
 62
2
 10
293.2036469326282
 20
676.5528379523169
 30
0
 40
3.2
  1
âË
 50
90
 41
1.35
  0
ENDBLK
  8
0
  0
BLOCK
  8
1
  2
*D1
 70
1
 10
0
 20
0
 30
0
  0
LINE
  8
1
 62
2
 10
175.7782757349296
 20
696.5196343118519
 30
0
 11
175.7782757349296
 21
711.5196343118519
 31
0
  0
LINE
  8
1
 62
2
 10
194.8095737700865
 20
696.5196343118519
 30
0
 11
174.2782757349296
 21
696.5196343118519
 31
0
  0
LINE
  8
1
 62
2
 10
194.8095737700865
 20
711.5196343118519
 30
0
 11
174.2782757349296
 21
711.5196343118519
 31
0
  0
SOLID
  8
1
 62
2
 10
175.7782757349296
 20
711.5196343118519
 30
0
 11
176.1942757349296
 21
708.3196343118518
 31
0
 12
175.3622757349296
 22
708.3196343118518
 32
0
 13
175.3622757349296
 23
708.3196343118518
 33
0
  0
SOLID
  8
1
 62
2
 10
175.7782757349296
 20
696.5196343118519
 30
0
 11
175.3622757349296
 21
699.7196343118519
 31
0
 12
176.1942757349296
 22
699.7196343118519
 32
0
 13
176.1942757349296
 23
699.7196343118519
 33
0
  0
TEXT
  8
1
 62
2
 10
172.9516090682629
 20
699.2010704826065
 30
0
 40
3.2
  1
15
 50
90
 41
0.9
  0
TEXT
  8
1
 62
2
 10
170.8716090682629
 20
704.6410704826064
 30
0
 40
1.92
  1
 0
 50
90
 41
0.9
  0
TEXT
  8
1
 62
2
 10
173.7516090682629
 20
704.6410704826064
 30
0
 40
1.92
  1
-0.020
 50
90
 41
0.9
  0
TEXT
  8
1
 62
2
 10
172.9516090682629
 20
695.154011659077
 30
0
 40
3.2
  1
âË
 50
90
 41
0.9
  0
ENDBLK
  8
0
  0
BLOCK
  8
1
  2
*D2
 70
1
 10
0
 20
0
 30
0
  0
LINE
  8
1
 62
2
 10
188.4381856417074
 20
708.5196343118519
 30
0
 11
188.4381856417074
 21
711.5196343118519
 31
0
  0
LINE
  8
1
 62
2
 10
188.4381856417074
 20
708.5196343118519
 30
0
 11
188.4381856417074
 21
702.1196343118518
 31
0
  0
LINE
  8
1
 62
2
 10
188.4381856417074
 20
711.5196343118519
 30
0
 11
188.4381856417074
 21
717.9196343118517
 31
0
  0
LINE
  8
1
 62
2
 10
194.8095737700864
 20
708.5196343118519
 30
0
 11
186.9381856417074
 21
708.5196343118519
 31
0
  0
LINE
  8
1
 62
2
 10
194.8095737700864
 20
711.5196343118519
 30
0
 11
186.9381856417074
 21
711.5196343118519
 31
0
  0
SOLID
  8
1
 62
2
 10
188.4381856417074
 20
711.5196343118519
 30
0
 11
188.0221856417074
 21
714.7196343118519
 31
0
 12
188.8541856417074
 22
714.7196343118519
 32
0
 13
188.8541856417074
 23
714.7196343118519
 33
0
  0
SOLID
  8
1
 62
2
 10
188.4381856417074
 20
708.5196343118519
 30
0
 11
188.8541856417074
 21
705.3196343118518
 31
0
 12
188.0221856417074
 22
705.3196343118518
 32
0
 13
188.0221856417074
 23
705.3196343118518
 33
0
  0
TEXT
  8
1
 62
2
 10
186.4381856417074
 20
708.7722516550577
 30
0
 40
3.2
  1
3
 50
90
 41
0.9
  0
ENDBLK
  8
0
  0
BLOCK
  8
1
  2
*D3
 70
1
 10
0
 20
0
 30
0
  0
LINE
  8
1
 62
2
 10
195.8095737700864
 20
730.8980385304527
 30
0
 11
220.8095737700864
 21
730.8980385304527
 31
0
  0
LINE
  8
1
 62
2
 10
195.8095737700864
 20
712.5196343118518
 30
0
 11
195.8095737700864
 21
732.3980385304527
 31
0
  0
LINE
  8
1
 62
2
 10
220.8095737700864
 20
709.5196343118518
 30
0
 11
220.8095737700864
 21
732.3980385304527
 31
0
  0
SOLID
  8
1
 62
2
 10
195.8095737700864
 20
730.8980385304527
 30
0
 11
199.0095737700864
 21
731.3140385304528
 31
0
 12
199.0095737700864
 22
730.4820385304527
 32
0
 13
199.0095737700864
 23
730.4820385304527
 33
0
  0
SOLID
  8
1
 62
2
 10
220.8095737700864
 20
730.8980385304527
 30
0
 11
217.6095737700865
 21
730.4820385304527
 31
0
 12
217.6095737700865
 22
731.3140385304528
 32
0
 13
217.6095737700865
 23
731.3140385304528
 33
0
  0
TEXT
  8
1
 62
2
 10
206.8083503325165
 20
732.8980385304527
 30
0
 40
3.2
  1
25
 41
0.9
  0
ENDBLK
  8
0
  0
BLOCK
  8
1
  2
*D4
 70
1
 10
0
 20
0
 30
0
  0
LINE
  8
1
 62
2
 10
165.0964767510845
 20
687.0196343118516
 30
0
 11
165.0964767510845
 21
721.0196343118516
 31
0
  0
LINE
  8
1
 62
2
 10
228.8095737700864
 20
687.0196343118516
 30
0
 11
163.5964767510845
 21
687.0196343118516
 31
0
  0
LINE
  8
1
 62
2
 10
223.8095737700864
 20
721.0196343118516
 30
0
 11
163.5964767510845
 21
721.0196343118516
 31
0
  0
SOLID
  8
1
 62
2
 10
165.0964767510845
 20
721.0196343118516
 30
0
 11
165.5124767510845
 21
717.8196343118516
 31
0
 12
164.6804767510845
 22
717.8196343118516
 32
0
 13
164.6804767510845
 23
717.8196343118516
 33
0
  0
SOLID
  8
1
 62
2
 10
165.0964767510845
 20
687.0196343118516
 30
0
 11
164.6804767510845
 21
690.2196343118517
 31
0
 12
165.5124767510845
 22
690.2196343118517
 32
0
 13
165.5124767510845
 23
690.2196343118517
 33
0
  0
TEXT
  8
1
 62
2
 10
162.6698100844178
 20
704.0148815749004
 30
0
 40
3.2
  1
34
 50
90
 41
0.9
  0
TEXT
  8
1
 62
2
 10
162.6698100844178
 20
699.9678227513711
 30
0
 40
3.2
  1
âË
 50
90
 41
0.9
  0
ENDBLK
  8
0
  0
BLOCK
  8
1
  2
*D5
 70
1
 10
0
 20
0
 30
0
  0
LINE
  8
1
 62
2
 10
195.8095737700864
 20
761.0203370292287
 30
0
 11
230.8095737700864
 21
761.0203370292287
 31
0
  0
LINE
  8
1
 62
2
 10
230.8095737700864
 20
728.7857003678809
 30
0
 11
230.8095737700864
 21
762.5203370292287
 31
0
  0
LINE
  8
1
 62
2
 10
195.8095737700864
 20
712.5196343118516
 30
0
 11
195.8095737700864
 21
762.5203370292287
 31
0
  0
SOLID
  8
1
 62
2
 10
230.8095737700864
 20
761.0203370292287
 30
0
 11
227.6095737700864
 21
760.6043370292287
 31
0
 12
227.6095737700864
 22
761.4363370292288
 32
0
 13
227.6095737700864
 23
761.4363370292288
 33
0
  0
SOLID
  8
1
 62
2
 10
195.8095737700864
 20
761.0203370292287
 30
0
 11
199.0095737700864
 21
761.4363370292288
 31
0
 12
199.0095737700864
 22
760.6043370292287
 32
0
 13
199.0095737700864
 23
760.6043370292287
 33
0
  0
TEXT
  8
1
 62
2
 10
211.0411329861244
 20
763.0203370292287
 30
0
 40
3.2
  1
35
 41
0.9
  0
ENDBLK
  8
0
  0
BLOCK
  8
1
  2
*D6
 70
1
 10
0
 20
0
 30
0
  0
LINE
  8
1
 62
2
 10
223.8095737700865
 20
734.8542603763218
 30
0
 11
230.8095737700865
 21
734.8542603763218
 31
0
  0
LINE
  8
1
 62
2
 10
223.8095737700865
 20
734.8542603763218
 30
0
 11
217.4095737700865
 21
734.8542603763218
 31
0
  0
LINE
  8
1
 62
2
 10
230.8095737700865
 20
734.8542603763218
 30
0
 11
237.2095737700865
 21
734.8542603763218
 31
0
  0
LINE
  8
1
 62
2
 10
223.8095737700865
 20
720.0196343118519
 30
0
 11
223.8095737700865
 21
736.3542603763218
 31
0
  0
LINE
  8
1
 62
2
 10
230.8095737700865
 20
728.785700367881
 30
0
 11
230.8095737700865
 21
736.3542603763218
 31
0
  0
SOLID
  8
1
 62
2
 10
230.8095737700865
 20
734.8542603763218
 30
0
 11
234.0095737700865
 21
735.2702603763219
 31
0
 12
234.0095737700865
 22
734.4382603763218
 32
0
 13
234.0095737700865
 23
734.4382603763218
 33
0
  0
SOLID
  8
1
 62
2
 10
223.8095737700865
 20
734.8542603763218
 30
0
 11
220.6095737700865
 21
734.4382603763218
 31
0
 12
220.6095737700865
 22
735.2702603763219
 32
0
 13
220.6095737700865
 23
735.2702603763219
 33
0
  0
TEXT
  8
1
 62
2
 10
226.2491597312175
 20
736.8542603763218
 30
0
 40
3.2
  1
7
 41
0.9
  0
ENDBLK
  8
0
  0
BLOCK
  8
1
  2
*D7
 70
1
 10
0
 20
0
 30
0
  0
LINE
  8
1
 62
2
 10
230.8095737700866
 20
760.8948119176147
 30
0
 11
280.8095737700867
 21
760.8948119176147
 31
0
  0
LINE
  8
1
 62
2
 10
280.8095737700867
 20
729.0196343118516
 30
0
 11
280.8095737700867
 21
762.3948119176147
 31
0
  0
LINE
  8
1
 62
2
 10
230.8095737700866
 20
728.785700367881
 30
0
 11
230.8095737700866
 21
762.3948119176147
 31
0
  0
SOLID
  8
1
 62
2
 10
230.8095737700866
 20
760.8948119176147
 30
0
 11
234.0095737700866
 21
761.3108119176147
 31
0
 12
234.0095737700866
 22
760.4788119176146
 32
0
 13
234.0095737700866
 23
760.4788119176146
 33
0
  0
SOLID
  8
1
 62
2
 10
280.8095737700867
 20
760.8948119176147
 30
0
 11
277.6095737700867
 21
760.4788119176146
 31
0
 12
277.6095737700867
 22
761.3108119176147
 32
0
 13
277.6095737700867
 23
761.3108119176147
 33
0
  0
TEXT
  8
1
 62
2
 10
253.8451960462296
 20
762.8948119176147
 30
0
 40
3.2
  1
50
 41
0.9
  0
ENDBLK
  8
0
  0
BLOCK
  8
0
  2
*D8
 70
1
 10
0
 20
0
 30
0
  0
LINE
  8
0
 62
2
 10
40.85335932741327
 20
751.6198443830823
 30
0
 11
107.3533593274132
 21
751.6198443830823
 31
0
  0
LINE
  8
0
 62
2
 10
107.3533593274132
 20
731.7791185432699
 30
0
 11
107.3533593274132
 21
752.6198443830823
 31
0
  0
LINE
  8
0
 62
2
 10
40.85335932741327
 20
731.7791185432699
 30
0
 11
40.85335932741327
 21
752.6198443830823
 31
0
  0
SOLID
  8
0
 62
2
 10
40.85335932741327
 20
751.6198443830823
 30
0
 11
44.05335932741328
 21
752.0358443830824
 31
0
 12
44.05335932741328
 22
751.2038443830822
 32
0
 13
44.05335932741328
 23
751.2038443830822
 33
0
  0
SOLID
  8
0
 62
2
 10
107.3533593274132
 20
751.6198443830823
 30
0
 11
104.1533593274132
 21
751.2038443830822
 31
0
 12
104.1533593274132
 22
752.0358443830824
 32
0
 13
104.1533593274132
 23
752.0358443830824
 33
0
  0
TEXT
  8
0
 62
2
 10
65.97935932741328
 20
753.2198443830823
 30
0
 40
3.2
  1
66.5
 41
0.9
  0
TEXT
  8
0
 62
2
 10
76.45935932741327
 20
753.6998443830823
 30
0
 40
2.24
  1
%%p0.3
 41
0.9
  0
ENDBLK
  8
0
  0
BLOCK
  8
0
  2
*D9
 70
1
 10
0
 20
0
 30
0
  0
LINE
  8
0
 62
2
 10
24.10335932741334
 20
655.7696343118519
 30
0
 11
24.10335932741334
 21
722.269634311852
 31
0
  0
LINE
  8
0
 62
2
 10
31.34387509599534
 20
722.269634311852
 30
0
 11
23.10335932741334
 21
722.269634311852
 31
0
  0
LINE
  8
0
 62
2
 10
31.34387509599534
 20
655.7696343118519
 30
0
 11
23.10335932741334
 21
655.7696343118519
 31
0
  0
SOLID
  8
0
 62
2
 10
24.10335932741334
 20
722.269634311852
 30
0
 11
24.51935932741334
 21
719.0696343118519
 31
0
 12
23.68735932741334
 22
719.0696343118519
 32
0
 13
23.68735932741334
 23
719.0696343118519
 33
0
  0
SOLID
  8
0
 62
2
 10
24.10335932741334
 20
655.7696343118519
 30
0
 11
23.68735932741334
 21
658.9696343118519
 31
0
 12
24.51935932741334
 22
658.9696343118519
 32
0
 13
24.51935932741334
 23
658.9696343118519
 33
0
  0
TEXT
  8
0
 62
2
 10
22.50335932741334
 20
680.011739006522
 30
0
 40
3.2
  1
66.5
 50
90
 41
0.9
  0
TEXT
  8
0
 62
2
 10
22.02335932741334
 20
690.491739006522
 30
0
 40
2.24
  1
%%p0.3
 50
90
 41
0.9
  0
ENDBLK
  8
0
  0
BLOCK
  8
0
  2
*D10
 70
1
 10
0
 20
0
 30
0
  0
LINE
  8
0
 62
2
 10
65.20335932741332
 20
741.6198443830823
 30
0
 11
88.59135932741333
 21
741.6198443830823
 31
0
  0
LINE
  8
0
 62
2
 10
76.60335932741333
 20
712.0907021237173
 30
0
 11
76.60335932741333
 21
742.6198443830823
 31
0
  0
LINE
  8
0
 62
2
 10
71.60335932741333
 20
712.0907021237173
 30
0
 11
71.60335932741333
 21
742.6198443830823
 31
0
  0
SOLID
  8
0
 62
2
 10
71.60335932741333
 20
741.6198443830823
 30
0
 11
68.40335932741333
 21
741.2038443830822
 31
0
 12
68.40335932741333
 22
742.0358443830824
 32
0
 13
68.40335932741333
 23
742.0358443830824
 33
0
  0
SOLID
  8
0
 62
2
 10
76.60335932741333
 20
741.6198443830823
 30
0
 11
79.80335932741333
 21
742.0358443830824
 31
0
 12
79.80335932741333
 22
741.2038443830822
 32
0
 13
79.80335932741333
 23
741.2038443830822
 33
0
  0
TEXT
  8
0
 62
2
 10
82.82735932741333
 20
744.6598443830823
 30
0
 40
3.2
  1
5
 41
0.9
  0
TEXT
  8
0
 62
2
 10
86.34735932741333
 20
746.8198443830822
 30
0
 40
2.24
  1
+0.03
 41
0.9
  0
TEXT
  8
0
 62
2
 10
86.34735932741333
 20
743.4598443830823
 30
0
 40
2.24
  1
0
 41
0.9
  0
ENDBLK
  8
0
  0
BLOCK
  8
0
  2
*D11
 70
1
 10
0
 20
0
 30
0
  0
LINE
  8
0
 62
2
 10
34.10335932741328
 20
761.6198443830823
 30
0
 11
114.1033593274133
 21
761.6198443830823
 31
0
  0
LINE
  8
0
 62
2
 10
114.1033593274133
 20
723.2696343118519
 30
0
 11
114.1033593274133
 21
762.6198443830823
 31
0
  0
LINE
  8
0
 62
2
 10
34.10335932741328
 20
723.2696343118519
 30
0
 11
34.10335932741328
 21
762.6198443830823
 31
0
  0
SOLID
  8
0
 62
2
 10
34.10335932741328
 20
761.6198443830823
 30
0
 11
37.30335932741328
 21
762.0358443830824
 31
0
 12
37.30335932741328
 22
761.2038443830822
 32
0
 13
37.30335932741328
 23
761.2038443830822
 33
0
  0
SOLID
  8
0
 62
2
 10
114.1033593274133
 20
761.6198443830823
 30
0
 11
110.9033593274133
 21
761.2038443830822
 31
0
 12
110.9033593274133
 22
762.0358443830824
 32
0
 13
110.9033593274133
 23
762.0358443830824
 33
0
  0
TEXT
  8
0
 62
2
 10
71.70335932741327
 20
763.2198443830823
 30
0
 40
3.2
  1
80
 41
0.9
  0
ENDBLK
  8
0
  0
BLOCK
  8
0
  2
*D12
 70
1
 10
0
 20
0
 30
0
  0
LINE
  8
0
 62
2
 10
14.10335932741333
 20
649.0196343118519
 30
0
 11
14.10335932741333
 21
729.019634311852
 31
0
  0
LINE
  8
0
 62
2
 10
39.85335932741334
 20
729.019634311852
 30
0
 11
13.10335932741333
 21
729.019634311852
 31
0
  0
LINE
  8
0
 62
2
 10
39.85335932741334
 20
649.0196343118519
 30
0
 11
13.10335932741333
 21
649.0196343118519
 31
0
  0
SOLID
  8
0
 62
2
 10
14.10335932741333
 20
729.019634311852
 30
0
 11
14.51935932741333
 21
725.8196343118519
 31
0
 12
13.68735932741333
 22
725.8196343118519
 32
0
 13
13.68735932741333
 23
725.8196343118519
 33
0
  0
SOLID
  8
0
 62
2
 10
14.10335932741333
 20
649.0196343118519
 30
0
 11
13.68735932741333
 21
652.2196343118519
 31
0
 12
14.51935932741333
 22
652.2196343118519
 32
0
 13
14.51935932741333
 23
652.2196343118519
 33
0
  0
TEXT
  8
0
 62
2
 10
12.50335932741334
 20
685.3214300848089
 30
0
 40
3.2
  1
80
 50
90
 41
0.9
  0
ENDBLK
  8
0
  0
BLOCK
  8
0
  2
*D13
 70
1
 10
0
 20
0
 30
0
  0
LINE
  8
0
 62
2
 10
55.2761403925021
 20
682.6196343118518
 30
0
 11
55.2761403925021
 21
710.4196343118517
 31
0
  0
LINE
  8
0
 62
2
 10
55.50893812367404
 20
689.0196343118518
 30
0
 11
54.2761403925021
 21
689.0196343118518
 31
0
  0
LINE
  8
0
 62
2
 10
55.50893812367404
 20
704.0196343118518
 30
0
 11
54.2761403925021
 21
704.0196343118518
 31
0
  0
SOLID
  8
0
 62
2
 10
55.2761403925021
 20
704.0196343118518
 30
0
 11
54.8601403925021
 21
707.2196343118518
 31
0
 12
55.6921403925021
 22
707.2196343118518
 32
0
 13
55.6921403925021
 23
707.2196343118518
 33
0
  0
SOLID
  8
0
 62
2
 10
55.2761403925021
 20
689.0196343118518
 30
0
 11
55.6921403925021
 21
685.8196343118517
 31
0
 12
54.8601403925021
 22
685.8196343118517
 32
0
 13
54.8601403925021
 23
685.8196343118517
 33
0
  0
TEXT
  8
0
 62
2
 10
53.67614039250211
 20
694.5996343118518
 30
0
 40
3.2
  1
15
 50
90
 41
0.9
  0
ENDBLK
  8
0
  0
BLOCK
  8
1
  2
*D14
 70
1
 10
0
 20
0
 30
0
  0
LINE
  8
1
 62
2
 10
319.2505370090612
 20
754.0894849347404
 30
0
 11
337.7505370090612
 21
754.0894849347404
 31
0
  0
LINE
  8
1
 62
2
 10
337.7505370090612
 20
730.0894849347405
 30
0
 11
337.7505370090612
 21
755.0894849347404
 31
0
  0
LINE
  8
1
 62
2
 10
319.2505370090612
 20
694.7894849347405
 30
0
 11
319.2505370090612
 21
755.0894849347404
 31
0
  0
SOLID
  8
1
 62
2
 10
319.2505370090612
 20
754.0894849347404
 30
0
 11
322.4505370090612
 21
754.5054849347405
 31
0
 12
322.4505370090612
 22
753.6734849347404
 32
0
 13
322.4505370090612
 23
753.6734849347404
 33
0
  0
SOLID
  8
1
 62
2
 10
337.7505370090612
 20
754.0894849347404
 30
0
 11
334.5505370090612
 21
753.6734849347404
 31
0
 12
334.5505370090612
 22
754.5054849347405
 32
0
 13
334.5505370090612
 23
754.5054849347405
 33
0
  0
TEXT
  8
1
 62
2
 10
323.9702630909625
 20
755.6329065160675
 30
0
 40
3.2
  1
18.5
 41
0.9
  0
ENDBLK
  8
0
  0
BLOCK
  8
1
  2
*D15
 70
1
 10
0
 20
0
 30
0
  0
LINE
  8
1
 62
2
 10
344.1505370090611
 20
744.0894849347405
 30
0
 11
337.7505370090611
 21
744.0894849347405
 31
0
  0
LINE
  8
1
 62
2
 10
334.7505370090611
 20
744.0894849347405
 30
0
 11
337.7505370090611
 21
744.0894849347405
 31
0
  0
LINE
  8
1
 62
2
 10
334.7505370090611
 20
744.0894849347405
 30
0
 11
328.3505370090611
 21
744.0894849347405
 31
0
  0
LINE
  8
1
 62
2
 10
334.7505370090611
 20
726.5894849347405
 30
0
 11
334.7505370090611
 21
745.0894849347405
 31
0
  0
LINE
  8
1
 62
2
 10
337.7505370090611
 20
730.0894849347405
 30
0
 11
337.7505370090611
 21
745.0894849347405
 31
0
  0
SOLID
  8
1
 62
2
 10
334.7505370090611
 20
744.0894849347405
 30
0
 11
331.5505370090611
 21
743.6734849347405
 31
0
 12
331.5505370090611
 22
744.5054849347406
 32
0
 13
331.5505370090611
 23
744.5054849347406
 33
0
  0
SOLID
  8
1
 62
2
 10
337.7505370090611
 20
744.0894849347405
 30
0
 11
340.9505370090611
 21
744.5054849347406
 31
0
 12
340.9505370090611
 22
743.6734849347405
 32
0
 13
340.9505370090611
 23
743.6734849347405
 33
0
  0
TEXT
  8
1
 62
2
 10
328.9788031194281
 20
745.8984202298685
 30
0
 40
3.2
  1
3
 41
0.9
  0
ENDBLK
  8
0
  0
BLOCK
  8
0
  2
*D16
 70
1
 10
0
 20
0
 30
0
  0
LINE
  8
0
 62
2
 10
30.83963121514857
 20
670.6552712728559
 30
0
 11
117.367087439678
 21
707.3839973508476
 31
0
  0
SOLID
  8
0
 62
2
 10
30.83963121514857
 20
670.6552712728559
 30
0
 11
33.62270259674484
 21
672.2885409030578
 31
0
 12
33.94779089564792
 22
671.5226808649853
 32
0
 13
33.94779089564792
 23
671.5226808649853
 33
0
  0
SOLID
  8
0
 62
2
 10
117.367087439678
 20
707.3839973508476
 30
0
 11
114.5840160580817
 21
705.7507277206457
 31
0
 12
114.2589277591786
 22
706.5165877587182
 32
0
 13
114.2589277591786
 23
706.5165877587182
 33
0
  0
TEXT
  8
0
 62
2
 10
43.63520045829807
 20
679.1259304499192
 30
0
 40
3.2
  1
94
 50
23.00000000000003
 41
0.9
  0
TEXT
  8
0
 62
2
 10
38.77493483206919
 20
677.0628700914958
 30
0
 40
3.2
  1
(%%c
 50
23.00000000000003
 41
0.9
  0
TEXT
  8
0
 62
2
 10
49.5264315203937
 20
681.6266096722507
 30
0
 40
3.2
  1
)
 50
23.00000000000003
 41
0.9
  0
ENDBLK
  8
0
  0
BLOCK
  8
0
  2
*D17
 70
1
 10
0
 20
0
 30
0
  0
LINE
  8
0
 62
2
 10
125.2761403925019
 20
741.6198443830824
 30
0
 11
144.1786853190891
 21
741.6198443830824
 31
0
  0
LINE
  8
0
 62
2
 10
109.2220637095226
 20
724.287168433567
 30
0
 11
125.2761403925019
 21
741.6198443830824
 31
0
  0
SOLID
  8
0
 62
2
 10
109.2220637095226
 20
724.287168433567
 30
0
 11
111.0913581924741
 21
726.9175285108202
 31
0
 12
111.7017539703894
 22
726.3521604941237
 32
0
 13
111.7017539703894
 23
726.3521604941237
 33
0
  0
TEXT
  8
0
 62
2
 10
134.954561316139
 20
743.6831684963837
 30
0
 40
3.2
  1
5.5
 41
0.9
  0
TEXT
  8
0
 62
2
 10
125.674561316139
 20
743.6831684963837
 30
0
 40
3.2
  1
4-%%c
 41
0.9
  0
TEXT
  8
0
 62
2
 10
142.394561316139
 20
743.6831684963837
 30
0
 40
3.2
  1
îè
 41
0.9
  0
ENDBLK
  8
0
  0
ENDSEC
  0
SECTION
  2
ENTITIES
  0
POINT
  8
1
 62
4
  6
DIVIDE
 10
56.50893812367394
 20
704.0196343118518
 30
0
  0
POINT
  8
1
 62
4
  6
DIVIDE
 10
56.50893812367394
 20
689.0196343118518
 30
0
  0
LINE
  8
1
 62
2
 10
240.0952645436543
 20
732.1959494631981
 30
0
 11
240.0952645436543
 21
756.1959494631981
 31
0
  0
LINE
  8
1
 62
2
 10
240.0952645436543
 20
756.1959494631981
 30
0
 11
246.5952645436543
 21
756.1959494631981
 31
0
  0
LINE
  8
1
 62
2
 10
246.5952645436543
 20
756.1959494631981
 30
0
 11
246.5952645436543
 21
732.1959494631981
 31
0
  0
LINE
  8
1
 62
2
 10
246.5952645436543
 20
732.1959494631981
 30
0
 11
240.0952645436543
 21
732.1959494631981
 31
0
  0
LINE
  8
1
 62
2
 10
240.0952645436543
 20
738.1959494631981
 30
0
 11
246.5952645436543
 21
738.1959494631981
 31
0
  0
LINE
  8
1
 62
2
 10
245.5952645436543
 20
735.1959494631981
 30
0
 11
241.0952645436543
 21
735.1959494631981
 31
0
  0
LINE
  8
1
 62
2
 10
241.0952645436543
 20
735.1959494631981
 30
0
 11
243.5952645436543
 21
733.6959494631981
 31
0
  0
LINE
  8
1
 62
2
 10
243.5952645436543
 20
733.6959494631981
 30
0
 11
243.5952645436543
 21
736.1959494631981
 31
0
  0
LINE
  8
1
 62
2
 10
-1.612660984062927
 20
578.1171986512403
 30
0
 11
154.9090354340029
 21
578.1171986512403
 31
0
  0
LINE
  8
1
 62
2
 10
-1.612660984062927
 20
569.6171986512403
 30
0
 11
154.9090354340029
 21
569.6171986512403
 31
0
  0
LINE
  8
1
 62
2
 10
-1.612660984062927
 20
629.1171986512403
 30
0
 11
154.9090354340029
 21
629.1171986512403
 31
0
  0
LINE
  8
1
 62
2
 10
-1.612660984062927
 20
620.6171986512403
 30
0
 11
154.9090354340029
 21
620.6171986512403
 31
0
  0
LINE
  8
1
 62
2
 10
-1.612660984062927
 20
612.1171986512403
 30
0
 11
154.9090354340029
 21
612.1171986512403
 31
0
  0
LINE
  8
1
 62
2
 10
-1.612660984062927
 20
603.6171986512403
 30
0
 11
154.9090354340029
 21
603.6171986512403
 31
0
  0
LINE
  8
1
 62
2
 10
-1.612660984062927
 20
595.1171986512403
 30
0
 11
154.9090354340029
 21
595.1171986512403
 31
0
  0
LINE
  8
1
 62
2
 10
-1.612660984062927
 20
586.6171986512403
 30
0
 11
154.9090354340029
 21
586.6171986512403
 31
0
  0
LINE
  8
1
 62
2
 10
154.9090354340029
 20
629.1171986512403
 30
0
 11
154.9090354340029
 21
569.6171986512403
 31
0
  0
LINE
  8
1
 62
2
 10
-1.612660984062927
 20
629.1171986512403
 30
0
 11
-1.612660984062927
 21
569.6171986512403
 31
0
  0
LINE
  8
1
 62
2
 10
111.3873390159371
 20
620.6171986512403
 30
0
 11
111.3873390159371
 21
569.6171986512403
 31
0
  0
LINE
  8
1
 62
2
 10
91.38733901593707
 20
620.6171986512403
 30
0
 11
91.38733901593707
 21
569.6171986512403
 31
0
  0
LINE
  8
1
 62
2
 10
26.38733901593707
 20
620.6171986512403
 30
0
 11
26.38733901593707
 21
569.6171986512403
 31
0
  0
LINE
  8
1
 62
2
 10
8.387339015937073
 20
620.6171986512403
 30
0
 11
8.387339015937073
 21
569.6171986512403
 31
0
  0
LINE
  8
1
 62
1
 10
285.895068794625
 20
652.4478537992126
 30
0
 11
275.098584406266
 21
652.4478537992126
 31
0
  0
LINE
  8
1
 62
1
 10
275.098584406266
 20
725.4478537992126
 30
0
 11
285.895068794625
 21
725.4478537992126
 31
0
  0
LINE
  8
1
 62
2
 10
350.2865294200739
 20
585.5338383263961
 30
0
 11
308.9574136463442
 21
585.5338383263961
 31
0
  0
LINE
  8
1
 62
2
 10
304.6983856600888
 20
595.258873412342
 30
0
 11
354.54555740633
 21
595.258873412342
 31
0
  0
LINE
  8
1
 62
2
 10
304.6983856600888
 20
622.258873412342
 30
0
 11
354.54555740633
 21
622.258873412342
 31
0
  0
LINE
  8
1
 62
2
 10
304.6983856600888
 20
631.2588734123419
 30
0
 11
354.54555740633
 21
631.2588734123419
 31
0
  0
LINE
  8
1
 62
2
 10
304.6983856600888
 20
613.258873412342
 30
0
 11
354.54555740633
 21
613.258873412342
 31
0
  0
LINE
  8
1
 62
2
 10
304.6983856600888
 20
604.258873412342
 30
0
 11
354.54555740633
 21
604.258873412342
 31
0
  0
LINE
  8
1
 62
1
 10
227.8876132649176
 20
655.7696343118518
 30
0
 11
236.3743101734875
 21
655.7696343118518
 31
0
  0
LINE
  8
1
 62
1
 10
227.8876132649176
 20
722.2696343118518
 30
0
 11
236.3743101734875
 21
722.2696343118518
 31
0
  0
LINE
  8
1
 62
3
 10
231.8095737700866
 20
717.3436285970108
 30
0
 11
231.8095737700866
 21
660.0161168446507
 31
0
  0
LINE
  8
1
 62
3
 10
230.8095737700866
 20
715.5196343118519
 30
0
 11
231.8095737700866
 21
715.5196343118519
 31
0
  0
LINE
  8
1
 62
3
 10
230.8095737700866
 20
727.785700367881
 30
0
 11
230.8095737700866
 21
715.5196343118519
 31
0
  0
LINE
  8
1
 62
3
 10
223.8095737700866
 20
711.5196343118518
 30
0
 11
223.8095737700866
 21
696.5196343118518
 31
0
  0
LINE
  8
1
 62
3
 10
279.8095737700866
 20
728.0196343118518
 30
0
 11
279.8095737700866
 21
649.8760732865738
 31
0
  0
LINE
  8
1
 62
3
 10
40.60335932741339
 20
729.0196343118519
 30
0
 11
107.6033593274134
 21
729.0196343118519
 31
0
  0
LINE
  8
1
 62
3
 10
114.1033593274134
 20
655.5196343118518
 30
0
 11
114.1033593274134
 21
722.5196343118518
 31
0
  0
LINE
  8
1
 62
3
 10
40.60335932741339
 20
649.0196343118518
 30
0
 11
107.6033593274134
 21
649.0196343118518
 31
0
  0
LINE
  8
1
 62
3
 10
34.10335932741339
 20
722.5196343118518
 30
0
 11
34.10335932741339
 21
655.5196343118518
 31
0
  0
LINE
  8
1
 62
1
 10
54.10335932741327
 20
704.0196343118518
 30
0
 11
94.10335932741339
 21
704.0196343118518
 31
0
  0
LINE
  8
1
 62
3
 10
71.60335932741327
 20
711.0907021237173
 30
0
 11
71.60335932741327
 21
708.5196343118518
 31
0
  0
LINE
  8
1
 62
3
 10
71.60335932741327
 20
708.5196343118518
 30
0
 11
76.60335932741327
 21
708.5196343118518
 31
0
  0
LINE
  8
1
 62
3
 10
76.60335932741327
 20
708.5196343118518
 30
0
 11
76.60335932741327
 21
711.0907021237173
 31
0
  0
LINE
  8
1
 62
1
 10
107.3533593274134
 20
731.7791185432698
 30
0
 11
107.3533593274134
 21
712.7601500804337
 31
0
  0
LINE
  8
1
 62
1
 10
97.84387509599526
 20
722.2696343118518
 30
0
 11
116.8628435588313
 21
722.2696343118518
 31
0
  0
LINE
  8
1
 62
1
 10
116.8628435588313
 20
655.7696343118518
 30
0
 11
97.84387509599526
 21
655.7696343118518
 31
0
  0
LINE
  8
1
 62
1
 10
107.3533593274134
 20
665.2791185432698
 30
0
 11
107.3533593274134
 21
646.2601500804337
 31
0
  0
LINE
  8
1
 62
1
 10
40.85335932741339
 20
646.2601500804337
 30
0
 11
40.85335932741339
 21
665.2791185432698
 31
0
  0
LINE
  8
1
 62
1
 10
50.3628435588314
 20
655.7696343118518
 30
0
 11
31.34387509599537
 21
655.7696343118518
 31
0
  0
LINE
  8
1
 62
1
 10
40.85335932741339
 20
712.7601500804337
 30
0
 11
40.85335932741339
 21
731.7791185432698
 31
0
  0
LINE
  8
1
 62
1
 10
31.34387509599537
 20
722.2696343118518
 30
0
 11
50.3628435588314
 21
722.2696343118518
 31
0
  0
LINE
  8
1
 62
1
 10
31.10335932741339
 20
689.0196343118518
 30
0
 11
117.1033593274134
 21
689.0196343118518
 31
0
  0
LINE
  8
1
 62
1
 10
74.10335932741327
 20
732.0196343118519
 30
0
 11
74.10335932741327
 21
646.0196343118518
 31
0
  0
LINE
  8
1
 62
2
  6
DASHED
 10
195.8095737700866
 20
708.5196343118518
 30
0
 11
220.8095737700866
 21
708.5196343118518
 31
0
  0
LINE
  8
1
 62
3
 10
280.8095737700866
 20
652.3760732865738
 30
0
 11
280.8095737700866
 21
650.8760732865738
 31
0
  0
LINE
  8
1
 62
3
 10
280.8095737700866
 20
728.0196343118518
 30
0
 11
280.8095737700866
 21
652.3760732865738
 31
0
  0
LINE
  8
1
 62
3
 10
280.8095737700866
 20
649.8760732865738
 30
0
 11
279.8095737700866
 21
649.8760732865738
 31
0
  0
LINE
  8
1
 62
3
 10
280.8095737700866
 20
650.8760732865738
 30
0
 11
280.8095737700866
 21
649.8760732865738
 31
0
  0
LINE
  8
1
 62
3
 10
233.7961125365406
 20
649.1127023525687
 30
0
 11
279.8095737700866
 21
648.7760732865738
 31
0
  0
LINE
  8
1
 62
3
 10
279.8095737700897
 20
729.1196343118515
 30
0
 11
232.8027039512623
 21
728.7966980122098
 31
0
  0
LINE
  8
1
 62
1
 10
192.6191455387915
 20
704.0196343118518
 30
0
 11
227.0868083582085
 21
704.0196343118518
 31
0
  0
LINE
  8
1
 62
3
 10
231.8095737700866
 20
685.5196343118518
 30
0
 11
231.8095737700866
 21
662.0120986903584
 31
0
  0
LINE
  8
1
 62
3
 10
228.8095737700866
 20
687.0196343118518
 30
0
 11
230.3095737700866
 21
687.0196343118518
 31
0
  0
LINE
  8
1
 62
3
 10
279.8095737700866
 20
649.8760732865738
 30
0
 11
279.8095737700866
 21
648.7760732865738
 31
0
  0
LINE
  8
1
 62
3
 10
279.8095737700866
 20
728.0196343118518
 30
0
 11
280.8095737700866
 21
728.0196343118518
 31
0
  0
LINE
  8
1
 62
3
 10
279.8095737700897
 20
729.1196343118515
 30
0
 11
279.8095737700866
 21
728.0196343118518
 31
0
  0
LINE
  8
1
 62
3
 10
232.3095737700866
 20
649.1460732865739
 30
0
 11
233.447532987852
 21
649.1460732865739
 31
0
  0
LINE
  8
1
 62
3
 10
230.8095737700866
 20
650.1460732865739
 30
0
 11
230.8095737700866
 21
661.1460732865739
 31
0
  0
LINE
  8
1
 62
3
 10
195.8095737700866
 20
711.5196343118518
 30
0
 11
223.8095737700866
 21
711.5196343118518
 31
0
  0
LINE
  8
1
 62
3
 10
195.8095737700866
 20
696.5196343118518
 30
0
 11
223.8095737700866
 21
696.5196343118518
 31
0
  0
LINE
  8
1
 62
3
 10
195.8095737700866
 20
711.5196343118518
 30
0
 11
195.8095737700866
 21
696.5196343118518
 31
0
  0
LINE
  8
1
 62
3
 10
230.8095737700866
 20
727.785700367881
 30
0
 11
230.8095737700866
 21
721.1054207494786
 31
0
  0
LINE
  8
1
 62
3
 10
230.8095737700866
 20
721.0196343118518
 30
0
 11
224.8095737700866
 21
721.0196343118518
 31
0
  0
LINE
  8
1
 62
3
 10
223.8095737700866
 20
720.0196343118518
 30
0
 11
223.8095737700866
 21
719.0196343118518
 31
0
  0
LINE
  8
1
 62
3
 10
223.8095737700866
 20
696.5196343118518
 30
0
 11
223.8095737700866
 21
689.0196343118518
 31
0
  0
LINE
  8
1
 62
3
 10
224.8095737700866
 20
687.0196343118518
 30
0
 11
229.8095737700866
 21
687.0196343118518
 31
0
  0
LINE
  8
1
 62
2
  6
DASHED
 10
220.8095737700866
 20
708.5196343118518
 30
0
 11
220.8095737700866
 21
711.5196343118516
 31
0
  0
LINE
  8
1
 62
3
 10
233.3551767768323
 20
728.7898752267956
 30
0
 11
231.8068750162344
 21
728.7856967262381
 31
0
  0
LINE
  8
1
 62
3
 10
223.8095737700866
 20
719.0196343118518
 30
0
 11
223.8095737700866
 21
711.5196343118518
 31
0
  0
LINE
  8
1
 62
3
 10
223.8095737700866
 20
689.0196343118518
 30
0
 11
223.8095737700866
 21
688.0196343118518
 31
0
  0
LINE
  8
2
 62
1
  6
CENTER
 10
317.6141370090614
 20
685.0894849347405
 30
0
 11
335.7505370090613
 21
685.0894849347405
 31
0
  0
LINE
  8
2
 62
1
  6
CENTER
 10
317.7050370090614
 20
693.0894849347405
 30
0
 11
335.7050370090611
 21
693.0894849347405
 31
0
  0
LINE
  8
2
 62
1
 10
355.750537009062
 20
689.0894849347405
 30
0
 11
314.9505370090611
 21
689.0894849347405
 31
0
  0
LINE
  8
1
 62
3
 10
319.2505370090613
 20
684.3894849347405
 30
0
 11
334.7505370090613
 21
684.3894849347405
 31
0
  0
LINE
  8
1
 62
3
 10
319.2505370090613
 20
693.7894849347405
 30
0
 11
334.7505370090613
 21
693.7894849347405
 31
0
  0
LINE
  8
1
 62
3
 10
319.2505370090613
 20
684.3894849347405
 30
0
 11
319.2505370090613
 21
693.7894849347405
 31
0
  0
LINE
  8
1
 62
3
 10
334.7505370090613
 20
652.5894849347405
 30
0
 11
337.7505370090613
 21
652.5894849347405
 31
0
  0
LINE
  8
1
 62
3
 10
334.7505370090613
 20
725.5894849347405
 30
0
 11
337.7505370090613
 21
725.5894849347405
 31
0
  0
LINE
  8
1
 62
3
 10
337.7505370090613
 20
649.0894849347405
 30
0
 11
350.750537009062
 21
649.0894849347405
 31
0
  0
LINE
  8
1
 62
3
 10
337.7505370090613
 20
649.0894849347405
 30
0
 11
337.7505370090613
 21
729.0894849347405
 31
0
  0
LINE
  8
1
 62
3
 10
337.7505370090613
 20
729.0894849347405
 30
0
 11
350.750537009062
 21
729.0894849347405
 31
0
  0
LINE
  8
1
 62
3
 10
334.7505370090613
 20
725.5894849347405
 30
0
 11
334.7505370090613
 21
652.5894849347405
 31
0
  0
LINE
  8
1
 62
2
 10
323.1398488400554
 20
693.7894849347405
 30
0
 11
324.8836931760392
 21
684.3894849347405
 31
0
  0
LINE
  8
1
 62
2
 10
324.1398488400554
 20
693.7894849347405
 30
0
 11
325.8836931760392
 21
684.3894849347405
 31
0
  0
LINE
  8
1
 62
2
 10
325.1398488400554
 20
693.7894849347405
 30
0
 11
326.8836931760394
 21
684.3894849347405
 31
0
  0
LINE
  8
1
 62
3
 10
241.3339140692543
 20
729.8553308611449
 30
0
 11
268.2956067610986
 21
729.8553308611449
 31
0
  0
ARC
  8
1
 62
3
 10
107.3533593274134
 20
722.2696343118518
 30
0
 40
6.750000000000114
 50
90
 51
0
  0
ARC
  8
1
 62
3
 10
107.3533593274134
 20
655.7696343118518
 30
0
 40
6.75
 50
0
 51
270
  0
ARC
  8
1
 62
3
 10
40.85335932741339
 20
722.2696343118518
 30
0
 40
6.75
 50
180
 51
90
  0
ARC
  8
1
 62
3
 10
40.85335932741339
 20
655.7696343118518
 30
0
 40
6.75
 50
270
 51
180
  0
ARC
  8
1
 62
2
 10
74.10335932741327
 20
689.0196343118518
 30
0
 40
47.02260094890557
 50
20.00000000000001
 51
55.00000000000009
  0
ARC
  8
1
 62
2
 10
74.10335932741327
 20
689.0196343118518
 30
0
 40
47.02260094890532
 50
200
 51
235
  0
CIRCLE
  8
1
 62
3
 10
107.3533593274134
 20
722.2696343118518
 30
0
 40
2.75
  0
CIRCLE
  8
1
 62
3
 10
40.85335932741339
 20
722.2696343118518
 30
0
 40
2.75
  0
CIRCLE
  8
1
 62
3
 10
40.85335932741339
 20
655.7696343118518
 30
0
 40
2.75
  0
CIRCLE
  8
1
 62
3
 10
107.3533593274134
 20
655.7696343118518
 30
0
 40
2.75
  0
CIRCLE
  8
1
 62
3
 10
74.10335932741327
 20
704.0196343118518
 30
0
 40
17
  0
CIRCLE
  8
1
 62
3
 10
74.10335932741327
 20
704.0196343118518
 30
0
 40
7.5
  0
CIRCLE
  8
1
 62
4
  6
DIVIDE
 10
74.10335932741327
 20
689.0196343118518
 30
0
 40
46.99999999999989
  0
ARC
  8
1
 62
3
 10
40.60335932741339
 20
722.5196343118518
 30
0
 40
6.500000000000114
 50
90
 51
180
  0
ARC
  8
1
 62
3
 10
40.60335932741339
 20
655.5196343118518
 30
0
 40
6.5
 50
180
 51
270
  0
ARC
  8
1
 62
3
 10
107.6033593274134
 20
655.5196343118518
 30
0
 40
6.5
 50
270
 51
0
  0
ARC
  8
1
 62
3
 10
107.6033593274134
 20
722.5196343118518
 30
0
 40
6.5
 50
0
 51
90
  0
ARC
  8
1
 62
3
 10
232.0595737700866
 20
650.3960732865739
 30
0
 40
1.274754878398196
 50
191.3099324740202
 51
281.3099324740202
  0
ARC
  8
1
 62
3
 10
232.0595737700866
 20
660.7130605846817
 30
0
 40
1.322875655532323
 50
100.8933946491307
 51
160.893394649129
  0
ARC
  8
1
 62
3
 10
230.3095737700866
 20
685.5196343118518
 30
0
 40
1.5
 50
0
 51
90
  0
ARC
  8
1
 62
3
 10
224.8095737700866
 20
720.0196343118518
 30
0
 40
1
 50
90
 51
180
  0
ARC
  8
1
 62
3
 10
224.8095737700866
 20
688.0196343118518
 30
0
 40
1
 50
180
 51
270
  0
ARC
  8
1
 62
3
 10
231.8095737700866
 20
727.785700367881
 30
0
 40
0.999999999999988
 50
90.15462739337507
 51
180
  0
POLYLINE
  8
1
 62
2
 66
1
 70
1
  0
VERTEX
  8
1
 10
199.1005190361256
 20
609.0705210755724
 30
0
  0
VERTEX
  8
1
 10
247.1560745916812
 20
609.0705210755724
 30
0
 42
0.4142135624
  0
VERTEX
  8
1
 10
257.1560745916812
 20
619.0705210755724
 30
0
  0
VERTEX
  8
1
 10
257.1560745916812
 20
619.0705210755724
 30
0
 42
0.4142135624
  0
VERTEX
  8
1
 10
247.1560745916812
 20
629.0705210755724
 30
0
  0
VERTEX
  8
1
 10
199.1005190361256
 20
629.0705210755724
 30
0
 42
0.4142135624
  0
VERTEX
  8
1
 10
189.1005190361256
 20
619.0705210755724
 30
0
  0
VERTEX
  8
1
 10
189.1005190361256
 20
619.0705210755724
 30
0
 42
0.4142135624
  0
SEQEND
  8
1
  0
LINE
  8
1
 62
2
 10
354.54555740633
 20
640.2588734123419
 30
0
 11
304.6983856600888
 21
640.2588734123419
 31
0
  0
LINE
  8
1
 62
2
 10
304.6983856600888
 20
640.2588734123419
 30
0
 11
324.8836931760392
 21
684.3894849347405
 31
0
  0
SOLID
  8
1
 62
2
 10
323.8468895358567
 20
681.014968692642
 30
0
 11
323.0088286917335
 21
681.3982970733765
 31
0
 12
324.8836931760392
 22
684.3894849347405
 32
0
 13
324.8836931760392
 23
684.3894849347405
 33
0
  0
LINE
  8
1
 62
2
 10
277.7343540752337
 20
739.0426358682751
 30
0
 11
249.2343540752337
 21
739.0426358682751
 31
0
  0
LINE
  8
1
 62
2
 10
249.2343540752337
 20
739.0426358682751
 30
0
 11
255.5270331507824
 21
729.7925842330387
 31
0
  0
SOLID
  8
1
 62
2
 10
253.1773988523336
 20
732.4272645400276
 30
0
 11
253.9393661407814
 21
732.9456200910393
 31
0
 12
255.5270331507824
 22
729.7925842330387
 32
0
 13
255.5270331507824
 23
729.7925842330387
 33
0
  0
TEXT
  8
1
 62
2
 10
242.1952645436546
 20
733.3359494631981
 30
0
 40
2
  1
ékédésésédéqü@écéhéqüD
 50
90
 41
0.63
 72
1
 73
3
 11
240.1952645436546
 21
747.1959494631981
 31
0
  0
TEXT
  8
1
 62
2
 10
246.1452645436544
 20
731.4926950253284
 30
0
 40
3.5
  1
òÂÄÜâmî³âL
 50
90
 41
0.9
 72
1
 73
2
 11
244.3952645436544
 21
747.2426950253284
 31
0
  0
TEXT
  8
1
 62
2
 10
88.78733901593711
 20
579.1171986512403
 30
0
 40
3.5
  1
éréSéTéb
 41
0.9
 72
1
 11
101.3873390159371
 21
579.1171986512403
 31
0
  0
TEXT
  8
1
 62
2
 10
2.821338156883371
 20
579.1171986512403
 30
0
 40
3.5
  1
éP
 41
0.9
  0
TEXT
  8
1
 62
2
 10
11.64983901593707
 20
583.1171986512403
 30
0
 40
2.5
  1
éjédéx
 41
0.765
 72
1
 73
3
 11
17.38733901593707
 21
585.6171986512403
 31
0
  0
TEXT
  8
1
 62
2
 10
9.708633775334306
 20
579.1171986512403
 30
0
 40
3.5
  1
âLü[
 41
0.9
  0
TEXT
  8
1
 62
2
 10
27.88733901593707
 20
579.1171986512403
 30
0
 40
3.5
  1
éTü~éTü~éQéT
 41
0.8100000000000001
  0
TEXT
  8
1
 62
2
 10
2.987339015937069
 20
574.6171986512403
 30
0
 40
2.5
  1
éoé`ébéjéhéméfér
 41
0.7200000000000001
 72
1
 73
3
 11
17.38733901593707
 21
577.1171986512403
 31
0
  0
TEXT
  8
1
 62
2
 10
27.88733901593707
 20
591.9171986512403
 30
0
 40
2.5
  1
éréoéqéhéméfü@évé`érégédéqér
 41
0.63
 73
3
 11
27.88733901593707
 21
594.4171986512403
 31
0
  0
TEXT
  8
1
 62
2
 10
27.88733901593707
 20
600.4171986512403
 30
0
 40
2.5
  1
égédéwé`éfénémü@émétésér
 41
0.63
 73
3
 11
27.88733901593707
 21
602.9171986512403
 31
0
  0
TEXT
  8
1
 62
2
 10
3.999839015937068
 20
591.6171986512403
 30
0
 40
2.5
  1
évé`érégédéqér
 41
0.765
 72
1
 73
3
 11
17.38733901593707
 21
594.1171986512403
 31
0
  0
TEXT
  8
1
 62
2
 10
9.737339015937069
 20
600.1171986512403
 30
0
 40
2.5
  1
émétésér
 41
0.765
 72
1
 73
3
 11
17.38733901593707
 21
602.6171986512403
 31
0
  0
TEXT
  8
1
 62
2
 10
140.4090354340029
 20
608.9171986512403
 30
0
 40
2.5
  1
(BLACK)
 41
0.7200000000000001
 73
3
 11
140.4090354340029
 21
611.4171986512403
 31
0
  0
TEXT
  8
1
 62
2
 10
27.88733901593707
 20
608.9171986512403
 30
0
 40
2.5
  1
ébéqénérérü@éqédébédérérédécü@éoé`émü@égédé`écü@érébéqédévér
 41
0.63
 73
3
 11
27.88733901593707
 21
611.4171986512403
 31
0
  0
TEXT
  8
1
 62
2
 10
5.91233901593707
 20
608.6171986512403
 30
0
 40
2.5
  1
érébéqédévér
 41
0.765
 72
1
 73
3
 11
17.38733901593707
 21
611.1171986512403
 31
0
  0
TEXT
  8
1
 62
2
 10
51.44818722497
 20
626.0171986512403
 30
0
 40
2.5
  1
éoé`éqésérü@é`ésésé`ébégédéc
 41
0.7200000000000001
 72
1
 73
3
 11
76.64818722497
 21
628.5171986512403
 31
0
  0
TEXT
  8
1
 62
2
 10
120.54818722497
 20
617.1171986512403
 30
0
 40
2.5
  1
éqédélé`éqéjér
 41
0.7200000000000001
 72
1
 73
3
 11
133.14818722497
 21
619.6171986512403
 31
0
  0
TEXT
  8
1
 62
2
 10
86.9873390159371
 20
617.1171986512403
 30
0
 40
2.5
  1
élé`ésédéqéhé`ék
 41
0.7200000000000001
 72
1
 73
3
 11
101.3873390159371
 21
619.6171986512403
 31
0
  0
TEXT
  8
1
 62
2
 10
51.68733901593707
 20
617.1171986512403
 30
0
 40
2.5
  1
émé`éléd
 41
0.7200000000000001
 72
1
 73
3
 11
58.88733901593707
 21
619.6171986512403
 31
0
  0
TEXT
  8
1
 62
2
 10
10.18733901593707
 20
617.1171986512403
 30
0
 40
2.5
  1
éoé`éqés
 41
0.7200000000000001
 72
1
 73
3
 11
17.38733901593707
 21
619.6171986512403
 31
0
  0
TEXT
  8
1
 62
2
 10
-3.812660984062927
 20
617.1171986512403
 30
0
 40
2.5
  1
épüféséx
 41
0.7200000000000001
 72
1
 73
3
 11
3.387339015937073
 21
619.6171986512403
 31
0
  0
TEXT
  8
1
 62
2
 10
145.4090354340029
 20
604.3171986512404
 30
0
 40
3.5
  1
üiìòüj
 41
0.72
  0
TEXT
  8
1
 62
2
 10
113.8873390159371
 20
604.6171986512403
 30
0
 40
3.5
  1
édéÉü|éeéà/éyéÄ éW/ébél éQ
 41
0.54
  0
TEXT
  8
1
 62
2
 10
27.88733901593707
 20
587.6171986512403
 30
0
 40
3.5
  1
âoâlì└ïÓü@ü@ü@ü@ü@ü@éQìåü@éTü@
 41
0.8100000000000001
  0
TEXT
  8
1
 62
2
 10
9.708633775334306
 20
587.6171986512403
 30
0
 40
3.5
  1
ì└ü@ïÓ
 41
0.9
  0
TEXT
  8
1
 62
2
 10
-2.912660984062927
 20
613.1171986512403
 30
0
 40
3.5
  1
Éöù╩
 41
0.9
 72
1
 11
3.387339015937073
 21
613.1171986512403
 31
0
  0
TEXT
  8
1
 62
2
 10
4.78733901593707
 20
613.1171986512403
 30
0
 40
3.5
  1
òiü@ü@û╝
 41
0.9
 72
1
 11
17.38733901593707
 21
613.1171986512403
 31
0
  0
TEXT
  8
1
 62
2
 10
30.53733901593707
 20
613.1171986512403
 30
0
 40
3.5
  1
î─ü@ü@ü@ü@ü@ü@ü@Å╠
 41
0.9
 72
1
 11
58.88733901593707
 21
613.1171986512403
 31
0
  0
TEXT
  8
1
 62
2
 10
88.78733901593711
 20
613.1171986512403
 30
0
 40
3.5
  1
ìBü@ü@Ä┐
 41
0.9
 72
1
 11
101.3873390159371
 21
613.1171986512403
 31
0
  0
TEXT
  8
1
 62
2
 10
120.54818722497
 20
613.1171986512403
 30
0
 40
3.5
  1
ö§ü@ü@ìl
 41
0.9
 72
1
 11
133.14818722497
 21
613.1171986512403
 31
0
  0
TEXT
  8
1
 62
2
 10
54.59818722497001
 20
621.6171986512403
 30
0
 40
3.5
  1
òtü@ü@æ«ü@ü@òi
 41
0.9
 72
1
 11
76.64818722497
 21
621.6171986512403
 31
0
  0
TEXT
  8
1
 62
2
 10
2.821338156883371
 20
604.6171986512403
 30
0
 40
3.5
  1
éS
 41
0.9
  0
TEXT
  8
1
 62
2
 10
9.708633775334306
 20
604.6171986512403
 30
0
 40
3.5
  1
ÄµòtâlâW
 41
0.9
  0
TEXT
  8
1
 62
2
 10
27.88733901593707
 20
604.6171986512403
 30
0
 40
3.5
  1
Å\ÄÜîèòtâiâxÅ¼âlâWü@éléTü~éOüDéWü~éVéT
 41
0.8100000000000001
  0
TEXT
  8
1
 62
2
 10
86.2673390159371
 20
604.6171986512403
 30
0
 40
3.5
  1
érévéqéléPéQ
 41
0.72
 72
1
 11
101.3873390159371
 21
604.6171986512403
 31
0
  0
TEXT
  8
1
 62
2
 10
2.821338156883371
 20
596.1171986512403
 30
0
 40
3.5
  1
éS
 41
0.9
  0
TEXT
  8
1
 62
2
 10
2.821338156883371
 20
587.6171986512403
 30
0
 40
3.5
  1
éS
 41
0.9
  0
TEXT
  8
1
 62
2
 10
9.708633775334306
 20
596.1171986512403
 30
0
 40
3.5
  1
âiâbâg
 41
0.9
  0
TEXT
  8
1
 62
2
 10
27.88733901593707
 20
596.1171986512403
 30
0
 40
3.5
  1
ÿZèpâiâbâgü@ü@ü@ü@ü@éléTü~éOüDéW
 41
0.8100000000000001
  0
TEXT
  8
1
 62
2
 10
96.2673390159371
 20
596.1171986512403
 30
0
 40
4
  1
üV
 41
1.08
 72
1
 11
100.5873390159371
 21
596.1171986512403
 31
0
  0
TEXT
  8
1
 62
2
 10
98.2373390159371
 20
587.6171986512403
 30
0
 40
3.5
  1
ér
 41
0.9
 72
1
 11
101.3873390159371
 21
587.6171986512403
 31
0
  0
TEXT
  8
1
 62
2
 10
2.821338156883371
 20
570.6171986512403
 30
0
 40
3.5
  1
éP
 41
0.9
  0
TEXT
  8
1
 62
2
 10
9.708633775334306
 20
570.6171986512403
 30
0
 40
3.5
  1
âpâbâLâô
 41
0.9
  0
TEXT
  8
1
 62
2
 10
27.88733901593707
 20
570.6171986512403
 30
0
 40
3.5
  1
égéW
 41
0.9
  0
TEXT
  8
1
 62
2
 10
128.0281872249701
 20
596.1171986512403
 30
0
 40
4
  1
üV
 41
1.08
 72
1
 11
132.3481872249701
 21
596.1171986512403
 31
0
  0
TEXT
  8
1
 62
2
 10
128.0281872249701
 20
587.6171986512403
 30
0
 40
4
  1
üV
 41
1.08
 72
1
 11
132.3481872249701
 21
587.6171986512403
 31
0
  0
TEXT
  8
1
 62
2
 10
194.1005190361256
 20
614.0705210755724
 30
0
 40
10
  1
8F EBN
 41
0.9
  0
TEXT
  8
1
 62
2
 10
308.6983856600888
 20
600.758873412342
 30
0
 40
2.5
  1
égé`émécü@énéeü@égédékéhéw
 41
0.7200000000000001
 73
3
 11
308.6983856600888
 21
603.258873412342
 31
0
  0
TEXT
  8
1
 62
2
 10
298.1219715332092
 20
586.7591170377484
 30
0
 40
3.5
  1
èÜìçæèÄÞâsâjâIâôÄdùl
 41
0.9
 72
1
 11
329.6219715332092
 21
586.7591170377484
 31
0
  0
TEXT
  8
1
 62
2
 10
309.6983856600888
 20
596.258873412342
 30
0
 40
3.5
  1
âlâWâîò¹î³ü@üFü@ü@ëE
 41
0.9
  0
TEXT
  8
1
 62
2
 10
250.2343540752337
 20
740.0426358682751
 30
0
 40
4
  1
âlü[âÇâvâîü[âg
 41
0.9
  0
TEXT
  8
1
 62
2
 10
250.7343540752337
 20
744.5426358682751
 30
0
 40
2.5
  1
émé`élédü@éoéké`éséd
 41
0.8100000000000001
  0
TEXT
  8
1
 62
2
 10
147.5049452937248
 20
744.0994857673832
 30
0
 40
2.5
  1
éségéqétü@égénékéd
 41
0.7200000000000001
  0
TEXT
  8
1
 62
2
 10
282.3719715332092
 20
591.758873412342
 30
0
 40
2.5
  1
élédérégéhéméfü@élénésénéqü@éoéhéméhénémü@éréoédébéhéeéhébé`éséhénémér
 41
0.54
 72
1
 73
3
 11
329.6219715332092
 21
594.258873412342
 31
0
  0
TEXT
  8
1
 62
2
 10
309.6983856600888
 20
641.2588734123419
 30
0
 40
3.5
  1
âwü@âèü@âJü@âïü@Ädü@ùl
 41
0.9
  0
TEXT
  8
1
 62
2
 10
309.6983856600888
 20
632.2588734123419
 30
0
 40
3.5
  1
âéâWâàü|âïü@üFü@éOüDéV
 41
0.9
  0
TEXT
  8
1
 62
2
 10
309.6983856600888
 20
623.258873412342
 30
0
 40
3.5
  1
ê%%dü@ù═ü@èpü@üFü@éQéO%%d
 41
0.9
  0
TEXT
  8
1
 62
2
 10
309.6983856600888
 20
614.258873412342
 30
0
 40
3.5
  1
Äòü@ü@ü@Éöü@üFü@éPéO
 41
0.9
  0
TEXT
  8
1
 62
2
 10
309.6983856600888
 20
605.258873412342
 30
0
 40
3.5
  1
èOü@ü@ü@îaü@üFâËéXüDéS
 41
0.9
  0
TEXT
  8
1
 62
2
 10
308.6983856600888
 20
636.2588734123419
 30
0
 40
2.5
  1
élénécétékéd
 41
0.7200000000000001
 73
3
 11
308.6983856600888
 21
638.7588734123419
 31
0
  0
TEXT
  8
1
 62
2
 10
308.6983856600888
 20
627.7588734123419
 30
0
 40
2.5
  1
éoéqédérérétéqédü@é`éméfékéd
 41
0.7200000000000001
 73
3
 11
308.6983856600888
 21
630.2588734123419
 31
0
  0
TEXT
  8
1
 62
2
 10
308.6983856600888
 20
618.758873412342
 30
0
 40
2.5
  1
émétéléaédéqü@énéeü@ésédédéség
 41
0.7200000000000001
 73
3
 11
308.6983856600888
 21
621.258873412342
 31
0
  0
TEXT
  8
1
 62
2
 10
308.6983856600888
 20
609.758873412342
 30
0
 40
2.5
  1
énétésédéqü@écéhé`élédésédéq
 41
0.7200000000000001
 73
3
 11
308.6983856600888
 21
612.258873412342
 31
0
  0
TEXT
  8
1
 62
2
 10
308.6983856600888
 20
645.2588734123419
 30
0
 40
2.5
  1
égédékéhébé`ékü@éfédé`éqü@écé`ésé`
 41
0.7200000000000001
 73
3
 11
308.6983856600888
 21
647.7588734123419
 31
0
  0
TEXT
  8
1
 62
2
 10
340.6983856600888
 20
600.758873412342
 30
0
 40
2.5
  1
éqéhéfégés
 41
0.7200000000000001
 73
3
 11
340.6983856600888
 21
603.258873412342
 31
0
  0
DIMENSION
  8
1
  6
CONTINUOUS
 62
2
  2
*D0
  3
DMST_1
 10
296.4036469326281
 20
725.4478537992125
 30
0
 11
291.6036469326281
 21
689.8325320699639
 31
0
 12
0
 22
0
 32
0
 70
0
  1
73H7
 13
285.895068794625
 23
652.4478537992126
 33
0
 14
285.895068794625
 24
725.4478537992126
 34
0
 50
90
 53
0
  0
DIMENSION
  8
1
  6
CONTINUOUS
 62
2
  2
*D1
  3
DMST_2
 10
175.7782757349296
 20
711.5196343118519
 30
0
 11
171.3782757349296
 21
704.1935410708418
 31
0
 12
0
 22
0
 32
0
 70
0
  1
âË<>
 13
195.8095737700866
 23
696.5196343118518
 33
0
 14
195.8095737700866
 24
711.5196343118518
 34
0
 50
90
 53
0
  0
DIMENSION
  8
1
  6
CONTINUOUS
 62
2
  2
*D2
  3
DMST_3
 10
188.4381856417074
 20
708.5196343118519
 30
0
 11
184.8381856417074
 21
709.7322516550578
 31
0
 12
0
 22
0
 32
0
 70
0
 13
195.8095737700866
 23
711.5196343118518
 33
0
 14
195.8095737700866
 24
708.5196343118518
 34
0
 50
90
 53
0
  0
DIMENSION
  8
1
  6
CONTINUOUS
 62
2
  2
*D3
  3
DMST_3
 10
220.8095737700864
 20
730.8980385304527
 30
0
 11
209.2083503325165
 21
734.4980385304527
 31
0
 12
0
 22
0
 32
0
 70
0
 13
195.8095737700866
 23
711.5196343118518
 33
0
 14
220.8095737700866
 24
708.5196343118518
 34
0
 53
0
  0
DIMENSION
  8
1
  6
CONTINUOUS
 62
2
  2
*D4
  3
DMST_3
 10
165.0964767510845
 20
721.0196343118516
 30
0
 11
161.4964767510845
 21
704.3913521631357
 31
0
 12
0
 22
0
 32
0
 70
0
  1
âË<>
 13
229.8095737700866
 23
687.0196343118518
 33
0
 14
224.8095737700866
 24
721.0196343118518
 34
0
 50
90
 53
0
  0
DIMENSION
  8
1
  6
CONTINUOUS
 62
2
  2
*D5
  3
DMST_3
 10
230.8095737700864
 20
761.0203370292287
 30
0
 11
213.4411329861244
 21
764.6203370292287
 31
0
 12
0
 22
0
 32
0
 70
0
 13
195.8095737700866
 23
711.5196343118518
 33
0
 14
230.8095737700866
 24
727.785700367881
 34
0
 53
0
  0
DIMENSION
  8
1
  6
CONTINUOUS
 62
2
  2
*D6
  3
DMST_3
 10
223.8095737700865
 20
734.8542603763218
 30
0
 11
227.2091597312175
 21
738.4542603763218
 31
0
 12
0
 22
0
 32
0
 70
0
 13
230.8095737700866
 23
727.785700367881
 33
0
 14
223.8095737700866
 24
719.0196343118518
 34
0
 53
0
  0
DIMENSION
  8
1
  6
CONTINUOUS
 62
2
  2
*D7
  3
DMST_3
 10
280.8095737700867
 20
760.8948119176147
 30
0
 11
256.2451960462296
 21
764.4948119176147
 31
0
 12
0
 22
0
 32
0
 70
0
 13
230.8095737700866
 23
727.785700367881
 33
0
 14
280.8095737700866
 24
728.0196343118518
 34
0
 53
0
  0
DIMENSION
  8
0
  6
CONTINUOUS
 62
2
  2
*D8
  3
DMST_4
 10
107.3533593274132
 20
751.6198443830823
 30
0
 11
74.10335932741327
 21
754.8198443830823
 31
0
 12
0
 22
0
 32
0
 70
0
 13
40.85335932741339
 23
731.7791185432698
 33
0
 14
107.3533593274134
 24
731.7791185432698
 34
0
 53
0
  0
DIMENSION
  8
0
  6
CONTINUOUS
 62
2
  2
*D9
  3
DMST_4
 10
24.10335932741334
 20
655.7696343118519
 30
0
 11
20.90335932741334
 21
688.135739006522
 31
0
 12
0
 22
0
 32
0
 70
0
 13
31.34387509599537
 23
722.2696343118518
 33
0
 14
31.34387509599537
 24
655.7696343118518
 34
0
 50
90
 53
0
  0
DIMENSION
  8
0
  6
CONTINUOUS
 62
2
  2
*D11
  3
DMST_6
 10
34.10335932741328
 20
761.6198443830823
 30
0
 11
74.10335932741327
 21
764.8198443830823
 31
0
 12
0
 22
0
 32
0
 70
0
 13
114.1033593274134
 23
722.2696343118518
 33
0
 14
34.10335932741339
 24
722.2696343118518
 34
0
 53
0
  0
DIMENSION
  8
0
  6
CONTINUOUS
 62
2
  2
*D12
  3
DMST_6
 10
14.10335932741333
 20
649.0196343118519
 30
0
 11
10.90335932741334
 21
687.7214300848088
 31
0
 12
0
 22
0
 32
0
 70
0
 13
40.85335932741339
 23
729.0196343118519
 33
0
 14
40.85335932741339
 24
649.0196343118518
 34
0
 50
90
 53
0
  0
DIMENSION
  8
1
  6
CONTINUOUS
 62
2
  2
*D14
  3
DMST_7
 10
319.2505370090612
 20
754.0894849347404
 30
0
 11
327.9302630909625
 21
757.2329065160675
 31
0
 12
0
 22
0
 32
0
 70
0
 13
337.7505370090613
 23
729.0894849347405
 33
0
 14
319.2505370090613
 24
693.7894849347405
 34
0
 53
0
  0
DIMENSION
  8
1
  6
CONTINUOUS
 62
2
  2
*D15
  3
DMST_7
 10
334.7505370090611
 20
744.0894849347405
 30
0
 11
329.9388031194281
 21
747.4984202298685
 31
0
 12
0
 22
0
 32
0
 70
0
 13
337.7505370090613
 23
729.0894849347405
 33
0
 14
334.7505370090613
 24
725.5894849347405
 34
0
 53
0
  0
DIMENSION
  8
0
  6
CONTINUOUS
 62
2
  2
*D16
  3
DMST_8
 10
117.3670874396779
 20
707.3839973508476
 30
0
 11
43.74643453547719
 21
680.9113231182346
 31
0
 12
0
 22
0
 32
0
 70
3
  1
(%%c<>
 15
30.83963121514868
 25
670.6552712728559
 35
0
 40
0
 53
0
  0
INSERT
  8
0
  2
*D10
 10
0
 20
0
 30
0
  0
INSERT
  8
0
  2
*D13
 10
0
 20
0
 30
0
  0
INSERT
  8
0
  2
*D17
 10
0
 20
0
 30
0
  0
ENDSEC
  0
EOF
