  0
SECTION
  2
HEADER
  9
$ACADVER
  1
AC1009
  9
$INSBASE
 10
0
 20
0
  9
$EXTMIN
 10
-54.84800994585989
 20
-122.9999999999998
  9
$EXTMAX
 10
312.0367170213687
 20
75.03866686838026
  9
$LIMMIN
 10
-54.84800994585989
 20
-122.9999999999998
  9
$LIMMAX
 10
312.0367170213687
 20
75.03866686838026
  9
$VIEWCTR
 10
10
 20
10
  9
$VIEWSIZE
 40
10
  9
$SNAPMODE
 70
0
  9
$SNAPUNIT
 10
1
 20
1
  9
$SNAPBASE
 10
0
 20
0
  9
$SNAPANG
 50
0
  9
$SNAPSTYLE
 70
0
  9
$SNAPISOPAIR
 70
0
  9
$GRIDMODE
 70
0
  9
$GRIDUNIT
 10
0
 20
0
  9
$ORTHOMODE
 70
0
  9
$REGENMODE
 70
1
  9
$FILLMODE
 70
1
  9
$QTEXTMODE
 70
0
  9
$DRAGMODE
 70
2
  9
$LTSCALE
 40
1
  9
$OSMODE
 70
0
  9
$ATTMODE
 70
1
  9
$TEXTSIZE
 40
3.5
  9
$TRACEWID
 40
0.5
  9
$TEXTSTYLE
  7
STANDARD
  9
$CLAYER
  8
0
  9
$CELTYPE
  6
BYLAYER
  9
$CECOLOR
 62
256
  9
$DIMSCALE
 40
1
  9
$DIMASZ
 40
0.18
  9
$DIMEXO
 40
0.0625
  9
$DIMDLI
 40
0.38
  9
$DIMRND
 40
0
  9
$DIMDLE
 40
0
  9
$DIMEXE
 40
0.18
  9
$DIMTP
 40
0
  9
$DIMTM
 40
0
  9
$DIMTXT
 40
0.18
  9
$DIMCEN
 40
0.09
  9
$DIMTSZ
 40
0
  9
$DIMTOL
 70
0
  9
$DIMLIM
 70
0
  9
$DIMTIH
 70
1
  9
$DIMTOH
 70
1
  9
$DIMSE1
 70
0
  9
$DIMSE2
 70
0
  9
$DIMTAD
 70
0
  9
$DIMZIN
 70
0
  9
$DIMBLK
  1

  9
$DIMASO
 70
1
  9
$DIMSHO
 70
1
  9
$DIMPOST
  1

  9
$DIMAPOST
  1

  9
$DIMALT
 70
0
  9
$DIMALTD
 70
2
  9
$DIMALTF
 40
25.4
  9
$DIMLFAC
 40
1
  9
$DIMTOFL
 70
0
  9
$DIMTVP
 40
0
  9
$DIMTIX
 70
0
  9
$DIMSOXD
 70
0
  9
$DIMSAH
 70
0
  9
$DIMBLK1
  1

  9
$DIMBLK2
  1

  9
$DIMSTYLE
  2
*UNNAMED
  9
$DIMCLRD
 70
0
  9
$DIMCLRE
 70
0
  9
$DIMCLRT
 70
0
  9
$DIMTFAC
 40
1
  9
$DIMGAP
 40
0.09
  9
$LUNITS
 70
2
  9
$LUPREC
 70
4
  9
$AXISMODE
 70
0
  9
$AXISUNIT
 10
0
 20
0
  9
$SKETCHINC
 40
0.1
  9
$FILLETRAD
 40
2
  9
$AUNITS
 70
0
  9
$AUPREC
 70
0
  9
$MENU
  1
ACAD
  9
$ELEVATION
 40
0
  9
$THICKNESS
 40
0
  9
$VIEWDIR
 10
0
 20
0
 30
1
  9
$LIMCHECK
 70
0
  9
$BLIPMODE
 70
1
  9
$CHAMFERA
 40
0
  9
$CHAMFERB
 40
0
  9
$FASTZOOM
 70
1
  9
$SKPOLY
 70
0
  9
$ANGBASE
 50
0
  9
$ANGDIR
 70
0
  9
$PDMODE
 70
0
  9
$PDSIZE
 40
0
  9
$PLINEWID
 40
0
  9
$COORDS
 70
2
  0
ENDSEC
  0
SECTION
  2
TABLES
  0
TABLE
  2
DIMSTYLE
 70
7
  0
DIMSTYLE
  2
DMST_1
 70
0
  3

  4

  5

  6

  7

 40
1
 41
3.2
 42
1
 43
7
 44
1
 45
0
 46
0
 47
0
 48
0.02
140
3.2
141
0
142
0
143
25.4
144
1
145
0
146
0.6
147
0.09
 71
1
 72
0
 73
0
 74
0
 75
0
 76
0
 77
1
 78
9
170
0
171
2
172
0
173
0
174
0
175
0
176
2
177
2
178
2
  0
DIMSTYLE
  2
DMST_2
 70
0
  3

  4

  5

  6

  7

 40
1
 41
3.2
 42
1
 43
7
 44
1
 45
0
 46
0
 47
0
 48
0
140
3.2
141
0
142
0
143
25.4
144
1
145
0
146
1
147
0.09
 71
0
 72
0
 73
0
 74
0
 75
0
 76
0
 77
1
 78
9
170
0
171
2
172
0
173
0
174
0
175
0
176
2
177
2
178
2
  0
DIMSTYLE
  2
DMST_3
 70
0
  3

  4

  5

  6

  7

 40
1
 41
3.2
 42
1
 43
7
 44
1
 45
0
 46
0
 47
0
 48
0
140
3.2
141
0
142
0
143
25.4
144
1
145
0
146
1
147
0.09
 71
0
 72
0
 73
1
 74
1
 75
0
 76
0
 77
0
 78
9
170
0
171
2
172
0
173
0
174
0
175
0
176
2
177
2
178
2
  0
DIMSTYLE
  2
DMST_4
 70
0
  3

  4

  5

  6

  7

 40
1
 41
3.2
 42
1
 43
7
 44
1
 45
0
 46
0
 47
0
 48
0
140
3.2
141
0
142
0
143
25.4
144
1
145
0
146
0.6
147
0.09
 71
1
 72
0
 73
0
 74
0
 75
0
 76
0
 77
1
 78
9
170
0
171
2
172
0
173
0
174
0
175
0
176
2
177
2
178
2
  0
DIMSTYLE
  2
DMST_5
 70
0
  3

  4

  5

  6

  7

 40
1
 41
3.2
 42
1
 43
7
 44
1
 45
0
 46
0
 47
0.3
 48
0.3
140
3.2
141
0
142
0
143
25.4
144
1
145
0
146
0.6
147
0.09
 71
1
 72
0
 73
0
 74
0
 75
0
 76
0
 77
1
 78
9
170
0
171
2
172
0
173
0
174
0
175
0
176
2
177
2
178
2
  0
DIMSTYLE
  2
DMST_6
 70
0
  3

  4

  5

  6

  7

 40
1
 41
3.2
 42
1
 43
7
 44
1.5
 45
0
 46
0
 47
0
 48
0
140
3.2
141
0
142
0
143
25.4
144
1
145
0
146
1
147
0.09
 71
0
 72
0
 73
0
 74
0
 75
0
 76
0
 77
1
 78
9
170
0
171
2
172
0
173
0
174
0
175
0
176
2
177
2
178
2
  0
DIMSTYLE
  2
DMST_7
 70
0
  3
)
  4

  5

  6

  7

 40
1
 41
3.2
 42
1
 43
7
 44
1
 45
0
 46
0
 47
0
 48
0
140
3.2
141
0
142
0
143
25.4
144
1
145
0
146
1
147
0.09
 71
0
 72
0
 73
0
 74
0
 75
0
 76
0
 77
1
 78
9
170
0
171
2
172
0
173
0
174
1
175
0
176
2
177
2
178
2
  0
ENDTAB
  0
TABLE
  2
LTYPE
 70
9
  0
LTYPE
  2
CONTINUOUS
 70
64
  3
Solid line
 72
65
 73
0
 40
0
  0
LTYPE
  2
BORDER
 70
64
  3
__ __ . __ __ .
 72
65
 73
6
 40
16.89600716296448
 49
4.82743061798985
 49
-2.413715308994925
 49
4.82743061798985
 49
-2.413715308994925
 49
0
 49
-2.413715308994925
  0
LTYPE
  2
CENTER
 70
64
  3
____ _ ____ _
 72
65
 73
4
 40
19.3097224719594
 49
12.06857654497463
 49
-2.413715308994925
 49
2.413715308994925
 49
-2.413715308994925
  0
LTYPE
  2
DASHDOT
 70
64
  3
__ . __ . __ .
 72
65
 73
4
 40
9.6548612359797
 49
4.82743061798985
 49
-2.413715308994925
 49
0
 49
-2.413715308994925
  0
LTYPE
  2
DASHED
 70
64
  3
__ __ __ __ __
 72
65
 73
2
 40
7.241145926984775
 49
4.82743061798985
 49
-2.413715308994925
  0
LTYPE
  2
DIVIDE
 70
64
  3
__ . . __ . . 
 72
65
 73
6
 40
12.06857654497463
 49
4.82743061798985
 49
-2.413715308994925
 49
0
 49
-2.413715308994925
 49
0
 49
-2.413715308994925
  0
LTYPE
  2
DOT
 70
64
  3
..............
 72
65
 73
4
 40
4.82743061798985
 49
0
 49
-2.413715308994925
 49
0
 49
-2.413715308994925
  0
LTYPE
  2
HIDDEN
 70
64
  3
_ _ _ _ _ _ _
 72
65
 73
2
 40
3.620572963492387
 49
2.413715308994925
 49
-1.206857654497463
  0
LTYPE
  2
PHANTOM
 70
64
  3
_____ _ _ _____ _ _ 
 72
65
 73
6
 40
24.13715308994925
 49
12.06857654497463
 49
-2.413715308994925
 49
2.413715308994925
 49
-2.413715308994925
 49
2.413715308994925
 49
-2.413715308994925
  0
ENDTAB
  0
TABLE
  2
LAYER
 70
4
  0
LAYER
  2
1
 70
0
 62
7
  6
CONTINUOUS
  0
LAYER
  2
2
 70
0
 62
7
  6
CONTINUOUS
  0
LAYER
  2
0
 70
0
 62
7
  6
CONTINUOUS
  0
ENDTAB
  0
TABLE
  2
STYLE
 70
4
  0
STYLE
  2
STANDARD
 70
0
 40
0
 41
1
 50
0
 71
0
 42
3.5
  3
txt
  4

  0
STYLE
  2
SIMPLEX
 70
0
 40
0
 41
1
 50
0
 71
0
 42
3.5
  3
simplex
  4

  0
STYLE
  2
COMPLEX
 70
0
 40
0
 41
1
 50
0
 71
0
 42
3.5
  3
complex
  4

  0
STYLE
  2
ITALIC
 70
0
 40
0
 41
1
 50
0
 71
0
 42
3.5
  3
italic
  4

  0
ENDTAB
  0
TABLE
  2
VIEW
 70
0
  0
ENDTAB
  0
ENDSEC
  0
SECTION
  2
BLOCKS
  0
BLOCK
  8
1
  2
*D0
 70
1
 10
0
 20
0
 30
0
  0
LINE
  8
1
 62
2
 10
99.72027405650648
 20
21.08866686838027
 30
0
 11
99.72027405650648
 21
29.08866686838027
 31
0
  0
LINE
  8
1
 62
2
 10
99.72027405650648
 20
21.08866686838027
 30
0
 11
99.72027405650648
 21
14.68866686838027
 31
0
  0
LINE
  8
1
 62
2
 10
99.72027405650648
 20
29.08866686838027
 30
0
 11
99.72027405650648
 21
35.48866686838028
 31
0
  0
LINE
  8
1
 62
2
 10
118.7202740565065
 20
21.08866686838027
 30
0
 11
98.72027405650648
 21
21.08866686838027
 31
0
  0
LINE
  8
1
 62
2
 10
135.7202740565065
 20
29.08866686838027
 30
0
 11
98.72027405650648
 21
29.08866686838027
 31
0
  0
SOLID
  8
1
 62
2
 10
99.72027405650648
 20
29.08866686838027
 30
0
 11
99.30427405650649
 21
32.28866686838027
 31
0
 12
100.1362740565065
 22
32.28866686838027
 32
0
 13
100.1362740565065
 23
32.28866686838027
 33
0
  0
SOLID
  8
1
 62
2
 10
99.72027405650648
 20
21.08866686838027
 30
0
 11
100.1362740565065
 21
17.88866686838027
 31
0
 12
99.30427405650649
 22
17.88866686838027
 32
0
 13
99.30427405650649
 23
17.88866686838027
 33
0
  0
TEXT
  8
1
 62
2
 10
96.92027405650647
 20
21.53428510741091
 30
0
 40
3.2
  1
8
 50
90
 41
0.9
  0
TEXT
  8
1
 62
2
 10
94.84027405650647
 20
25.05428510741091
 30
0
 40
1.92
  1
 0
 50
90
 41
0.9
  0
TEXT
  8
1
 62
2
 10
97.72027405650648
 20
25.05428510741091
 30
0
 40
1.92
  1
-0.02
 50
90
 41
0.9
  0
TEXT
  8
1
 62
2
 10
96.92027405650647
 20
17.88984066296647
 30
0
 40
3.2
  1
âË
 50
90
 41
0.9
  0
ENDBLK
  8
0
  0
BLOCK
  8
1
  2
*D1
 70
1
 10
0
 20
0
 30
0
  0
LINE
  8
1
 62
2
 10
119.7202740565065
 20
69.83866686838024
 30
0
 11
154.7202740565065
 21
69.83866686838024
 31
0
  0
LINE
  8
1
 62
2
 10
119.7202740565065
 20
29.08866686838024
 30
0
 11
119.7202740565065
 21
70.83866686838024
 31
0
  0
LINE
  8
1
 62
2
 10
154.7202740565065
 20
50.83866686838024
 30
0
 11
154.7202740565065
 21
70.83866686838024
 31
0
  0
SOLID
  8
1
 62
2
 10
119.7202740565065
 20
69.83866686838024
 30
0
 11
122.9202740565065
 21
70.25466686838024
 31
0
 12
122.9202740565065
 22
69.42266686838025
 32
0
 13
122.9202740565065
 23
69.42266686838025
 33
0
  0
SOLID
  8
1
 62
2
 10
154.7202740565065
 20
69.83866686838024
 30
0
 11
151.5202740565065
 21
69.42266686838025
 31
0
 12
151.5202740565065
 22
70.25466686838024
 32
0
 13
151.5202740565065
 23
70.25466686838024
 33
0
  0
TEXT
  8
1
 62
2
 10
134.461605195963
 20
71.83866686838027
 30
0
 40
3.2
  1
35
 41
0.9
  0
ENDBLK
  8
0
  0
BLOCK
  8
1
  2
*D2
 70
1
 10
0
 20
0
 30
0
  0
LINE
  8
1
 62
2
 10
109.7202740565065
 20
21.68866686838027
 30
0
 11
109.7202740565065
 21
28.08866686838027
 31
0
  0
LINE
  8
1
 62
2
 10
109.7202740565065
 20
28.08866686838027
 30
0
 11
109.7202740565065
 21
29.08866686838027
 31
0
  0
LINE
  8
1
 62
2
 10
109.7202740565065
 20
29.08866686838027
 30
0
 11
109.7202740565065
 21
35.48866686838028
 31
0
  0
LINE
  8
1
 62
2
 10
118.7202740565065
 20
28.08866686838027
 30
0
 11
108.7202740565065
 21
28.08866686838027
 31
0
  0
LINE
  8
1
 62
2
 10
135.7202740565065
 20
29.08866686838027
 30
0
 11
108.7202740565065
 21
29.08866686838027
 31
0
  0
SOLID
  8
1
 62
2
 10
109.7202740565065
 20
29.08866686838027
 30
0
 11
109.3042740565065
 21
32.28866686838028
 31
0
 12
110.1362740565065
 22
32.28866686838028
 32
0
 13
110.1362740565065
 23
32.28866686838028
 33
0
  0
SOLID
  8
1
 62
2
 10
109.7202740565065
 20
28.08866686838027
 30
0
 11
110.1362740565065
 21
24.88866686838027
 31
0
 12
109.3042740565065
 22
24.88866686838027
 32
0
 13
109.3042740565065
 23
24.88866686838027
 33
0
  0
TEXT
  8
1
 62
2
 10
107.7202740565065
 20
32.80373259755267
 30
0
 40
3.2
  1
1
 50
90
 41
0.9
  0
ENDBLK
  8
0
  0
BLOCK
  8
1
  2
*D3
 70
1
 10
0
 20
0
 30
0
  0
LINE
  8
1
 62
2
 10
119.7202740565065
 20
44.08866686838024
 30
0
 11
133.7202740565065
 21
44.08866686838024
 31
0
  0
LINE
  8
1
 62
2
 10
119.7202740565065
 20
29.08866686838025
 30
0
 11
119.7202740565065
 21
45.08866686838024
 31
0
  0
LINE
  8
1
 62
2
 10
133.7202740565065
 20
29.08866686838025
 30
0
 11
133.7202740565065
 21
45.08866686838024
 31
0
  0
SOLID
  8
1
 62
2
 10
119.7202740565065
 20
44.08866686838024
 30
0
 11
122.9202740565065
 21
44.50466686838024
 31
0
 12
122.9202740565065
 22
43.67266686838025
 32
0
 13
122.9202740565065
 23
43.67266686838025
 33
0
  0
SOLID
  8
1
 62
2
 10
133.7202740565065
 20
44.08866686838024
 30
0
 11
130.5202740565065
 21
43.67266686838025
 31
0
 12
130.5202740565065
 22
44.50466686838024
 32
0
 13
130.5202740565065
 23
44.50466686838024
 33
0
  0
TEXT
  8
1
 62
2
 10
124.753458154468
 20
46.08866686838027
 30
0
 40
3.2
  1
14
 41
0.9
  0
ENDBLK
  8
0
  0
BLOCK
  8
1
  2
*D4
 70
1
 10
0
 20
0
 30
0
  0
LINE
  8
1
 62
2
 10
139.7202740565065
 20
8.088666868380297
 30
0
 11
139.7202740565065
 21
42.08866686838024
 31
0
  0
LINE
  8
1
 62
2
 10
149.2202740565065
 20
8.088666868380297
 30
0
 11
138.7202740565065
 21
8.088666868380297
 31
0
  0
LINE
  8
1
 62
2
 10
149.2202740565065
 20
42.08866686838024
 30
0
 11
138.7202740565065
 21
42.08866686838024
 31
0
  0
SOLID
  8
1
 62
2
 10
139.7202740565065
 20
42.08866686838024
 30
0
 11
140.1362740565065
 21
38.88866686838024
 31
0
 12
139.3042740565065
 22
38.88866686838024
 32
0
 13
139.3042740565065
 23
38.88866686838024
 33
0
  0
SOLID
  8
1
 62
2
 10
139.7202740565065
 20
8.088666868380297
 30
0
 11
139.3042740565065
 21
11.2886668683803
 31
0
 12
140.1362740565065
 22
11.2886668683803
 32
0
 13
140.1362740565065
 23
11.2886668683803
 33
0
  0
TEXT
  8
1
 62
2
 10
137.7202740565065
 20
14.04607543323226
 30
0
 40
3.2
  1
34
 50
90
 41
0.9
  0
TEXT
  8
1
 62
2
 10
137.7202740565065
 20
10.40163098878782
 30
0
 40
3.2
  1
âË
 50
90
 41
0.9
  0
ENDBLK
  8
0
  0
BLOCK
  8
1
  2
*D5
 70
1
 10
0
 20
0
 30
0
  0
LINE
  8
1
 62
2
 10
207.0949900378885
 20
-26.41133313161976
 30
0
 11
207.0949900378885
 21
46.58866686838024
 31
0
  0
LINE
  8
1
 62
2
 10
187.7202740565065
 20
-26.41133313161976
 30
0
 11
208.0949900378885
 21
-26.41133313161976
 31
0
  0
LINE
  8
1
 62
2
 10
187.7202740565065
 20
46.58866686838024
 30
0
 11
208.0949900378885
 21
46.58866686838024
 31
0
  0
SOLID
  8
1
 62
2
 10
207.0949900378885
 20
46.58866686838024
 30
0
 11
207.5109900378885
 21
43.38866686838024
 31
0
 12
206.6789900378885
 22
43.38866686838024
 32
0
 13
206.6789900378885
 23
43.38866686838024
 33
0
  0
SOLID
  8
1
 62
2
 10
207.0949900378885
 20
-26.41133313161976
 30
0
 11
206.6789900378885
 21
-23.21133313161976
 31
0
 12
207.5109900378885
 22
-23.21133313161976
 32
0
 13
207.5109900378885
 23
-23.21133313161976
 33
0
  0
TEXT
  8
1
 62
2
 10
204.2949900378885
 20
1.265352717874206
 30
0
 40
3.2
  1
73H7
 50
90
 41
0.9
  0
TEXT
  8
1
 62
2
 10
202.2149900378885
 20
13.74535271787421
 30
0
 40
1.92
  1
+0.030
 50
90
 41
0.9
  0
TEXT
  8
1
 62
2
 10
205.0949900378885
 20
13.74535271787421
 30
0
 40
1.92
  1
 0
 50
90
 41
0.9
  0
TEXT
  8
1
 62
2
 10
204.2949900378885
 20
-2.379091726570236
 30
0
 40
3.2
  1
âË
 50
90
 41
0.9
  0
ENDBLK
  8
0
  0
BLOCK
  8
1
  2
*D6
 70
1
 10
0
 20
0
 30
0
  0
LINE
  8
1
 62
2
 10
161.1202740565065
 20
59.83866686838027
 30
0
 11
154.7202740565065
 21
59.83866686838027
 31
0
  0
LINE
  8
1
 62
2
 10
149.7202740565065
 20
59.83866686838027
 30
0
 11
154.7202740565065
 21
59.83866686838027
 31
0
  0
LINE
  8
1
 62
2
 10
149.7202740565065
 20
59.83866686838027
 30
0
 11
143.2813274589134
 21
59.83866686838027
 31
0
  0
LINE
  8
1
 62
2
 10
149.7202740565065
 20
42.58866686838027
 30
0
 11
149.7202740565065
 21
60.83866686838027
 31
0
  0
LINE
  8
1
 62
2
 10
154.7202740565065
 20
50.83866686838027
 30
0
 11
154.7202740565065
 21
60.83866686838027
 31
0
  0
SOLID
  8
1
 62
2
 10
149.7202740565065
 20
59.83866686838027
 30
0
 11
146.5202740565065
 21
59.42266686838028
 31
0
 12
146.5202740565065
 22
60.25466686838027
 32
0
 13
146.5202740565065
 23
60.25466686838027
 33
0
  0
SOLID
  8
1
 62
2
 10
154.7202740565065
 20
59.83866686838027
 30
0
 11
157.9202740565065
 21
60.25466686838027
 31
0
 12
157.9202740565065
 22
59.42266686838028
 32
0
 13
157.9202740565065
 23
59.42266686838028
 33
0
  0
TEXT
  8
1
 62
2
 10
143.2813274589134
 20
61.83866686838027
 30
0
 40
3.2
  1
5
 41
0.9
  0
ENDBLK
  8
0
  0
BLOCK
  8
1
  2
*D7
 70
1
 10
0
 20
0
 30
0
  0
LINE
  8
1
 62
2
 10
-17.23157626086947
 20
10.0886668683803
 30
0
 11
-17.23157626086947
 21
25.08866686838024
 31
0
  0
LINE
  8
1
 62
2
 10
2.76842373913053
 20
10.0886668683803
 30
0
 11
-18.23157626086947
 21
10.0886668683803
 31
0
  0
LINE
  8
1
 62
2
 10
-17.23157626086947
 20
25.08866686838024
 30
0
 11
-18.23157626086947
 21
25.08866686838024
 31
0
  0
SOLID
  8
1
 62
2
 10
-17.23157626086947
 20
25.08866686838024
 30
0
 11
-16.81557626086947
 21
21.88866686838024
 31
0
 12
-17.64757626086947
 22
21.88866686838024
 32
0
 13
-17.64757626086947
 23
21.88866686838024
 33
0
  0
SOLID
  8
1
 62
2
 10
-17.23157626086947
 20
10.0886668683803
 30
0
 11
-17.64757626086947
 21
13.2886668683803
 31
0
 12
-16.81557626086947
 22
13.2886668683803
 32
0
 13
-16.81557626086947
 23
13.2886668683803
 33
0
  0
TEXT
  8
1
 62
2
 10
-18.28849299562401
 20
15.66866686838024
 30
0
 40
3.2
  1
15
 50
90
 41
0.9
  0
ENDBLK
  8
0
  0
BLOCK
  8
1
  2
*D8
 70
1
 10
0
 20
0
 30
0
  0
LINE
  8
1
 62
2
 10
68.5184237391305
 20
-29.66133313161974
 30
0
 11
68.5184237391305
 21
49.83866686838026
 31
0
  0
LINE
  8
1
 62
2
 10
37.9984237391305
 20
-29.66133313161974
 30
0
 11
69.5184237391305
 21
-29.66133313161974
 31
0
  0
LINE
  8
1
 62
2
 10
37.9984237391305
 20
49.83866686838026
 30
0
 11
69.5184237391305
 21
49.83866686838026
 31
0
  0
SOLID
  8
1
 62
2
 10
68.5184237391305
 20
49.83866686838026
 30
0
 11
68.93442373913049
 21
46.63866686838026
 31
0
 12
68.1024237391305
 22
46.63866686838026
 32
0
 13
68.1024237391305
 23
46.63866686838026
 33
0
  0
SOLID
  8
1
 62
2
 10
68.5184237391305
 20
-29.66133313161974
 30
0
 11
68.1024237391305
 21
-26.46133313161974
 31
0
 12
68.93442373913049
 22
-26.46133313161974
 32
0
 13
68.93442373913049
 23
-26.46133313161974
 33
0
  0
TEXT
  8
1
 62
2
 10
66.5184237391305
 20
7.76322234218086
 30
0
 40
3.2
  1
80
 50
90
 41
0.9
  0
ENDBLK
  8
0
  0
BLOCK
  8
1
  2
*D9
 70
1
 10
0
 20
0
 30
0
  0
LINE
  8
1
 62
2
 10
58.5184237391305
 20
-23.14133313161972
 30
0
 11
58.5184237391305
 21
43.31866686838026
 31
0
  0
LINE
  8
1
 62
2
 10
45.9984237391305
 20
-23.14133313161972
 30
0
 11
59.5184237391305
 21
-23.14133313161972
 31
0
  0
LINE
  8
1
 62
2
 10
45.9984237391305
 20
43.31866686838026
 30
0
 11
59.5184237391305
 21
43.31866686838026
 31
0
  0
SOLID
  8
1
 62
2
 10
58.5184237391305
 20
43.31866686838026
 30
0
 11
58.93442373913049
 21
40.11866686838026
 31
0
 12
58.1024237391305
 22
40.11866686838026
 32
0
 13
58.1024237391305
 23
40.11866686838026
 33
0
  0
SOLID
  8
1
 62
2
 10
58.5184237391305
 20
-23.14133313161972
 30
0
 11
58.10242373913049
 21
-19.94133313161972
 31
0
 12
58.93442373913049
 22
-19.94133313161972
 32
0
 13
58.93442373913049
 23
-19.94133313161972
 33
0
  0
TEXT
  8
1
 62
2
 10
56.51842373913051
 20
1.727698892033764
 30
0
 40
3.2
  1
66.5
 50
90
 41
0.9
  0
TEXT
  8
1
 62
2
 10
55.8784237391305
 20
12.04769889203377
 30
0
 40
1.92
  1
%%p0.3
 50
90
 41
0.9
  0
ENDBLK
  8
0
  0
BLOCK
  8
1
  2
*D10
 70
1
 10
0
 20
0
 30
0
  0
LINE
  8
1
 62
2
 10
-35.98157626086945
 20
69.83866686838027
 30
0
 11
43.51842373913051
 21
69.83866686838027
 31
0
  0
LINE
  8
1
 62
2
 10
-35.98157626086945
 20
44.31866686838029
 30
0
 11
-35.98157626086945
 21
70.83866686838027
 31
0
  0
LINE
  8
1
 62
2
 10
43.51842373913051
 20
44.31866686838029
 30
0
 11
43.51842373913051
 21
70.83866686838027
 31
0
  0
SOLID
  8
1
 62
2
 10
-35.98157626086945
 20
69.83866686838027
 30
0
 11
-32.78157626086945
 21
70.25466686838027
 31
0
 12
-32.78157626086945
 22
69.42266686838028
 32
0
 13
-32.78157626086945
 23
69.42266686838028
 33
0
  0
SOLID
  8
1
 62
2
 10
43.51842373913051
 20
69.83866686838027
 30
0
 11
40.3184237391305
 21
69.42266686838028
 31
0
 12
40.3184237391305
 22
70.25466686838027
 32
0
 13
40.3184237391305
 23
70.25466686838027
 33
0
  0
TEXT
  8
1
 62
2
 10
1.258316767456402
 20
71.83866686838027
 30
0
 40
3.2
  1
80
 41
0.9
  0
ENDBLK
  8
0
  0
BLOCK
  8
1
  2
*D11
 70
1
 10
0
 20
0
 30
0
  0
LINE
  8
1
 62
2
 10
-29.46157626086947
 20
59.83866686838027
 30
0
 11
36.99842373913052
 21
59.83866686838027
 31
0
  0
LINE
  8
1
 62
2
 10
-29.46157626086947
 20
52.31866686838029
 30
0
 11
-29.46157626086947
 21
60.83866686838027
 31
0
  0
LINE
  8
1
 62
2
 10
36.99842373913052
 20
52.31866686838029
 30
0
 11
36.99842373913052
 21
60.83866686838027
 31
0
  0
SOLID
  8
1
 62
2
 10
-29.46157626086947
 20
59.83866686838027
 30
0
 11
-26.26157626086947
 21
60.25466686838027
 31
0
 12
-26.26157626086947
 22
59.42266686838028
 32
0
 13
-26.26157626086947
 23
59.42266686838028
 33
0
  0
SOLID
  8
1
 62
2
 10
36.99842373913052
 20
59.83866686838027
 30
0
 11
33.79842373913052
 21
59.42266686838028
 31
0
 12
33.79842373913052
 22
60.25466686838027
 32
0
 13
33.79842373913052
 23
60.25466686838027
 33
0
  0
TEXT
  8
1
 62
2
 10
-4.825301761153906
 20
61.83866686838027
 30
0
 40
3.2
  1
66.5
 41
0.9
  0
TEXT
  8
1
 62
2
 10
5.494698238846094
 20
62.47866686838027
 30
0
 40
1.92
  1
%%p0.3
 41
0.9
  0
ENDBLK
  8
0
  0
BLOCK
  8
1
  2
*D12
 70
1
 10
0
 20
0
 30
0
  0
LINE
  8
1
 62
2
 10
154.7202740565065
 20
69.83866686838027
 30
0
 11
184.7202740565065
 21
69.83866686838027
 31
0
  0
LINE
  8
1
 62
2
 10
154.7202740565065
 20
50.83866686838024
 30
0
 11
154.7202740565065
 21
71.33866686838027
 31
0
  0
LINE
  8
1
 62
2
 10
184.7202740565065
 20
47.58866686838024
 30
0
 11
184.7202740565065
 21
71.33866686838027
 31
0
  0
SOLID
  8
1
 62
2
 10
154.7202740565065
 20
69.83866686838027
 30
0
 11
157.9202740565065
 21
70.25466686838027
 31
0
 12
157.9202740565065
 22
69.42266686838028
 32
0
 13
157.9202740565065
 23
69.42266686838028
 33
0
  0
SOLID
  8
1
 62
2
 10
184.7202740565065
 20
69.83866686838027
 30
0
 11
181.5202740565065
 21
69.42266686838028
 31
0
 12
181.5202740565065
 22
70.25466686838027
 32
0
 13
181.5202740565065
 23
70.25466686838027
 33
0
  0
TEXT
  8
1
 62
2
 10
167.2678450901664
 20
71.83866686838027
 30
0
 40
3.2
  1
30
 41
0.9
  0
ENDBLK
  8
0
  0
BLOCK
  8
1
  2
*D13
 70
1
 10
0
 20
0
 30
0
  0
LINE
  8
1
 62
2
 10
272.8192251252906
 20
69.83866686838024
 30
0
 11
284.8192251252906
 21
69.83866686838024
 31
0
  0
LINE
  8
1
 62
2
 10
272.8192251252906
 20
14.08866686838029
 30
0
 11
272.8192251252906
 21
70.83866686838024
 31
0
  0
LINE
  8
1
 62
2
 10
284.8192251252906
 20
51.08866686838024
 30
0
 11
284.8192251252906
 21
70.83866686838024
 31
0
  0
SOLID
  8
1
 62
2
 10
284.8192251252906
 20
69.83866686838024
 30
0
 11
281.6192251252906
 21
69.42266686838025
 31
0
 12
281.6192251252906
 22
70.25466686838024
 32
0
 13
281.6192251252906
 23
70.25466686838024
 33
0
  0
SOLID
  8
1
 62
2
 10
272.8192251252906
 20
69.83866686838024
 30
0
 11
276.0192251252906
 21
70.25466686838024
 31
0
 12
276.0192251252906
 22
69.42266686838025
 32
0
 13
276.0192251252906
 23
69.42266686838025
 33
0
  0
TEXT
  8
1
 62
2
 10
276.775928041094
 20
71.83866686838027
 30
0
 40
3.2
  1
12
 41
0.9
  0
ENDBLK
  8
0
  0
BLOCK
  8
1
  2
*D14
 70
1
 10
0
 20
0
 30
0
  0
LINE
  8
1
 62
2
 10
276.4192251252906
 20
59.83866686838024
 30
0
 11
282.8192251252906
 21
59.83866686838024
 31
0
  0
LINE
  8
1
 62
2
 10
282.8192251252906
 20
59.83866686838024
 30
0
 11
284.8192251252906
 21
59.83866686838024
 31
0
  0
LINE
  8
1
 62
2
 10
284.8192251252906
 20
59.83866686838024
 30
0
 11
291.918299047389
 21
59.83866686838024
 31
0
  0
LINE
  8
1
 62
2
 10
282.8192251252906
 20
47.58866686838024
 30
0
 11
282.8192251252906
 21
60.83866686838024
 31
0
  0
LINE
  8
1
 62
2
 10
284.8192251252906
 20
51.08866686838024
 30
0
 11
284.8192251252906
 21
60.83866686838024
 31
0
  0
SOLID
  8
1
 62
2
 10
282.8192251252906
 20
59.83866686838024
 30
0
 11
279.6192251252906
 21
59.42266686838025
 31
0
 12
279.6192251252906
 22
60.25466686838024
 32
0
 13
279.6192251252906
 23
60.25466686838024
 33
0
  0
SOLID
  8
1
 62
2
 10
284.8192251252906
 20
59.83866686838024
 30
0
 11
288.0192251252906
 21
60.25466686838024
 31
0
 12
288.0192251252906
 22
59.42266686838025
 32
0
 13
288.0192251252906
 23
59.42266686838025
 33
0
  0
TEXT
  8
1
 62
2
 10
289.998299047389
 20
61.83866686838027
 30
0
 40
3.2
  1
2
 41
0.9
  0
ENDBLK
  8
0
  0
BLOCK
  8
1
  2
*D15
 70
1
 10
0
 20
0
 30
0
  0
LINE
  8
1
 62
2
 10
256.5111778028784
 20
-26.41133313161974
 30
0
 11
256.5111778028784
 21
46.58866686838027
 31
0
  0
LINE
  8
1
 62
2
 10
281.8192251252906
 20
46.58866686838027
 30
0
 11
255.5111778028784
 21
46.58866686838027
 31
0
  0
LINE
  8
1
 62
2
 10
281.8192251252906
 20
-26.41133313161974
 30
0
 11
255.5111778028784
 21
-26.41133313161974
 31
0
  0
SOLID
  8
1
 62
2
 10
256.5111778028784
 20
46.58866686838027
 30
0
 11
256.9271778028784
 21
43.38866686838027
 31
0
 12
256.0951778028784
 22
43.38866686838027
 32
0
 13
256.0951778028784
 23
43.38866686838027
 33
0
  0
SOLID
  8
1
 62
2
 10
256.5111778028784
 20
-26.41133313161974
 30
0
 11
256.0951778028784
 21
-23.21133313161974
 31
0
 12
256.9271778028784
 22
-23.21133313161974
 32
0
 13
256.9271778028784
 23
-23.21133313161974
 33
0
  0
TEXT
  8
1
 62
2
 10
253.7111778028784
 20
0.5609797154108964
 30
0
 40
3.2
  1
73h7
 50
90
 41
0.9
  0
TEXT
  8
1
 62
2
 10
251.6311778028784
 20
12.7209797154109
 30
0
 40
1.92
  1
 0
 50
90
 41
0.9
  0
TEXT
  8
1
 62
2
 10
254.5111778028784
 20
12.7209797154109
 30
0
 40
1.92
  1
-0.030
 50
90
 41
0.9
  0
TEXT
  8
1
 62
2
 10
253.7111778028784
 20
-3.083464729033546
 30
0
 40
3.2
  1
âË
 50
90
 41
0.9
  0
ENDBLK
  8
0
  0
BLOCK
  8
1
  2
*D16
 70
1
 10
0
 20
0
 30
0
  0
LINE
  8
1
 62
2
 10
38.94007449000496
 20
45.26609911665711
 30
0
 11
53.4693794978367
 21
59.83866686838027
 31
0
  0
LINE
  8
1
 62
2
 10
53.4693794978367
 20
59.83866686838027
 30
0
 11
74.8015983139355
 21
59.83866686838027
 31
0
  0
SOLID
  8
1
 62
2
 10
38.94007449000496
 20
45.26609911665711
 30
0
 11
40.90485652182862
 21
47.8259209009661
 31
0
 12
41.49404329658002
 22
47.23848329197428
 32
0
 13
41.49404329658002
 23
47.23848329197428
 33
0
  0
TEXT
  8
1
 62
2
 10
64.60604275837994
 20
61.52523100878201
 30
0
 40
3.2
  1
5.5
 41
0.9
  0
TEXT
  8
1
 62
2
 10
55.5215983139355
 20
61.52523100878201
 30
0
 40
3.2
  1
4-âË
 41
0.9
  0
TEXT
  8
1
 62
2
 10
72.04604275837994
 20
61.52523100878201
 30
0
 40
3.2
  1
îè
 41
0.9
  0
ENDBLK
  8
0
  0
BLOCK
  8
1
  2
*D17
 70
1
 10
0
 20
0
 30
0
  0
LINE
  8
1
 62
2
 10
48.44555772712377
 20
24.66328516934781
 30
0
 11
-40.90871024886272
 21
-4.485951432587356
 31
0
  0
SOLID
  8
1
 62
2
 10
-40.90871024886272
 20
-4.485951432587356
 30
0
 11
-37.99551143617602
 21
-3.098029000402903
 31
0
 12
-37.73747848062568
 22
-3.889004975922989
 32
0
 13
-37.73747848062568
 23
-3.889004975922989
 33
0
  0
SOLID
  8
1
 62
2
 10
48.44555772712377
 20
24.66328516934781
 30
0
 11
45.53235891443707
 21
23.27536273716336
 31
0
 12
45.27432595888673
 22
24.06633871268345
 32
0
 13
45.27432595888673
 23
24.06633871268345
 33
0
  0
TEXT
  8
1
 62
2
 10
-26.51801331125938
 20
2.312325923059786
 30
0
 40
3.2
  1
94
 50
18.06741244040918
 41
0.9
  0
TEXT
  8
1
 62
2
 10
-31.35175538388214
 20
0.7354578613632237
 30
0
 40
3.2
  1
(âË
 50
18.06741244040918
 41
0.9
  0
TEXT
  8
1
 62
2
 10
-20.43358273033564
 20
4.297194811908606
 30
0
 40
3.2
  1
)
 50
18.06741244040918
 41
0.9
  0
ENDBLK
  8
0
  0
ENDSEC
  0
SECTION
  2
ENTITIES
  0
LINE
  8
1
 62
2
 10
-54.84800994585989
 20
-80.99999999999982
 30
0
 11
107.1519900541402
 21
-80.99999999999982
 31
0
  0
LINE
  8
1
 62
2
 10
-54.84800994585989
 20
-87.99999999999982
 30
0
 11
107.1519900541402
 21
-87.99999999999982
 31
0
  0
LINE
  8
1
 62
2
 10
-54.84800994585989
 20
-94.99999999999982
 30
0
 11
107.1519900541402
 21
-94.99999999999982
 31
0
  0
LINE
  8
1
 62
2
 10
-54.84800994585989
 20
-101.9999999999998
 30
0
 11
107.1519900541402
 21
-101.9999999999998
 31
0
  0
LINE
  8
1
 62
2
 10
-54.84800994585989
 20
-108.9999999999998
 30
0
 11
107.1519900541402
 21
-108.9999999999998
 31
0
  0
LINE
  8
1
 62
2
 10
-54.84800994585989
 20
-115.9999999999998
 30
0
 11
107.1519900541402
 21
-115.9999999999998
 31
0
  0
LINE
  8
1
 62
2
 10
107.1519900541402
 20
-80.99999999999982
 30
0
 11
107.1519900541402
 21
-122.9999999999998
 31
0
  0
LINE
  8
1
 62
2
 10
-54.84800994585989
 20
-80.99999999999982
 30
0
 11
-54.84800994585989
 21
-122.9999999999998
 31
0
  0
LINE
  8
1
 62
2
 10
70.1519900541402
 20
-87.99999999999982
 30
0
 11
70.1519900541402
 21
-122.9999999999998
 31
0
  0
LINE
  8
1
 62
2
 10
50.15199005414021
 20
-87.99999999999982
 30
0
 11
50.15199005414021
 21
-122.9999999999998
 31
0
  0
LINE
  8
1
 62
2
 10
-24.84800994585989
 20
-87.99999999999982
 30
0
 11
-24.84800994585989
 21
-122.9999999999998
 31
0
  0
LINE
  8
1
 62
2
 10
-44.84800994585989
 20
-87.99999999999982
 30
0
 11
-44.84800994585989
 21
-122.9999999999998
 31
0
  0
LINE
  8
1
 62
2
 10
-54.84800994585989
 20
-122.9999999999998
 30
0
 11
107.1519900541402
 21
-122.9999999999998
 31
0
  0
LINE
  8
1
 62
1
 10
-23.73157626086947
 20
33.08866686838024
 30
0
 11
-23.73157626086947
 21
19.08866686838024
 31
0
  0
LINE
  8
1
 62
1
 10
-16.73157626086947
 20
26.08866686838024
 30
0
 11
-30.73157626086948
 21
26.08866686838024
 31
0
  0
LINE
  8
1
 62
1
 10
38.2684237391305
 20
26.08866686838024
 30
0
 11
24.26842373913053
 21
26.08866686838024
 31
0
  0
LINE
  8
1
 62
1
 10
31.26842373913053
 20
33.08866686838024
 30
0
 11
31.26842373913053
 21
19.08866686838024
 31
0
  0
LINE
  8
1
 62
1
 10
10.76842373913053
 20
-21.91133313161976
 30
0
 11
-3.231576260869467
 21
-21.91133313161976
 31
0
  0
LINE
  8
1
 62
3
 10
1.122672428065943
 20
28.08866686838024
 30
0
 11
6.414175050195119
 21
28.08866686838024
 31
0
  0
LINE
  8
1
 62
1
 10
159.7202740565065
 20
25.08866686838024
 30
0
 11
114.7202740565065
 21
25.08866686838024
 31
0
  0
LINE
  8
1
 62
3
 10
119.7202740565065
 20
25.08866686838024
 30
0
 11
119.7202740565065
 21
28.08866686838024
 31
0
  0
LINE
  8
1
 62
3
 10
119.7202740565065
 20
28.08866686838024
 30
0
 11
133.7202740565065
 21
28.08866686838024
 31
0
  0
LINE
  8
1
 62
3
 10
136.7202740565065
 20
29.08866686838024
 30
0
 11
149.7202740565065
 21
29.08866686838024
 31
0
  0
LINE
  8
1
 62
3
 10
149.7202740565065
 20
21.08866686838024
 30
0
 11
119.7202740565065
 21
21.08866686838024
 31
0
  0
LINE
  8
1
 62
3
 10
119.7202740565065
 20
21.08866686838024
 30
0
 11
119.7202740565065
 21
25.08866686838024
 31
0
  0
LINE
  8
1
 62
1
 10
152.7202740565065
 20
43.31866686838026
 30
0
 11
159.7202740565065
 21
43.31866686838026
 31
0
  0
LINE
  8
1
 62
1
 10
152.7202740565065
 20
-23.14133313161977
 30
0
 11
159.7202740565065
 21
-23.14133313161977
 31
0
  0
LINE
  8
1
 62
1
 10
181.7202740565065
 20
-26.41133313161976
 30
0
 11
186.7202740565065
 21
-26.41133313161976
 31
0
  0
LINE
  8
1
 62
1
 10
181.7202740565065
 20
46.58866686838024
 30
0
 11
186.7202740565065
 21
46.58866686838024
 31
0
  0
LINE
  8
1
 62
3
 10
183.7202740565065
 20
49.08866686838024
 30
0
 11
183.7202740565065
 21
-28.91133313161976
 31
0
  0
LINE
  8
1
 62
3
 10
155.2202740565065
 20
36.79866686838028
 30
0
 11
155.2202740565065
 21
7.588666868380301
 31
0
  0
LINE
  8
1
 62
3
 10
154.7202740565065
 20
42.08866686838024
 30
0
 11
154.7202740565065
 21
36.79866686838028
 31
0
  0
LINE
  8
2
 62
3
 10
155.2202740565065
 20
36.79866686838028
 30
0
 11
154.7202740565065
 21
36.79866686838028
 31
0
  0
LINE
  8
2
 62
3
 10
154.7202740565065
 20
42.08866686838024
 30
0
 11
150.2202740565065
 21
42.08866686838024
 31
0
  0
LINE
  8
2
 62
3
 10
149.7202740565065
 20
15.3386668683803
 30
0
 11
149.7202740565065
 21
25.08866686838024
 31
0
  0
LINE
  8
2
 62
3
 10
149.7202740565065
 20
25.08866686838024
 30
0
 11
149.7202740565065
 21
34.83866686838024
 31
0
  0
LINE
  8
2
 62
3
 10
149.7202740565065
 20
34.83866686838024
 30
0
 11
149.7202740565065
 21
41.58866686838024
 31
0
  0
LINE
  8
2
 62
1
 10
3.768423739130533
 20
10.0886668683803
 30
0
 11
-40.98157626086947
 21
10.0886668683803
 31
0
  0
LINE
  8
2
 62
3
 10
184.7202740565065
 20
-26.41133313161976
 30
0
 11
184.7202740565065
 21
10.0886668683803
 31
0
  0
LINE
  8
2
 62
3
 10
184.7202740565065
 20
46.58866686838024
 30
0
 11
184.7202740565065
 21
49.08866686838024
 31
0
  0
LINE
  8
2
 62
3
 10
149.7202740565065
 20
8.588666868380301
 30
0
 11
149.7202740565065
 21
15.3386668683803
 31
0
  0
LINE
  8
2
 62
3
 10
184.7202740565065
 20
-28.91133313161976
 30
0
 11
184.7202740565065
 21
-26.41133313161976
 31
0
  0
LINE
  8
2
 62
3
 10
183.7202740565065
 20
-28.91133313161976
 30
0
 11
184.7202740565065
 21
-28.91133313161976
 31
0
  0
LINE
  8
2
 62
3
 10
183.7202740565064
 20
-30.01133313161973
 30
0
 11
183.7202740565065
 21
-28.91133313161976
 31
0
  0
LINE
  8
2
 62
3
 10
157.2020929895929
 20
-29.67934966737511
 30
0
 11
183.7202740565064
 21
-30.01133313161973
 31
0
  0
LINE
  8
2
 62
3
 10
155.2202740565065
 20
7.588666868380301
 30
0
 11
155.2202740565065
 21
-20.14133313161977
 31
0
  0
LINE
  8
2
 62
3
 10
150.2202740565065
 20
8.088666868380301
 30
0
 11
155.2202740565065
 21
8.088666868380301
 31
0
  0
LINE
  8
2
 62
3
 10
183.7202740565065
 20
50.18866686838027
 30
0
 11
157.2020929895929
 21
49.85668340413559
 31
0
  0
LINE
  8
2
 62
3
 10
183.7202740565065
 20
49.08866686838024
 30
0
 11
183.7202740565065
 21
50.18866686838027
 31
0
  0
LINE
  8
2
 62
3
 10
184.7202740565065
 20
49.08866686838024
 30
0
 11
183.7202740565065
 21
49.08866686838024
 31
0
  0
LINE
  8
2
 62
3
 10
184.7202740565065
 20
10.0886668683803
 30
0
 11
184.7202740565065
 21
46.58866686838024
 31
0
  0
LINE
  8
2
 62
1
 10
189.7202740565065
 20
10.0886668683803
 30
0
 11
144.7202740565065
 21
10.0886668683803
 31
0
  0
LINE
  8
2
 62
1
 10
-16.23157626086947
 20
25.08866686838024
 30
0
 11
23.76842373913053
 21
25.08866686838024
 31
0
  0
LINE
  8
2
 62
1
 10
-29.46157626086946
 20
35.31866686838026
 30
0
 11
-29.46157626086946
 21
51.31866686838026
 31
0
  0
LINE
  8
2
 62
1
 10
-29.46157626086944
 20
-31.14133313161977
 30
0
 11
-29.46157626086946
 21
-15.14133313161977
 31
0
  0
LINE
  8
2
 62
1
 10
36.99842373913053
 20
-31.14133313161977
 30
0
 11
36.99842373913053
 21
-15.14133313161977
 31
0
  0
LINE
  8
2
 62
1
 10
36.99842373913053
 20
51.31866686838026
 30
0
 11
36.99842373913053
 21
35.31866686838026
 31
0
  0
LINE
  8
2
 62
1
 10
28.99842373913053
 20
-23.14133313161977
 30
0
 11
44.9984237391305
 21
-23.14133313161977
 31
0
  0
LINE
  8
2
 62
1
 10
-37.46157626086947
 20
-23.14133313161977
 30
0
 11
-21.46157626086946
 21
-23.14133313161977
 31
0
  0
LINE
  8
2
 62
1
 10
-21.46157626086946
 20
43.31866686838026
 30
0
 11
-37.46157626086947
 21
43.31866686838026
 31
0
  0
LINE
  8
2
 62
1
 10
44.9984237391305
 20
43.31866686838026
 30
0
 11
28.99842373913053
 21
43.31866686838026
 31
0
  0
LINE
  8
2
 62
3
 10
43.5184237391305
 20
-23.14133313161977
 30
0
 11
43.5184237391305
 21
43.31866686838026
 31
0
  0
LINE
  8
2
 62
3
 10
-29.46157626086944
 20
-29.66133313161976
 30
0
 11
36.99842373913053
 21
-29.66133313161976
 31
0
  0
LINE
  8
2
 62
3
 10
-35.98157626086946
 20
43.31866686838026
 30
0
 11
-35.98157626086946
 21
-23.14133313161977
 31
0
  0
LINE
  8
2
 62
3
 10
36.99842373913053
 20
49.83866686838024
 30
0
 11
-29.46157626086944
 21
49.83866686838024
 31
0
  0
LINE
  8
2
 62
1
 10
3.768423739130533
 20
54.83866686838024
 30
0
 11
3.768423739130533
 21
-34.66133313161976
 31
0
  0
LINE
  8
2
 62
1
 10
48.5184237391305
 20
10.0886668683803
 30
0
 11
3.768423739130533
 21
10.0886668683803
 31
0
  0
LINE
  8
2
 62
3
 10
157.2020929895929
 20
-29.67934966737511
 30
0
 11
154.7202740565065
 21
-29.66133313161976
 31
0
  0
LINE
  8
2
 62
3
 10
154.7202740565065
 20
-29.66133313161976
 30
0
 11
154.7202740565065
 21
-16.62133313161968
 31
0
  0
LINE
  8
2
 62
3
 10
154.7202740565065
 20
-16.62133313161968
 30
0
 11
155.2202740565065
 21
-16.62133313161968
 31
0
  0
LINE
  8
2
 62
3
 10
157.2020929895929
 20
49.85668340413559
 30
0
 11
154.7202740565065
 21
49.83866686838024
 31
0
  0
LINE
  8
2
 62
3
 10
154.7202740565065
 20
49.83866686838024
 30
0
 11
154.7202740565065
 21
42.08866686838024
 31
0
  0
LINE
  8
1
 62
3
 10
155.2202740565065
 20
39.79866686838028
 30
0
 11
155.2202740565065
 21
36.79695438184166
 31
0
  0
LINE
  8
1
 62
3
 10
32.79313779584575
 20
25.1557127991706
 30
0
 11
32.0137565251763
 21
25.93509406984003
 31
0
  0
LINE
  8
1
 62
3
 10
32.79313779584575
 20
27.02162093759006
 30
0
 11
32.0137565251763
 21
26.24223966692057
 31
0
  0
LINE
  8
1
 62
3
 10
30.33546966992079
 20
24.5639528116651
 30
0
 11
31.11485094059024
 21
25.34333408233454
 31
0
  0
LINE
  8
1
 62
3
 10
32.20137780834026
 20
24.5639528116651
 30
0
 11
31.42199653767081
 21
25.34333408233454
 31
0
  0
LINE
  8
1
 62
3
 10
29.74370968241531
 20
27.02162093759006
 30
0
 11
30.52309095308475
 21
26.24223966692063
 31
0
  0
LINE
  8
1
 62
3
 10
29.74370968241531
 20
25.1557127991706
 30
0
 11
30.52309095308475
 21
25.93509406984003
 31
0
  0
LINE
  8
1
 62
3
 10
32.20137780834026
 20
27.61338092509556
 30
0
 11
31.42199653767081
 21
26.83399965442607
 31
0
  0
LINE
  8
1
 62
3
 10
30.33546966992079
 20
27.61338092509556
 30
0
 11
31.11485094059024
 21
26.83399965442607
 31
0
  0
LINE
  8
1
 62
3
 10
5.293137795845759
 20
-22.8442872008294
 30
0
 11
4.513756525176305
 21
-22.06490593015997
 31
0
  0
LINE
  8
1
 62
3
 10
5.293137795845759
 20
-20.97837906240994
 30
0
 11
4.513756525176305
 21
-21.75776033307943
 31
0
  0
LINE
  8
1
 62
3
 10
2.835469669920798
 20
-23.4360471883349
 30
0
 11
3.614850940590244
 21
-22.65666591766546
 31
0
  0
LINE
  8
1
 62
3
 10
4.701377808340268
 20
-23.4360471883349
 30
0
 11
3.921996537670815
 21
-22.65666591766546
 31
0
  0
LINE
  8
1
 62
3
 10
2.243709682415314
 20
-20.97837906240994
 30
0
 11
3.023090953084754
 21
-21.75776033307937
 31
0
  0
LINE
  8
1
 62
3
 10
2.243709682415314
 20
-22.8442872008294
 30
0
 11
3.023090953084754
 21
-22.06490593015997
 31
0
  0
LINE
  8
1
 62
3
 10
4.701377808340268
 20
-20.38661907490444
 30
0
 11
3.921996537670815
 21
-21.16600034557393
 31
0
  0
LINE
  8
1
 62
3
 10
2.835469669920798
 20
-20.38661907490444
 30
0
 11
3.614850940590244
 21
-21.16600034557393
 31
0
  0
LINE
  8
1
 62
3
 10
-22.20686220415424
 20
25.1557127991706
 30
0
 11
-22.9862434748237
 21
25.93509406984003
 31
0
  0
LINE
  8
1
 62
3
 10
-22.20686220415424
 20
27.02162093759006
 30
0
 11
-22.9862434748237
 21
26.24223966692057
 31
0
  0
LINE
  8
1
 62
3
 10
-24.66453033007921
 20
24.5639528116651
 30
0
 11
-23.88514905940976
 21
25.34333408233454
 31
0
  0
LINE
  8
1
 62
3
 10
-22.79862219165974
 20
24.5639528116651
 30
0
 11
-23.57800346232919
 21
25.34333408233454
 31
0
  0
LINE
  8
1
 62
3
 10
-25.25629031758469
 20
27.02162093759006
 30
0
 11
-24.47690904691525
 21
26.24223966692063
 31
0
  0
LINE
  8
1
 62
3
 10
-25.25629031758469
 20
25.1557127991706
 30
0
 11
-24.47690904691525
 21
25.93509406984003
 31
0
  0
LINE
  8
1
 62
3
 10
-22.79862219165974
 20
27.61338092509556
 30
0
 11
-23.57800346232919
 21
26.83399965442607
 31
0
  0
LINE
  8
1
 62
3
 10
-24.66453033007921
 20
27.61338092509556
 30
0
 11
-23.88514905940976
 21
26.83399965442607
 31
0
  0
LINE
  8
1
 62
1
 10
-16.23157626086947
 20
25.08866686838024
 30
0
 11
-17.23157626086946
 21
25.08866686838024
 31
0
  0
LINE
  8
1
 62
2
 10
133.7202740565065
 20
28.08866686838024
 30
0
 11
133.7202740565065
 21
29.08866686838024
 31
0
  0
LINE
  8
1
 62
3
 10
179.2075021951779
 20
51.13224943732524
 30
0
 11
159.2090672614864
 21
50.88188725403649
 31
0
  0
LINE
  8
1
 62
1
  6
CENTER
 10
270.8192251252906
 20
7.588666868380301
 30
0
 11
282.8192251252906
 21
7.588666868380301
 31
0
  0
LINE
  8
1
 62
1
  6
CENTER
 10
270.8192251252906
 20
12.5886668683803
 30
0
 11
282.8192251252906
 21
12.5886668683803
 31
0
  0
LINE
  8
1
 62
1
 10
267.8939924287327
 20
10.0886668683803
 30
0
 11
296.1906115537786
 21
10.0886668683803
 31
0
  0
LINE
  8
1
 62
3
 10
284.8192251252906
 20
-29.91133313161976
 30
0
 11
293.0871113916766
 21
-29.91133313161976
 31
0
  0
LINE
  8
1
 62
3
 10
282.8192251252906
 20
-26.41133313161976
 30
0
 11
284.8192251252906
 21
-26.41133313161976
 31
0
  0
LINE
  8
1
 62
3
 10
272.8192251252906
 20
7.088666868380301
 30
0
 11
282.8192251252906
 21
7.088666868380301
 31
0
  0
LINE
  8
1
 62
3
 10
284.8192251252906
 20
50.08866686838024
 30
0
 11
291.6266407271585
 21
50.08866686838024
 31
0
  0
LINE
  8
1
 62
3
 10
282.8192251252906
 20
46.58866686838024
 30
0
 11
284.8192251252906
 21
46.58866686838024
 31
0
  0
LINE
  8
1
 62
3
 10
272.8192251252906
 20
13.0886668683803
 30
0
 11
282.8192251252906
 21
13.0886668683803
 31
0
  0
LINE
  8
1
 62
3
 10
272.8192251252906
 20
13.0886668683803
 30
0
 11
272.8192251252906
 21
7.088666868380301
 31
0
  0
LINE
  8
1
 62
3
 10
282.8192251252906
 20
-26.41133313161976
 30
0
 11
282.8192251252906
 21
46.58866686838024
 31
0
  0
LINE
  8
1
 62
3
 10
284.8192251252906
 20
50.08866686838024
 30
0
 11
284.8192251252906
 21
-29.91133313161976
 31
0
  0
LINE
  8
1
 62
2
 10
264.6564455584102
 20
-86.08239508700083
 30
0
 11
308.6564455584102
 21
-86.08239508700083
 31
0
  0
LINE
  8
1
 62
2
 10
261.2761740954516
 20
-48.08239508700086
 30
0
 11
312.0367170213687
 21
-48.08239508700086
 31
0
  0
LINE
  8
1
 62
2
 10
312.0367170213687
 20
-55.08239508700086
 30
0
 11
261.2761740954516
 21
-55.08239508700086
 31
0
  0
LINE
  8
1
 62
2
 10
261.2761740954516
 20
-62.08239508700083
 30
0
 11
312.0367170213687
 21
-62.08239508700083
 31
0
  0
LINE
  8
1
 62
2
 10
312.0367170213687
 20
-69.08239508700083
 30
0
 11
261.2761740954516
 21
-69.08239508700083
 31
0
  0
LINE
  8
1
 62
2
 10
261.2761740954516
 20
-76.08239508700083
 30
0
 11
312.0367170213687
 21
-76.08239508700083
 31
0
  0
ARC
  8
1
 62
3
 10
133.7202740565065
 20
33.08866686838024
 30
0
 40
4.999999999999996
 50
270
 51
306.8698976458441
  0
ARC
  8
1
 62
2
 10
3.768423739130533
 20
10.0886668683803
 30
0
 40
46.99431667765799
 50
191.9827451557963
 51
236.1847617958204
  0
ARC
  8
1
 62
2
 10
3.768423739130533
 20
10.0886668683803
 30
0
 40
46.99431667765798
 50
11.98274515579611
 51
56.18476179582036
  0
ARC
  8
1
 62
3
 10
31.26842373913053
 20
26.08866686838024
 30
0
 40
0.7434374999999771
 50
350.8377712759754
 51
9.162228724038425
  0
ARC
  8
1
 62
3
 10
31.26842373913053
 20
26.08866686838024
 30
0
 40
1.787499999999926
 50
301.4619589546542
 51
328.5380410453497
  0
ARC
  8
1
 62
3
 10
31.26842373913053
 20
26.08866686838024
 30
0
 40
0.7434374999999264
 50
260.837771275967
 51
279.1622287240322
  0
ARC
  8
1
 62
3
 10
31.26842373913053
 20
26.08866686838024
 30
0
 40
1.787499999999945
 50
211.4619589546503
 51
238.5380410453456
  0
ARC
  8
1
 62
3
 10
31.26842373913053
 20
26.08866686838024
 30
0
 40
0.7434375000000166
 50
170.8377712759617
 51
189.1622287240245
  0
ARC
  8
1
 62
3
 10
31.26842373913053
 20
26.08866686838024
 30
0
 40
1.787500000000082
 50
121.4619589546514
 51
148.5380410453447
  0
ARC
  8
1
 62
3
 10
31.26842373913053
 20
26.08866686838024
 30
0
 40
0.7434375000000508
 50
80.83777127596935
 51
99.16222872403004
  0
ARC
  8
1
 62
3
 10
31.26842373913053
 20
26.08866686838024
 30
0
 40
1.787500000000043
 50
31.46195895465522
 51
58.53804104534882
  0
ARC
  8
1
 62
3
 10
3.768423739130533
 20
-21.91133313161976
 30
0
 40
0.7434374999999875
 50
350.8377712759755
 51
9.162228724038295
  0
ARC
  8
1
 62
3
 10
3.768423739130533
 20
-21.91133313161976
 30
0
 40
1.787499999999928
 50
301.4619589546543
 51
328.5380410453498
  0
ARC
  8
1
 62
3
 10
3.768423739130533
 20
-21.91133313161976
 30
0
 40
0.7434374999999261
 50
260.837771275967
 51
279.1622287240325
  0
ARC
  8
1
 62
3
 10
3.768423739130533
 20
-21.91133313161976
 30
0
 40
1.787499999999946
 50
211.4619589546503
 51
238.5380410453458
  0
ARC
  8
1
 62
3
 10
3.768423739130533
 20
-21.91133313161976
 30
0
 40
0.7434375000000162
 50
170.8377712759617
 51
189.1622287240245
  0
ARC
  8
1
 62
3
 10
3.768423739130533
 20
-21.91133313161976
 30
0
 40
1.78750000000008
 50
121.4619589546513
 51
148.5380410453447
  0
ARC
  8
1
 62
3
 10
3.768423739130533
 20
-21.91133313161976
 30
0
 40
0.7434375000000514
 50
80.83777127596912
 51
99.16222872402977
  0
ARC
  8
1
 62
3
 10
3.768423739130533
 20
-21.91133313161976
 30
0
 40
1.787500000000046
 50
31.46195895465516
 51
58.53804104534872
  0
ARC
  8
1
 62
3
 10
-23.73157626086947
 20
26.08866686838024
 30
0
 40
0.7434374999999912
 50
350.8377712759756
 51
9.162228724038251
  0
ARC
  8
1
 62
3
 10
-23.73157626086947
 20
26.08866686838024
 30
0
 40
1.787499999999926
 50
301.4619589546542
 51
328.5380410453499
  0
ARC
  8
1
 62
3
 10
-23.73157626086947
 20
26.08866686838024
 30
0
 40
0.7434374999999264
 50
260.837771275967
 51
279.1622287240322
  0
ARC
  8
1
 62
3
 10
-23.73157626086947
 20
26.08866686838024
 30
0
 40
1.787499999999945
 50
211.4619589546503
 51
238.5380410453456
  0
ARC
  8
1
 62
3
 10
-23.73157626086947
 20
26.08866686838024
 30
0
 40
0.7434375000000166
 50
170.8377712759617
 51
189.1622287240245
  0
ARC
  8
1
 62
3
 10
-23.73157626086947
 20
26.08866686838024
 30
0
 40
1.787500000000082
 50
121.4619589546514
 51
148.5380410453447
  0
ARC
  8
1
 62
3
 10
-23.73157626086947
 20
26.08866686838024
 30
0
 40
0.7434375000000508
 50
80.83777127596935
 51
99.16222872403004
  0
ARC
  8
1
 62
3
 10
-23.73157626086947
 20
26.08866686838024
 30
0
 40
1.787500000000049
 50
31.4619589546551
 51
58.53804104534882
  0
CIRCLE
  8
1
 62
3
 10
-23.73157626086947
 20
26.08866686838024
 30
0
 40
4
  0
CIRCLE
  8
1
 62
3
 10
3.768423739130533
 20
-21.91133313161976
 30
0
 40
4
  0
CIRCLE
  8
1
 62
3
 10
31.26842373913053
 20
26.08866686838024
 30
0
 40
4.000000000000004
  0
CIRCLE
  8
1
 62
3
 10
3.768423739130533
 20
25.08866686838024
 30
0
 40
4
  0
CIRCLE
  8
1
 62
3
 10
-29.46157626086946
 20
43.31866686838026
 30
0
 40
2.750000000000021
  0
CIRCLE
  8
1
 62
3
 10
-29.46157626086946
 20
-23.14133313161977
 30
0
 40
2.750000000000032
  0
CIRCLE
  8
1
 62
3
 10
36.99842373913053
 20
-23.14133313161977
 30
0
 40
2.750000000000071
  0
CIRCLE
  8
1
 62
3
 10
36.99842373913053
 20
43.31866686838026
 30
0
 40
2.749999999999972
  0
CIRCLE
  8
1
 62
4
  6
DIVIDE
 10
3.768423739130533
 20
10.0886668683803
 30
0
 40
46.99431667765792
  0
CIRCLE
  8
2
 62
3
 10
3.768423739130533
 20
25.08866686838024
 30
0
 40
9.999999999999996
  0
CIRCLE
  8
2
 62
3
 10
3.768423739130533
 20
25.08866686838024
 30
0
 40
17
  0
CIRCLE
  8
2
 62
3
 10
-29.46157626086946
 20
-23.14133313161977
 30
0
 40
6.52
  0
CIRCLE
  8
2
 62
3
 10
36.99842373913053
 20
-23.14133313161977
 30
0
 40
6.519999999999968
  0
CIRCLE
  8
2
 62
3
 10
-29.46157626086946
 20
43.31866686838026
 30
0
 40
6.52
  0
CIRCLE
  8
2
 62
3
 10
36.99842373913053
 20
43.31866686838026
 30
0
 40
6.519999999999968
  0
CIRCLE
  8
1
 62
3
 10
31.26842373913053
 20
26.08866686838024
 30
0
 40
3.250000000000004
  0
CIRCLE
  8
1
 62
3
 10
3.768423739130533
 20
-21.91133313161976
 30
0
 40
3.25
  0
CIRCLE
  8
1
 62
3
 10
-23.73157626086947
 20
26.08866686838024
 30
0
 40
3.25
  0
ARC
  8
2
 62
3
 10
150.2202740565065
 20
8.588666868380301
 30
0
 40
0.5
 50
180
 51
270
  0
ARC
  8
2
 62
3
 10
150.2202740565065
 20
41.58866686838024
 30
0
 40
0.5
 50
90
 51
180
  0
ARC
  8
1
 62
3
 10
32.04248273816201
 20
25.96382028282574
 30
0
 40
0.04062500000001086
 50
170.8377712759527
 51
225
  0
ARC
  8
1
 62
3
 10
32.04248273816201
 20
26.21351345393492
 30
0
 40
0.04062499999996867
 50
135.0000000000567
 51
189.1622287240423
  0
ARC
  8
1
 62
3
 10
31.14357715357595
 20
25.31460786934883
 30
0
 40
0.04062500000000745
 50
80.83777127598239
 51
135
  0
ARC
  8
1
 62
3
 10
31.39327032468511
 20
25.31460786934883
 30
0
 40
0.04062500000000385
 50
45.00000000000708
 51
99.16222872403245
  0
ARC
  8
1
 62
3
 10
30.49436474009905
 20
26.21351345393492
 30
0
 40
0.04062499999999977
 50
350.8377712759553
 51
45.00000000001063
  0
ARC
  8
1
 62
3
 10
30.49436474009905
 20
25.96382028282574
 30
0
 40
0.04062500000000133
 50
314.9999999999894
 51
9.162228724049681
  0
ARC
  8
1
 62
3
 10
31.3932703246851
 20
26.86272586741183
 30
0
 40
0.04062500000005714
 50
260.8377712759886
 51
314.9999999999504
  0
ARC
  8
1
 62
3
 10
31.14357715357595
 20
26.86272586741183
 30
0
 40
0.04062500000004404
 50
225.0000000000496
 51
279.1622287240325
  0
ARC
  8
1
 62
3
 10
4.542482738162015
 20
-22.03617971717426
 30
0
 40
0.04062500000000384
 50
170.8377712759511
 51
225
  0
ARC
  8
1
 62
3
 10
4.542482738162015
 20
-21.78648654606508
 30
0
 40
0.04062499999996867
 50
135.0000000000567
 51
189.1622287240439
  0
ARC
  8
1
 62
3
 10
3.643577153575954
 20
-22.68539213065117
 30
0
 40
0.04062500000000761
 50
80.83777127598115
 51
135
  0
ARC
  8
1
 62
3
 10
3.893270324685119
 20
-22.68539213065117
 30
0
 40
0.04062499999999913
 50
45.00000000001373
 51
99.16222872403802
  0
ARC
  8
1
 62
3
 10
2.994364740099059
 20
-21.78648654606508
 30
0
 40
0.04062499999999626
 50
350.8377712759545
 51
45.00000000001462
  0
ARC
  8
1
 62
3
 10
2.994364740099059
 20
-22.03617971717426
 30
0
 40
0.04062499999999851
 50
314.9999999999854
 51
9.162228724050479
  0
ARC
  8
1
 62
3
 10
3.893270324685105
 20
-21.13727413258817
 30
0
 40
0.04062500000005664
 50
260.8377712759929
 51
314.9999999999508
  0
ARC
  8
1
 62
3
 10
3.643577153575954
 20
-21.13727413258817
 30
0
 40
0.04062500000004404
 50
225.0000000000496
 51
279.162228724038
  0
ARC
  8
1
 62
3
 10
-22.95751726183799
 20
25.96382028282574
 30
0
 40
0.04062500000000034
 50
170.8377712759503
 51
225
  0
ARC
  8
1
 62
3
 10
-22.95751726183799
 20
26.21351345393492
 30
0
 40
0.04062499999996867
 50
135.0000000000567
 51
189.1622287240447
  0
ARC
  8
1
 62
3
 10
-23.85642284642405
 20
25.31460786934883
 30
0
 40
0.04062500000000745
 50
80.83777127598239
 51
135
  0
ARC
  8
1
 62
3
 10
-23.60672967531488
 20
25.31460786934883
 30
0
 40
0.04062499999999631
 50
45.00000000001771
 51
99.16222872404728
  0
ARC
  8
1
 62
3
 10
-24.50563525990095
 20
26.21351345393492
 30
0
 40
0.04062499999999977
 50
350.8377712759553
 51
45.00000000001063
  0
ARC
  8
1
 62
3
 10
-24.50563525990095
 20
25.96382028282574
 30
0
 40
0.04062500000000133
 50
314.9999999999894
 51
9.162228724049681
  0
ARC
  8
1
 62
3
 10
-23.6067296753149
 20
26.86272586741183
 30
0
 40
0.04062500000005714
 50
260.8377712759886
 51
314.9999999999504
  0
ARC
  8
1
 62
3
 10
-23.85642284642405
 20
26.86272586741183
 30
0
 40
0.04062500000004404
 50
225.0000000000496
 51
279.1622287240325
  0
LINE
  8
1
 62
2
 10
312.0367170213687
 20
-41.08239508700086
 30
0
 11
261.2761740954516
 21
-41.08239508700086
 31
0
  0
LINE
  8
1
 62
2
 10
261.2761740954516
 20
-41.08239508700086
 30
0
 11
275.9142287146584
 21
6.776973347341084
 31
0
  0
SOLID
  8
1
 62
2
 10
275.3311797705495
 20
3.295253142434363
 30
0
 11
274.4499111828049
 21
3.564794052471522
 31
0
 12
275.9142287146584
 22
6.776973347341084
 32
0
 13
275.9142287146584
 23
6.776973347341084
 33
0
  0
TEXT
  8
1
 62
2
 10
160.4703613541401
 20
-98.36752519999961
 30
0
 40
4.5
  1
8DG3~180
 41
0.9
  0
TEXT
  8
1
 62
2
 10
-57.0480099458599
 20
-93.49999999999982
 30
0
 40
4
  1
Éöù╩
 41
0.9
 72
1
 73
2
 11
-49.84800994585989
 21
-91.49999999999982
 31
0
  0
TEXT
  8
1
 62
2
 10
-49.24800994585989
 20
-93.49999999999982
 30
0
 40
4
  1
òiü@ü@û╝
 41
0.9
 72
1
 73
2
 11
-34.84800994585989
 21
-91.49999999999982
 31
0
  0
TEXT
  8
1
 62
2
 10
-19.74800994585983
 20
-93.49999999999982
 30
0
 40
4
  1
î─ü@ü@ü@ü@ü@ü@ü@Å╠
 41
0.9
 72
1
 73
2
 11
12.65199005414017
 21
-91.49999999999982
 31
0
  0
TEXT
  8
1
 62
2
 10
45.7519900541402
 20
-93.49999999999982
 30
0
 40
4
  1
ìBü@ü@Ä┐
 41
0.9
 72
1
 73
2
 11
60.1519900541402
 21
-91.49999999999982
 31
0
  0
TEXT
  8
1
 62
2
 10
74.25199005414021
 20
-93.49999999999982
 30
0
 40
4
  1
ö§ü@ü@ìl
 41
0.9
 72
1
 73
2
 11
88.65199005414021
 21
-91.49999999999982
 31
0
  0
TEXT
  8
1
 62
2
 10
0.9519900541401718
 20
-86.49999999999982
 30
0
 40
4
  1
òtü@ü@æ«ü@ü@òi
 41
0.9
 72
1
 73
2
 11
26.15199005414017
 21
-84.49999999999982
 31
0
  0
TEXT
  8
1
 62
2
 10
-53.44800994585989
 20
-100.4999999999998
 30
0
 40
4
  1
éS
 41
0.9
 72
1
 73
2
 11
-49.84800994585989
 21
-98.49999999999982
 31
0
  0
TEXT
  8
1
 62
2
 10
-49.24800994585989
 20
-100.4999999999998
 30
0
 40
4
  1
ÄµòtâlâW
 41
0.9
 72
1
 73
2
 11
-34.84800994585989
 21
-98.49999999999982
 31
0
  0
TEXT
  8
1
 62
2
 10
-22.84800994585989
 20
-100.4999999999998
 30
0
 40
4
  1
Å\ÄÜîèòtâiâxü@Å¼âlâWü@ü@éléTü~éOüDéWü~éTéO
 41
0.765
 73
2
 11
-22.84800994585989
 21
-98.49999999999982
 31
0
  0
TEXT
  8
1
 62
2
 10
43.9519900541402
 20
-100.4999999999998
 30
0
 40
4
  1
érévéqéléPéQ
 41
0.675
 72
1
 73
2
 11
60.1519900541402
 21
-98.49999999999982
 31
0
  0
TEXT
  8
1
 62
2
 10
71.01347463515059
 20
-100.4999999999998
 30
0
 40
4
  1
édéÉü|éeéàü^éyéÄü@éWü^ébélü@éQ
 41
0.468
 73
2
 11
71.01347463515059
 21
-98.49999999999982
 31
0
  0
TEXT
  8
1
 62
2
 10
-53.44800994585989
 20
-107.4999999999998
 30
0
 40
4
  1
éS
 41
0.9
 72
1
 73
2
 11
-49.84800994585989
 21
-105.4999999999998
 31
0
  0
TEXT
  8
1
 62
2
 10
-53.44800994585989
 20
-114.4999999999998
 30
0
 40
4
  1
éS
 41
0.9
 72
1
 73
2
 11
-49.84800994585989
 21
-112.4999999999998
 31
0
  0
TEXT
  8
1
 62
2
 10
-45.6480099458599
 20
-107.4999999999998
 30
0
 40
4
  1
âiâbâg
 41
0.9
 72
1
 73
2
 11
-34.84800994585989
 21
-105.4999999999998
 31
0
  0
TEXT
  8
1
 62
2
 10
-45.6480099458599
 20
-114.4999999999998
 30
0
 40
4
  1
ì└ü@ïÓ
 41
0.9
 72
1
 73
2
 11
-34.84800994585989
 21
-112.4999999999998
 31
0
  0
TEXT
  8
1
 62
2
 10
-22.84800994585989
 20
-107.4999999999998
 30
0
 40
4
  1
ÿZèpâiâbâgü@ü@ü@ü@ü@ü@ü@éléTü~éOüDéW
 41
0.765
 73
2
 11
-22.84800994585989
 21
-105.4999999999998
 31
0
  0
TEXT
  8
1
 62
2
 10
-22.84800994585989
 20
-114.4999999999998
 30
0
 40
4
  1
âoâlì└ïÓü@ü@ü@ü@ü@ü@ü@ü@éQìåü@éT
 41
0.765
 73
2
 11
-22.84800994585989
 21
-112.4999999999998
 31
0
  0
TEXT
  8
1
 62
2
 10
83.15199005414021
 20
-108.9999999999998
 30
0
 40
5
  1
üV
 41
0.9
 72
1
 73
2
 11
87.65199005414021
 21
-106.4999999999998
 31
0
  0
TEXT
  8
1
 62
2
 10
56.5519900541402
 20
-114.4999999999998
 30
0
 40
4
  1
ér
 41
0.9
 72
1
 73
2
 11
60.1519900541402
 21
-112.4999999999998
 31
0
  0
TEXT
  8
1
 62
2
 10
103.183110902323
 20
-100.9999999999998
 30
0
 40
4
  1
ìò
 41
0.8100000000000001
 73
2
 11
103.183110902323
 21
-98.99999999999982
 31
0
  0
TEXT
  8
1
 62
2
 10
83.15199005414021
 20
-115.9999999999998
 30
0
 40
5
  1
üV
 41
0.9
 72
1
 73
2
 11
87.65199005414021
 21
-113.4999999999998
 31
0
  0
TEXT
  8
1
 62
2
 10
54.6519900541402
 20
-108.9999999999998
 30
0
 40
5
  1
üV
 41
0.9
 72
1
 73
2
 11
59.1519900541402
 21
-106.4999999999998
 31
0
  0
TEXT
  8
1
 62
2
 10
250.6564455584102
 20
-84.83239508700083
 30
0
 40
4
  1
èÜìçæèÄÞâsâjâIâôÄdùl
 41
0.9
 72
1
 11
286.6564455584102
 21
-84.83239508700083
 31
0
  0
TEXT
  8
1
 62
2
 10
263.7333828076891
 20
-39.98003377303988
 30
0
 40
4
  1
âsü@âjü@âIü@âôü@Ädü@ùl
 41
0.9
  0
TEXT
  8
1
 62
2
 10
263.7333828076891
 20
-46.98003377303988
 30
0
 40
4
  1
âéâWâàü|âïü@üFü@éOüDéS
 41
0.9
  0
TEXT
  8
1
 62
2
 10
263.7333828076891
 20
-53.98003377303988
 30
0
 40
4
  1
ê%%dü@ù═ü@èpü@üFü@éQéO%%d
 41
0.9
  0
TEXT
  8
1
 62
2
 10
263.7333828076891
 20
-60.98003377303988
 30
0
 40
4
  1
Äòü@ü@ü@Éöü@üFü@éPéR
 41
0.9
  0
TEXT
  8
1
 62
2
 10
263.7333828076891
 20
-67.98003377303988
 30
0
 40
4
  1
èOü@ü@ü@îaü@üFü@âËéU
 41
0.9
  0
TEXT
  8
1
 62
2
 10
263.7333828076891
 20
-74.98003377303988
 30
0
 40
4
  1
ô]ü@ê╩ü@ù╩ü@üFü@ü@éO
 41
0.9
  0
DIMENSION
  8
1
  6
CONTINUOUS
 62
2
  2
*D0
  3
DMST_1
 10
99.72027405650648
 20
21.08866686838027
 30
0
 11
95.32027405650648
 21
24.85606288518869
 31
0
 12
0
 22
0
 32
0
 70
0
  1
âË<>
 13
136.7202740565065
 23
29.08866686838024
 33
0
 14
119.7202740565065
 24
21.08866686838024
 34
0
 50
90
 53
0
  0
DIMENSION
  8
1
  6
CONTINUOUS
 62
2
  2
*D1
  3
DMST_2
 10
119.7202740565065
 20
69.83866686838024
 30
0
 11
136.861605195963
 21
73.43866686838027
 31
0
 12
0
 22
0
 32
0
 70
0
 13
154.7202740565065
 23
49.83866686838024
 33
0
 14
119.7202740565065
 24
28.08866686838024
 34
0
 53
0
  0
DIMENSION
  8
1
  6
CONTINUOUS
 62
2
  2
*D2
  3
DMST_2
 10
109.7202740565065
 20
29.08866686838027
 30
0
 11
106.1202740565065
 21
33.28373259755267
 31
0
 12
0
 22
0
 32
0
 70
0
 13
119.7202740565065
 23
28.08866686838024
 33
0
 14
136.7202740565065
 24
29.08866686838024
 34
0
 50
90
 53
0
  0
DIMENSION
  8
1
  6
CONTINUOUS
 62
2
  2
*D3
  3
DMST_3
 10
119.7202740565065
 20
44.08866686838024
 30
0
 11
126.673458154468
 21
47.68866686838027
 31
0
 12
0
 22
0
 32
0
 70
1
 13
133.7202740565065
 23
28.08866686838024
 33
0
 14
119.7202740565065
 24
28.08866686838024
 34
0
 53
0
  0
DIMENSION
  8
1
  6
CONTINUOUS
 62
2
  2
*D4
  3
DMST_2
 10
139.7202740565065
 20
8.088666868380297
 30
0
 11
136.1202740565065
 21
14.62385321101004
 31
0
 12
0
 22
0
 32
0
 70
1
  1
âË<>
 13
150.2202740565065
 23
42.08866686838024
 33
0
 14
150.2202740565065
 24
8.088666868380301
 34
0
 53
0
  0
DIMENSION
  8
1
  6
CONTINUOUS
 62
2
  2
*D5
  3
DMST_4
 10
207.0949900378885
 20
-26.41133313161976
 30
0
 11
202.6949900378885
 21
9.931130495651985
 31
0
 12
0
 22
0
 32
0
 70
1
  1
73H7
 13
186.7202740565065
 23
46.58866686838024
 33
0
 14
186.7202740565065
 24
-26.41133313161976
 34
0
 53
0
  0
DIMENSION
  8
1
  6
CONTINUOUS
 62
2
  2
*D6
  3
DMST_2
 10
149.7202740565065
 20
59.83866686838027
 30
0
 11
144.2413274589134
 21
63.43866686838027
 31
0
 12
0
 22
0
 32
0
 70
0
 13
154.7202740565065
 23
49.83866686838024
 33
0
 14
149.7202740565065
 24
41.58866686838024
 34
0
 53
0
  0
DIMENSION
  8
1
  6
CONTINUOUS
 62
2
  2
*D7
  3
DMST_2
 10
-17.23157626086947
 20
10.0886668683803
 30
0
 11
-19.88849299562401
 21
17.58866686838024
 31
0
 12
0
 22
0
 32
0
 70
0
 13
-16.23157626086947
 23
25.08866686838024
 33
0
 14
3.768423739130533
 24
10.0886668683803
 34
0
 50
90
 53
0
  0
DIMENSION
  8
1
  6
CONTINUOUS
 62
2
  2
*D8
  3
DMST_2
 10
68.5184237391305
 20
49.83866686838026
 30
0
 11
64.9184237391305
 21
10.16322234218086
 31
0
 12
0
 22
0
 32
0
 70
0
  1
80
 13
36.99842373913053
 23
-29.66133313161976
 33
0
 14
36.99842373913053
 24
49.83866686838024
 34
0
 50
90
 53
0
  0
DIMENSION
  8
1
  6
CONTINUOUS
 62
2
  2
*D9
  3
DMST_5
 10
58.5184237391305
 20
-23.14133313161972
 30
0
 11
54.9184237391305
 21
9.791698892033764
 31
0
 12
0
 22
0
 32
0
 70
0
  1
66.5
 13
44.9984237391305
 23
43.31866686838026
 33
0
 14
44.9984237391305
 24
-23.14133313161977
 34
0
 50
90
 53
0
  0
DIMENSION
  8
1
  6
CONTINUOUS
 62
2
  2
*D10
  3
DMST_2
 10
-35.98157626086945
 20
69.83866686838027
 30
0
 11
3.658316767456402
 21
73.43866686838027
 31
0
 12
0
 22
0
 32
0
 70
0
  1
80
 13
43.5184237391305
 23
43.31866686838026
 33
0
 14
-35.98157626086946
 24
43.31866686838026
 34
0
 53
0
  0
DIMENSION
  8
1
  6
CONTINUOUS
 62
2
  2
*D11
  3
DMST_5
 10
-29.46157626086947
 20
59.83866686838027
 30
0
 11
3.238698238846094
 21
63.43866686838027
 31
0
 12
0
 22
0
 32
0
 70
0
  1
66.5
 13
36.99842373913053
 23
51.31866686838026
 33
0
 14
-29.46157626086946
 24
51.31866686838026
 34
0
 53
0
  0
DIMENSION
  8
1
  6
CONTINUOUS
 62
2
  2
*D12
  3
DMST_6
 10
154.7202740565065
 20
69.83866686838027
 30
0
 11
169.6678450901664
 21
73.43866686838027
 31
0
 12
0
 22
0
 32
0
 70
0
 13
184.7202740565065
 23
46.58866686838024
 33
0
 14
154.7202740565065
 24
49.83866686838024
 34
0
 53
0
  0
DIMENSION
  8
1
  6
CONTINUOUS
 62
2
  2
*D13
  3
DMST_2
 10
272.8192251252906
 20
69.83866686838024
 30
0
 11
278.695928041094
 21
73.43866686838027
 31
0
 12
0
 22
0
 32
0
 70
0
 13
284.8192251252906
 23
50.08866686838024
 33
0
 14
272.8192251252906
 24
13.0886668683803
 34
0
 53
0
  0
DIMENSION
  8
1
  6
CONTINUOUS
 62
2
  2
*D14
  3
DMST_2
 10
284.8192251252906
 20
59.83866686838024
 30
0
 11
290.958299047389
 21
63.43866686838027
 31
0
 12
0
 22
0
 32
0
 70
0
 13
282.8192251252906
 23
46.58866686838024
 33
0
 14
284.8192251252906
 24
50.08866686838024
 34
0
 53
0
  0
DIMENSION
  8
1
  6
CONTINUOUS
 62
2
  2
*D15
  3
DMST_4
 10
256.5111778028784
 20
-26.41133313161974
 30
0
 11
252.1111778028784
 21
9.066757493188675
 31
0
 12
0
 22
0
 32
0
 70
1
  1
73h7
 13
282.8192251252906
 23
46.58866686838024
 33
0
 14
282.8192251252906
 24
-26.41133313161976
 34
0
 53
0
  0
DIMENSION
  8
1
  6
CONTINUOUS
 62
2
  2
*D17
  3
DMST_7
 10
48.44555772712376
 20
24.66328516934781
 30
0
 11
-26.16072013253645
 21
4.111866565198682
 31
0
 12
0
 22
0
 32
0
 70
3
  1
94
 15
-40.90871024886266
 25
-4.485951432587338
 35
0
 40
0
 53
0
  0
INSERT
  8
1
  2
*D16
 10
0
 20
0
 30
0
  0
ENDSEC
  0
EOF
