  0
SECTION
  2
HEADER
  9
$ACADVER
  1
AC1009
  9
$INSBASE
 10
0
 20
0
  9
$EXTMIN
 10
1899.34274029169
 20
2648.33548106125
  9
$EXTMAX
 10
2251.461045988937
 20
2855.097237506078
  9
$LIMMIN
 10
1899.34274029169
 20
2648.33548106125
  9
$LIMMAX
 10
2251.461045988937
 20
2855.097237506078
  9
$VIEWCTR
 10
10
 20
10
  9
$VIEWSIZE
 40
10
  9
$SNAPMODE
 70
0
  9
$SNAPUNIT
 10
1
 20
1
  9
$SNAPBASE
 10
0
 20
0
  9
$SNAPANG
 50
0
  9
$SNAPSTYLE
 70
0
  9
$SNAPISOPAIR
 70
0
  9
$GRIDMODE
 70
0
  9
$GRIDUNIT
 10
0
 20
0
  9
$ORTHOMODE
 70
0
  9
$REGENMODE
 70
1
  9
$FILLMODE
 70
1
  9
$QTEXTMODE
 70
0
  9
$DRAGMODE
 70
2
  9
$LTSCALE
 40
1
  9
$OSMODE
 70
0
  9
$ATTMODE
 70
1
  9
$TEXTSIZE
 40
3.5
  9
$TRACEWID
 40
0.5
  9
$TEXTSTYLE
  7
STANDARD
  9
$CLAYER
  8
0
  9
$CELTYPE
  6
BYLAYER
  9
$CECOLOR
 62
256
  9
$DIMSCALE
 40
1
  9
$DIMASZ
 40
0.18
  9
$DIMEXO
 40
0.0625
  9
$DIMDLI
 40
0.38
  9
$DIMRND
 40
0
  9
$DIMDLE
 40
0
  9
$DIMEXE
 40
0.18
  9
$DIMTP
 40
0
  9
$DIMTM
 40
0
  9
$DIMTXT
 40
0.18
  9
$DIMCEN
 40
0.09
  9
$DIMTSZ
 40
0
  9
$DIMTOL
 70
0
  9
$DIMLIM
 70
0
  9
$DIMTIH
 70
1
  9
$DIMTOH
 70
1
  9
$DIMSE1
 70
0
  9
$DIMSE2
 70
0
  9
$DIMTAD
 70
0
  9
$DIMZIN
 70
0
  9
$DIMBLK
  1

  9
$DIMASO
 70
1
  9
$DIMSHO
 70
1
  9
$DIMPOST
  1

  9
$DIMAPOST
  1

  9
$DIMALT
 70
0
  9
$DIMALTD
 70
2
  9
$DIMALTF
 40
25.4
  9
$DIMLFAC
 40
1
  9
$DIMTOFL
 70
0
  9
$DIMTVP
 40
0
  9
$DIMTIX
 70
0
  9
$DIMSOXD
 70
0
  9
$DIMSAH
 70
0
  9
$DIMBLK1
  1

  9
$DIMBLK2
  1

  9
$DIMSTYLE
  2
*UNNAMED
  9
$DIMCLRD
 70
0
  9
$DIMCLRE
 70
0
  9
$DIMCLRT
 70
0
  9
$DIMTFAC
 40
1
  9
$DIMGAP
 40
0.09
  9
$LUNITS
 70
2
  9
$LUPREC
 70
4
  9
$AXISMODE
 70
0
  9
$AXISUNIT
 10
0
 20
0
  9
$SKETCHINC
 40
0.1
  9
$FILLETRAD
 40
2
  9
$AUNITS
 70
0
  9
$AUPREC
 70
0
  9
$MENU
  1
ACAD
  9
$ELEVATION
 40
0
  9
$THICKNESS
 40
0
  9
$VIEWDIR
 10
0
 20
0
 30
1
  9
$LIMCHECK
 70
0
  9
$BLIPMODE
 70
1
  9
$CHAMFERA
 40
0
  9
$CHAMFERB
 40
0
  9
$FASTZOOM
 70
1
  9
$SKPOLY
 70
0
  9
$ANGBASE
 50
0
  9
$ANGDIR
 70
0
  9
$PDMODE
 70
0
  9
$PDSIZE
 40
0
  9
$PLINEWID
 40
0
  9
$COORDS
 70
2
  0
ENDSEC
  0
SECTION
  2
TABLES
  0
TABLE
  2
DIMSTYLE
 70
11
  0
DIMSTYLE
  2
DMST_1
 70
0
  3

  4

  5

  6

  7

 40
1
 41
3.2
 42
1
 43
7
 44
1.5
 45
0
 46
0
 47
0
 48
0
140
3.2
141
0
142
0
143
25.4
144
1
145
0
146
1
147
0.09
 71
0
 72
0
 73
0
 74
0
 75
0
 76
0
 77
1
 78
9
170
0
171
2
172
0
173
0
174
0
175
0
176
2
177
2
178
2
  0
DIMSTYLE
  2
DMST_2
 70
0
  3

  4

  5

  6

  7

 40
1
 41
3.2
 42
1
 43
7
 44
2
 45
0
 46
0
 47
0
 48
0
140
3.2
141
0
142
0
143
25.4
144
1
145
0
146
0.6
147
0.09
 71
1
 72
0
 73
0
 74
0
 75
0
 76
0
 77
1
 78
9
170
0
171
2
172
0
173
0
174
0
175
0
176
2
177
2
178
2
  0
DIMSTYLE
  2
DMST_3
 70
0
  3

  4

  5

  6

  7

 40
1
 41
3.2
 42
1
 43
7
 44
1.5
 45
0
 46
0
 47
0
 48
0
140
3.2
141
0
142
0
143
25.4
144
1
145
0
146
1
147
0.09
 71
0
 72
0
 73
1
 74
1
 75
0
 76
0
 77
1
 78
9
170
0
171
2
172
0
173
0
174
0
175
0
176
2
177
2
178
2
  0
DIMSTYLE
  2
DMST_4
 70
0
  3

  4

  5

  6

  7

 40
1
 41
3.2
 42
1
 43
7
 44
1.5
 45
0
 46
0
 47
0.3
 48
0.3
140
3.2
141
0
142
0
143
25.4
144
1
145
0
146
0.6
147
0.09
 71
1
 72
0
 73
1
 74
1
 75
0
 76
0
 77
1
 78
9
170
0
171
2
172
0
173
0
174
0
175
0
176
2
177
2
178
2
  0
DIMSTYLE
  2
DMST_5
 70
0
  3

  4

  5

  6

  7
DOT
 40
1
 41
3.2
 42
1
 43
7
 44
1.5
 45
0
 46
0
 47
0
 48
0
140
3.2
141
0
142
0
143
25.4
144
1
145
0
146
1
147
0.09
 71
0
 72
0
 73
1
 74
1
 75
0
 76
0
 77
1
 78
9
170
0
171
2
172
0
173
1
174
0
175
0
176
2
177
2
178
2
  0
DIMSTYLE
  2
DMST_6
 70
0
  3

  4

  5

  6
DOT
  7

 40
1
 41
1.6
 42
1
 43
7
 44
1.5
 45
0
 46
0
 47
0
 48
0
140
3.2
141
0
142
0
143
25.4
144
1
145
0
146
1
147
0.09
 71
0
 72
0
 73
1
 74
1
 75
0
 76
0
 77
1
 78
9
170
0
171
2
172
0
173
1
174
0
175
0
176
2
177
2
178
2
  0
DIMSTYLE
  2
DMST_7
 70
0
  3

  4

  5

  6

  7

 40
1
 41
0
 42
1
 43
7
 44
1.5
 45
0
 46
0
 47
0
 48
0
140
3.2
141
0
142
0
143
25.4
144
1
145
0
146
0.6
147
0.09
 71
1
 72
0
 73
0
 74
0
 75
0
 76
0
 77
1
 78
9
170
0
171
2
172
1
173
0
174
0
175
0
176
2
177
2
178
2
  0
DIMSTYLE
  2
DMST_8
 70
0
  3

  4

  5

  6

  7

 40
1
 41
0
 42
1
 43
7
 44
1.5
 45
0
 46
0
 47
0
 48
0
140
3.2
141
0
142
0
143
25.4
144
1
145
0
146
1
147
0.09
 71
0
 72
0
 73
0
 74
0
 75
0
 76
0
 77
1
 78
9
170
0
171
2
172
0
173
0
174
0
175
0
176
2
177
2
178
2
  0
DIMSTYLE
  2
DMST_9
 70
0
  3
)
  4

  5

  6

  7

 40
1
 41
3.2
 42
1
 43
7
 44
2
 45
0
 46
0
 47
0
 48
0
140
3.2
141
0
142
0
143
25.4
144
1
145
0
146
1
147
0.09
 71
0
 72
0
 73
0
 74
0
 75
0
 76
0
 77
1
 78
9
170
0
171
2
172
0
173
0
174
0
175
0
176
2
177
2
178
2
  0
DIMSTYLE
  2
DMST_10
 70
0
  3

  4

  5

  6

  7

 40
1
 41
3.2
 42
1
 43
7
 44
1.5
 45
0
 46
0
 47
0.3
 48
0.3
140
3.2
141
0
142
0
143
25.4
144
1
145
0
146
0.6
147
0.09
 71
1
 72
0
 73
0
 74
0
 75
0
 76
0
 77
1
 78
9
170
0
171
2
172
0
173
0
174
0
175
0
176
2
177
2
178
2
  0
DIMSTYLE
  2
DMST_11
 70
0
  3
)
  4

  5

  6

  7

 40
1
 41
3.2
 42
1
 43
7
 44
1.5
 45
0
 46
0
 47
0
 48
0
140
3.2
141
0
142
0
143
25.4
144
1
145
0
146
1
147
0.09
 71
0
 72
0
 73
0
 74
0
 75
0
 76
0
 77
1
 78
9
170
0
171
2
172
0
173
0
174
1
175
0
176
2
177
2
178
2
  0
ENDTAB
  0
TABLE
  2
LTYPE
 70
9
  0
LTYPE
  2
CONTINUOUS
 70
64
  3
Solid line
 72
65
 73
0
 40
0
  0
LTYPE
  2
BORDER
 70
64
  3
__ __ . __ __ .
 72
65
 73
6
 40
16.21597460447847
 49
4.633135601279563
 49
-2.316567800639782
 49
4.633135601279563
 49
-2.316567800639782
 49
0
 49
-2.316567800639782
  0
LTYPE
  2
CENTER
 70
64
  3
____ _ ____ _
 72
65
 73
4
 40
18.53254240511825
 49
11.58283900319891
 49
-2.316567800639782
 49
2.316567800639782
 49
-2.316567800639782
  0
LTYPE
  2
DASHDOT
 70
64
  3
__ . __ . __ .
 72
65
 73
4
 40
9.266271202559127
 49
4.633135601279563
 49
-2.316567800639782
 49
0
 49
-2.316567800639782
  0
LTYPE
  2
DASHED
 70
64
  3
__ __ __ __ __
 72
65
 73
2
 40
6.949703401919345
 49
4.633135601279563
 49
-2.316567800639782
  0
LTYPE
  2
DIVIDE
 70
64
  3
__ . . __ . . 
 72
65
 73
6
 40
11.58283900319891
 49
4.633135601279563
 49
-2.316567800639782
 49
0
 49
-2.316567800639782
 49
0
 49
-2.316567800639782
  0
LTYPE
  2
DOT
 70
64
  3
..............
 72
65
 73
4
 40
4.633135601279563
 49
0
 49
-2.316567800639782
 49
0
 49
-2.316567800639782
  0
LTYPE
  2
HIDDEN
 70
64
  3
_ _ _ _ _ _ _
 72
65
 73
2
 40
3.474851700959673
 49
2.316567800639782
 49
-1.158283900319891
  0
LTYPE
  2
PHANTOM
 70
64
  3
_____ _ _ _____ _ _ 
 72
65
 73
6
 40
23.16567800639782
 49
11.58283900319891
 49
-2.316567800639782
 49
2.316567800639782
 49
-2.316567800639782
 49
2.316567800639782
 49
-2.316567800639782
  0
ENDTAB
  0
TABLE
  2
LAYER
 70
3
  0
LAYER
  2
1
 70
0
 62
7
  6
CONTINUOUS
  0
LAYER
  2
0
 70
0
 62
7
  6
CONTINUOUS
  0
ENDTAB
  0
TABLE
  2
STYLE
 70
4
  0
STYLE
  2
STANDARD
 70
0
 40
0
 41
1
 50
0
 71
0
 42
3.5
  3
txt
  4

  0
STYLE
  2
SIMPLEX
 70
0
 40
0
 41
1
 50
0
 71
0
 42
3.5
  3
simplex
  4

  0
STYLE
  2
COMPLEX
 70
0
 40
0
 41
1
 50
0
 71
0
 42
3.5
  3
complex
  4

  0
STYLE
  2
ITALIC
 70
0
 40
0
 41
1
 50
0
 71
0
 42
3.5
  3
italic
  4

  0
ENDTAB
  0
TABLE
  2
VIEW
 70
0
  0
ENDTAB
  0
ENDSEC
  0
SECTION
  2
BLOCKS
  0
BLOCK
  8
0
  2
_O_L_____4__1
 70
0
 10
1966.04252080908
 20
2820.320937506079
 30
0
  0
LINE
  8
1
 62
3
 10
1962.24252080908
 20
2820.320937506079
 30
0
 11
1962.24252080908
 21
2819.897237506078
 31
0
  0
LINE
  8
1
 62
3
 10
1969.84252080908
 20
2820.320937506079
 30
0
 11
1962.24252080908
 21
2820.320937506079
 31
0
  0
LINE
  8
1
 62
3
 10
1969.84252080908
 20
2819.897237506078
 30
0
 11
1969.84252080908
 21
2820.320937506079
 31
0
  0
LINE
  8
1
 62
3
 10
1966.22048330908
 20
2819.897237506078
 30
0
 11
1966.16752080908
 21
2820.320937506079
 31
0
  0
LINE
  8
1
 62
3
 10
1965.84548330908
 20
2819.897237506078
 30
0
 11
1965.79252080908
 21
2820.320937506079
 31
0
  0
ENDBLK
  8
0
  0
BLOCK
  8
0
  2
____M4__2
 70
0
 10
1966.04252080908
 20
2820.320937506079
 30
0
  0
LINE
  8
1
 62
3
 10
1966.59252080908
 20
2823.162260898128
 30
0
 11
1966.59252080908
 21
2823.397260898128
 31
0
  0
LINE
  8
1
 62
3
 10
1965.49252080908
 20
2823.162260898128
 30
0
 11
1966.59252080908
 21
2823.162260898128
 31
0
  0
LINE
  8
1
 62
3
 10
1965.49252080908
 20
2823.397260898128
 30
0
 11
1965.49252080908
 21
2823.162260898128
 31
0
  0
LINE
  8
1
 62
3
 10
1970.04252080908
 20
2820.320937506079
 30
0
 11
1970.04252080908
 21
2822.016935904797
 31
0
  0
LINE
  8
1
 62
3
 10
1962.04252080908
 20
2820.320937506079
 30
0
 11
1970.04252080908
 21
2820.320937506079
 31
0
  0
LINE
  8
1
 62
3
 10
1962.04252080908
 20
2822.016935904797
 30
0
 11
1962.04252080908
 21
2820.320937506079
 31
0
  0
LINE
  8
1
 62
1
 10
1966.04252080908
 20
2826.320937506079
 30
0
 11
1966.04252080908
 21
2817.320937506079
 31
0
  0
ARC
  8
1
 62
3
 10
1966.04252080908
 20
2817.020937506079
 30
0
 40
6.399999999999285
 50
51.31781254650543
 51
69.8944902120838
  0
ARC
  8
1
 62
3
 10
1966.04252080908
 20
2817.020937506079
 30
0
 40
6.39999999999935
 50
94.92993693718412
 51
110.1055097879181
  0
ARC
  8
1
 62
3
 10
1966.04252080908
 20
2817.020937506079
 30
0
 40
6.399999999999489
 50
110.1055097879181
 51
128.6821874534945
  0
ARC
  8
1
 62
3
 10
1966.04252080908
 20
2817.020937506079
 30
0
 40
6.399999999999411
 50
69.8944902120838
 51
85.07006306281789
  0
ENDBLK
  8
0
  0
BLOCK
  8
0
  2
MOJINOMUKI
 70
0
 10
2161.394997829899
 20
2821.50755140638
 30
0
  0
LINE
  8
1
 62
2
 10
2161.394997829899
 20
2823.00755140638
 30
0
 11
2161.394997829899
 21
2825.50755140638
 31
0
  0
LINE
  8
1
 62
2
 10
2158.894997829899
 20
2824.50755140638
 30
0
 11
2161.394997829899
 21
2823.00755140638
 31
0
  0
LINE
  8
1
 62
2
 10
2163.894997829899
 20
2824.50755140638
 30
0
 11
2158.894997829899
 21
2824.50755140638
 31
0
  0
LINE
  8
1
 62
2
 10
2158.394997829899
 20
2827.50755140638
 30
0
 11
2164.394997829899
 21
2827.50755140638
 31
0
  0
LINE
  8
1
 62
2
 10
2164.394997829899
 20
2821.50755140638
 30
0
 11
2158.394997829899
 21
2821.50755140638
 31
0
  0
LINE
  8
1
 62
2
 10
2164.394997829899
 20
2847.50755140638
 30
0
 11
2164.394997829899
 21
2821.50755140638
 31
0
  0
LINE
  8
1
 62
2
 10
2158.394997829899
 20
2847.50755140638
 30
0
 11
2164.394997829899
 21
2847.50755140638
 31
0
  0
LINE
  8
1
 62
2
 10
2158.394997829899
 20
2821.50755140638
 30
0
 11
2158.394997829899
 21
2847.50755140638
 31
0
  0
TEXT
  8
1
 62
2
 10
2163.394997829899
 20
2819.55429696851
 30
0
 40
4
  1
òÂÄÜé╠î³é½
 50
90
 41
0.9
 72
1
 73
2
 11
2161.394997829899
 21
2837.55429696851
 31
0
  0
ENDBLK
  8
0
  0
BLOCK
  8
0
  2
AE25585_L_______3
 70
0
 10
2160.0410109524
 20
2747.04727667394
 30
0
  0
LINE
  8
1
 62
3
 10
2142.093279699217
 20
2739.803465747718
 30
0
 11
2141.461045988937
 21
2739.803465747718
 31
0
  0
POLYLINE
  8
1
 62
3
 66
1
  0
VERTEX
  8
1
 10
2149.821618057395
 20
2739.869273787748
 30
0
 42
5.837498137579022e-05
  0
VERTEX
  8
1
 10
2149.824305792908
 20
2739.869545085196
 30
0
 42
0.002459524564675178
  0
VERTEX
  8
1
 10
2149.934967054566
 20
2739.881274380906
 30
0
 42
0.002569470569086777
  0
VERTEX
  8
1
 10
2150.045504855485
 20
2739.894115886085
 30
0
 42
0.002675255764030532
  0
VERTEX
  8
1
 10
2150.155903616675
 20
2739.908116913583
 30
0
 42
0.002679657838929679
  0
VERTEX
  8
1
 10
2150.261232217683
 20
2739.92262077807
 30
0
 42
0.001343293077941484
  0
VERTEX
  8
1
 10
2150.311381190878
 20
2739.929939569455
 30
0
 42
0.00139705861263413
  0
VERTEX
  8
1
 10
2150.361489332241
 20
2739.937533282226
 30
0
 42
0.001447112360632177
  0
VERTEX
  8
1
 10
2150.41155306549
 20
2739.945411790984
 30
0
 42
0.001498256613585774
  0
VERTEX
  8
1
 10
2150.461568814344
 20
2739.95358497033
 30
0
 42
0.001549199566904841
  0
VERTEX
  8
1
 10
2150.511533002522
 20
2739.962062694866
 30
0
 42
0.00160025663004051
  0
VERTEX
  8
1
 10
2150.561442053741
 20
2739.970854839195
 30
0
 42
0.001651377753158967
  0
VERTEX
  8
1
 10
2150.611292391722
 20
2739.979971277918
 30
0
 42
0.00345601353744256
  0
VERTEX
  8
1
 10
2150.71080262284
 20
2739.999216536949
 30
0
 42
0.001598349826972017
  0
VERTEX
  8
1
 10
2150.754270113508
 20
2740.008081741558
 30
0
 42
0.001680230208021648
  0
VERTEX
  8
1
 10
2150.797679051168
 20
2740.017231881835
 30
0
 42
0.001762266559349126
  0
VERTEX
  8
1
 10
2150.841024093286
 20
2740.026680701214
 30
0
 42
0.001844387545373951
  0
VERTEX
  8
1
 10
2150.884299897324
 20
2740.03644194313
 30
0
 42
0.001926583317868807
  0
VERTEX
  8
1
 10
2150.927501120747
 20
2740.046529351014
 30
0
 42
0.002008815876548757
  0
VERTEX
  8
1
 10
2150.970622421017
 20
2740.056956668299
 30
0
 42
0.002091049190062812
  0
VERTEX
  8
1
 10
2151.0136584556
 20
2740.06773763842
 30
0
 42
0.002173233658152531
  0
VERTEX
  8
1
 10
2151.056603881957
 20
2740.078886004809
 30
0
 42
0.002255331143610984
  0
VERTEX
  8
1
 10
2151.099453357554
 20
2740.090415510899
 30
0
 42
0.002337233736629012
  0
VERTEX
  8
1
 10
2151.142201539853
 20
2740.102339900124
 30
0
 42
0.002076402956574764
  0
VERTEX
  8
1
 10
2151.177755056824
 20
2740.112595116964
 30
0
 42
0.002264556709243028
  0
VERTEX
  8
1
 10
2151.213220727406
 20
2740.123159357619
 30
0
 42
0.00245345853428435
  0
VERTEX
  8
1
 10
2151.248584812268
 20
2740.13405766902
 30
0
 42
0.002643040450680265
  0
VERTEX
  8
1
 10
2151.283833572077
 20
2740.145315098094
 30
0
 42
0.002833252101964879
  0
VERTEX
  8
1
 10
2151.318953267499
 20
2740.156956691773
 30
0
 42
0.003023978428612593
  0
VERTEX
  8
1
 10
2151.353930159202
 20
2740.169007496987
 30
0
 42
0.003215065175568317
  0
VERTEX
  8
1
 10
2151.388750507856
 20
2740.181492560665
 30
0
 42
0.003406285051578807
  0
VERTEX
  8
1
 10
2151.423400574125
 20
2740.194436929737
 30
0
 42
0.003597417454505777
  0
VERTEX
  8
1
 10
2151.457866618678
 20
2740.207865651134
 30
0
 42
0.00378796805597899
  0
VERTEX
  8
1
 10
2151.492134902182
 20
2740.221803771784
 30
0
 42
0.003183256463028141
  0
VERTEX
  8
1
 10
2151.518837513703
 20
2740.233100109403
 30
0
 42
0.003465048621829537
  0
VERTEX
  8
1
 10
2151.545389978542
 20
2740.244751532755
 30
0
 42
0.003748343132070462
  0
VERTEX
  8
1
 10
2151.57177201124
 20
2740.256784977649
 30
0
 42
0.004032727744590718
  0
VERTEX
  8
1
 10
2151.59796332634
 20
2740.269227379887
 30
0
 42
0.00431783198204095
  0
VERTEX
  8
1
 10
2151.623943638382
 20
2740.282105675275
 30
0
 42
0.004603063986122794
  0
VERTEX
  8
1
 10
2151.649692661908
 20
2740.29544679962
 30
0
 42
0.004887704532629124
  0
VERTEX
  8
1
 10
2151.67519011146
 20
2740.309277688724
 30
0
 42
0.005170758958764691
  0
VERTEX
  8
1
 10
2151.70041570158
 20
2740.323625278392
 30
0
 42
0.005451377517961552
  0
VERTEX
  8
1
 10
2151.725349146809
 20
2740.338516504431
 30
0
 42
0.005727350631021907
  0
VERTEX
  8
1
 10
2151.749970161687
 20
2740.353978302643
 30
0
 42
0.004799770889574555
  0
VERTEX
  8
1
 10
2151.767732120303
 20
2740.365654707761
 30
0
 42
0.005840891842215542
  0
VERTEX
  8
1
 10
2151.785245517597
 20
2740.377708988723
 30
0
 42
0.006896934468915866
  0
VERTEX
  8
1
 10
2151.802439258868
 20
2740.390200317775
 30
0
 42
0.007965899559575678
  0
VERTEX
  8
1
 10
2151.819242249419
 20
2740.403187867164
 30
0
 42
0.009043197107553061
  0
VERTEX
  8
1
 10
2151.835583394551
 20
2740.416730809139
 30
0
 42
0.01011919190093588
  0
VERTEX
  8
1
 10
2151.851391599566
 20
2740.430888315947
 30
0
 42
0.01117998751345308
  0
VERTEX
  8
1
 10
2151.866595769765
 20
2740.445719559836
 30
0
 42
0.01220543026590707
  0
VERTEX
  8
1
 10
2151.88112481045
 20
2740.461283713053
 30
0
 42
0.01316728495968453
  0
VERTEX
  8
1
 10
2151.894907626921
 20
2740.477639947846
 30
0
 42
0.02489627938949717
  0
VERTEX
  8
1
 10
2151.916784097373
 20
2740.507988848035
 30
0
 42
0.01150370687775156
  0
VERTEX
  8
1
 10
2151.925131904656
 20
2740.521568240146
 30
0
 42
0.01231472940084452
  0
VERTEX
  8
1
 10
2151.932828259562
 20
2740.53553694829
 30
0
 42
0.01325094417025515
  0
VERTEX
  8
1
 10
2151.939784875326
 20
2740.549846307964
 30
0
 42
0.01433195151580656
  0
VERTEX
  8
1
 10
2151.945913465178
 20
2740.564447654664
 30
0
 42
0.01555203861483641
  0
VERTEX
  8
1
 10
2151.951125742351
 20
2740.579292323884
 30
0
 42
0.01689822165441511
  0
VERTEX
  8
1
 10
2151.955333420082
 20
2740.594331651122
 30
0
 42
0.01835651116331687
  0
VERTEX
  8
1
 10
2151.958448211602
 20
2740.609516971873
 30
0
 42
0.04124356526030353
  0
VERTEX
  8
1
 10
2151.961045988937
 20
2740.640130935895
 30
0
  0
SEQEND
  8
1
  0
ENDBLK
  8
0
  0
BLOCK
  8
0
  2
G8M
 70
0
 10
2381.66211386792
 20
3521.71265741655
 30
0
  0
LINE
  8
1
 62
3
 10
2142.484666172791
 20
2743.383600558194
 30
0
 11
2140.701045988937
 21
2727.06826740278
 31
0
  0
LINE
  8
1
 62
40
  6
DASHED
 10
1977.199102302542
 20
2739.897237506078
 30
0
 11
1977.015412049739
 21
2740.34070500567
 31
0
  0
LINE
  8
1
 62
3
 10
1979.764371817235
 20
2739.897237506078
 30
0
 11
1991.557441276913
 21
2711.426249274512
 31
0
  0
LINE
  8
1
 62
40
  6
DASHED
 10
1982.611063304004
 20
2739.897237506078
 30
0
 11
1981.77218688365
 21
2741.922464337251
 31
0
  0
LINE
  8
1
 62
3
 10
1985.457754790773
 20
2739.897237506078
 30
0
 11
1997.029341109707
 21
2711.960956876735
 31
0
  0
LINE
  8
1
 62
3
 10
1988.023024305466
 20
2739.897237506078
 30
0
 11
1998.912788855866
 21
2713.607020237449
 31
0
  0
LINE
  8
1
 62
3
 10
2148.591045988937
 20
2726.26826740278
 30
0
 11
2148.591045988937
 21
2744.159053323171
 31
0
  0
LINE
  8
1
 62
3
 10
2143.331045988937
 20
2744.159053323171
 30
0
 11
2143.331045988937
 21
2727.86826740278
 31
0
  0
LINE
  8
1
 62
3
 10
2145.961045988937
 20
2727.06826740278
 30
0
 11
2145.961045988937
 21
2744.167539329321
 31
0
  0
LINE
  8
1
 62
3
 10
2151.221045988937
 20
2727.06826740278
 30
0
 11
2149.437425805083
 21
2743.383600558194
 31
0
  0
LINE
  8
1
 62
3
 10
1989.673993530754
 20
2709.780185913799
 30
0
 11
1977.199102302542
 21
2739.897237506078
 31
0
  0
LINE
  8
1
 62
3
 10
1994.676074625676
 20
2710.769723543113
 30
0
 11
2009.81176673563
 21
2674.228930375354
 31
0
  0
LINE
  8
1
 62
3
 10
1994.29339119331
 20
2711.693603075624
 30
0
 11
1982.611063304004
 21
2739.897237506078
 31
0
  0
LINE
  8
1
 62
3
 10
1999.295472288232
 20
2712.683140704937
 30
0
 11
2014.431164398186
 21
2676.142347537179
 31
0
  0
LINE
  8
1
 62
40
  6
DASHED
 10
1979.304516139812
 20
2741.007427319248
 30
0
 11
1979.764371817235
 21
2739.897237506078
 31
0
  0
LINE
  8
1
 62
40
  6
DASHED
 10
1984.164122480821
 20
2743.020342173488
 30
0
 11
1985.457754790773
 21
2739.897237506078
 31
0
  0
LINE
  8
1
 62
2
 10
2012.754323046679
 20
2675.447777107436
 30
0
 11
2016.58115737033
 21
2666.208981782323
 31
0
  0
LINE
  8
1
 62
2
 10
2013.216262812934
 20
2675.639118823618
 30
0
 11
2017.043097136585
 21
2666.400323498506
 31
0
  0
LINE
  8
1
 62
2
 10
2013.67820257919
 20
2675.830460539801
 30
0
 11
2017.505036902841
 21
2666.591665214688
 31
0
  0
LINE
  8
1
 62
2
 10
2006.869210424582
 20
2673.010083643271
 30
0
 11
2010.696044748233
 21
2663.771288318158
 31
0
  0
LINE
  8
1
 62
2
 10
2006.407270658326
 20
2672.818741927088
 30
0
 11
2010.234104981978
 21
2663.579946601976
 31
0
  0
LINE
  8
1
 62
2
 10
2005.945330892071
 20
2672.627400210906
 30
0
 11
2009.772165215722
 21
2663.388604885793
 31
0
  0
LINE
  8
1
 62
3
 10
2005.192369073074
 20
2672.315513213528
 30
0
 11
1990.056676963119
 21
2708.856306381287
 31
0
  0
LINE
  8
1
 62
40
  6
DASHED
 10
1986.254207374852
 20
2744.167539329321
 30
0
 11
1988.023024305466
 21
2739.897237506078
 31
0
  0
LINE
  8
1
 62
2
 10
2008.134925384123
 20
2673.534359945612
 30
0
 11
2011.961759707774
 21
2664.295564620499
 31
0
  0
LINE
  8
1
 62
2
 10
2008.596865150378
 20
2673.725701661794
 30
0
 11
2012.423699474029
 21
2664.486906336681
 31
0
  0
LINE
  8
1
 62
2
 10
2009.058804916634
 20
2673.917043377977
 30
0
 11
2012.885639240285
 21
2664.678248052864
 31
0
  0
LINE
  8
1
 62
2
 10
2011.488608087139
 20
2674.923500805097
 30
0
 11
2015.31544241079
 21
2665.684705479984
 31
0
  0
LINE
  8
1
 62
2
 10
2011.026668320883
 20
2674.732159088914
 30
0
 11
2014.853502644534
 21
2665.493363763801
 31
0
  0
LINE
  8
1
 62
2
 10
2010.564728554627
 20
2674.540817372732
 30
0
 11
2014.391562878279
 21
2665.302022047619
 31
0
  0
LINE
  8
1
 62
3
 10
2014.431164398186
 20
2676.142347537179
 30
0
 11
2005.192369073074
 21
2672.315513213528
 31
0
  0
LINE
  8
1
 62
3
 10
2007.381963565126
 20
2673.222472948234
 30
0
 11
1991.940124709278
 21
2710.502369742001
 31
0
  0
LINE
  8
1
 62
3
 10
2012.241569906135
 20
2675.235387802474
 30
0
 11
1997.412024542072
 21
2711.037077344223
 31
0
  0
POLYLINE
  8
1
 62
2
 66
1
  0
VERTEX
  8
1
 10
2140.701045988937
 20
2727.06826740278
 30
0
 42
-0.05915829662871894
  0
VERTEX
  8
1
 10
2141.510276758168
 20
2727.580966537965
 30
0
 42
-0.0638829580598283
  0
VERTEX
  8
1
 10
2142.319507527398
 20
2727.837316105557
 30
0
 42
-0.05706162558207845
  0
VERTEX
  8
1
 10
2143.128738296629
 20
2727.883925117847
 30
0
 42
-0.04251535559430843
  0
VERTEX
  8
1
 10
2143.93796906586
 20
2727.767402587122
 30
0
 42
-0.02678208376842004
  0
VERTEX
  8
1
 10
2144.74719983509
 20
2727.534357525675
 30
0
 42
-0.0126873810747326
  0
VERTEX
  8
1
 10
2145.556430604322
 20
2727.231398945793
 30
0
  0
VERTEX
  8
1
 10
2146.365661373552
 20
2726.905135859767
 30
0
 42
0.01256800385941649
  0
VERTEX
  8
1
 10
2147.174892142782
 20
2726.602177279885
 30
0
 42
0.02637546610386575
  0
VERTEX
  8
1
 10
2147.984122912013
 20
2726.369132218437
 30
0
 42
0.04200186229704583
  0
VERTEX
  8
1
 10
2148.793353681244
 20
2726.252609687714
 30
0
 42
0.05743814126300737
  0
VERTEX
  8
1
 10
2149.602584450475
 20
2726.299218700004
 30
0
 42
0.06656765154887774
  0
VERTEX
  8
1
 10
2150.411815219706
 20
2726.555568267596
 30
0
 42
0.06393587561574982
  0
VERTEX
  8
1
 10
2151.221045988937
 20
2727.06826740278
 30
0
  0
SEQEND
  8
1
  0
POLYLINE
  8
1
 62
2
 66
1
  0
VERTEX
  8
1
 10
1990.056676963119
 20
2708.856306381287
 30
0
 42
-0.06080444143239603
  0
VERTEX
  8
1
 10
1990.566687466887
 20
2709.615130482339
 30
0
 42
-0.0663830586613115
  0
VERTEX
  8
1
 10
1991.177031000507
 20
2710.14172846839
 30
0
 42
-0.0593478827201754
  0
VERTEX
  8
1
 10
1991.869465194913
 20
2710.47832326944
 30
0
 42
-0.04391242609046422
  0
VERTEX
  8
1
 10
1992.625747681043
 20
2710.66713781549
 30
0
 42
-0.02743224670564324
  0
VERTEX
  8
1
 10
1993.427636089832
 20
2710.75039503654
 30
0
 42
-0.01291920564325007
  0
VERTEX
  8
1
 10
1994.256888052217
 20
2710.770317862589
 30
0
  0
VERTEX
  8
1
 10
1995.095261199134
 20
2710.769129223637
 30
0
 42
0.01278581201196713
  0
VERTEX
  8
1
 10
1995.924513161519
 20
2710.789052049685
 30
0
 42
0.02696775367384356
  0
VERTEX
  8
1
 10
1996.726401570308
 20
2710.872309270735
 30
0
 42
0.0432875423013877
  0
VERTEX
  8
1
 10
1997.482684056438
 20
2711.061123816784
 30
0
 42
0.05966331007350474
  0
VERTEX
  8
1
 10
1998.175118250844
 20
2711.397718617834
 30
0
 42
0.06925715588949757
  0
VERTEX
  8
1
 10
1998.785461784464
 20
2711.924316603885
 30
0
 42
0.06594083737699787
  0
VERTEX
  8
1
 10
1999.295472288232
 20
2712.683140704937
 30
0
  0
SEQEND
  8
1
  0
POLYLINE
  8
1
 62
2
 66
1
  0
VERTEX
  8
1
 10
1989.673993530754
 20
2709.780185913799
 30
0
 42
-0.0608044414324658
  0
VERTEX
  8
1
 10
1990.184004034522
 20
2710.539010014851
 30
0
 42
-0.06638305866033051
  0
VERTEX
  8
1
 10
1990.794347568142
 20
2711.065608000902
 30
0
 42
-0.05934788272013072
  0
VERTEX
  8
1
 10
1991.486781762548
 20
2711.402202801952
 30
0
 42
-0.04391242609046422
  0
VERTEX
  8
1
 10
1992.243064248678
 20
2711.591017348002
 30
0
 42
-0.02743224670683821
  0
VERTEX
  8
1
 10
1993.044952657467
 20
2711.67427456905
 30
0
 42
-0.01291920564325526
  0
VERTEX
  8
1
 10
1993.874204619852
 20
2711.6941973951
 30
0
  0
VERTEX
  8
1
 10
1994.712577766768
 20
2711.693008756148
 30
0
 42
0.01278581201143037
  0
VERTEX
  8
1
 10
1995.541829729153
 20
2711.712931582197
 30
0
 42
0.02696775367436772
  0
VERTEX
  8
1
 10
1996.343718137943
 20
2711.796188803246
 30
0
 42
0.04328754230082135
  0
VERTEX
  8
1
 10
1997.100000624073
 20
2711.985003349296
 30
0
 42
0.0596633100734081
  0
VERTEX
  8
1
 10
1997.792434818478
 20
2712.321598150345
 30
0
 42
0.06925715588968054
  0
VERTEX
  8
1
 10
1998.402778352098
 20
2712.848196136397
 30
0
 42
0.06594083737803652
  0
VERTEX
  8
1
 10
1998.912788855866
 20
2713.607020237449
 30
0
  0
SEQEND
  8
1
  0
LINE
  8
1
 62
2
 10
2021.42666676195
 20
2708.65752485707
 30
0
 11
2008.251917692916
 21
2691.060368738293
 31
0
  0
SOLID
  8
1
 62
2
 10
2009.832520293009
 20
2693.874472324343
 30
0
 11
2010.507006168406
 21
2693.369494014269
 31
0
 12
2008.251917692916
 22
2691.060368738293
 32
0
 13
2008.251917692916
 23
2691.060368738293
 33
0
  0
INSERT
  8
0
  2
AE25585_L_______3
 10
2160.0410109524
 20
2747.04727667394
 30
0
  0
ENDBLK
  8
0
  0
BLOCK
  8
0
  2
G8M2__4
 70
0
 10
2038.49285001589
 20
2896.282525865
 30
0
  0
INSERT
  8
0
  2
G8M
 10
2381.66211386792
 20
3521.71265741655
 30
0
  0
ENDBLK
  8
0
  0
BLOCK
  8
1
  2
*D0
 70
1
 10
0
 20
0
 30
0
  0
LINE
  8
1
 62
2
 10
1966.04252080908
 20
2715.588718565207
 30
0
 11
1966.04252080908
 21
2714.088718565207
 31
0
  0
LINE
  8
1
 62
2
 10
1990.652325567687
 20
2720.483913090493
 30
0
 11
1991.226350716235
 21
2719.098093791726
 31
0
  0
LINE
  8
1
 62
2
 10
1966.04252080908
 20
2733.897237506078
 30
0
 11
1966.04252080908
 21
2715.588718565207
 31
0
  0
LINE
  8
1
 62
2
 10
1982.920237180745
 20
2739.150825739717
 30
0
 11
1990.652325567687
 21
2720.483913090493
 31
0
  0
ARC
  8
1
 62
2
 10
1966.04252080908
 20
2779.89723750608
 30
0
 40
64.30851894087255
 50
270
 51
292.499999999999
  0
SOLID
  8
1
 62
2
 10
1966.04252080908
 20
2715.588718565207
 30
0
 11
1969.23118139371
 21
2716.084197803952
 31
0
 12
1969.251879470525
 22
2715.252455301962
 32
0
 13
1969.251879470525
 23
2715.252455301962
 33
0
  0
SOLID
  8
1
 62
2
 10
1990.652325567687
 20
2720.483913090493
 30
0
 11
1987.815947167647
 21
2718.945077955793
 31
0
 12
1987.516775621674
 22
2719.72142864078
 32
0
 13
1987.516775621674
 23
2719.72142864078
 33
0
  0
TEXT
  8
1
 62
2
 10
1972.449500308163
 20
2717.677204186389
 30
0
 40
3.2
  1
22.5%%d
 50
10.90539274837029
 41
0.9
  0
ENDBLK
  8
0
  0
BLOCK
  8
0
  2
AE25585_L_______5
 70
0
 10
2009.13595973281
 20
2765.78588282438
 30
0
  0
LINE
  8
1
 62
40
 10
2141.461045988937
 20
2746.467596765705
 30
0
 11
2141.461045988937
 21
2739.803465747718
 31
0
  0
LINE
  8
1
 62
3
 10
2141.461045988937
 20
2745.543717233194
 30
0
 11
2148.461045988937
 21
2745.543717233194
 31
0
  0
LINE
  8
1
 62
3
 10
2141.461045988937
 20
2746.467596765705
 30
0
 11
2148.461045988937
 21
2746.467596765705
 31
0
  0
LINE
  8
1
 62
40
  6
DASHED
 10
1988.007472891196
 20
2746.467596765706
 30
0
 11
1988.390156323561
 21
2745.543717233194
 31
0
  0
LINE
  8
1
 62
40
  6
DASHED
 10
1974.149279903526
 20
2740.727345280229
 30
0
 11
1974.493121801811
 21
2739.897237506078
 31
0
  0
LINE
  8
1
 62
1
 10
1979.093402857095
 20
2748.38962106483
 30
0
 11
1982.53755374838
 21
2740.074705272228
 31
0
  0
LINE
  8
1
 62
3
 10
2151.961045988937
 20
2740.64012007594
 30
0
 11
2151.961045988937
 21
2744.504746370964
 31
0
  0
LINE
  8
1
 62
3
 10
2143.461045988937
 20
2744.167539329321
 30
0
 11
2148.461045988937
 21
2744.167539329321
 31
0
  0
LINE
  8
1
 62
3
 10
1974.493121801811
 20
2739.897237506078
 30
0
 11
1974.531963335891
 21
2739.803465747718
 31
0
  0
LINE
  8
1
 62
4
  6
DIVIDE
 10
1966.04252080908
 20
2734.897237506078
 30
0
 11
1966.04252080908
 21
2737.23090890479
 31
0
  0
ARC
  8
1
 62
40
  6
DASHED
 10
1968.378266750872
 20
2774.258247975146
 30
0
 40
34.99999999999999
 50
280.9651212765558
 51
304.8736251161894
  0
ARC
  8
1
 62
3
 10
1968.378266750872
 20
2774.258247975146
 30
0
 40
34.99999999999954
 50
280.1263748838111
 51
280.9651212765558
  0
POLYLINE
  8
1
 62
3
 66
1
  0
VERTEX
  8
1
 10
2148.461045988937
 20
2745.543717233194
 30
0
 42
-0.02643727130324245
  0
VERTEX
  8
1
 10
2149.104190943033
 20
2745.510753228794
 30
0
 42
-0.01516773912911959
  0
VERTEX
  8
1
 10
2149.597247876
 20
2745.437800436304
 30
0
 42
-0.0214202616441261
  0
VERTEX
  8
1
 10
2149.991850590384
 20
2745.346400836535
 30
0
 42
-0.02120298871720917
  0
VERTEX
  8
1
 10
2150.400222817666
 20
2745.215250402805
 30
0
 42
-0.02063217024535233
  0
VERTEX
  8
1
 10
2150.738535062178
 20
2745.071646189557
 30
0
 42
-0.02166366517026121
  0
VERTEX
  8
1
 10
2151.016725499591
 20
2744.922257036891
 30
0
 42
-0.01995194250487541
  0
VERTEX
  8
1
 10
2151.237556001506
 20
2744.776209932268
 30
0
 42
-0.03037350730386571
  0
VERTEX
  8
1
 10
2151.442828768527
 20
2744.608945311719
 30
0
 42
-0.03018099760330031
  0
VERTEX
  8
1
 10
2151.629762693
 20
2744.414644850826
 30
0
 42
-0.03467140608173298
  0
VERTEX
  8
1
 10
2151.767670584057
 20
2744.224377082644
 30
0
 42
-0.0260179639974947
  0
VERTEX
  8
1
 10
2151.855639290296
 20
2744.059070579307
 30
0
 42
-0.05657142787594809
  0
VERTEX
  8
1
 10
2151.925942449564
 20
2743.857843247318
 30
0
 42
-0.062174811564114
  0
VERTEX
  8
1
 10
2151.961045988937
 20
2743.580866838453
 30
0
  0
SEQEND
  8
1
  0
POLYLINE
  8
1
 62
3
 66
1
  0
VERTEX
  8
1
 10
2148.461045988937
 20
2746.467596765705
 30
0
 42
-0.02643796000854798
  0
VERTEX
  8
1
 10
2149.104191837453
 20
2746.43463249953
 30
0
 42
-0.01516739818471344
  0
VERTEX
  8
1
 10
2149.597246047798
 20
2746.361680503884
 30
0
 42
-0.02142103189860429
  0
VERTEX
  8
1
 10
2149.99185978122
 20
2746.270277679117
 30
0
 42
-0.01393865596343062
  0
VERTEX
  8
1
 10
2150.336711856049
 20
2746.162285336362
 30
0
 42
-0.009568683931444975
  0
VERTEX
  8
1
 10
2150.537307942658
 20
2746.085256477004
 30
0
 42
-0.0193640328208884
  0
VERTEX
  8
1
 10
2150.751666414053
 20
2745.989180402607
 30
0
 42
-0.02171943671850443
  0
VERTEX
  8
1
 10
2151.016720714702
 20
2745.846140618878
 30
0
 42
-0.02319451371529715
  0
VERTEX
  8
1
 10
2151.252350516772
 20
2745.689202597322
 30
0
 42
-0.02708387849704411
  0
VERTEX
  8
1
 10
2151.456336358317
 20
2745.520390342973
 30
0
 42
-0.03031404513107422
  0
VERTEX
  8
1
 10
2151.629760644407
 20
2745.338526631791
 30
0
 42
-0.03467155658481898
  0
VERTEX
  8
1
 10
2151.767671062675
 20
2745.148256089843
 30
0
 42
-0.02601766142426873
  0
VERTEX
  8
1
 10
2151.855639216899
 20
2744.982950192375
 30
0
 42
-0.05657164411150021
  0
VERTEX
  8
1
 10
2151.925942480877
 20
2744.781722745459
 30
0
 42
-0.06217457117032048
  0
VERTEX
  8
1
 10
2151.961045988937
 20
2744.504746370964
 30
0
  0
SEQEND
  8
1
  0
ARC
  8
1
 62
3
 10
2148.461045988937
 20
2743.167539329321
 30
0
 40
1
 50
0
 51
90
  0
ARC
  8
1
 62
3
 10
2143.461045988937
 20
2743.167539329321
 30
0
 40
1
 50
90
 51
180
  0
DIMENSION
  8
1
  6
CONTINUOUS
 62
2
  2
*D0
  3
DMST_1
 10
1966.04252080908
 20
2734.897237506078
 30
0
 11
1977.527835912973
 21
2720.285059144955
 31
0
 12
0
 22
0
 32
0
 70
2
 13
1979.093402857095
 23
2748.38962106483
 33
0
 14
1982.53755374838
 24
2740.074705272228
 34
0
 15
1966.04252080908
 25
2737.23090890479
 35
0
 16
1978.588490477634
 26
2716.824388724339
 36
0
 53
0
  0
ENDBLK
  8
0
  0
BLOCK
  8
0
  2
H8_R
 70
0
 10
2466.75742497104
 20
2937.5192620442
 30
0
  0
LINE
  8
1
 62
1
 10
2132.461045988937
 20
2779.897237506078
 30
0
 11
2117.461045988937
 21
2779.897237506078
 31
0
  0
LINE
  8
1
 62
3
 10
2132.461045988937
 20
2783.388237506078
 30
0
 11
2122.961045988937
 21
2783.388237506078
 31
0
  0
LINE
  8
1
 62
3
 10
2122.461045988937
 20
2782.888237506077
 30
0
 11
2122.461045988937
 21
2779.897237506078
 31
0
  0
LINE
  8
1
 62
3
 10
2122.961045988937
 20
2783.388237506078
 30
0
 11
2122.461045988937
 21
2782.888237506077
 31
0
  0
LINE
  8
1
 62
4
  6
DASHED
 10
2122.461045988937
 20
2782.388237506078
 30
0
 11
2128.461045988937
 21
2782.388237506078
 31
0
  0
LINE
  8
1
 62
2
  6
CENTER
 10
2129.961045988937
 20
2782.888237506078
 30
0
 11
2120.961045988937
 21
2782.888237506078
 31
0
  0
LINE
  8
1
 62
3
 10
2122.961045988937
 20
2776.406237506078
 30
0
 11
2132.461045988937
 21
2776.406237506078
 31
0
  0
LINE
  8
1
 62
3
 10
2122.461045988937
 20
2779.897237506078
 30
0
 11
2122.461045988937
 21
2776.906237506078
 31
0
  0
LINE
  8
1
 62
3
 10
2122.461045988937
 20
2776.906237506078
 30
0
 11
2122.961045988937
 21
2776.406237506078
 31
0
  0
LINE
  8
1
 62
2
  6
CENTER
 10
2120.961045988937
 20
2776.906237506078
 30
0
 11
2129.961045988937
 21
2776.906237506078
 31
0
  0
LINE
  8
1
 62
2
 10
2123.410626211707
 20
2783.388237506078
 30
0
 11
2126.302351845718
 21
2776.406237506078
 31
0
  0
LINE
  8
1
 62
2
 10
2124.210626211708
 20
2783.388237506078
 30
0
 11
2127.102351845718
 21
2776.406237506078
 31
0
  0
LINE
  8
1
 62
2
 10
2125.010626211708
 20
2783.388237506078
 30
0
 11
2127.902351845718
 21
2776.406237506078
 31
0
  0
ARC
  8
1
 62
4
  6
DASHED
 10
2128.461045988939
 20
2798.388237506078
 30
0
 40
16
 50
270
 51
290.3641348063134
  0
CIRCLE
  8
1
 62
3
 10
1966.04252080908
 20
2779.897237506078
 30
0
 40
3.490999999999985
  0
CIRCLE
  8
1
 62
2
  6
CENTER
 10
1966.04252080908
 20
2779.897237506078
 30
0
 40
2.990999999999985
  0
ENDBLK
  8
0
  0
BLOCK
  8
0
  2
____M4_________6
 70
0
 10
2001.04252080908
 20
2757.897237506078
 30
0
  0
LINE
  8
1
 62
3
 10
2001.84518688636
 20
2758.062623596814
 30
0
 11
2002.684520562466
 21
2758.901957272919
 31
0
  0
LINE
  8
1
 62
3
 10
2001.84518688636
 20
2757.731851415343
 30
0
 11
2002.684520562466
 21
2756.892517739237
 31
0
  0
LINE
  8
1
 62
3
 10
2000.877134718344
 20
2758.699903583358
 30
0
 11
2000.037801042239
 21
2759.539237259464
 31
0
  0
LINE
  8
1
 62
3
 10
2001.207906899816
 20
2758.699903583358
 30
0
 11
2002.047240575921
 21
2759.539237259464
 31
0
  0
LINE
  8
1
 62
3
 10
2000.2398547318
 20
2757.731851415343
 30
0
 11
1999.400521055694
 21
2756.892517739237
 31
0
  0
LINE
  8
1
 62
3
 10
2000.2398547318
 20
2758.062623596814
 30
0
 11
1999.400521055694
 21
2758.901957272919
 31
0
  0
LINE
  8
1
 62
3
 10
2001.207906899816
 20
2757.094571428798
 30
0
 11
2002.047240575921
 21
2756.255237752693
 31
0
  0
LINE
  8
1
 62
3
 10
2000.877134718344
 20
2757.094571428798
 30
0
 11
2000.037801042239
 21
2756.255237752693
 31
0
  0
LINE
  8
1
 62
1
 10
2001.04252080908
 20
2765.772237506078
 30
0
 11
2001.04252080908
 21
2750.022237506078
 31
0
  0
LINE
  8
1
 62
1
 10
1993.16752080908
 20
2757.897237506078
 30
0
 11
2008.91752080908
 21
2757.897237506078
 31
0
  0
ARC
  8
1
 62
3
 10
2001.04252080908
 20
2757.897237506078
 30
0
 40
0.8006249999991805
 50
350.8377712760119
 51
9.162228724052348
  0
ARC
  8
1
 62
3
 10
2001.04252080908
 20
2757.897237506078
 30
0
 40
1.925000000000167
 50
31.46195895463871
 51
58.53804104535776
  0
ARC
  8
1
 62
3
 10
2001.04252080908
 20
2757.897237506078
 30
0
 40
0.800625000000672
 50
80.83777127596321
 51
99.16222872397255
  0
ARC
  8
1
 62
3
 10
2001.04252080908
 20
2757.897237506078
 30
0
 40
1.925000000000092
 50
121.461958954648
 51
148.5380410453613
  0
ARC
  8
1
 62
3
 10
2001.04252080908
 20
2757.897237506078
 30
0
 40
0.8006249999995498
 50
170.8377712759502
 51
189.1622287239855
  0
ARC
  8
1
 62
3
 10
2001.04252080908
 20
2757.897237506078
 30
0
 40
1.925000000000167
 50
211.4619589546387
 51
238.5380410453378
  0
ARC
  8
1
 62
3
 10
2001.04252080908
 20
2757.897237506078
 30
0
 40
0.8006249999991805
 50
260.8377712760119
 51
279.1622287240523
  0
ARC
  8
1
 62
3
 10
2001.04252080908
 20
2757.897237506078
 30
0
 40
1.924999999999197
 50
301.4619589546563
 51
328.5380410453613
  0
CIRCLE
  8
1
 62
3
 10
2001.04252080908
 20
2757.897237506078
 30
0
 40
3.5
  0
ARC
  8
1
 62
3
 10
2001.876122808037
 20
2758.031687675137
 30
0
 40
0.04375000000002346
 50
135.0000000004211
 51
189.1622287241517
  0
ARC
  8
1
 62
3
 10
2001.876122808037
 20
2757.762787337019
 30
0
 40
0.04375000000087028
 50
170.8377712746724
 51
224.9999999987367
  0
ARC
  8
1
 62
3
 10
2000.908070640021
 20
2758.730839505035
 30
0
 40
0.04375000000018425
 50
225.0000000002105
 51
279.1622287256122
  0
ARC
  8
1
 62
3
 10
2001.176970978139
 20
2758.730839505035
 30
0
 40
0.04374999999934241
 50
260.8377712758577
 51
314.9999999997894
  0
ARC
  8
1
 62
3
 10
2000.208918810123
 20
2757.762787337019
 30
0
 40
0.04374999999938035
 50
315.0000000012633
 51
9.162228725327637
  0
ARC
  8
1
 62
3
 10
2000.208918810123
 20
2758.031687675137
 30
0
 40
0.04375000000072546
 50
350.8377712758482
 51
44.99999999957888
  0
ARC
  8
1
 62
3
 10
2001.176970978139
 20
2757.063635507121
 30
0
 40
0.04375000000018425
 50
45.00000000021056
 51
99.16222872385777
  0
ARC
  8
1
 62
3
 10
2000.908070640021
 20
2757.063635507121
 30
0
 40
0.04375000000087028
 50
80.83777127467238
 51
134.9999999997895
  0
ENDBLK
  8
0
  0
BLOCK
  8
0
  2
____M4_________7
 70
0
 10
1931.04252080908
 20
2801.897237506078
 30
0
  0
LINE
  8
1
 62
1
 10
1938.91752080908
 20
2801.897237506078
 30
0
 11
1923.16752080908
 21
2801.897237506078
 31
0
  0
LINE
  8
1
 62
1
 10
1931.04252080908
 20
2794.022237506078
 30
0
 11
1931.04252080908
 21
2809.772237506078
 31
0
  0
LINE
  8
1
 62
3
 10
1931.207906899815
 20
2802.699903583358
 30
0
 11
1932.047240575921
 21
2803.539237259464
 31
0
  0
LINE
  8
1
 62
3
 10
1930.877134718344
 20
2802.699903583358
 30
0
 11
1930.037801042239
 21
2803.539237259464
 31
0
  0
LINE
  8
1
 62
3
 10
1931.845186886359
 20
2801.731851415342
 30
0
 11
1932.684520562465
 21
2800.892517739237
 31
0
  0
LINE
  8
1
 62
3
 10
1931.845186886359
 20
2802.062623596814
 30
0
 11
1932.684520562465
 21
2802.901957272919
 31
0
  0
LINE
  8
1
 62
3
 10
1930.877134718344
 20
2801.094571428798
 30
0
 11
1930.037801042239
 21
2800.255237752692
 31
0
  0
LINE
  8
1
 62
3
 10
1931.207906899815
 20
2801.094571428798
 30
0
 11
1932.047240575921
 21
2800.255237752692
 31
0
  0
LINE
  8
1
 62
3
 10
1930.239854731799
 20
2802.062623596814
 30
0
 11
1929.400521055694
 21
2802.901957272919
 31
0
  0
LINE
  8
1
 62
3
 10
1930.239854731799
 20
2801.731851415342
 30
0
 11
1929.400521055694
 21
2800.892517739237
 31
0
  0
ARC
  8
1
 62
3
 10
1931.04252080908
 20
2801.897237506078
 30
0
 40
1.925000000000092
 50
121.461958954648
 51
148.5380410453613
  0
ARC
  8
1
 62
3
 10
1931.04252080908
 20
2801.897237506078
 30
0
 40
0.8006249999991805
 50
80.83777127601191
 51
99.1622287240684
  0
ARC
  8
1
 62
3
 10
1931.04252080908
 20
2801.897237506078
 30
0
 40
1.924999999999197
 50
31.46195895465637
 51
58.53804104535776
  0
ARC
  8
1
 62
3
 10
1931.04252080908
 20
2801.897237506078
 30
0
 40
0.8006249999993253
 50
350.8377712759477
 51
9.162228724052348
  0
ARC
  8
1
 62
3
 10
1931.04252080908
 20
2801.897237506078
 30
0
 40
1.924999999999973
 50
301.4619589546423
 51
328.5380410453436
  0
ARC
  8
1
 62
3
 10
1931.04252080908
 20
2801.897237506078
 30
0
 40
0.8006249999993614
 50
260.8377712759316
 51
279.1622287239881
  0
ARC
  8
1
 62
3
 10
1931.04252080908
 20
2801.897237506078
 30
0
 40
1.925000000000167
 50
211.4619589546387
 51
238.538041045352
  0
ARC
  8
1
 62
3
 10
1931.04252080908
 20
2801.897237506078
 30
0
 40
0.800625000000672
 50
170.8377712759632
 51
189.1622287240368
  0
CIRCLE
  8
1
 62
3
 10
1931.04252080908
 20
2801.897237506078
 30
0
 40
3.5
  0
ARC
  8
1
 62
3
 10
1931.176970978139
 20
2802.730839505035
 30
0
 40
0.04375000000083407
 50
260.8377712749664
 51
314.9999999989472
  0
ARC
  8
1
 62
3
 10
1930.908070640021
 20
2802.730839505035
 30
0
 40
0.04375000000018425
 50
225.0000000002105
 51
279.1622287238578
  0
ARC
  8
1
 62
3
 10
1931.876122808037
 20
2801.76278733702
 30
0
 40
0.04375000000050823
 50
170.8377712776121
 51
225
  0
ARC
  8
1
 62
3
 10
1931.876122808037
 20
2802.031687675137
 30
0
 40
0.04375000000066658
 50
135.0000000012633
 51
189.1622287241517
  0
ARC
  8
1
 62
3
 10
1930.908070640021
 20
2801.063635507121
 30
0
 40
0.04375000000068925
 50
80.83777127614223
 51
134.9999999997895
  0
ARC
  8
1
 62
3
 10
1931.176970978139
 20
2801.063635507121
 30
0
 40
0.04374999999954114
 50
45.00000000105278
 51
99.16222872503366
  0
ARC
  8
1
 62
3
 10
1930.208918810123
 20
2802.031687675137
 30
0
 40
0.04374999999960309
 50
350.8377712756112
 51
45.00000000063167
  0
ARC
  8
1
 62
3
 10
1930.208918810123
 20
2801.76278733702
 30
0
 40
0.04375000000018424
 50
314.999999998105
 51
9.162228722624972
  0
ENDBLK
  8
0
  0
BLOCK
  8
0
  2
H_H8______-
 70
0
 10
1487.736917135852
 20
2803.889022846888
 30
0
  0
LINE
  8
1
 62
3
 10
2132.661045988937
 20
2816.397237506078
 30
0
 11
2132.461045988937
 21
2816.197237506078
 31
0
  0
LINE
  8
1
 62
40
 10
2140.961045988937
 20
2779.897237506078
 30
0
 11
2140.961045988937
 21
2819.897237506078
 31
0
  0
LINE
  8
1
 62
3
 10
2134.461045988937
 20
2819.397237506078
 30
0
 11
2134.461045988937
 21
2779.897237506078
 31
0
  0
LINE
  8
1
 62
3
 10
2134.961045988937
 20
2819.397237506078
 30
0
 11
2134.461045988937
 21
2819.397237506078
 31
0
  0
LINE
  8
1
 62
40
 10
2141.461045988937
 20
2779.897237506078
 30
0
 11
2141.461045988937
 21
2819.897237506078
 31
0
  0
LINE
  8
1
 62
3
 10
2141.461045988937
 20
2819.897237506078
 30
0
 11
2134.961045988937
 21
2819.897237506078
 31
0
  0
LINE
  8
1
 62
3
 10
2132.461045988937
 20
2779.897237506078
 30
0
 11
2132.461045988937
 21
2816.197237506078
 31
0
  0
LINE
  8
1
 62
3
 10
2132.661045988937
 20
2816.397237506078
 30
0
 11
2134.461045988937
 21
2816.397237506078
 31
0
  0
LINE
  8
1
 62
3
 10
2134.961045988937
 20
2819.897237506078
 30
0
 11
2134.961045988937
 21
2819.397237506078
 31
0
  0
LINE
  8
1
 62
3
 10
2132.461045988937
 20
2743.597237506078
 30
0
 11
2132.661045988937
 21
2743.397237506078
 31
0
  0
LINE
  8
1
 62
40
 10
2140.961045988937
 20
2739.897237506078
 30
0
 11
2140.961045988937
 21
2779.897237506078
 31
0
  0
LINE
  8
1
 62
3
 10
2134.461045988937
 20
2779.897237506078
 30
0
 11
2134.461045988937
 21
2740.397237506078
 31
0
  0
LINE
  8
1
 62
3
 10
2134.461045988937
 20
2740.397237506078
 30
0
 11
2134.961045988937
 21
2740.397237506078
 31
0
  0
LINE
  8
1
 62
40
 10
2141.461045988937
 20
2739.897237506078
 30
0
 11
2141.461045988937
 21
2779.897237506078
 31
0
  0
LINE
  8
1
 62
3
 10
2134.961045988937
 20
2739.897237506078
 30
0
 11
2141.461045988937
 21
2739.897237506078
 31
0
  0
LINE
  8
1
 62
3
 10
2132.461045988937
 20
2743.597237506078
 30
0
 11
2132.461045988937
 21
2779.897237506078
 31
0
  0
LINE
  8
1
 62
3
 10
2134.461045988937
 20
2743.397237506078
 30
0
 11
2132.661045988937
 21
2743.397237506078
 31
0
  0
LINE
  8
1
 62
1
 10
2149.461045988937
 20
2779.897237506078
 30
0
 11
2127.461045988937
 21
2779.897237506078
 31
0
  0
LINE
  8
1
 62
3
 10
2134.961045988937
 20
2740.397237506078
 30
0
 11
2134.961045988937
 21
2739.897237506078
 31
0
  0
ENDBLK
  8
0
  0
BLOCK
  8
1
  2
*D1
 70
1
 10
0
 20
0
 30
0
  0
LINE
  8
1
 62
2
 10
2112.461045988937
 20
2743.397237506078
 30
0
 11
2112.461045988937
 21
2816.397237506078
 31
0
  0
LINE
  8
1
 62
2
 10
2131.661045988937
 20
2816.397237506078
 30
0
 11
2110.461045988937
 21
2816.397237506078
 31
0
  0
LINE
  8
1
 62
2
 10
2131.661045988937
 20
2743.397237506078
 30
0
 11
2110.461045988937
 21
2743.397237506078
 31
0
  0
SOLID
  8
1
 62
2
 10
2112.461045988937
 20
2816.397237506078
 30
0
 11
2112.877045988937
 21
2813.197237506078
 31
0
 12
2112.045045988937
 22
2813.197237506078
 32
0
 13
2112.045045988937
 23
2813.197237506078
 33
0
  0
SOLID
  8
1
 62
2
 10
2112.461045988937
 20
2743.397237506078
 30
0
 11
2112.045045988937
 21
2746.597237506078
 31
0
 12
2112.877045988937
 22
2746.597237506078
 32
0
 13
2112.877045988937
 23
2746.597237506078
 33
0
  0
TEXT
  8
1
 62
2
 10
2109.63437932227
 20
2772.456766917843
 30
0
 40
3.2
  1
73h7
 50
90
 41
0.9
  0
TEXT
  8
1
 62
2
 10
2107.554379322271
 20
2784.616766917843
 30
0
 40
1.92
  1
0
 50
90
 41
0.9
  0
TEXT
  8
1
 62
2
 10
2110.434379322271
 20
2784.616766917843
 30
0
 40
1.92
  1
-0.03
 50
90
 41
0.9
  0
TEXT
  8
1
 62
2
 10
2109.63437932227
 20
2768.409708094313
 30
0
 40
3.2
  1
âË
 50
90
 41
0.9
  0
ENDBLK
  8
0
  0
BLOCK
  8
1
  2
*D2
 70
1
 10
0
 20
0
 30
0
  0
LINE
  8
1
 62
2
 10
2122.461045988937
 20
2849.897237506078
 30
0
 11
2134.461045988937
 21
2849.897237506078
 31
0
  0
LINE
  8
1
 62
2
 10
2134.461045988937
 20
2820.397237506079
 30
0
 11
2134.461045988937
 21
2851.397237506078
 31
0
  0
LINE
  8
1
 62
2
 10
2122.461045988937
 20
2783.888237506078
 30
0
 11
2122.461045988937
 21
2851.397237506078
 31
0
  0
SOLID
  8
1
 62
2
 10
2122.461045988937
 20
2849.897237506078
 30
0
 11
2125.661045988937
 21
2850.313237506078
 31
0
 12
2125.661045988937
 22
2849.481237506078
 32
0
 13
2125.661045988937
 23
2849.481237506078
 33
0
  0
SOLID
  8
1
 62
2
 10
2134.461045988937
 20
2849.897237506078
 30
0
 11
2131.261045988937
 21
2849.481237506078
 31
0
 12
2131.261045988937
 22
2850.313237506078
 32
0
 13
2131.261045988937
 23
2850.313237506078
 33
0
  0
TEXT
  8
1
 62
2
 10
2126.541045988937
 20
2851.897237506078
 30
0
 40
3.2
  1
12
 41
0.9
  0
ENDBLK
  8
0
  0
BLOCK
  8
0
  2
G8M2__8
 70
0
 10
1654.31060800802
 20
2930.16911354898
 30
0
  0
POINT
  8
1
 62
4
  6
DIVIDE
 10
2132.661045988937
 20
2743.397237506078
 30
0
  0
POINT
  8
1
 62
4
  6
DIVIDE
 10
2132.661045988937
 20
2816.397237506078
 30
0
  0
POINT
  8
1
 62
4
  6
DIVIDE
 10
2134.461045988937
 20
2819.397237506079
 30
0
  0
LINE
  8
1
 62
2
 10
2070.654024245753
 20
2723.30731687184
 30
0
 11
2116.776418978073
 21
2723.30731687184
 31
0
  0
LINE
  8
1
 62
2
 10
2070.654024245753
 20
2716.30731687184
 30
0
 11
2116.776418978073
 21
2716.30731687184
 31
0
  0
LINE
  8
1
 62
2
 10
2070.654024245753
 20
2709.30731687184
 30
0
 11
2116.776418978073
 21
2709.30731687184
 31
0
  0
LINE
  8
1
 62
2
 10
2070.654024245753
 20
2702.30731687184
 30
0
 11
2116.776418978073
 21
2702.30731687184
 31
0
  0
LINE
  8
1
 62
2
 10
2070.654024245753
 20
2695.30731687184
 30
0
 11
2116.776418978073
 21
2695.30731687184
 31
0
  0
CIRCLE
  8
1
 62
3
 10
1931.04252080908
 20
2801.897237506078
 30
0
 40
4.200000000000045
  0
CIRCLE
  8
1
 62
3
 10
2001.04252080908
 20
2757.897237506078
 30
0
 40
4.199999999999818
  0
LINE
  8
1
 62
2
 10
2070.654024245753
 20
2730.30731687184
 30
0
 11
2116.776418978073
 21
2730.30731687184
 31
0
  0
LINE
  8
1
 62
2
 10
2116.776418978073
 20
2730.30731687184
 30
0
 11
2126.4880549942
 21
2776.406237506078
 31
0
  0
SOLID
  8
1
 62
2
 10
2126.240631548419
 20
2773.188122341744
 30
0
 11
2125.416152804027
 21
2773.361814856848
 31
0
 12
2126.4880549942
 22
2776.406237506078
 32
0
 13
2126.4880549942
 23
2776.406237506078
 33
0
  0
TEXT
  8
1
 62
2
 10
2067.795221611913
 20
2731.64339705352
 30
0
 40
4
  1
âéâWâàü[âï : 0.5
 41
0.7200000000000001
  0
TEXT
  8
1
 62
2
 10
2067.795221611913
 20
2724.64339705352
 30
0
 40
4
  1
êü@ù═ü@èp : 20%%d
 41
0.7200000000000001
  0
TEXT
  8
1
 62
2
 10
2067.795221611913
 20
2717.64339705352
 30
0
 40
4
  1
Äòü@ü@ü@Éö : 10
 41
0.7200000000000001
  0
TEXT
  8
1
 62
2
 10
2067.795221611913
 20
2710.64339705352
 30
0
 40
4
  1
èOü@ü@ü@îa : âË7
 41
0.7200000000000001
  0
TEXT
  8
1
 62
2
 10
2067.795221611913
 20
2703.64339705352
 30
0
 40
4
  1
é╦éÂéÛò¹î³ : ëE
 41
0.7200000000000001
  0
TEXT
  8
1
 62
2
 10
2067.795221611913
 20
2696.64339705352
 30
0
 40
4
  1
ü@ü@âwâèâJâïÄdùl
 41
0.7200000000000001
  0
DIMENSION
  8
1
  6
CONTINUOUS
 62
2
  2
*D1
  3
DMST_2
 10
2112.461045988937
 20
2816.397237506078
 30
0
 11
2108.061045988937
 21
2779.897237506078
 31
0
 12
0
 22
0
 32
0
 70
0
  1
73h7
 13
2132.661045988937
 23
2743.397237506078
 33
0
 14
2132.661045988937
 24
2816.397237506078
 34
0
 50
90
 53
0
  0
DIMENSION
  8
1
  6
CONTINUOUS
 62
2
  2
*D2
  3
DMST_1
 10
2134.461045988937
 20
2849.897237506078
 30
0
 11
2128.461045988937
 21
2853.497237506078
 31
0
 12
0
 22
0
 32
0
 70
0
 13
2122.461045988937
 23
2782.888237506077
 33
0
 14
2134.461045988937
 24
2819.397237506079
 34
0
 53
0
  0
INSERT
  8
0
  2
H8_R
 10
2466.75742497104
 20
2937.5192620442
 30
0
  0
INSERT
  8
0
  2
____M4_________6
 10
2001.04252080908
 20
2757.897237506078
 30
0
  0
INSERT
  8
0
  2
____M4_________7
 10
1931.04252080908
 20
2801.897237506078
 30
0
  0
INSERT
  8
0
  2
H_H8______-
 10
1487.736917135852
 20
2803.889022846888
 30
0
  0
ENDBLK
  8
0
  0
BLOCK
  8
0
  2
G8M2__9
 70
0
 10
2034.35393703246
 20
2484.85070976175
 30
0
  0
INSERT
  8
0
  2
G8M2__8
 10
1654.31060800802
 20
2930.16911354898
 30
0
  0
ENDBLK
  8
0
  0
BLOCK
  8
1
  2
*D3
 70
1
 10
0
 20
0
 30
0
  0
LINE
  8
1
 62
2
 10
2134.461045988937
 20
2849.897237506078
 30
0
 11
2234.461045988936
 21
2849.897237506078
 31
0
  0
LINE
  8
1
 62
2
 10
2134.461045988937
 20
2820.881612506078
 30
0
 11
2134.461045988937
 21
2851.397237506078
 31
0
  0
LINE
  8
1
 62
2
 10
2234.461045988936
 20
2813.520937506078
 30
0
 11
2234.461045988936
 21
2851.397237506078
 31
0
  0
SOLID
  8
1
 62
2
 10
2234.461045988936
 20
2849.897237506078
 30
0
 11
2231.261045988937
 21
2849.481237506078
 31
0
 12
2231.261045988937
 22
2850.313237506078
 32
0
 13
2231.261045988937
 23
2850.313237506078
 33
0
  0
SOLID
  8
1
 62
2
 10
2134.461045988937
 20
2849.897237506078
 30
0
 11
2137.661045988937
 21
2850.313237506078
 31
0
 12
2137.661045988937
 22
2849.481237506078
 32
0
 13
2137.661045988937
 23
2849.481237506078
 33
0
  0
TEXT
  8
1
 62
2
 10
2180.604843942364
 20
2851.897237506078
 30
0
 40
3.2
  1
100
 41
0.9
  0
ENDBLK
  8
0
  0
BLOCK
  8
1
  2
*D4
 70
1
 10
0
 20
0
 30
0
  0
LINE
  8
1
 62
2
 10
1926.04252080908
 20
2839.897237506078
 30
0
 11
2006.04252080908
 21
2839.897237506078
 31
0
  0
LINE
  8
1
 62
2
 10
1926.04252080908
 20
2813.897237506078
 30
0
 11
1926.04252080908
 21
2841.397237506078
 31
0
  0
LINE
  8
1
 62
2
 10
2006.04252080908
 20
2813.897237506078
 30
0
 11
2006.04252080908
 21
2841.397237506078
 31
0
  0
SOLID
  8
1
 62
2
 10
1926.04252080908
 20
2839.897237506078
 30
0
 11
1929.24252080908
 21
2840.313237506078
 31
0
 12
1929.24252080908
 22
2839.481237506078
 32
0
 13
1929.24252080908
 23
2839.481237506078
 33
0
  0
SOLID
  8
1
 62
2
 10
2006.04252080908
 20
2839.897237506078
 30
0
 11
2002.84252080908
 21
2839.481237506078
 31
0
 12
2002.84252080908
 22
2840.313237506078
 32
0
 13
2002.84252080908
 23
2840.313237506078
 33
0
  0
TEXT
  8
1
 62
2
 10
1963.64252080908
 20
2841.897237506078
 30
0
 40
3.2
  1
80
 41
0.9
  0
ENDBLK
  8
0
  0
BLOCK
  8
1
  2
*D5
 70
1
 10
0
 20
0
 30
0
  0
LINE
  8
1
 62
2
 10
1932.80252080908
 20
2829.897237506078
 30
0
 11
1999.28252080908
 21
2829.897237506078
 31
0
  0
LINE
  8
1
 62
2
 10
1932.80252080908
 20
2819.137237506078
 30
0
 11
1932.80252080908
 21
2831.397237506078
 31
0
  0
LINE
  8
1
 62
2
 10
1999.28252080908
 20
2819.137237506078
 30
0
 11
1999.28252080908
 21
2831.397237506078
 31
0
  0
SOLID
  8
1
 62
2
 10
1999.28252080908
 20
2829.897237506078
 30
0
 11
1996.08252080908
 21
2829.481237506078
 31
0
 12
1996.08252080908
 22
2830.313237506078
 32
0
 13
1996.08252080908
 23
2830.313237506078
 33
0
  0
SOLID
  8
1
 62
2
 10
1932.80252080908
 20
2829.897237506078
 30
0
 11
1936.00252080908
 21
2830.313237506078
 31
0
 12
1936.00252080908
 22
2829.481237506078
 32
0
 13
1936.00252080908
 23
2829.481237506078
 33
0
  0
TEXT
  8
1
 62
2
 10
1957.97852080908
 20
2831.897237506078
 30
0
 40
3.2
  1
66.5
 41
0.9
  0
TEXT
  8
1
 62
2
 10
1968.29852080908
 20
2832.537237506078
 30
0
 40
1.92
  1
%%p0.3
 41
0.9
  0
ENDBLK
  8
0
  0
BLOCK
  8
1
  2
*D6
 70
1
 10
0
 20
0
 30
0
  0
LINE
  8
1
 62
2
 10
2132.461045988937
 20
2834.897237506078
 30
0
 11
2134.461045988937
 21
2834.897237506078
 31
0
  0
LINE
  8
1
 62
2
 10
2132.461045988937
 20
2834.897237506078
 30
0
 11
2126.061045988937
 21
2834.897237506078
 31
0
  0
LINE
  8
1
 62
2
 10
2132.461045988937
 20
2816.897237506078
 30
0
 11
2132.461045988937
 21
2836.397237506078
 31
0
  0
LINE
  8
1
 62
2
 10
2134.461045988937
 20
2820.881612506078
 30
0
 11
2134.461045988937
 21
2836.397237506078
 31
0
  0
SOLID
  8
1
 62
2
 10
2132.461045988937
 20
2834.897237506078
 30
0
 11
2129.261045988937
 21
2834.481237506078
 31
0
 12
2129.261045988937
 22
2835.313237506078
 32
0
 13
2129.261045988937
 23
2835.313237506078
 33
0
  0
CIRCLE
  8
1
 62
2
 10
2134.461045988937
 20
2834.897237506078
 30
0
 40
0.8
  0
TEXT
  8
1
 62
2
 10
2129.30872815253
 20
2836.897237506078
 30
0
 40
3.2
  1
2
 41
0.9
  0
ENDBLK
  8
0
  0
BLOCK
  8
1
  2
*D7
 70
1
 10
0
 20
0
 30
0
  0
LINE
  8
1
 62
2
 10
2134.461045988937
 20
2834.897237506078
 30
0
 11
2140.961045988937
 21
2834.897237506078
 31
0
  0
LINE
  8
1
 62
2
 10
2140.961045988937
 20
2834.897237506078
 30
0
 11
2147.361045988937
 21
2834.897237506078
 31
0
  0
LINE
  8
1
 62
2
 10
2134.461045988937
 20
2820.881612506078
 30
0
 11
2134.461045988937
 21
2836.397237506078
 31
0
  0
LINE
  8
1
 62
2
 10
2140.961045988937
 20
2820.678487506078
 30
0
 11
2140.961045988937
 21
2836.397237506078
 31
0
  0
CIRCLE
  8
1
 62
2
 10
2134.461045988937
 20
2834.897237506078
 30
0
 40
0.8
  0
SOLID
  8
1
 62
2
 10
2140.961045988937
 20
2834.897237506078
 30
0
 11
2144.161045988937
 21
2835.313237506078
 31
0
 12
2144.161045988937
 22
2834.481237506078
 32
0
 13
2144.161045988937
 23
2834.481237506078
 33
0
  0
TEXT
  8
1
 62
2
 10
2135.041045988937
 20
2836.897237506078
 30
0
 40
3.2
  1
6.5
 41
0.9
  0
ENDBLK
  8
0
  0
BLOCK
  8
1
  2
*D8
 70
1
 10
0
 20
0
 30
0
  0
LINE
  8
1
 62
2
 10
2021.42666676195
 20
2708.65752485707
 30
0
 11
2061.712360360966
 21
2708.65752485707
 31
0
  0
TEXT
  8
1
 62
2
 10
2048.016360360966
 20
2711.45752485707
 30
0
 40
3.2
  1
300
 50
2.544443745170813e-13
 41
0.9
  0
TEXT
  8
1
 62
2
 10
2057.296360360966
 20
2713.53752485707
 30
0
 40
1.92
  1
+40
 50
2.544443745170813e-13
 41
0.9
  0
TEXT
  8
1
 62
2
 10
2057.296360360966
 20
2710.65752485707
 30
0
 40
1.92
  1
 0
 50
2.544443745170813e-13
 41
0.9
  0
TEXT
  8
1
 62
2
 10
2024.957536831554
 20
2711.45752485707
 30
0
 40
3.2
  1
âèü|âhÉ³ÆÀé%%d
 50
2.544443745170813e-13
 41
0.9
  0
ENDBLK
  8
0
  0
BLOCK
  8
1
  2
*D9
 70
1
 10
0
 20
0
 30
0
  0
LINE
  8
1
 62
2
 10
2193.47869304776
 20
2834.897237506078
 30
0
 11
2168.72944944042
 21
2834.897237506078
 31
0
  0
TEXT
  8
1
 62
2
 10
2168.443398930113
 20
2836.897237506078
 30
0
 40
3.2
  1
âlü|âÇâvâîü|âg
 50
359.9999999999994
 41
0.9
  0
ENDBLK
  8
0
  0
BLOCK
  8
1
  2
*D10
 70
1
 10
0
 20
0
 30
0
  0
LINE
  8
1
 62
2
 10
2011.09952091736
 20
2829.91250903351
 30
0
 11
2035.57952091736
 21
2829.91250903351
 31
0
  0
LINE
  8
1
 62
2
 10
2000.866219161896
 20
2815.38543668037
 30
0
 11
2011.09952091736
 21
2829.91250903351
 31
0
  0
SOLID
  8
1
 62
2
 10
2000.866219161896
 20
2815.38543668037
 30
0
 11
2002.368976933717
 21
2818.241093361281
 31
0
 12
2003.049159374812
 22
2817.761952623265
 32
0
 13
2003.049159374812
 23
2817.761952623265
 33
0
  0
TEXT
  8
1
 62
2
 10
2025.383965361804
 20
2831.91250903351
 30
0
 40
3.2
  1
5.5
 41
0.9
  0
TEXT
  8
1
 62
2
 10
2016.29952091736
 20
2831.91250903351
 30
0
 40
3.2
  1
4-âË
 41
0.9
  0
TEXT
  8
1
 62
2
 10
2032.823965361804
 20
2831.91250903351
 30
0
 40
3.2
  1
îè
 41
0.9
  0
ENDBLK
  8
0
  0
BLOCK
  8
0
  2
G8M2__10
 70
0
 10
2496.98305478486
 20
3081.99046431197
 30
0
  0
POINT
  8
1
 62
4
  6
DIVIDE
 10
2132.461045988937
 20
2815.897237506078
 30
0
  0
POINT
  8
1
 62
4
  6
DIVIDE
 10
2134.461045988937
 20
2819.881612506078
 30
0
  0
POINT
  8
1
 62
4
  6
DIVIDE
 10
2140.961045988937
 20
2819.678487506078
 30
0
  0
POINT
  8
1
 62
4
  6
DIVIDE
 10
2234.461045988936
 20
2812.520937506078
 30
0
  0
POINT
  8
1
 62
4
  6
DIVIDE
 10
1926.04252080908
 20
2812.897237506078
 30
0
  0
POINT
  8
1
 62
4
  6
DIVIDE
 10
1932.80252080908
 20
2818.137237506078
 30
0
  0
POINT
  8
1
 62
4
  6
DIVIDE
 10
1999.28252080908
 20
2818.137237506078
 30
0
  0
POINT
  8
1
 62
4
  6
DIVIDE
 10
2006.04252080908
 20
2812.897237506078
 30
0
  0
LINE
  8
1
 62
3
 10
2152.984361334817
 20
2813.405781386391
 30
0
 11
2152.984361334817
 21
2819.721714654313
 31
0
  0
LINE
  8
1
 62
3
 10
2192.984361334817
 20
2812.821839780551
 30
0
 11
2152.984361334817
 21
2813.405781386391
 31
0
  0
LINE
  8
1
 62
3
 10
2192.984361334817
 20
2819.137773048474
 30
0
 11
2192.984361334817
 21
2812.821839780551
 31
0
  0
LINE
  8
1
 62
3
 10
2150.910351440492
 20
2740.042482841137
 30
0
 11
2199.461045988936
 21
2740.751252104618
 31
0
  0
LINE
  8
1
 62
3
 10
2199.461045988936
 20
2819.043222907538
 30
0
 11
2141.461045988937
 21
2819.889938236005
 31
0
  0
ARC
  8
1
 62
40
  6
DASHED
 10
1966.04252080908
 20
2779.897237506078
 30
0
 40
39.99999999999991
 50
278.02248781407
 51
306.9775121859302
  0
CIRCLE
  8
1
 62
4
  6
DIVIDE
 10
2021.42666676195
 20
2708.65752485707
 30
0
 40
1
  0
CIRCLE
  8
1
 62
4
  6
DIVIDE
 10
2167.72944944042
 20
2834.897237506078
 30
0
 40
1
  0
CIRCLE
  8
1
 62
4
  6
DIVIDE
 10
1999.28252080908
 20
2813.137237506078
 30
0
 40
2.75
  0
LINE
  8
1
 62
2
 10
2169.34675578856
 20
2834.897237506078
 30
0
 11
2167.72944944042
 21
2834.897237506078
 31
0
  0
LINE
  8
1
 62
2
 10
2167.72944944042
 20
2834.897237506078
 30
0
 11
2172.262429270158
 21
2819.440283005622
 31
0
  0
SOLID
  8
1
 62
2
 10
2170.957645401194
 20
2822.392404721902
 30
0
 11
2171.766170157034
 21
2822.629516528756
 31
0
 12
2172.262429270158
 22
2819.440283005622
 32
0
 13
2172.262429270158
 23
2819.440283005622
 33
0
  0
DIMENSION
  8
1
  6
CONTINUOUS
 62
2
  2
*D3
  3
DMST_3
 10
2134.461045988937
 20
2849.897237506078
 30
0
 11
2183.964843942364
 21
2853.497237506078
 31
0
 12
0
 22
0
 32
0
 70
0
 13
2234.461045988936
 23
2812.520937506078
 33
0
 14
2134.461045988937
 24
2819.881612506078
 34
0
 53
0
  0
DIMENSION
  8
1
  6
CONTINUOUS
 62
2
  2
*D4
  3
DMST_3
 10
1926.04252080908
 20
2839.897237506078
 30
0
 11
1966.04252080908
 21
2843.497237506078
 31
0
 12
0
 22
0
 32
0
 70
0
 13
2006.04252080908
 23
2812.897237506078
 33
0
 14
1926.04252080908
 24
2812.897237506078
 34
0
 53
0
  0
DIMENSION
  8
1
  6
CONTINUOUS
 62
2
  2
*D5
  3
DMST_4
 10
1932.80252080908
 20
2829.897237506078
 30
0
 11
1966.04252080908
 21
2833.497237506078
 31
0
 12
0
 22
0
 32
0
 70
0
  1
66.5
 13
1999.28252080908
 23
2818.137237506078
 33
0
 14
1932.80252080908
 24
2818.137237506078
 34
0
 53
0
  0
DIMENSION
  8
1
  6
CONTINUOUS
 62
2
  2
*D6
  3
DMST_5
 10
2132.461045988937
 20
2834.897237506078
 30
0
 11
2130.26872815253
 21
2838.497237506078
 31
0
 12
0
 22
0
 32
0
 70
0
 13
2134.461045988937
 23
2819.881612506078
 33
0
 14
2132.461045988937
 24
2815.897237506078
 34
0
 53
0
  0
DIMENSION
  8
1
  6
CONTINUOUS
 62
2
  2
*D7
  3
DMST_6
 10
2140.961045988937
 20
2834.897237506078
 30
0
 11
2137.961045988937
 21
2838.497237506078
 31
0
 12
0
 22
0
 32
0
 70
0
 13
2134.461045988937
 23
2819.881612506078
 33
0
 14
2140.961045988937
 24
2819.678487506078
 34
0
 53
0
  0
DIMENSION
  8
1
  6
CONTINUOUS
 62
2
  2
*D8
  3
DMST_7
 10
2021.42666676195
 20
2708.65752485707
 30
0
 11
2043.33494859626
 21
2713.05752485707
 31
0
 12
0
 22
0
 32
0
 70
4
  1
300
 15
2022.42666676195
 25
2708.65752485707
 35
0
 40
0
 53
0
  0
DIMENSION
  8
1
  6
CONTINUOUS
 62
2
  2
*D9
  3
DMST_8
 10
2166.72944944042
 20
2834.897237506078
 30
0
 11
2180.961045988937
 21
2838.550570839411
 31
0
 12
0
 22
0
 32
0
 70
3
  1
âlü|âÇâvâîü|âg
 15
2168.72944944042
 25
2834.897237506078
 35
0
 40
0
 53
0
  0
INSERT
  8
0
  2
_O_L_____4__1
 10
1966.04252080908
 20
2820.320937506079
 30
0
  0
INSERT
  8
0
  2
____M4__2
 10
1966.04252080908
 20
2820.320937506079
 30
0
  0
INSERT
  8
0
  2
MOJINOMUKI
 10
2161.394997829899
 20
2821.50755140638
 30
0
  0
INSERT
  8
0
  2
G8M2__4
 10
2038.49285001589
 20
2896.282525865
 30
0
  0
INSERT
  8
0
  2
AE25585_L_______5
 10
2009.13595973281
 20
2765.78588282438
 30
0
  0
INSERT
  8
0
  2
G8M2__9
 10
2034.35393703246
 20
2484.85070976175
 30
0
  0
INSERT
  8
1
  2
*D10
 10
0
 20
0
 30
0
  0
ENDBLK
  8
0
  0
BLOCK
  8
0
  2
_O_L_____4__11
 70
0
 10
2006.466220809079
 20
2779.897237506078
 30
0
  0
LINE
  8
1
 62
3
 10
2006.04252080908
 20
2780.094275006078
 30
0
 11
2006.466220809079
 21
2780.147237506078
 31
0
  0
LINE
  8
1
 62
3
 10
2006.04252080908
 20
2779.719275006078
 30
0
 11
2006.466220809079
 21
2779.772237506078
 31
0
  0
LINE
  8
1
 62
3
 10
2006.04252080908
 20
2776.097237506078
 30
0
 11
2006.466220809079
 21
2776.097237506078
 31
0
  0
LINE
  8
1
 62
3
 10
2006.466220809079
 20
2776.097237506078
 30
0
 11
2006.466220809079
 21
2783.697237506078
 31
0
  0
LINE
  8
1
 62
3
 10
2006.466220809079
 20
2783.697237506078
 30
0
 11
2006.04252080908
 21
2783.697237506078
 31
0
  0
ENDBLK
  8
0
  0
BLOCK
  8
0
  2
_O_L_____4__12
 70
0
 10
1966.04252080908
 20
2739.473537506078
 30
0
  0
LINE
  8
1
 62
3
 10
1966.23955830908
 20
2739.897237506078
 30
0
 11
1966.29252080908
 21
2739.473537506078
 31
0
  0
LINE
  8
1
 62
3
 10
1965.86455830908
 20
2739.897237506078
 30
0
 11
1965.91752080908
 21
2739.473537506078
 31
0
  0
LINE
  8
1
 62
3
 10
1962.242520809079
 20
2739.897237506078
 30
0
 11
1962.242520809079
 21
2739.473537506078
 31
0
  0
LINE
  8
1
 62
3
 10
1962.242520809079
 20
2739.473537506078
 30
0
 11
1969.84252080908
 21
2739.473537506078
 31
0
  0
LINE
  8
1
 62
3
 10
1969.84252080908
 20
2739.473537506078
 30
0
 11
1969.84252080908
 21
2739.897237506078
 31
0
  0
ENDBLK
  8
0
  0
BLOCK
  8
0
  2
_O_L_____4__13
 70
0
 10
1925.618820809079
 20
2779.897237506078
 30
0
  0
LINE
  8
1
 62
3
 10
1925.618820809079
 20
2776.097237506078
 30
0
 11
1926.04252080908
 21
2776.097237506078
 31
0
  0
LINE
  8
1
 62
3
 10
1925.618820809079
 20
2783.697237506078
 30
0
 11
1925.618820809079
 21
2776.097237506078
 31
0
  0
LINE
  8
1
 62
3
 10
1926.04252080908
 20
2783.697237506078
 30
0
 11
1925.618820809079
 21
2783.697237506078
 31
0
  0
LINE
  8
1
 62
3
 10
1926.04252080908
 20
2780.075200006078
 30
0
 11
1925.618820809079
 21
2780.022237506078
 31
0
  0
LINE
  8
1
 62
3
 10
1926.04252080908
 20
2779.700200006078
 30
0
 11
1925.618820809079
 21
2779.647237506078
 31
0
  0
ENDBLK
  8
0
  0
BLOCK
  8
0
  2
____M4__14
 70
0
 10
2141.461045988937
 20
2779.897237506078
 30
0
  0
LINE
  8
1
 62
3
 10
1923.92282241036
 20
2775.897237506078
 30
0
 11
1925.618820809079
 21
2775.897237506078
 31
0
  0
LINE
  8
1
 62
3
 10
1925.618820809079
 20
2775.897237506078
 30
0
 11
1925.618820809079
 21
2783.897237506078
 31
0
  0
LINE
  8
1
 62
3
 10
1925.618820809079
 20
2783.897237506078
 30
0
 11
1923.92282241036
 21
2783.897237506078
 31
0
  0
LINE
  8
1
 62
3
 10
1922.54249741703
 20
2779.347237506078
 30
0
 11
1922.777497417029
 21
2779.347237506078
 31
0
  0
LINE
  8
1
 62
3
 10
1922.777497417029
 20
2779.347237506078
 30
0
 11
1922.777497417029
 21
2780.447237506078
 31
0
  0
LINE
  8
1
 62
3
 10
1922.777497417029
 20
2780.447237506078
 30
0
 11
1922.54249741703
 21
2780.447237506078
 31
0
  0
LINE
  8
1
 62
1
 10
1917.54249741703
 20
2779.897237506078
 30
0
 11
1926.04252080908
 21
2779.897237506078
 31
0
  0
LINE
  8
1
 62
3
 10
1970.04252080908
 20
2737.777539107359
 30
0
 11
1970.04252080908
 21
2739.473537506078
 31
0
  0
LINE
  8
1
 62
3
 10
1970.04252080908
 20
2739.473537506078
 30
0
 11
1962.04252080908
 21
2739.473537506078
 31
0
  0
LINE
  8
1
 62
3
 10
1962.04252080908
 20
2739.473537506078
 30
0
 11
1962.04252080908
 21
2737.777539107359
 31
0
  0
LINE
  8
1
 62
3
 10
1966.59252080908
 20
2736.397214114028
 30
0
 11
1966.59252080908
 21
2736.632214114028
 31
0
  0
LINE
  8
1
 62
3
 10
1966.59252080908
 20
2736.632214114028
 30
0
 11
1965.492520809079
 21
2736.632214114028
 31
0
  0
LINE
  8
1
 62
3
 10
1965.492520809079
 20
2736.632214114028
 30
0
 11
1965.492520809079
 21
2736.397214114028
 31
0
  0
LINE
  8
1
 62
1
 10
1966.04252080908
 20
2731.397214114028
 30
0
 11
1966.04252080908
 21
2739.897237506078
 31
0
  0
LINE
  8
1
 62
3
 10
2008.162219207798
 20
2783.897237506078
 30
0
 11
2006.466220809079
 21
2783.897237506078
 31
0
  0
LINE
  8
1
 62
3
 10
2006.466220809079
 20
2783.897237506078
 30
0
 11
2006.466220809079
 21
2775.897237506078
 31
0
  0
LINE
  8
1
 62
3
 10
2006.466220809079
 20
2775.897237506078
 30
0
 11
2008.162219207798
 21
2775.897237506078
 31
0
  0
LINE
  8
1
 62
3
 10
2009.54254420113
 20
2780.447237506078
 30
0
 11
2009.30754420113
 21
2780.447237506078
 31
0
  0
LINE
  8
1
 62
3
 10
2009.30754420113
 20
2780.447237506078
 30
0
 11
2009.30754420113
 21
2779.347237506078
 31
0
  0
LINE
  8
1
 62
3
 10
2009.30754420113
 20
2779.347237506078
 30
0
 11
2009.54254420113
 21
2779.347237506078
 31
0
  0
LINE
  8
1
 62
1
 10
2014.54254420113
 20
2779.897237506078
 30
0
 11
2006.04252080908
 21
2779.897237506078
 31
0
  0
ARC
  8
1
 62
3
 10
1928.91882080908
 20
2779.897237506078
 30
0
 40
6.40000000000106
 50
141.3178125465182
 51
175.0700630628166
  0
ARC
  8
1
 62
3
 10
1928.91882080908
 20
2779.897237506078
 30
0
 40
6.400000000000256
 50
184.9299369371834
 51
218.6821874534818
  0
ARC
  8
1
 62
3
 10
1966.04252080908
 20
2742.773537506078
 30
0
 40
6.399999999999994
 50
231.3178125465105
 51
265.0700630628085
  0
ARC
  8
1
 62
3
 10
1966.04252080908
 20
2742.773537506078
 30
0
 40
6.400000000000237
 50
274.9299369371814
 51
308.6821874534895
  0
ARC
  8
1
 62
3
 10
2003.16622080908
 20
2779.897237506078
 30
0
 40
6.399999999999462
 50
321.3178125465067
 51
355.0700630628167
  0
ARC
  8
1
 62
3
 10
2003.16622080908
 20
2779.897237506078
 30
0
 40
6.400000000000483
 50
4.929936937183254
 51
38.6821874534933
  0
INSERT
  8
0
  2
_O_L_____4__11
 10
2006.466220809079
 20
2779.897237506078
 30
0
  0
INSERT
  8
0
  2
_O_L_____4__12
 10
1966.04252080908
 20
2739.473537506078
 30
0
  0
INSERT
  8
0
  2
_O_L_____4__13
 10
1925.618820809079
 20
2779.897237506078
 30
0
  0
ENDBLK
  8
0
  0
BLOCK
  8
0
  2
_O_L_____4__15
 70
0
 10
2212.961045988936
 20
2739.473537506078
 30
0
  0
LINE
  8
1
 62
3
 10
2216.761045988937
 20
2739.473537506078
 30
0
 11
2216.761045988937
 21
2740.473537506079
 31
0
  0
LINE
  8
1
 62
3
 10
2209.161045988937
 20
2739.473537506078
 30
0
 11
2216.761045988937
 21
2739.473537506078
 31
0
  0
LINE
  8
1
 62
3
 10
2209.161045988937
 20
2740.473537506079
 30
0
 11
2209.161045988937
 21
2739.473537506078
 31
0
  0
LINE
  8
1
 62
3
 10
2216.761045988937
 20
2740.473537506079
 30
0
 11
2209.161045988937
 21
2740.473537506079
 31
0
  0
LINE
  8
1
 62
3
 10
2213.086045988936
 20
2739.473537506078
 30
0
 11
2213.211045988936
 21
2740.473537506078
 31
0
  0
LINE
  8
1
 62
3
 10
2212.711045988936
 20
2739.473537506078
 30
0
 11
2212.836045988936
 21
2740.473537506078
 31
0
  0
ENDBLK
  8
0
  0
BLOCK
  8
0
  2
_O_L_____4__16
 70
0
 10
2212.961045988936
 20
2820.320937506078
 30
0
  0
LINE
  8
1
 62
3
 10
2212.836045988936
 20
2819.320937506078
 30
0
 11
2212.711045988936
 21
2820.320937506078
 31
0
  0
LINE
  8
1
 62
3
 10
2213.211045988936
 20
2819.320937506078
 30
0
 11
2213.086045988936
 21
2820.320937506078
 31
0
  0
LINE
  8
1
 62
3
 10
2209.161045988937
 20
2819.320937506078
 30
0
 11
2216.761045988937
 21
2819.320937506078
 31
0
  0
LINE
  8
1
 62
3
 10
2209.161045988937
 20
2820.320937506078
 30
0
 11
2209.161045988937
 21
2819.320937506078
 31
0
  0
LINE
  8
1
 62
3
 10
2216.761045988937
 20
2820.320937506078
 30
0
 11
2209.161045988937
 21
2820.320937506078
 31
0
  0
LINE
  8
1
 62
3
 10
2216.761045988937
 20
2819.320937506078
 30
0
 11
2216.761045988937
 21
2820.320937506078
 31
0
  0
ENDBLK
  8
0
  0
BLOCK
  8
0
  2
____M4__17
 70
0
 10
2212.961045988936
 20
2819.947237506078
 30
0
  0
LINE
  8
1
 62
1
 10
2212.961045988936
 20
2826.397260898128
 30
0
 11
2212.961045988936
 21
2816.320937506078
 31
0
  0
LINE
  8
1
 62
3
 10
2208.961045988936
 20
2822.016935904797
 30
0
 11
2208.961045988936
 21
2820.320937506078
 31
0
  0
LINE
  8
1
 62
3
 10
2208.961045988936
 20
2820.320937506078
 30
0
 11
2216.961045988936
 21
2820.320937506078
 31
0
  0
LINE
  8
1
 62
3
 10
2216.961045988936
 20
2820.320937506078
 30
0
 11
2216.961045988936
 21
2822.016935904797
 31
0
  0
LINE
  8
1
 62
3
 10
2212.411045988937
 20
2823.397260898128
 30
0
 11
2212.411045988937
 21
2823.162260898127
 31
0
  0
LINE
  8
1
 62
3
 10
2212.411045988937
 20
2823.162260898127
 30
0
 11
2213.511045988937
 21
2823.162260898127
 31
0
  0
LINE
  8
1
 62
3
 10
2213.511045988937
 20
2823.162260898127
 30
0
 11
2213.511045988937
 21
2823.397260898128
 31
0
  0
LINE
  8
1
 62
1
 10
2212.961045988936
 20
2743.473537506078
 30
0
 11
2212.961045988936
 21
2733.397214114029
 31
0
  0
LINE
  8
1
 62
3
 10
2208.961045988936
 20
2739.473537506078
 30
0
 11
2208.961045988936
 21
2737.777539107359
 31
0
  0
LINE
  8
1
 62
3
 10
2216.961045988936
 20
2739.473537506078
 30
0
 11
2208.961045988936
 21
2739.473537506078
 31
0
  0
LINE
  8
1
 62
3
 10
2216.961045988936
 20
2737.777539107359
 30
0
 11
2216.961045988936
 21
2739.473537506078
 31
0
  0
LINE
  8
1
 62
3
 10
2212.411045988937
 20
2736.632214114028
 30
0
 11
2212.411045988937
 21
2736.397214114029
 31
0
  0
LINE
  8
1
 62
3
 10
2213.511045988937
 20
2736.632214114028
 30
0
 11
2212.411045988937
 21
2736.632214114028
 31
0
  0
LINE
  8
1
 62
3
 10
2213.511045988937
 20
2736.397214114029
 30
0
 11
2213.511045988937
 21
2736.632214114028
 31
0
  0
ARC
  8
1
 62
3
 10
2212.961045988936
 20
2817.020937506078
 30
0
 40
6.399999999999994
 50
51.31781254651052
 51
85.07006306280844
  0
ARC
  8
1
 62
3
 10
2212.961045988936
 20
2817.020937506078
 30
0
 40
6.400000000000139
 50
94.92993693717128
 51
128.6821874534895
  0
ARC
  8
1
 62
3
 10
2212.961045988936
 20
2742.773537506078
 30
0
 40
6.399999999999428
 50
274.9299369371922
 51
308.6821874534895
  0
ARC
  8
1
 62
3
 10
2212.961045988936
 20
2742.773537506078
 30
0
 40
6.399999999999994
 50
231.3178125465105
 51
265.0700630628281
  0
INSERT
  8
0
  2
_O_L_____4__15
 10
2212.961045988936
 20
2739.473537506078
 30
0
  0
INSERT
  8
0
  2
_O_L_____4__16
 10
2212.961045988936
 20
2820.320937506078
 30
0
  0
ENDBLK
  8
0
  0
BLOCK
  8
0
  2
____M4_________18
 70
0
 10
2212.961045988936
 20
2779.897237506078
 30
0
  0
LINE
  8
1
 62
3
 10
2211.812794826833
 20
2781.773808652804
 30
0
 11
2212.77203331381
 21
2780.814570165827
 31
0
  0
LINE
  8
1
 62
3
 10
2214.10929715104
 20
2781.773808652804
 30
0
 11
2213.150058664064
 21
2780.814570165827
 31
0
  0
LINE
  8
1
 62
3
 10
2211.08447484221
 20
2778.748986343974
 30
0
 11
2212.043713329189
 21
2779.708224830951
 31
0
  0
LINE
  8
1
 62
3
 10
2211.08447484221
 20
2781.045488668182
 30
0
 11
2212.043713329189
 21
2780.086250181204
 31
0
  0
LINE
  8
1
 62
3
 10
2214.10929715104
 20
2778.020666359351
 30
0
 11
2213.150058664064
 21
2778.979904846329
 31
0
  0
LINE
  8
1
 62
3
 10
2211.812794826833
 20
2778.020666359351
 30
0
 11
2212.77203331381
 21
2778.979904846329
 31
0
  0
LINE
  8
1
 62
3
 10
2214.837617135664
 20
2781.045488668182
 30
0
 11
2213.878378648685
 21
2780.086250181204
 31
0
  0
LINE
  8
1
 62
3
 10
2214.837617135664
 20
2778.748986343974
 30
0
 11
2213.878378648685
 21
2779.708224830951
 31
0
  0
LINE
  8
1
 62
1
 10
2212.961045988936
 20
2786.897237506078
 30
0
 11
2212.961045988936
 21
2772.897237506078
 31
0
  0
ARC
  8
1
 62
3
 10
2212.961045988936
 20
2779.897237506078
 30
0
 40
2.20000000000121
 50
31.46195895462048
 51
58.53804104533852
  0
ARC
  8
1
 62
3
 10
2212.961045988936
 20
2779.897237506078
 30
0
 40
0.9150000000002528
 50
80.83777127593326
 51
99.16222872392616
  0
ARC
  8
1
 62
3
 10
2212.961045988936
 20
2779.897237506078
 30
0
 40
2.199999999998796
 50
121.4619589546312
 51
148.5380410453486
  0
ARC
  8
1
 62
3
 10
2212.961045988936
 20
2779.897237506078
 30
0
 40
0.9150000000001804
 50
170.8377712759614
 51
189.1622287240386
  0
ARC
  8
1
 62
3
 10
2212.961045988936
 20
2779.897237506078
 30
0
 40
2.199999999999271
 50
211.4619589546514
 51
238.5380410453874
  0
ARC
  8
1
 62
3
 10
2212.961045988936
 20
2779.897237506078
 30
0
 40
0.914999999999891
 50
260.8377712760739
 51
279.1622287240668
  0
ARC
  8
1
 62
3
 10
2212.961045988936
 20
2779.897237506078
 30
0
 40
2.200000000000672
 50
301.461958954643
 51
328.5380410453795
  0
ARC
  8
1
 62
3
 10
2212.961045988936
 20
2779.897237506078
 30
0
 40
0.9150000000010784
 50
350.8377712759705
 51
9.162228724029548
  0
CIRCLE
  8
1
 62
3
 10
2212.961045988936
 20
2779.897237506078
 30
0
 40
4
  0
ARC
  8
1
 62
3
 10
2212.80738865287
 20
2780.849925504886
 30
0
 40
0.05000000000039431
 50
224.999999999263
 51
279.1622287244765
  0
ARC
  8
1
 62
3
 10
2213.114703325004
 20
2780.849925504886
 30
0
 40
0.04999999999988776
 50
260.8377712755235
 51
315.0000000007369
  0
ARC
  8
1
 62
3
 10
2212.008357990128
 20
2779.743580170011
 30
0
 40
0.05000000000135898
 50
315.0000000011054
 51
9.162228723962077
  0
ARC
  8
1
 62
3
 10
2212.008357990128
 20
2780.050894842145
 30
0
 40
0.04999999999981535
 50
350.8377712760379
 51
44.99999999815763
  0
ARC
  8
1
 62
3
 10
2213.114703325004
 20
2778.94454950727
 30
0
 40
0.05000000000039431
 50
44.99999999926305
 51
99.16222872447652
  0
ARC
  8
1
 62
3
 10
2212.80738865287
 20
2778.94454950727
 30
0
 40
0.04999999999988776
 50
80.83777127552348
 51
135.0000000007369
  0
ARC
  8
1
 62
3
 10
2213.913733987744
 20
2780.050894842145
 30
0
 40
0.04999999999910809
 50
135
 51
189.162228724128
  0
ARC
  8
1
 62
3
 10
2213.913733987744
 20
2779.743580170011
 30
0
 40
0.04999999999891746
 50
170.837771275872
 51
225.0000000007369
  0
INSERT
  8
0
  2
____M4__17
 10
2212.961045988936
 20
2819.947237506078
 30
0
  0
ENDBLK
  8
0
  0
BLOCK
  8
1
  2
*D11
 70
1
 10
0
 20
0
 30
0
  0
LINE
  8
1
 62
2
 10
2249.461045988937
 20
2736.397214114029
 30
0
 11
2249.461045988937
 21
2823.397260898128
 31
0
  0
LINE
  8
1
 62
2
 10
2214.511045988937
 20
2736.397214114029
 30
0
 11
2251.461045988937
 21
2736.397214114029
 31
0
  0
LINE
  8
1
 62
2
 10
2214.511045988937
 20
2823.397260898128
 30
0
 11
2251.461045988937
 21
2823.397260898128
 31
0
  0
SOLID
  8
1
 62
2
 10
2249.461045988937
 20
2823.397260898128
 30
0
 11
2249.877045988937
 21
2820.197260898128
 31
0
 12
2249.045045988937
 22
2820.197260898128
 32
0
 13
2249.045045988937
 23
2820.197260898128
 33
0
  0
SOLID
  8
1
 62
2
 10
2249.461045988937
 20
2736.397214114029
 30
0
 11
2249.045045988937
 21
2739.597214114029
 31
0
 12
2249.877045988937
 22
2739.597214114029
 32
0
 13
2249.877045988937
 23
2739.597214114029
 33
0
  0
TEXT
  8
1
 62
2
 10
2247.461045988937
 20
2778.120859536287
 30
0
 40
3.2
  1
87
 50
90
 41
0.9
  0
TEXT
  8
1
 62
2
 10
2247.461045988937
 20
2776.040859536287
 30
0
 40
3.2
  1
(
 50
90
 41
0.9
  0
TEXT
  8
1
 62
2
 10
2247.461045988937
 20
2784.520859536287
 30
0
 40
3.2
  1
)
 50
90
 41
0.9
  0
ENDBLK
  8
0
  0
BLOCK
  8
0
  2
G8M2__19
 70
0
 10
1654.31060800802
 20
3010.16911354898
 30
0
  0
LINE
  8
1
 62
40
 10
2141.461045988937
 20
2819.889938236005
 30
0
 11
2141.461045988937
 21
2739.904536776151
 31
0
  0
LINE
  8
1
 62
1
 10
2239.461045988936
 20
2779.897237506078
 30
0
 11
2132.261045988936
 21
2779.897237506078
 31
0
  0
LINE
  8
1
 62
3
 10
2227.661045988937
 20
2757.679283054779
 30
0
 11
2199.461045988936
 21
2757.679283054779
 31
0
  0
LINE
  8
1
 62
3
 10
2199.461045988936
 20
2740.473537506078
 30
0
 11
2227.661045988937
 21
2740.473537506078
 31
0
  0
LINE
  8
1
 62
3
 10
2234.461045988936
 20
2779.897237506078
 30
0
 11
2234.461045988936
 21
2747.273537506078
 31
0
  0
LINE
  8
1
 62
3
 10
2199.461045988936
 20
2779.897237506078
 30
0
 11
2199.461045988936
 21
2740.473537506078
 31
0
  0
LINE
  8
1
 62
3
 10
2199.461045988936
 20
2802.115191957377
 30
0
 11
2227.661045988937
 21
2802.115191957377
 31
0
  0
LINE
  8
1
 62
3
 10
2227.661045988937
 20
2819.320937506078
 30
0
 11
2199.461045988936
 21
2819.320937506078
 31
0
  0
LINE
  8
1
 62
3
 10
2234.461045988936
 20
2812.520937506078
 30
0
 11
2234.461045988936
 21
2779.897237506078
 31
0
  0
LINE
  8
1
 62
3
 10
2199.461045988936
 20
2819.320937506078
 30
0
 11
2199.461045988936
 21
2779.897237506078
 31
0
  0
POLYLINE
  8
1
 62
3
 66
1
  0
VERTEX
  8
1
 10
2227.661045988937
 20
2757.679283054779
 30
0
 42
0.0004760896549306561
  0
VERTEX
  8
1
 10
2227.850221052307
 20
2757.683001332241
 30
0
 42
0.001428517178425141
  0
VERTEX
  8
1
 10
2228.039356485734
 20
2757.687439623449
 30
0
 42
0.002382017779039371
  0
VERTEX
  8
1
 10
2228.228412659278
 20
2757.693317942152
 30
0
 42
0.003336259411750337
  0
VERTEX
  8
1
 10
2228.417349942995
 20
2757.701356302097
 30
0
 42
0.004290404671119141
  0
VERTEX
  8
1
 10
2228.606128706945
 20
2757.71227471703
 30
0
 42
0.002465477208284722
  0
VERTEX
  8
1
 10
2228.699394449131
 20
2757.718934396672
 30
0
 42
0.001950764623769808
  0
VERTEX
  8
1
 10
2228.79260728319
 20
2757.726418339379
 30
0
 42
0.002169272504156407
  0
VERTEX
  8
1
 10
2228.885762739363
 20
2757.734670759238
 30
0
 42
0.001655276779992674
  0
VERTEX
  8
1
 10
2228.97885634789
 20
2757.74363587033
 30
0
 42
0.001874546988465845
  0
VERTEX
  8
1
 10
2229.071883639012
 20
2757.753257886739
 30
0
 42
0.001006486855666081
  0
VERTEX
  8
1
 10
2229.14081137826
 20
2757.760788892475
 30
0
 42
0.00148020838989745
  0
VERTEX
  8
1
 10
2229.20969785129
 20
2757.768662269792
 30
0
 42
0.001094039864774718
  0
VERTEX
  8
1
 10
2229.278540704953
 20
2757.776889943341
 30
0
 42
0.001567739184776617
  0
VERTEX
  8
1
 10
2229.347337586101
 20
2757.785483837773
 30
0
 42
0.004007158023774154
  0
VERTEX
  8
1
 10
2229.553427085704
 20
2757.813564957304
 30
0
 42
0.01427669781555667
  0
VERTEX
  8
1
 10
2230.225175319531
 20
2757.930250843972
 30
0
 42
0.004967300710088519
  0
VERTEX
  8
1
 10
2230.441010212059
 20
2757.976361530288
 30
0
 42
0.004991575101967598
  0
VERTEX
  8
1
 10
2230.655880789101
 20
2758.026760957297
 30
0
 42
0.00531551286265628
  0
VERTEX
  8
1
 10
2230.86966712878
 20
2758.081578773533
 30
0
 42
0.005224900855850579
  0
VERTEX
  8
1
 10
2231.077964813249
 20
2758.13969510584
 30
0
 42
0.004362082440484185
  0
VERTEX
  8
1
 10
2231.238564086933
 20
2758.187840558243
 30
0
 42
0.003188410148644164
  0
VERTEX
  8
1
 10
2231.356331929722
 20
2758.225092929568
 30
0
 42
0.004578004159164233
  0
VERTEX
  8
1
 10
2231.512561581005
 20
2758.277194437963
 30
0
 42
0.004623089965488577
  0
VERTEX
  8
1
 10
2231.667802176685
 20
2758.332160534952
 30
0
 42
0.004940351756292148
  0
VERTEX
  8
1
 10
2231.821963794157
 20
2758.390085896697
 30
0
 42
0.00492084693470806
  0
VERTEX
  8
1
 10
2231.973257559866
 20
2758.450364672775
 30
0
 42
0.003825349183891213
  0
VERTEX
  8
1
 10
2232.082126702856
 20
2758.495962926656
 30
0
 42
0.003681872378238521
  0
VERTEX
  8
1
 10
2232.186943721311
 20
2758.541725690368
 30
0
 42
0.00330237043934456
  0
VERTEX
  8
1
 10
2232.272361350349
 20
2758.58044813935
 30
0
 42
0.003894671710729825
  0
VERTEX
  8
1
 10
2232.374183637907
 20
2758.628385887584
 30
0
 42
0.004246992264864537
  0
VERTEX
  8
1
 10
2232.475205078516
 20
2758.677971865628
 30
0
 42
0.004207264839751355
  0
VERTEX
  8
1
 10
2232.575372629569
 20
2758.729258239284
 30
0
 42
0.004561845261089314
  0
VERTEX
  8
1
 10
2232.674624202049
 20
2758.782292768174
 30
0
 42
0.006078421323004944
  0
VERTEX
  8
1
 10
2232.805441730266
 20
2758.855814796914
 30
0
 42
0.006248991426274803
  0
VERTEX
  8
1
 10
2232.927431861761
 20
2758.928389696573
 30
0
 42
0.003733965636539283
  0
VERTEX
  8
1
 10
2232.998453330558
 20
2758.97258530998
 30
0
 42
0.004047586355348851
  0
VERTEX
  8
1
 10
2233.068781355925
 20
2759.017882733671
 30
0
 42
0.004052020808205371
  0
VERTEX
  8
1
 10
2233.138364228866
 20
2759.064311963231
 30
0
 42
0.004369171008637756
  0
VERTEX
  8
1
 10
2233.207148827232
 20
2759.111902011548
 30
0
 42
0.005274711449761832
  0
VERTEX
  8
1
 10
2233.288572246882
 20
2759.170590414546
 30
0
 42
0.005691382721331237
  0
VERTEX
  8
1
 10
2233.368684805359
 20
2759.231047143551
 30
0
 42
0.005749103203974121
  0
VERTEX
  8
1
 10
2233.447402236119
 20
2759.293328053654
 30
0
 42
0.008211709539751253
  0
VERTEX
  8
1
 10
2233.55001873467
 20
2759.379283054779
 30
0
 42
0.004676615074154371
  0
VERTEX
  8
1
 10
2233.60520017626
 20
2759.427979185806
 30
0
 42
0.004938388653952658
  0
VERTEX
  8
1
 10
2233.659446642915
 20
2759.477738010157
 30
0
 42
0.006145576395203518
  0
VERTEX
  8
1
 10
2233.723202655731
 20
2759.538876626674
 30
0
 42
0.006547470007098401
  0
VERTEX
  8
1
 10
2233.78538235671
 20
2759.601609943508
 30
0
 42
0.006793294125971762
  0
VERTEX
  8
1
 10
2233.845856534836
 20
2759.66596933651
 30
0
 42
0.007206568220741967
  0
VERTEX
  8
1
 10
2233.904501219075
 20
2759.731991999967
 30
0
 42
0.007458089281807461
  0
VERTEX
  8
1
 10
2233.961182684045
 20
2759.79970371739
 30
0
 42
0.007878064150155996
  0
VERTEX
  8
1
 10
2234.015790809404
 20
2759.869159770209
 30
0
 42
0.007802326982657387
  0
VERTEX
  8
1
 10
2234.066191535015
 20
2759.937575307084
 30
0
 42
0.00757907469649245
  0
VERTEX
  8
1
 10
2234.1106266126
 20
2760.001949182132
 30
0
 42
0.009139476067283266
  0
VERTEX
  8
1
 10
2234.159937720932
 20
2760.078758453745
 30
0
 42
0.006973414094464059
  0
VERTEX
  8
1
 10
2234.193375398405
 20
2760.134730962017
 30
0
 42
0.007013460209574403
  0
VERTEX
  8
1
 10
2234.225227270458
 20
2760.191603969668
 30
0
 42
0.007483006218810438
  0
VERTEX
  8
1
 10
2234.255408741663
 20
2760.249360412474
 30
0
 42
0.007535938613196286
  0
VERTEX
  8
1
 10
2234.28383521659
 20
2760.307983226207
 30
0
 42
0.009608615806539409
  0
VERTEX
  8
1
 10
2234.315512009143
 20
2760.379451183328
 30
0
 42
0.006522650233863004
  0
VERTEX
  8
1
 10
2234.335084795896
 20
2760.427759709552
 30
0
 42
0.02112255466727002
  0
VERTEX
  8
1
 10
2234.38736265078
 20
2760.580551832047
 30
0
 42
0.01480559854638556
  0
VERTEX
  8
1
 10
2234.415010651164
 20
2760.685404148722
 30
0
 42
0.02153414798582218
  0
VERTEX
  8
1
 10
2234.443836810384
 20
2760.839315176122
 30
0
 42
0.002796958506691125
  0
VERTEX
  8
1
 10
2234.447114694721
 20
2760.863181323757
 30
0
 42
0.004049505979946269
  0
VERTEX
  8
1
 10
2234.450065478703
 20
2760.887090057794
 30
0
 42
0.00333906462809339
  0
VERTEX
  8
1
 10
2234.452662342127
 20
2760.911036923683
 30
0
 42
0.004595472680325421
  0
VERTEX
  8
1
 10
2234.454878464788
 20
2760.93501746687
 30
0
 42
0.008207186841756571
  0
VERTEX
  8
1
 10
2234.458079513942
 20
2760.983048707435
 30
0
 42
0.003339168691123992
  0
VERTEX
  8
1
 10
2234.459124871423
 20
2761.007089975241
 30
0
 42
0.002077618966480255
  0
VERTEX
  8
1
 10
2234.45990988142
 20
2761.031146087929
 30
0
 42
0.001532058734188095
  0
VERTEX
  8
1
 10
2234.460521326425
 20
2761.055212097207
 30
0
 42
0.0002721859766141866
  0
VERTEX
  8
1
 10
2234.461045988936
 20
2761.079283054778
 30
0
  0
SEQEND
  8
1
  0
POLYLINE
  8
1
 62
3
 66
1
  0
VERTEX
  8
1
 10
2227.661045988937
 20
2802.115191957377
 30
0
 42
-0.0004760896549307671
  0
VERTEX
  8
1
 10
2227.850221052307
 20
2802.111473679915
 30
0
 42
-0.001428632887051762
  0
VERTEX
  8
1
 10
2228.039356485734
 20
2802.107035388707
 30
0
 42
-0.002382061041887182
  0
VERTEX
  8
1
 10
2228.228412659278
 20
2802.101157070004
 30
0
 42
-0.003336272959588437
  0
VERTEX
  8
1
 10
2228.417349942995
 20
2802.093118710059
 30
0
 42
-0.004290127078774344
  0
VERTEX
  8
1
 10
2228.606128706945
 20
2802.082200295126
 30
0
 42
-0.002282277292447278
  0
VERTEX
  8
1
 10
2228.699394449131
 20
2802.075540615485
 30
0
 42
-0.002134009702431127
  0
VERTEX
  8
1
 10
2228.79260728319
 20
2802.068056672777
 30
0
 42
-0.001986081595027739
  0
VERTEX
  8
1
 10
2228.885762739363
 20
2802.059804252919
 30
0
 42
-0.001838526654140309
  0
VERTEX
  8
1
 10
2228.97885634789
 20
2802.050839141826
 30
0
 42
-0.001691357807290961
  0
VERTEX
  8
1
 10
2229.071883639012
 20
2802.041217125417
 30
0
 42
-0.001221457445460429
  0
VERTEX
  8
1
 10
2229.14081137826
 20
2802.033686119681
 30
0
 42
-0.00126523614298858
  0
VERTEX
  8
1
 10
2229.20969785129
 20
2802.025812742364
 30
0
 42
-0.001309008747938655
  0
VERTEX
  8
1
 10
2229.278540704953
 20
2802.017585068814
 30
0
 42
-0.001352764935576044
  0
VERTEX
  8
1
 10
2229.347337586101
 20
2802.008991174382
 30
0
 42
-0.004228647551315316
  0
VERTEX
  8
1
 10
2229.553427085704
 20
2801.980910054851
 30
0
 42
-0.01404481694789179
  0
VERTEX
  8
1
 10
2230.225175319531
 20
2801.864224168184
 30
0
 42
-0.004870984641730112
  0
VERTEX
  8
1
 10
2230.441010212059
 20
2801.818113481868
 30
0
 42
-0.005042339147406051
  0
VERTEX
  8
1
 10
2230.655880789101
 20
2801.767714054859
 30
0
 42
-0.005217956760368834
  0
VERTEX
  8
1
 10
2230.86966712878
 20
2801.712896238624
 30
0
 42
-0.005278290978493746
  0
VERTEX
  8
1
 10
2231.077964813249
 20
2801.654779906316
 30
0
 42
-0.004253003599621048
  0
VERTEX
  8
1
 10
2231.238564086933
 20
2801.606634453913
 30
0
 42
-0.003254692889585769
  0
VERTEX
  8
1
 10
2231.356331929722
 20
2801.569382082588
 30
0
 42
-0.004490110180806337
  0
VERTEX
  8
1
 10
2231.512561581005
 20
2801.517280574193
 30
0
 42
-0.004667229920353922
  0
VERTEX
  8
1
 10
2231.667802176685
 20
2801.462314477204
 30
0
 42
-0.00485045531788744
  0
VERTEX
  8
1
 10
2231.821963794157
 20
2801.404389115459
 30
0
 42
-0.004966453080212605
  0
VERTEX
  8
1
 10
2231.973257559865
 20
2801.344110339381
 30
0
 42
-0.003734897369957516
  0
VERTEX
  8
1
 10
2232.082126702857
 20
2801.2985120855
 30
0
 42
-0.003745572636527614
  0
VERTEX
  8
1
 10
2232.186943721311
 20
2801.252749321788
 30
0
 42
-0.003196941032790466
  0
VERTEX
  8
1
 10
2232.272361350349
 20
2801.214026872805
 30
0
 42
-0.003976646199527333
  0
VERTEX
  8
1
 10
2232.374183637907
 20
2801.166089124571
 30
0
 42
-0.00413109651495189
  0
VERTEX
  8
1
 10
2232.475205078516
 20
2801.116503146528
 30
0
 42
-0.00428833437759118
  0
VERTEX
  8
1
 10
2232.575372629569
 20
2801.065216772872
 30
0
 42
-0.004445762695172999
  0
VERTEX
  8
1
 10
2232.674624202049
 20
2801.012182243981
 30
0
 42
-0.006162273626892675
  0
VERTEX
  8
1
 10
2232.805441730266
 20
2800.938660215242
 30
0
 42
-0.006096171421755584
  0
VERTEX
  8
1
 10
2232.927431861761
 20
2800.866085315583
 30
0
 42
-0.003790836247134709
  0
VERTEX
  8
1
 10
2232.998453330558
 20
2800.821889702176
 30
0
 42
-0.003948824707586437
  0
VERTEX
  8
1
 10
2233.068781355925
 20
2800.776592278483
 30
0
 42
-0.004108439631649539
  0
VERTEX
  8
1
 10
2233.138364228866
 20
2800.730163048925
 30
0
 42
-0.004269690642520244
  0
VERTEX
  8
1
 10
2233.207148827232
 20
2800.682573000608
 30
0
 42
-0.005338646009395992
  0
VERTEX
  8
1
 10
2233.288572246882
 20
2800.62388459761
 30
0
 42
-0.005574873562026362
  0
VERTEX
  8
1
 10
2233.368684805359
 20
2800.563427868605
 30
0
 42
-0.005813054224550136
  0
VERTEX
  8
1
 10
2233.447402236118
 20
2800.501146958502
 30
0
 42
-0.008099446026752893
  0
VERTEX
  8
1
 10
2233.55001873467
 20
2800.415191957376
 30
0
 42
-0.004673645400882784
  0
VERTEX
  8
1
 10
2233.60520017626
 20
2800.36649582635
 30
0
 42
-0.004885970547147502
  0
VERTEX
  8
1
 10
2233.659446642915
 20
2800.316737001999
 30
0
 42
-0.00615086593319469
  0
VERTEX
  8
1
 10
2233.723202655731
 20
2800.255598385482
 30
0
 42
-0.006471454616028817
  0
VERTEX
  8
1
 10
2233.78538235671
 20
2800.192865068649
 30
0
 42
-0.00679748447435282
  0
VERTEX
  8
1
 10
2233.845856534836
 20
2800.128505675646
 30
0
 42
-0.007128901239940096
  0
VERTEX
  8
1
 10
2233.904501219075
 20
2800.062483012189
 30
0
 42
-0.007462286937107144
  0
VERTEX
  8
1
 10
2233.961182684045
 20
2799.994771294766
 30
0
 42
-0.007797947212487547
  0
VERTEX
  8
1
 10
2234.015790809405
 20
2799.925315241947
 30
0
 42
-0.007810290843097639
  0
VERTEX
  8
1
 10
2234.066191535015
 20
2799.856899705072
 30
0
 42
-0.007500041868600179
  0
VERTEX
  8
1
 10
2234.1106266126
 20
2799.792525830024
 30
0
 42
-0.009151746484730272
  0
VERTEX
  8
1
 10
2234.159937720932
 20
2799.715716558411
 30
0
 42
-0.006835545270691586
  0
VERTEX
  8
1
 10
2234.193375398405
 20
2799.659744050139
 30
0
 42
-0.007085424757472398
  0
VERTEX
  8
1
 10
2234.225227270458
 20
2799.602871042487
 30
0
 42
-0.00734246045895679
  0
VERTEX
  8
1
 10
2234.255408741663
 20
2799.545114599682
 30
0
 42
-0.007606854946542284
  0
VERTEX
  8
1
 10
2234.28383521659
 20
2799.486491785949
 30
0
 42
-0.009465602565447116
  0
VERTEX
  8
1
 10
2234.315512009143
 20
2799.415023828828
 30
0
 42
-0.006561134346429971
  0
VERTEX
  8
1
 10
2234.335084795896
 20
2799.366715302604
 30
0
 42
-0.02104021618693334
  0
VERTEX
  8
1
 10
2234.38736265078
 20
2799.21392318011
 30
0
 42
-0.01466344134827441
  0
VERTEX
  8
1
 10
2234.415010651164
 20
2799.109070863434
 30
0
 42
-0.02152958983608095
  0
VERTEX
  8
1
 10
2234.443836810384
 20
2798.955159836034
 30
0
 42
-0.003288375930525929
  0
VERTEX
  8
1
 10
2234.447114694721
 20
2798.931293688399
 30
0
 42
-0.00355840565676798
  0
VERTEX
  8
1
 10
2234.450065478703
 20
2798.907384954361
 30
0
 42
-0.00383045388306267
  0
VERTEX
  8
1
 10
2234.452662342127
 20
2798.883438088473
 30
0
 42
-0.004104317182423516
  0
VERTEX
  8
1
 10
2234.454878464788
 20
2798.859457545285
 30
0
 42
-0.008679168701598843
  0
VERTEX
  8
1
 10
2234.458079513942
 20
2798.811426304721
 30
0
 42
-0.003160369842913171
  0
VERTEX
  8
1
 10
2234.459124871423
 20
2798.787385036914
 30
0
 42
-0.002256481699798109
  0
VERTEX
  8
1
 10
2234.45990988142
 20
2798.763328924226
 30
0
 42
-0.001353342645325349
  0
VERTEX
  8
1
 10
2234.460521326425
 20
2798.739262914949
 30
0
 42
-0.0004510055698501006
  0
VERTEX
  8
1
 10
2234.461045988936
 20
2798.715191957377
 30
0
  0
SEQEND
  8
1
  0
ARC
  8
1
 62
3
 10
2227.661045988937
 20
2747.273537506078
 30
0
 40
6.799999999999727
 50
270
 51
0
  0
ARC
  8
1
 62
3
 10
2227.661045988937
 20
2812.520937506078
 30
0
 40
6.799999999998818
 50
0
 51
90
  0
DIMENSION
  8
1
  6
CONTINUOUS
 62
2
  2
*D11
  3
DMST_9
 10
2249.461045988937
 20
2823.397260898128
 30
0
 11
2245.861045988937
 21
2780.520859536287
 31
0
 12
0
 22
0
 32
0
 70
0
  1
87
 13
2213.511045988937
 23
2736.397214114029
 33
0
 14
2213.511045988937
 24
2823.397260898128
 34
0
 50
90
 53
0
  0
INSERT
  8
0
  2
G8M2__10
 10
2496.98305478486
 20
3081.99046431197
 30
0
  0
INSERT
  8
0
  2
____M4__14
 10
2141.461045988937
 20
2779.897237506078
 30
0
  0
INSERT
  8
0
  2
____M4_________18
 10
2212.961045988936
 20
2779.897237506078
 30
0
  0
ENDBLK
  8
0
  0
BLOCK
  8
0
  2
____M4_________20
 70
0
 10
2001.04252080908
 20
2801.897237506078
 30
0
  0
LINE
  8
1
 62
3
 10
2002.684520562466
 20
2800.892517739237
 30
0
 11
2001.84518688636
 21
2801.731851415342
 31
0
  0
LINE
  8
1
 62
3
 10
2002.684520562466
 20
2802.901957272919
 30
0
 11
2001.84518688636
 21
2802.062623596813
 31
0
  0
LINE
  8
1
 62
3
 10
2000.037801042239
 20
2800.255237752692
 30
0
 11
2000.877134718344
 21
2801.094571428798
 31
0
  0
LINE
  8
1
 62
3
 10
2002.047240575921
 20
2800.255237752692
 30
0
 11
2001.207906899816
 21
2801.094571428798
 31
0
  0
LINE
  8
1
 62
3
 10
1999.400521055694
 20
2802.901957272919
 30
0
 11
2000.2398547318
 21
2802.062623596813
 31
0
  0
LINE
  8
1
 62
3
 10
1999.400521055694
 20
2800.892517739237
 30
0
 11
2000.2398547318
 21
2801.731851415342
 31
0
  0
LINE
  8
1
 62
3
 10
2002.047240575921
 20
2803.539237259463
 30
0
 11
2001.207906899816
 21
2802.699903583358
 31
0
  0
LINE
  8
1
 62
3
 10
2000.037801042239
 20
2803.539237259463
 30
0
 11
2000.877134718344
 21
2802.699903583358
 31
0
  0
LINE
  8
1
 62
1
 10
2001.04252080908
 20
2809.772237506078
 30
0
 11
2001.04252080908
 21
2794.022237506078
 31
0
  0
LINE
  8
1
 62
1
 10
2008.91752080908
 20
2801.897237506078
 30
0
 11
1993.16752080908
 21
2801.897237506078
 31
0
  0
ARC
  8
1
 62
3
 10
2001.04252080908
 20
2801.897237506078
 30
0
 40
0.8006249999993253
 50
350.8377712759477
 51
9.162228723988093
  0
ARC
  8
1
 62
3
 10
2001.04252080908
 20
2801.897237506078
 30
0
 40
1.924999999999973
 50
301.4619589546423
 51
328.5380410453613
  0
ARC
  8
1
 62
3
 10
2001.04252080908
 20
2801.897237506078
 30
0
 40
0.8006250000005273
 50
260.8377712760275
 51
279.1622287240368
  0
ARC
  8
1
 62
3
 10
2001.04252080908
 20
2801.897237506078
 30
0
 40
1.925000000000167
 50
211.4619589546387
 51
238.538041045352
  0
ARC
  8
1
 62
3
 10
2001.04252080908
 20
2801.897237506078
 30
0
 40
0.8006249999994048
 50
170.8377712760145
 51
189.1622287240498
  0
ARC
  8
1
 62
3
 10
2001.04252080908
 20
2801.897237506078
 30
0
 40
1.924999999999316
 50
121.4619589546621
 51
148.5380410453613
  0
ARC
  8
1
 62
3
 10
2001.04252080908
 20
2801.897237506078
 30
0
 40
0.8006249999993253
 50
80.83777127594766
 51
99.16222872398811
  0
ARC
  8
1
 62
3
 10
2001.04252080908
 20
2801.897237506078
 30
0
 40
1.925000000000167
 50
31.46195895463871
 51
58.53804104534364
  0
CIRCLE
  8
1
 62
3
 10
2001.04252080908
 20
2801.897237506078
 30
0
 40
3.5
  0
ARC
  8
1
 62
3
 10
2001.876122808037
 20
2801.762787337019
 30
0
 40
0.04375000000072546
 50
170.8377712758483
 51
224.9999999995789
  0
ARC
  8
1
 62
3
 10
2001.876122808037
 20
2802.031687675137
 30
0
 40
0.04374999999938035
 50
135.0000000012633
 51
189.1622287253276
  0
ARC
  8
1
 62
3
 10
2000.908070640021
 20
2801.063635507121
 30
0
 40
0.04374999999952344
 50
80.83777127438788
 51
134.9999999997895
  0
ARC
  8
1
 62
3
 10
2001.176970978139
 20
2801.063635507121
 30
0
 40
0.04375000000018425
 50
45.00000000021056
 51
99.16222872414224
  0
ARC
  8
1
 62
3
 10
2000.208918810123
 20
2802.031687675137
 30
0
 40
0.04375000000087028
 50
350.8377712746724
 51
44.99999999873666
  0
ARC
  8
1
 62
3
 10
2000.208918810123
 20
2801.762787337019
 30
0
 40
0.04375000000002346
 50
315.0000000004211
 51
9.16222872415174
  0
ARC
  8
1
 62
3
 10
2001.176970978139
 20
2802.730839505035
 30
0
 40
0.04375000000068925
 50
260.8377712761422
 51
314.9999999997894
  0
ARC
  8
1
 62
3
 10
2000.908070640021
 20
2802.730839505035
 30
0
 40
0.04375000000018425
 50
225.0000000002105
 51
279.1622287253276
  0
ENDBLK
  8
0
  0
BLOCK
  8
0
  2
____M4_________21
 70
0
 10
1931.04252080908
 20
2757.897237506078
 30
0
  0
LINE
  8
1
 62
1
 10
1923.16752080908
 20
2757.897237506078
 30
0
 11
1938.91752080908
 21
2757.897237506078
 31
0
  0
LINE
  8
1
 62
1
 10
1931.04252080908
 20
2750.022237506078
 30
0
 11
1931.04252080908
 21
2765.772237506078
 31
0
  0
LINE
  8
1
 62
3
 10
1932.047240575921
 20
2756.255237752692
 30
0
 11
1931.207906899815
 21
2757.094571428798
 31
0
  0
LINE
  8
1
 62
3
 10
1930.037801042239
 20
2756.255237752692
 30
0
 11
1930.877134718344
 21
2757.094571428798
 31
0
  0
LINE
  8
1
 62
3
 10
1932.684520562465
 20
2758.901957272919
 30
0
 11
1931.845186886359
 21
2758.062623596814
 31
0
  0
LINE
  8
1
 62
3
 10
1932.684520562465
 20
2756.892517739237
 30
0
 11
1931.845186886359
 21
2757.731851415342
 31
0
  0
LINE
  8
1
 62
3
 10
1930.037801042239
 20
2759.539237259464
 30
0
 11
1930.877134718344
 21
2758.699903583358
 31
0
  0
LINE
  8
1
 62
3
 10
1932.047240575921
 20
2759.539237259464
 30
0
 11
1931.207906899815
 21
2758.699903583358
 31
0
  0
LINE
  8
1
 62
3
 10
1929.400521055694
 20
2756.892517739237
 30
0
 11
1930.239854731799
 21
2757.731851415342
 31
0
  0
LINE
  8
1
 62
3
 10
1929.400521055694
 20
2758.901957272919
 30
0
 11
1930.239854731799
 21
2758.062623596814
 31
0
  0
ARC
  8
1
 62
3
 10
1931.04252080908
 20
2757.897237506078
 30
0
 40
1.925000000000167
 50
211.4619589546387
 51
238.538041045352
  0
ARC
  8
1
 62
3
 10
1931.04252080908
 20
2757.897237506078
 30
0
 40
0.8006249999993614
 50
260.8377712759316
 51
279.1622287239881
  0
ARC
  8
1
 62
3
 10
1931.04252080908
 20
2757.897237506078
 30
0
 40
1.924999999999973
 50
301.4619589546423
 51
328.5380410453436
  0
ARC
  8
1
 62
3
 10
1931.04252080908
 20
2757.897237506078
 30
0
 40
0.8006249999993253
 50
350.8377712759477
 51
9.162228724052348
  0
ARC
  8
1
 62
3
 10
1931.04252080908
 20
2757.897237506078
 30
0
 40
1.924999999999197
 50
31.46195895465637
 51
58.53804104535776
  0
ARC
  8
1
 62
3
 10
1931.04252080908
 20
2757.897237506078
 30
0
 40
0.8006249999991805
 50
80.83777127601191
 51
99.1622287240684
  0
ARC
  8
1
 62
3
 10
1931.04252080908
 20
2757.897237506078
 30
0
 40
1.925000000000092
 50
121.461958954648
 51
148.5380410453613
  0
ARC
  8
1
 62
3
 10
1931.04252080908
 20
2757.897237506078
 30
0
 40
0.800625000000672
 50
170.8377712759632
 51
189.1622287240368
  0
CIRCLE
  8
1
 62
3
 10
1931.04252080908
 20
2757.897237506078
 30
0
 40
3.5
  0
ARC
  8
1
 62
3
 10
1931.176970978139
 20
2757.063635507121
 30
0
 40
0.04374999999954114
 50
45.00000000105278
 51
99.16222872503366
  0
ARC
  8
1
 62
3
 10
1930.908070640021
 20
2757.063635507121
 30
0
 40
0.04375000000068925
 50
80.83777127614223
 51
134.9999999997895
  0
ARC
  8
1
 62
3
 10
1931.876122808037
 20
2758.031687675136
 30
0
 40
0.04375000000163124
 50
135
 51
189.1622287223879
  0
ARC
  8
1
 62
3
 10
1931.876122808037
 20
2757.762787337019
 30
0
 40
0.04375000000072546
 50
170.8377712758483
 51
224.9999999987367
  0
ARC
  8
1
 62
3
 10
1930.908070640021
 20
2758.730839505035
 30
0
 40
0.04375000000018425
 50
225.0000000002105
 51
279.1622287238578
  0
ARC
  8
1
 62
3
 10
1931.176970978139
 20
2758.730839505035
 30
0
 40
0.04375000000083407
 50
260.8377712749664
 51
314.9999999989472
  0
ARC
  8
1
 62
3
 10
1930.208918810123
 20
2757.762787337019
 30
0
 40
0.04374999999921957
 50
314.9999999993683
 51
9.162228724388813
  0
ARC
  8
1
 62
3
 10
1930.208918810123
 20
2758.031687675136
 30
0
 40
0.04374999999938586
 50
350.8377712773751
 51
45.00000000189501
  0
ENDBLK
  8
0
  0
BLOCK
  8
1
  2
*D12
 70
1
 10
0
 20
0
 30
0
  0
LINE
  8
1
 62
2
 10
2021.04252080908
 20
2746.657237506078
 30
0
 11
2021.04252080908
 21
2813.137237506078
 31
0
  0
LINE
  8
1
 62
2
 10
2005.28252080908
 20
2746.657237506078
 30
0
 11
2022.54252080908
 21
2746.657237506078
 31
0
  0
LINE
  8
1
 62
2
 10
2005.28252080908
 20
2813.137237506078
 30
0
 11
2022.54252080908
 21
2813.137237506078
 31
0
  0
SOLID
  8
1
 62
2
 10
2021.04252080908
 20
2813.137237506078
 30
0
 11
2021.45852080908
 21
2809.937237506078
 31
0
 12
2020.62652080908
 22
2809.937237506078
 32
0
 13
2020.62652080908
 23
2809.937237506078
 33
0
  0
SOLID
  8
1
 62
2
 10
2021.04252080908
 20
2746.657237506078
 30
0
 11
2020.62652080908
 21
2749.857237506078
 31
0
 12
2021.45852080908
 22
2749.857237506078
 32
0
 13
2021.45852080908
 23
2749.857237506078
 33
0
  0
TEXT
  8
1
 62
2
 10
2019.04252080908
 20
2771.833237506078
 30
0
 40
3.2
  1
66.5
 50
90
 41
0.9
  0
TEXT
  8
1
 62
2
 10
2018.40252080908
 20
2782.153237506078
 30
0
 40
1.92
  1
%%p0.3
 50
90
 41
0.9
  0
ENDBLK
  8
0
  0
BLOCK
  8
1
  2
*D13
 70
1
 10
0
 20
0
 30
0
  0
LINE
  8
1
 62
2
 10
2031.04252080908
 20
2739.897237506078
 30
0
 11
2031.04252080908
 21
2819.897237506078
 31
0
  0
LINE
  8
1
 62
2
 10
2000.04252080908
 20
2739.897237506078
 30
0
 11
2032.54252080908
 21
2739.897237506078
 31
0
  0
LINE
  8
1
 62
2
 10
2000.04252080908
 20
2819.897237506078
 30
0
 11
2032.54252080908
 21
2819.897237506078
 31
0
  0
SOLID
  8
1
 62
2
 10
2031.04252080908
 20
2819.897237506078
 30
0
 11
2031.45852080908
 21
2816.697237506078
 31
0
 12
2030.62652080908
 22
2816.697237506078
 32
0
 13
2030.62652080908
 23
2816.697237506078
 33
0
  0
SOLID
  8
1
 62
2
 10
2031.04252080908
 20
2739.897237506078
 30
0
 11
2030.62652080908
 21
2743.097237506078
 31
0
 12
2031.45852080908
 22
2743.097237506078
 32
0
 13
2031.45852080908
 23
2743.097237506078
 33
0
  0
TEXT
  8
1
 62
2
 10
2029.04252080908
 20
2777.497237506078
 30
0
 40
3.2
  1
80
 50
90
 41
0.9
  0
ENDBLK
  8
0
  0
BLOCK
  8
1
  2
*D14
 70
1
 10
0
 20
0
 30
0
  0
LINE
  8
1
 62
2
 10
1921.561351769139
 20
2764.717461458977
 30
0
 11
2010.523689849022
 21
2795.077013553178
 31
0
  0
SOLID
  8
1
 62
2
 10
2010.523689849022
 20
2795.077013553178
 30
0
 11
2007.629541889613
 21
2793.649791219746
 31
0
 12
2007.360827556183
 22
2794.437202552538
 32
0
 13
2007.360827556183
 23
2794.437202552538
 33
0
  0
SOLID
  8
1
 62
2
 10
1921.561351769139
 20
2764.717461458977
 30
0
 11
1924.455499728548
 21
2766.14468379241
 31
0
 12
1924.724214061978
 22
2765.357272459617
 32
0
 13
1924.724214061978
 23
2765.357272459617
 33
0
  0
TEXT
  8
1
 62
2
 10
1981.55485671567
 20
2787.30427720716
 30
0
 40
3.2
  1
94
 50
18.8428729709739
 41
0.9
  0
TEXT
  8
1
 62
2
 10
1976.742898570829
 20
2785.662134058425
 30
0
 40
3.2
  1
(âË
 50
18.8428729709739
 41
0.9
  0
TEXT
  8
1
 62
2
 10
1987.611866967917
 20
2789.371310541234
 30
0
 40
3.2
  1
)
 50
18.8428729709739
 41
0.9
  0
ENDBLK
  8
0
  0
ENDSEC
  0
SECTION
  2
ENTITIES
  0
LINE
  8
1
 62
3
 10
2152.025167208193
 20
2758.807029283052
 30
0
 11
2159.800975522019
 21
2764.327890299191
 31
0
  0
LINE
  8
1
 62
3
 10
2140.961045988937
 20
2764.01438723025
 30
0
 11
2159.800975522019
 21
2764.327890299191
 31
0
  0
LINE
  8
1
 62
3
 10
2140.961045988937
 20
2753.905784514625
 30
0
 11
2159.800975522019
 21
2754.219287583567
 31
0
  0
LINE
  8
1
 62
3
 10
2159.800975522019
 20
2795.466584712965
 30
0
 11
2152.025167208193
 21
2800.987445729104
 31
0
  0
LINE
  8
1
 62
3
 10
2159.800975522019
 20
2795.466584712965
 30
0
 11
2140.961045988937
 21
2795.780087781906
 31
0
  0
LINE
  8
1
 62
3
 10
2159.800975522019
 20
2805.57518742859
 30
0
 11
2140.961045988937
 21
2805.888690497531
 31
0
  0
LINE
  8
1
 62
3
 10
1926.04252080908
 20
2779.897237506078
 30
0
 11
1926.04252080908
 21
2812.897237506078
 31
0
  0
LINE
  8
1
 62
3
 10
1933.04252080908
 20
2819.897237506078
 30
0
 11
1966.04252080908
 21
2819.897237506078
 31
0
  0
LINE
  8
1
 62
1
 10
1937.80252080908
 20
2813.137237506078
 30
0
 11
1927.80252080908
 21
2813.137237506078
 31
0
  0
LINE
  8
1
 62
1
 10
1932.80252080908
 20
2808.137237506078
 30
0
 11
1932.80252080908
 21
2818.137237506078
 31
0
  0
LINE
  8
1
 62
3
 10
1966.04252080908
 20
2739.897237506078
 30
0
 11
1933.04252080908
 21
2739.897237506078
 31
0
  0
LINE
  8
1
 62
3
 10
1926.04252080908
 20
2746.897237506078
 30
0
 11
1926.04252080908
 21
2779.897237506078
 31
0
  0
LINE
  8
1
 62
1
 10
1932.80252080908
 20
2751.657237506078
 30
0
 11
1932.80252080908
 21
2741.657237506078
 31
0
  0
LINE
  8
1
 62
1
 10
1937.80252080908
 20
2746.657237506078
 30
0
 11
1927.80252080908
 21
2746.657237506078
 31
0
  0
LINE
  8
1
 62
3
 10
2006.04252080908
 20
2779.897237506078
 30
0
 11
2006.04252080908
 21
2746.897237506078
 31
0
  0
LINE
  8
1
 62
3
 10
1999.04252080908
 20
2739.897237506078
 30
0
 11
1966.04252080908
 21
2739.897237506078
 31
0
  0
LINE
  8
1
 62
1
 10
1994.28252080908
 20
2746.657237506078
 30
0
 11
2004.28252080908
 21
2746.657237506078
 31
0
  0
LINE
  8
1
 62
1
 10
1999.28252080908
 20
2751.657237506078
 30
0
 11
1999.28252080908
 21
2741.657237506078
 31
0
  0
LINE
  8
1
 62
3
 10
1966.04252080908
 20
2819.897237506078
 30
0
 11
1999.04252080908
 21
2819.897237506078
 31
0
  0
LINE
  8
1
 62
3
 10
2006.04252080908
 20
2812.897237506078
 30
0
 11
2006.04252080908
 21
2779.897237506078
 31
0
  0
LINE
  8
1
 62
1
 10
1999.28252080908
 20
2808.137237506078
 30
0
 11
1999.28252080908
 21
2818.137237506078
 31
0
  0
LINE
  8
1
 62
1
 10
1994.28252080908
 20
2813.137237506078
 30
0
 11
2004.28252080908
 21
2813.137237506078
 31
0
  0
LINE
  8
1
 62
1
 10
1966.04252080908
 20
2734.897237506078
 30
0
 11
1966.04252080908
 21
2824.897237506078
 31
0
  0
LINE
  8
1
 62
1
 10
2011.04252080908
 20
2779.897237506078
 30
0
 11
1921.04252080908
 21
2779.897237506078
 31
0
  0
ARC
  8
1
 62
3
 10
2156.453047187753
 20
2743.29501755862
 30
0
 40
11.42577348407265
 50
72.96142593126018
 51
105.5692141213331
  0
ARC
  8
1
 62
3
 10
2153.488196667843
 20
2756.746438262473
 30
0
 40
2.527150678905953
 50
125.3749336586706
 51
255.9689106546441
  0
ARC
  8
1
 62
3
 10
2156.453047187753
 20
2816.499457453536
 30
0
 40
11.42577348407215
 50
254.4307858786669
 51
287.0385740687418
  0
ARC
  8
1
 62
3
 10
2153.488196667843
 20
2803.048036749683
 30
0
 40
2.527150678906664
 50
104.0310893453559
 51
234.6250663413294
  0
ARC
  8
1
 62
3
 10
1966.04252080908
 20
2779.897237506078
 30
0
 40
34
 50
90
 51
180
  0
ARC
  8
1
 62
3
 10
1966.04252080908
 20
2779.897237506078
 30
0
 40
5
 50
90
 51
180
  0
ARC
  8
1
 62
3
 10
1966.04252080908
 20
2779.897237506078
 30
0
 40
34
 50
180
 51
270
  0
ARC
  8
1
 62
3
 10
1966.04252080908
 20
2779.897237506078
 30
0
 40
5
 50
180
 51
270
  0
ARC
  8
1
 62
3
 10
1966.04252080908
 20
2779.897237506078
 30
0
 40
34
 50
270
 51
0
  0
ARC
  8
1
 62
3
 10
1966.04252080908
 20
2779.897237506078
 30
0
 40
5
 50
270
 51
0
  0
ARC
  8
1
 62
3
 10
1966.04252080908
 20
2779.897237506078
 30
0
 40
34
 50
0
 51
90
  0
ARC
  8
1
 62
3
 10
1966.04252080908
 20
2779.897237506078
 30
0
 40
5
 50
0
 51
90
  0
ARC
  8
1
 62
2
 10
1966.04252080908
 20
2779.897237506078
 30
0
 40
47.00000000000026
 50
16.26305484988197
 51
55.61930224008029
  0
ARC
  8
1
 62
2
 10
1966.04252080908
 20
2779.897237506078
 30
0
 40
47.00000000000048
 50
196.2630548498819
 51
235.61930224008
  0
CIRCLE
  8
1
 62
3
 10
1966.04252080908
 20
2779.897237506078
 30
0
 40
36.5
  0
CIRCLE
  8
1
 62
3
 10
1932.80252080908
 20
2813.137237506078
 30
0
 40
2.75
  0
CIRCLE
  8
1
 62
3
 10
2001.04252080908
 20
2801.897237506078
 30
0
 40
4.199999999999818
  0
CIRCLE
  8
1
 62
3
 10
1932.80252080908
 20
2746.657237506078
 30
0
 40
2.75
  0
CIRCLE
  8
1
 62
3
 10
1999.28252080908
 20
2746.657237506078
 30
0
 40
2.75
  0
CIRCLE
  8
1
 62
3
 10
1999.28252080908
 20
2813.137237506078
 30
0
 40
2.75
  0
CIRCLE
  8
1
 62
3
 10
1931.04252080908
 20
2757.897237506078
 30
0
 40
4.200000000000045
  0
CIRCLE
  8
1
 62
4
  6
DIVIDE
 10
1966.04252080908
 20
2779.897237506078
 30
0
 40
47
  0
ARC
  8
1
 62
3
 10
2153.117941500166
 20
2755.26485117192
 30
0
 40
0.9999999999999433
 50
255.968910654619
 51
285.5692141213308
  0
ARC
  8
1
 62
3
 10
2153.117941500166
 20
2804.529623840236
 30
0
 40
0.9999999999992595
 50
74.43078587866923
 51
104.0310893453811
  0
ARC
  8
1
 62
3
 10
1933.04252080908
 20
2812.897237506078
 30
0
 40
7
 50
90
 51
180
  0
ARC
  8
1
 62
3
 10
1933.04252080908
 20
2746.897237506078
 30
0
 40
7
 50
180
 51
270
  0
ARC
  8
1
 62
3
 10
1999.04252080908
 20
2746.897237506078
 30
0
 40
7
 50
270
 51
0
  0
ARC
  8
1
 62
3
 10
1999.04252080908
 20
2812.897237506078
 30
0
 40
7
 50
0
 51
90
  0
TEXT
  8
1
 62
2
 10
1899.34274029169
 20
2648.33548106125
 30
0
 40
8
  1
IHF8PF40N
 41
0.9
  0
DIMENSION
  8
1
  6
CONTINUOUS
 62
2
  2
*D12
  3
DMST_10
 10
2021.04252080908
 20
2746.657237506078
 30
0
 11
2017.44252080908
 21
2779.897237506078
 31
0
 12
0
 22
0
 32
0
 70
1
  1
66.5
 13
2004.28252080908
 23
2813.137237506078
 33
0
 14
2004.28252080908
 24
2746.657237506078
 34
0
 53
0
  0
DIMENSION
  8
1
  6
CONTINUOUS
 62
2
  2
*D13
  3
DMST_1
 10
2031.04252080908
 20
2739.897237506078
 30
0
 11
2027.44252080908
 21
2779.897237506078
 31
0
 12
0
 22
0
 32
0
 70
1
 13
1999.04252080908
 23
2819.897237506078
 33
0
 14
1999.04252080908
 24
2739.897237506078
 34
0
 53
0
  0
DIMENSION
  8
1
  6
CONTINUOUS
 62
2
  2
*D14
  3
DMST_11
 10
1921.561351769139
 20
2764.717461458977
 30
0
 11
1981.887762320314
 21
2789.108488612919
 31
0
 12
0
 22
0
 32
0
 70
3
  1
(âË<>
 15
2010.523689849022
 25
2795.077013553178
 35
0
 40
0
 53
0
  0
INSERT
  8
0
  2
G8M2__19
 10
1654.31060800802
 20
3010.16911354898
 30
0
  0
INSERT
  8
0
  2
____M4_________20
 10
2001.04252080908
 20
2801.897237506078
 30
0
  0
INSERT
  8
0
  2
____M4_________21
 10
1931.04252080908
 20
2757.897237506078
 30
0
  0
ENDSEC
  0
EOF
