  0
SECTION
  2
HEADER
  9
$ACADVER
  1
AC1009
  9
$INSBASE
 10
0
 20
0
  9
$EXTMIN
 10
-70.38112494260568
 20
-126.701527766487
  9
$EXTMAX
 10
289.735724897326
 20
90.90079792480361
  9
$LIMMIN
 10
-70.38112494260568
 20
-126.701527766487
  9
$LIMMAX
 10
289.735724897326
 20
90.90079792480361
  9
$VIEWCTR
 10
10
 20
10
  9
$VIEWSIZE
 40
10
  9
$SNAPMODE
 70
0
  9
$SNAPUNIT
 10
1
 20
1
  9
$SNAPBASE
 10
0
 20
0
  9
$SNAPANG
 50
0
  9
$SNAPSTYLE
 70
0
  9
$SNAPISOPAIR
 70
0
  9
$GRIDMODE
 70
0
  9
$GRIDUNIT
 10
0
 20
0
  9
$ORTHOMODE
 70
0
  9
$REGENMODE
 70
1
  9
$FILLMODE
 70
1
  9
$QTEXTMODE
 70
0
  9
$DRAGMODE
 70
2
  9
$LTSCALE
 40
1
  9
$OSMODE
 70
0
  9
$ATTMODE
 70
1
  9
$TEXTSIZE
 40
3.5
  9
$TRACEWID
 40
0.5
  9
$TEXTSTYLE
  7
STANDARD
  9
$CLAYER
  8
0
  9
$CELTYPE
  6
BYLAYER
  9
$CECOLOR
 62
256
  9
$DIMSCALE
 40
1
  9
$DIMASZ
 40
0.18
  9
$DIMEXO
 40
0.0625
  9
$DIMDLI
 40
0.38
  9
$DIMRND
 40
0
  9
$DIMDLE
 40
0
  9
$DIMEXE
 40
0.18
  9
$DIMTP
 40
0
  9
$DIMTM
 40
0
  9
$DIMTXT
 40
0.18
  9
$DIMCEN
 40
0.09
  9
$DIMTSZ
 40
0
  9
$DIMTOL
 70
0
  9
$DIMLIM
 70
0
  9
$DIMTIH
 70
1
  9
$DIMTOH
 70
1
  9
$DIMSE1
 70
0
  9
$DIMSE2
 70
0
  9
$DIMTAD
 70
0
  9
$DIMZIN
 70
0
  9
$DIMBLK
  1

  9
$DIMASO
 70
1
  9
$DIMSHO
 70
1
  9
$DIMPOST
  1

  9
$DIMAPOST
  1

  9
$DIMALT
 70
0
  9
$DIMALTD
 70
2
  9
$DIMALTF
 40
25.4
  9
$DIMLFAC
 40
1
  9
$DIMTOFL
 70
0
  9
$DIMTVP
 40
0
  9
$DIMTIX
 70
0
  9
$DIMSOXD
 70
0
  9
$DIMSAH
 70
0
  9
$DIMBLK1
  1

  9
$DIMBLK2
  1

  9
$DIMSTYLE
  2
*UNNAMED
  9
$DIMCLRD
 70
0
  9
$DIMCLRE
 70
0
  9
$DIMCLRT
 70
0
  9
$DIMTFAC
 40
1
  9
$DIMGAP
 40
0.09
  9
$LUNITS
 70
2
  9
$LUPREC
 70
4
  9
$AXISMODE
 70
0
  9
$AXISUNIT
 10
0
 20
0
  9
$SKETCHINC
 40
0.1
  9
$FILLETRAD
 40
2
  9
$AUNITS
 70
0
  9
$AUPREC
 70
0
  9
$MENU
  1
ACAD
  9
$ELEVATION
 40
0
  9
$THICKNESS
 40
0
  9
$VIEWDIR
 10
0
 20
0
 30
1
  9
$LIMCHECK
 70
0
  9
$BLIPMODE
 70
1
  9
$CHAMFERA
 40
0
  9
$CHAMFERB
 40
0
  9
$FASTZOOM
 70
1
  9
$SKPOLY
 70
0
  9
$ANGBASE
 50
0
  9
$ANGDIR
 70
0
  9
$PDMODE
 70
0
  9
$PDSIZE
 40
0
  9
$PLINEWID
 40
0
  9
$COORDS
 70
2
  0
ENDSEC
  0
SECTION
  2
TABLES
  0
TABLE
  2
DIMSTYLE
 70
6
  0
DIMSTYLE
  2
DMST_1
 70
0
  3

  4

  5

  6

  7

 40
1
 41
3.2
 42
1
 43
7
 44
1
 45
0
 46
0
 47
0.03
 48
0
140
3.2
141
0
142
0
143
25.4
144
1
145
0
146
0.6
147
0.09
 71
1
 72
0
 73
0
 74
0
 75
0
 76
0
 77
1
 78
9
170
0
171
2
172
0
173
0
174
0
175
0
176
2
177
2
178
2
  0
DIMSTYLE
  2
DMST_2
 70
0
  3

  4

  5

  6

  7

 40
1
 41
3.2
 42
1
 43
7
 44
1
 45
0
 46
0
 47
0.3
 48
0.3
140
3.2
141
0
142
0
143
25.4
144
1
145
0
146
0.6
147
0.09
 71
1
 72
0
 73
0
 74
0
 75
0
 76
0
 77
1
 78
9
170
0
171
2
172
0
173
0
174
0
175
0
176
2
177
2
178
2
  0
DIMSTYLE
  2
DMST_3
 70
0
  3

  4

  5

  6

  7

 40
1
 41
3.2
 42
1
 43
7
 44
1
 45
0
 46
0
 47
0
 48
0
140
3.2
141
0
142
0
143
25.4
144
1
145
0
146
1
147
0.09
 71
0
 72
0
 73
0
 74
0
 75
0
 76
0
 77
1
 78
9
170
0
171
2
172
0
173
0
174
0
175
0
176
2
177
2
178
2
  0
DIMSTYLE
  2
DMST_4
 70
0
  3

  4

  5

  6

  7

 40
1
 41
3.2
 42
1
 43
7
 44
1
 45
0
 46
0
 47
0
 48
0.02
140
3.2
141
0
142
0
143
25.4
144
1
145
0
146
0.6
147
0.09
 71
1
 72
0
 73
0
 74
0
 75
0
 76
0
 77
1
 78
9
170
0
171
2
172
0
173
0
174
0
175
0
176
2
177
2
178
2
  0
DIMSTYLE
  2
DMST_5
 70
0
  3

  4

  5

  6

  7

 40
1
 41
3.2
 42
1
 43
7
 44
1
 45
0
 46
0
 47
0
 48
0
140
3.2
141
0
142
0
143
25.4
144
1
145
0
146
0.6
147
0.09
 71
1
 72
0
 73
0
 74
0
 75
0
 76
0
 77
1
 78
9
170
0
171
2
172
0
173
0
174
0
175
0
176
2
177
2
178
2
  0
DIMSTYLE
  2
DMST_6
 70
0
  3
)
  4

  5

  6

  7

 40
1
 41
3.2
 42
1
 43
7
 44
1
 45
0
 46
0
 47
0
 48
0
140
3.2
141
0
142
0
143
25.4
144
1
145
0
146
1
147
0.09
 71
0
 72
0
 73
0
 74
0
 75
0
 76
0
 77
1
 78
9
170
0
171
2
172
0
173
0
174
1
175
0
176
2
177
2
178
2
  0
ENDTAB
  0
TABLE
  2
LTYPE
 70
9
  0
LTYPE
  2
CONTINUOUS
 70
64
  3
Solid line
 72
65
 73
0
 40
0
  0
LTYPE
  2
BORDER
 70
64
  3
__ __ . __ __ .
 72
65
 73
6
 40
16.58432861104949
 49
4.738379603156996
 49
-2.369189801578498
 49
4.738379603156996
 49
-2.369189801578498
 49
0
 49
-2.369189801578498
  0
LTYPE
  2
CENTER
 70
64
  3
____ _ ____ _
 72
65
 73
4
 40
18.95351841262798
 49
11.84594900789249
 49
-2.369189801578498
 49
2.369189801578498
 49
-2.369189801578498
  0
LTYPE
  2
DASHDOT
 70
64
  3
__ . __ . __ .
 72
65
 73
4
 40
9.476759206313991
 49
4.738379603156996
 49
-2.369189801578498
 49
0
 49
-2.369189801578498
  0
LTYPE
  2
DASHED
 70
64
  3
__ __ __ __ __
 72
65
 73
2
 40
7.107569404735493
 49
4.738379603156996
 49
-2.369189801578498
  0
LTYPE
  2
DIVIDE
 70
64
  3
__ . . __ . . 
 72
65
 73
6
 40
11.84594900789249
 49
4.738379603156996
 49
-2.369189801578498
 49
0
 49
-2.369189801578498
 49
0
 49
-2.369189801578498
  0
LTYPE
  2
DOT
 70
64
  3
..............
 72
65
 73
4
 40
4.738379603156996
 49
0
 49
-2.369189801578498
 49
0
 49
-2.369189801578498
  0
LTYPE
  2
HIDDEN
 70
64
  3
_ _ _ _ _ _ _
 72
65
 73
2
 40
3.553784702367746
 49
2.369189801578498
 49
-1.184594900789249
  0
LTYPE
  2
PHANTOM
 70
64
  3
_____ _ _ _____ _ _ 
 72
65
 73
6
 40
23.69189801578498
 49
11.84594900789249
 49
-2.369189801578498
 49
2.369189801578498
 49
-2.369189801578498
 49
2.369189801578498
 49
-2.369189801578498
  0
ENDTAB
  0
TABLE
  2
LAYER
 70
3
  0
LAYER
  2
1
 70
0
 62
7
  6
CONTINUOUS
  0
LAYER
  2
0
 70
0
 62
7
  6
CONTINUOUS
  0
ENDTAB
  0
TABLE
  2
STYLE
 70
4
  0
STYLE
  2
STANDARD
 70
0
 40
0
 41
1
 50
0
 71
0
 42
3.5
  3
txt
  4

  0
STYLE
  2
SIMPLEX
 70
0
 40
0
 41
1
 50
0
 71
0
 42
3.5
  3
simplex
  4

  0
STYLE
  2
COMPLEX
 70
0
 40
0
 41
1
 50
0
 71
0
 42
3.5
  3
complex
  4

  0
STYLE
  2
ITALIC
 70
0
 40
0
 41
1
 50
0
 71
0
 42
3.5
  3
italic
  4

  0
ENDTAB
  0
TABLE
  2
VIEW
 70
0
  0
ENDTAB
  0
ENDSEC
  0
SECTION
  2
BLOCKS
  0
BLOCK
  8
0
  2
MOJINOMUKI
 70
0
 10
201.2753818555985
 20
64.90079792480361
 30
0
  0
LINE
  8
1
 62
2
 10
201.2753818555985
 20
66.40079792480361
 30
0
 11
201.2753818555985
 21
68.90079792480361
 31
0
  0
LINE
  8
1
 62
2
 10
198.7753818555985
 20
67.90079792480361
 30
0
 11
201.2753818555985
 21
66.40079792480361
 31
0
  0
LINE
  8
1
 62
2
 10
203.7753818555985
 20
67.90079792480361
 30
0
 11
198.7753818555985
 21
67.90079792480361
 31
0
  0
LINE
  8
1
 62
2
 10
198.2753818555985
 20
70.90079792480361
 30
0
 11
204.2753818555985
 21
70.90079792480361
 31
0
  0
LINE
  8
1
 62
2
 10
204.2753818555985
 20
64.90079792480361
 30
0
 11
198.2753818555985
 21
64.90079792480361
 31
0
  0
LINE
  8
1
 62
2
 10
204.2753818555985
 20
90.90079792480361
 30
0
 11
204.2753818555985
 21
64.90079792480361
 31
0
  0
LINE
  8
1
 62
2
 10
198.2753818555985
 20
90.90079792480361
 30
0
 11
204.2753818555985
 21
90.90079792480361
 31
0
  0
LINE
  8
1
 62
2
 10
198.2753818555985
 20
64.90079792480361
 30
0
 11
198.2753818555985
 21
90.90079792480361
 31
0
  0
TEXT
  8
1
 62
2
 10
203.2753818555985
 20
62.9475434869338
 30
0
 40
4
  1
òÂÄÜé╠î³é½
 50
90
 41
0.9
 72
1
 73
2
 11
201.2753818555985
 21
80.9475434869338
 31
0
  0
ENDBLK
  8
0
  0
BLOCK
  8
0
  2
____M3_________1
 70
0
 10
-22.3654813564132
 20
19.54270948499334
 30
0
  0
LINE
  8
1
 62
3
 10
-21.11248914886268
 20
18.81297629552085
 30
0
 11
-21.72352852001529
 21
19.42401566667348
 31
0
  0
LINE
  8
1
 62
3
 10
-21.11248914886267
 20
20.27244267446582
 30
0
 11
-21.72352852001529
 21
19.66140330331325
 31
0
  0
LINE
  8
1
 62
3
 10
-23.09521454588567
 20
18.28971727744283
 30
0
 11
-22.48417517473305
 21
18.90075664859546
 31
0
  0
LINE
  8
1
 62
3
 10
-22.24065258827343
 20
18.89462169877555
 30
0
 11
-21.63574816694072
 21
18.28971727744283
 31
0
  0
LINE
  8
1
 62
3
 10
-22.24678753809334
 20
18.90075664859546
 30
0
 11
-22.24065258827343
 21
18.89462169877555
 31
0
  0
LINE
  8
1
 62
3
 10
-23.61847356396372
 20
20.27244267446582
 30
0
 11
-23.00743419281111
 21
19.66140330331325
 31
0
  0
LINE
  8
1
 62
3
 10
-23.61847356396372
 20
18.81297629552085
 30
0
 11
-23.0074341928111
 21
19.42401566667348
 31
0
  0
LINE
  8
1
 62
3
 10
-21.63574816694071
 20
20.7957016925439
 30
0
 11
-22.24678753809334
 21
20.18466232139127
 31
0
  0
LINE
  8
1
 62
3
 10
-23.09521454588567
 20
20.7957016925439
 30
0
 11
-22.48417517473306
 21
20.18466232139127
 31
0
  0
ARC
  8
1
 62
3
 10
-22.3654813564132
 20
19.54270948499334
 30
0
 40
0.6349999999999884
 50
352.5415509436975
 51
7.458449056307252
  0
ARC
  8
1
 62
3
 10
-22.3654813564132
 20
19.54270948499334
 30
0
 40
1.449999999999992
 50
300.2161982852512
 51
329.7838017147487
  0
ARC
  8
1
 62
3
 10
-22.3654813564132
 20
19.54270948499334
 30
0
 40
0.6350000000000036
 50
262.5415509436945
 51
277.4584490563069
  0
ARC
  8
1
 62
3
 10
-22.3654813564132
 20
19.54270948499334
 30
0
 40
1.450000000000008
 50
210.2161982852512
 51
239.783801714749
  0
ARC
  8
1
 62
3
 10
-22.3654813564132
 20
19.54270948499334
 30
0
 40
0.6349999999999988
 50
172.5415509436928
 51
187.4584490563023
  0
ARC
  8
1
 62
3
 10
-22.3654813564132
 20
19.54270948499334
 30
0
 40
1.450000000000034
 50
120.2161982852499
 51
149.783801714749
  0
ARC
  8
1
 62
3
 10
-22.3654813564132
 20
19.54270948499334
 30
0
 40
0.6350000000000066
 50
82.54155094369483
 51
97.45844905630548
  0
ARC
  8
1
 62
3
 10
-22.3654813564132
 20
19.54270948499334
 30
0
 40
1.450000000000009
 50
30.216198285251
 51
59.78380171474959
  0
CIRCLE
  8
1
 62
3
 10
-22.3654813564132
 20
19.54270948499334
 30
0
 40
2.549999999999997
  0
ARC
  8
1
 62
3
 10
-21.69288722616387
 20
19.45465696052491
 30
0
 40
0.04333333333334805
 50
172.5415509436703
 51
225.00000000001
  0
ARC
  8
1
 62
3
 10
-21.69288722616387
 20
19.63076200946182
 30
0
 40
0.04333333333334598
 50
134.99999999999
 51
187.4584490563297
  0
ARC
  8
1
 62
3
 10
-22.45353388088164
 20
18.87011535474403
 30
0
 40
0.04333333333331359
 50
82.54155094369274
 51
134.9999999999801
  0
ARC
  8
1
 62
3
 10
-22.27742883194475
 20
18.87011535474403
 30
0
 40
0.04333333333333844
 50
45.00000000001993
 51
97.4584490562969
  0
ARC
  8
1
 62
3
 10
-23.03807548666252
 20
19.63076200946182
 30
0
 40
0.04333333333333748
 50
352.5415509436685
 51
45.00000000001993
  0
ARC
  8
1
 62
3
 10
-23.03807548666252
 20
19.45465696052491
 30
0
 40
0.04333333333334598
 50
314.9999999999901
 51
7.458449056333375
  0
ARC
  8
1
 62
3
 10
-22.27742883194476
 20
20.21530361524265
 30
0
 40
0.04333333333331359
 50
262.5415509436928
 51
315.0000000000366
  0
ARC
  8
1
 62
3
 10
-22.45353388088164
 20
20.2153036152427
 30
0
 40
0.04333333333334598
 50
225.00000000001
 51
277.4584490562987
  0
ENDBLK
  8
0
  0
BLOCK
  8
0
  2
____M3_________2
 70
0
 10
26.13451864358677
 20
19.54270948499334
 30
0
  0
LINE
  8
1
 62
3
 10
27.38751085113729
 20
18.81297629552085
 30
0
 11
26.77647147998468
 21
19.42401566667348
 31
0
  0
LINE
  8
1
 62
3
 10
27.38751085113729
 20
20.27244267446582
 30
0
 11
26.77647147998468
 21
19.66140330331325
 31
0
  0
LINE
  8
1
 62
3
 10
25.4047854541143
 20
18.28971727744283
 30
0
 11
26.01582482526692
 21
18.90075664859546
 31
0
  0
LINE
  8
1
 62
3
 10
26.25934741172654
 20
18.89462169877555
 30
0
 11
26.86425183305925
 21
18.28971727744283
 31
0
  0
LINE
  8
1
 62
3
 10
26.25321246190663
 20
18.90075664859546
 30
0
 11
26.25934741172654
 21
18.89462169877555
 31
0
  0
LINE
  8
1
 62
3
 10
24.88152643603625
 20
20.27244267446582
 30
0
 11
25.49256580718885
 21
19.66140330331325
 31
0
  0
LINE
  8
1
 62
3
 10
24.88152643603625
 20
18.81297629552085
 30
0
 11
25.49256580718887
 21
19.42401566667348
 31
0
  0
LINE
  8
1
 62
3
 10
26.86425183305926
 20
20.7957016925439
 30
0
 11
26.25321246190663
 21
20.18466232139127
 31
0
  0
LINE
  8
1
 62
3
 10
25.4047854541143
 20
20.7957016925439
 30
0
 11
26.0158248252669
 21
20.18466232139127
 31
0
  0
ARC
  8
1
 62
3
 10
26.13451864358677
 20
19.54270948499334
 30
0
 40
0.6349999999999884
 50
352.5415509436975
 51
7.458449056307252
  0
ARC
  8
1
 62
3
 10
26.13451864358677
 20
19.54270948499334
 30
0
 40
1.449999999999992
 50
300.2161982852512
 51
329.7838017147487
  0
ARC
  8
1
 62
3
 10
26.13451864358677
 20
19.54270948499334
 30
0
 40
0.635000000000003
 50
262.5415509436948
 51
277.4584490563069
  0
ARC
  8
1
 62
3
 10
26.13451864358677
 20
19.54270948499334
 30
0
 40
1.450000000000005
 50
210.2161982852513
 51
239.7838017147492
  0
ARC
  8
1
 62
3
 10
26.13451864358677
 20
19.54270948499334
 30
0
 40
0.6350000000000058
 50
172.5415509436929
 51
187.4584490563024
  0
ARC
  8
1
 62
3
 10
26.13451864358677
 20
19.54270948499334
 30
0
 40
1.450000000000033
 50
120.2161982852498
 51
149.7838017147488
  0
ARC
  8
1
 62
3
 10
26.13451864358677
 20
19.54270948499334
 30
0
 40
0.635000000000008
 50
82.54155094369386
 51
97.45844905630518
  0
ARC
  8
1
 62
3
 10
26.13451864358677
 20
19.54270948499334
 30
0
 40
1.450000000000003
 50
30.21619828525113
 51
59.78380171474948
  0
CIRCLE
  8
1
 62
3
 10
26.13451864358677
 20
19.54270948499334
 30
0
 40
2.54999999999999
  0
ARC
  8
1
 62
3
 10
26.80711277383611
 20
19.45465696052491
 30
0
 40
0.04333333333335862
 50
172.5415509436721
 51
225
  0
ARC
  8
1
 62
3
 10
26.80711277383611
 20
19.63076200946182
 30
0
 40
0.04333333333335351
 50
135
 51
187.4584490563279
  0
ARC
  8
1
 62
3
 10
26.04646611911833
 20
18.87011535474403
 30
0
 40
0.04333333333331359
 50
82.54155094369274
 51
134.9999999999801
  0
ARC
  8
1
 62
3
 10
26.22257116805522
 20
18.87011535474403
 30
0
 40
0.04333333333333844
 50
45.00000000001993
 51
97.45844905630155
  0
ARC
  8
1
 62
3
 10
25.46192451333744
 20
19.63076200946182
 30
0
 40
0.04333333333333748
 50
352.5415509436685
 51
45.00000000001993
  0
ARC
  8
1
 62
3
 10
25.46192451333744
 20
19.45465696052491
 30
0
 40
0.04333333333335351
 50
315
 51
7.458449056331545
  0
ARC
  8
1
 62
3
 10
26.2225711680552
 20
20.21530361524265
 30
0
 40
0.04333333333331128
 50
262.5415509437161
 51
315.0000000000465
  0
ARC
  8
1
 62
3
 10
26.04646611911833
 20
20.2153036152427
 30
0
 40
0.04333333333335351
 50
225
 51
277.4584490562987
  0
ENDBLK
  8
0
  0
BLOCK
  8
0
  2
____M3_________3
 70
0
 10
1.884518643586777
 20
-22.45729051500666
 30
0
  0
LINE
  8
1
 62
3
 10
1.154785454114307
 20
-21.20429830745616
 30
0
 11
1.765824825266918
 21
-21.81533767860873
 31
0
  0
LINE
  8
1
 62
3
 10
2.614251833059267
 20
-21.2042983074561
 30
0
 11
2.003212461906628
 21
-21.81533767860873
 31
0
  0
LINE
  8
1
 62
3
 10
0.6315264360362569
 20
-23.18702370447915
 30
0
 11
1.242565807188868
 21
-22.57598433332652
 31
0
  0
LINE
  8
1
 62
3
 10
0.6315264360362569
 20
-21.72755732553418
 30
0
 11
1.242565807188868
 21
-22.33859669668681
 31
0
  0
LINE
  8
1
 62
3
 10
2.003212461906628
 20
-23.09924335140454
 30
0
 11
2.009347411726555
 21
-23.10537830122445
 31
0
  0
LINE
  8
1
 62
3
 10
2.009347411726555
 20
-23.10537830122445
 30
0
 11
2.614251833059257
 21
-23.71028272255717
 31
0
  0
LINE
  8
1
 62
3
 10
1.154785454114307
 20
-23.71028272255717
 30
0
 11
1.765824825266918
 21
-23.09924335140454
 31
0
  0
LINE
  8
1
 62
3
 10
3.137510851137307
 20
-21.72755732553418
 30
0
 11
2.526471479984675
 21
-22.33859669668681
 31
0
  0
LINE
  8
1
 62
3
 10
3.137510851137296
 20
-23.18702370447915
 30
0
 11
2.526471479984675
 21
-22.57598433332652
 31
0
  0
ARC
  8
1
 62
3
 10
1.884518643586777
 20
-22.45729051500666
 30
0
 40
1.450000000000012
 50
30.21619828525093
 51
59.78380171474949
  0
ARC
  8
1
 62
3
 10
1.884518643586777
 20
-22.45729051500666
 30
0
 40
0.6350000000000066
 50
82.54155094369483
 51
97.45844905630514
  0
ARC
  8
1
 62
3
 10
1.884518643586777
 20
-22.45729051500666
 30
0
 40
1.449999999999981
 50
120.216198285251
 51
149.7838017147488
  0
ARC
  8
1
 62
3
 10
1.884518643586777
 20
-22.45729051500666
 30
0
 40
0.6349999999999953
 50
172.5415509436927
 51
187.4584490563024
  0
ARC
  8
1
 62
3
 10
1.884518643586777
 20
-22.45729051500666
 30
0
 40
1.450000000000005
 50
210.2161982852513
 51
239.7838017147491
  0
ARC
  8
1
 62
3
 10
1.884518643586777
 20
-22.45729051500666
 30
0
 40
0.635000000000003
 50
262.5415509436948
 51
277.4584490563053
  0
ARC
  8
1
 62
3
 10
1.884518643586777
 20
-22.45729051500666
 30
0
 40
1.449999999999992
 50
300.2161982852512
 51
329.7838017147487
  0
ARC
  8
1
 62
3
 10
1.884518643586777
 20
-22.45729051500666
 30
0
 40
0.6349999999999775
 50
352.5415509436974
 51
7.458449056307379
  0
CIRCLE
  8
1
 62
3
 10
1.884518643586777
 20
-22.45729051500666
 30
0
 40
2.54999999999999
  0
ARC
  8
1
 62
3
 10
1.796466119118335
 20
-21.7846963847573
 30
0
 40
0.04333333333334347
 50
225.0000000000133
 51
277.4584490563043
  0
ARC
  8
1
 62
3
 10
1.972571168055207
 20
-21.78469638475735
 30
0
 40
0.04333333333331257
 50
262.5415509437029
 51
315.0000000000369
  0
ARC
  8
1
 62
3
 10
1.211924513337447
 20
-22.54534303947509
 30
0
 40
0.04333333333334629
 50
314.9999999999905
 51
7.458449056331545
  0
ARC
  8
1
 62
3
 10
1.211924513337447
 20
-22.36923799053818
 30
0
 40
0.04333333333334827
 50
352.5415509436704
 51
44.99999999995308
  0
ARC
  8
1
 62
3
 10
1.972571168055225
 20
-23.12988464525597
 30
0
 40
0.04333333333333357
 50
45.00000000002636
 51
97.45844905632065
  0
ARC
  8
1
 62
3
 10
1.796466119118335
 20
-23.12988464525597
 30
0
 40
0.04333333333331413
 50
82.54155094368723
 51
134.9999999999867
  0
ARC
  8
1
 62
3
 10
2.557112773836106
 20
-22.36923799053818
 30
0
 40
0.04333333333331049
 50
135.000000000056
 51
187.458449056328
  0
ARC
  8
1
 62
3
 10
2.557112773836106
 20
-22.54534303947509
 30
0
 40
0.04333333333335818
 50
172.541550943672
 51
225.0000000000004
  0
ENDBLK
  8
0
  0
BLOCK
  8
1
  2
*D0
 70
1
 10
0
 20
0
 30
0
  0
LINE
  8
1
 62
2
 10
-6.515481356413231
 20
50.54270948499337
 30
0
 11
-0.1154813564132304
 21
50.54270948499337
 31
0
  0
LINE
  8
1
 62
2
 10
-0.1154813564132304
 20
50.54270948499337
 30
0
 11
3.884518643586768
 21
50.54270948499337
 31
0
  0
LINE
  8
1
 62
2
 10
3.884518643586768
 20
50.54270948499337
 30
0
 11
16.19055547724307
 21
50.54270948499337
 31
0
  0
LINE
  8
1
 62
2
 10
-0.1154813564132304
 20
26.12528517994921
 30
0
 11
-0.1154813564132304
 21
51.54270948499337
 31
0
  0
LINE
  8
1
 62
2
 10
3.884518643586768
 20
26.12528517994921
 30
0
 11
3.884518643586768
 21
51.54270948499337
 31
0
  0
SOLID
  8
1
 62
2
 10
-0.1154813564132304
 20
50.54270948499337
 30
0
 11
-3.315481356413231
 21
50.12670948499338
 31
0
 12
-3.315481356413231
 22
50.95870948499337
 32
0
 13
-3.315481356413231
 23
50.95870948499337
 33
0
  0
SOLID
  8
1
 62
2
 10
3.884518643586768
 20
50.54270948499337
 30
0
 11
7.084518643586769
 21
50.95870948499337
 31
0
 12
7.084518643586769
 22
50.12670948499338
 32
0
 13
7.084518643586769
 23
50.12670948499338
 33
0
  0
TEXT
  8
1
 62
2
 10
5.90255547724307
 20
53.34270948499337
 30
0
 40
3.2
  1
4
 41
0.9
  0
TEXT
  8
1
 62
2
 10
9.422555477243069
 20
55.42270948499337
 30
0
 40
1.92
  1
+0.03
 41
0.9
  0
TEXT
  8
1
 62
2
 10
9.422555477243069
 20
52.54270948499337
 30
0
 40
1.92
  1
 0
 41
0.9
  0
ENDBLK
  8
0
  0
BLOCK
  8
1
  2
*D1
 70
1
 10
0
 20
0
 30
0
  0
LINE
  8
1
 62
2
 10
-27.11548135641322
 20
60.54270948499337
 30
0
 11
30.88451864358678
 21
60.54270948499337
 31
0
  0
LINE
  8
1
 62
2
 10
-27.11548135641322
 20
44.54270948499336
 30
0
 11
-27.11548135641322
 21
61.54270948499337
 31
0
  0
LINE
  8
1
 62
2
 10
30.88451864358678
 20
44.54270948499337
 30
0
 11
30.88451864358678
 21
61.54270948499337
 31
0
  0
SOLID
  8
1
 62
2
 10
-27.11548135641322
 20
60.54270948499337
 30
0
 11
-23.91548135641322
 21
60.95870948499336
 31
0
 12
-23.91548135641322
 22
60.12670948499337
 32
0
 13
-23.91548135641322
 23
60.12670948499337
 33
0
  0
SOLID
  8
1
 62
2
 10
30.88451864358678
 20
60.54270948499337
 30
0
 11
27.68451864358678
 21
60.12670948499337
 31
0
 12
27.68451864358678
 22
60.95870948499336
 32
0
 13
27.68451864358678
 23
60.95870948499336
 33
0
  0
TEXT
  8
1
 62
2
 10
-3.924306393435424
 20
62.54270948499336
 30
0
 40
3.2
  1
58
 41
0.9
  0
TEXT
  8
1
 62
2
 10
2.475693606564576
 20
63.18270948499336
 30
0
 40
1.92
  1
%%p0.3
 41
0.9
  0
ENDBLK
  8
0
  0
BLOCK
  8
1
  2
*D2
 70
1
 10
0
 20
0
 30
0
  0
LINE
  8
1
 62
2
 10
-33.11548135641322
 20
70.54270948499337
 30
0
 11
36.88451864358677
 21
70.54270948499337
 31
0
  0
LINE
  8
1
 62
2
 10
-33.11548135641322
 20
35.54270948499337
 30
0
 11
-33.11548135641322
 21
71.54270948499337
 31
0
  0
LINE
  8
1
 62
2
 10
36.88451864358677
 20
35.54270948499337
 30
0
 11
36.88451864358677
 21
71.54270948499337
 31
0
  0
SOLID
  8
1
 62
2
 10
-33.11548135641322
 20
70.54270948499337
 30
0
 11
-29.91548135641322
 21
70.95870948499336
 31
0
 12
-29.91548135641322
 22
70.12670948499337
 32
0
 13
-29.91548135641322
 23
70.12670948499337
 33
0
  0
SOLID
  8
1
 62
2
 10
36.88451864358677
 20
70.54270948499337
 30
0
 11
33.68451864358676
 21
70.12670948499337
 31
0
 12
33.68451864358676
 22
70.95870948499336
 32
0
 13
33.68451864358676
 23
70.95870948499336
 33
0
  0
TEXT
  8
1
 62
2
 10
-0.6359405436235239
 20
72.54270948499337
 30
0
 40
3.2
  1
70
 41
0.9
  0
ENDBLK
  8
0
  0
BLOCK
  8
1
  2
*D3
 70
1
 10
0
 20
0
 30
0
  0
LINE
  8
1
 62
2
 10
56.88451864358677
 20
-23.45729051500665
 30
0
 11
56.88451864358677
 21
34.54270948499335
 31
0
  0
LINE
  8
1
 62
2
 10
40.88451864358677
 20
-23.45729051500665
 30
0
 11
57.88451864358677
 21
-23.45729051500665
 31
0
  0
LINE
  8
1
 62
2
 10
40.88451864358677
 20
34.54270948499335
 30
0
 11
57.88451864358677
 21
34.54270948499335
 31
0
  0
SOLID
  8
1
 62
2
 10
56.88451864358677
 20
34.54270948499335
 30
0
 11
57.30051864358677
 21
31.34270948499335
 31
0
 12
56.46851864358678
 22
31.34270948499335
 32
0
 13
56.46851864358678
 23
31.34270948499335
 33
0
  0
SOLID
  8
1
 62
2
 10
56.88451864358677
 20
-23.45729051500665
 30
0
 11
56.46851864358677
 21
-20.25729051500665
 31
0
 12
57.30051864358677
 22
-20.25729051500665
 32
0
 13
57.30051864358677
 23
-20.25729051500665
 33
0
  0
TEXT
  8
1
 62
2
 10
54.88451864358678
 20
-1.110107533507078
 30
0
 40
3.2
  1
58
 50
90
 41
0.9
  0
TEXT
  8
1
 62
2
 10
54.24451864358678
 20
5.289892466492923
 30
0
 40
1.92
  1
%%p0.3
 50
90
 41
0.9
  0
ENDBLK
  8
0
  0
BLOCK
  8
1
  2
*D4
 70
1
 10
0
 20
0
 30
0
  0
LINE
  8
1
 62
2
 10
66.88451864358677
 20
-29.45729051500666
 30
0
 11
66.88451864358677
 21
40.54270948499334
 31
0
  0
LINE
  8
1
 62
2
 10
31.88451864358677
 20
-29.45729051500666
 30
0
 11
67.88451864358677
 21
-29.45729051500666
 31
0
  0
LINE
  8
1
 62
2
 10
31.88451864358678
 20
40.54270948499334
 30
0
 11
67.88451864358677
 21
40.54270948499334
 31
0
  0
SOLID
  8
1
 62
2
 10
66.88451864358677
 20
40.54270948499334
 30
0
 11
67.30051864358677
 21
37.34270948499334
 31
0
 12
66.46851864358678
 22
37.34270948499334
 32
0
 13
66.46851864358678
 23
37.34270948499334
 33
0
  0
SOLID
  8
1
 62
2
 10
66.88451864358677
 20
-29.45729051500666
 30
0
 11
66.46851864358678
 21
-26.25729051500666
 31
0
 12
67.30051864358677
 22
-26.25729051500666
 32
0
 13
67.30051864358677
 23
-26.25729051500666
 33
0
  0
TEXT
  8
1
 62
2
 10
64.88451864358677
 20
2.178258316304812
 30
0
 40
3.2
  1
70
 50
90
 41
0.9
  0
ENDBLK
  8
0
  0
BLOCK
  8
1
  2
*D5
 70
1
 10
0
 20
0
 30
0
  0
LINE
  8
1
 62
2
 10
-41.18480272972273
 20
5.542709484993322
 30
0
 11
-41.18480272972273
 21
20.54270948499332
 31
0
  0
LINE
  8
1
 62
2
 10
-39.11548135641323
 20
5.542709484993322
 30
0
 11
-42.18480272972273
 21
5.542709484993322
 31
0
  0
LINE
  8
1
 62
2
 10
-17.11548135641323
 20
20.54270948499332
 30
0
 11
-42.18480272972273
 21
20.54270948499332
 31
0
  0
SOLID
  8
1
 62
2
 10
-41.18480272972273
 20
20.54270948499332
 30
0
 11
-40.76880272972273
 21
17.34270948499332
 31
0
 12
-41.60080272972273
 22
17.34270948499332
 32
0
 13
-41.60080272972273
 23
17.34270948499332
 33
0
  0
SOLID
  8
1
 62
2
 10
-41.18480272972273
 20
5.542709484993322
 30
0
 11
-41.60080272972273
 21
8.742709484993323
 31
0
 12
-40.76880272972273
 22
8.742709484993323
 32
0
 13
-40.76880272972273
 23
8.742709484993323
 33
0
  0
TEXT
  8
1
 62
2
 10
-43.18480272972273
 20
10.83239660333659
 30
0
 40
3.2
  1
15
 50
90
 41
0.9
  0
ENDBLK
  8
0
  0
BLOCK
  8
1
  2
*D6
 70
1
 10
0
 20
0
 30
0
  0
LINE
  8
1
 62
2
 10
105.0858272076716
 20
16.64270948499336
 30
0
 11
105.0858272076716
 21
23.04270948499336
 31
0
  0
LINE
  8
1
 62
2
 10
105.0858272076716
 20
23.04270948499336
 30
0
 11
105.0858272076716
 21
25.54270948499336
 31
0
  0
LINE
  8
1
 62
2
 10
105.0858272076716
 20
25.54270948499336
 30
0
 11
105.0858272076716
 21
34.40079344651974
 31
0
  0
LINE
  8
1
 62
2
 10
114.0858272076716
 20
23.04270948499336
 30
0
 11
104.0858272076716
 21
23.04270948499336
 31
0
  0
LINE
  8
1
 62
2
 10
114.0858272076716
 20
25.54270948499336
 30
0
 11
104.0858272076716
 21
25.54270948499336
 31
0
  0
SOLID
  8
1
 62
2
 10
105.0858272076716
 20
25.54270948499336
 30
0
 11
104.6698272076716
 21
28.74270948499336
 31
0
 12
105.5018272076716
 22
28.74270948499336
 32
0
 13
105.5018272076716
 23
28.74270948499336
 33
0
  0
SOLID
  8
1
 62
2
 10
105.0858272076716
 20
23.04270948499336
 30
0
 11
105.5018272076716
 21
19.84270948499336
 31
0
 12
104.6698272076716
 22
19.84270948499336
 32
0
 13
104.6698272076716
 23
19.84270948499336
 33
0
  0
TEXT
  8
1
 62
2
 10
103.0858272076716
 20
28.56079344651973
 30
0
 40
3.2
  1
2.5
 50
90
 41
0.9
  0
ENDBLK
  8
0
  0
BLOCK
  8
1
  2
*D7
 70
1
 10
0
 20
0
 30
0
  0
LINE
  8
1
 62
2
 10
95.08582720767158
 20
15.54270948499335
 30
0
 11
95.08582720767158
 21
25.54270948499335
 31
0
  0
LINE
  8
1
 62
2
 10
114.0858272076716
 20
15.54270948499335
 30
0
 11
94.08582720767158
 21
15.54270948499335
 31
0
  0
LINE
  8
1
 62
2
 10
114.0858272076716
 20
25.54270948499335
 30
0
 11
94.08582720767158
 21
25.54270948499335
 31
0
  0
SOLID
  8
1
 62
2
 10
95.08582720767158
 20
25.54270948499335
 30
0
 11
95.50182720767158
 21
22.34270948499335
 31
0
 12
94.66982720767159
 22
22.34270948499335
 32
0
 13
94.66982720767159
 23
22.34270948499335
 33
0
  0
SOLID
  8
1
 62
2
 10
95.08582720767158
 20
15.54270948499335
 30
0
 11
94.66982720767159
 21
18.74270948499335
 31
0
 12
95.50182720767158
 22
18.74270948499335
 32
0
 13
95.50182720767158
 23
18.74270948499335
 33
0
  0
TEXT
  8
1
 62
2
 10
92.28582720767157
 20
16.73061441608094
 30
0
 40
3.2
  1
10
 50
90
 41
0.9
  0
TEXT
  8
1
 62
2
 10
90.20582720767158
 20
22.17061441608094
 30
0
 40
1.92
  1
 0
 50
90
 41
0.9
  0
TEXT
  8
1
 62
2
 10
93.08582720767158
 20
22.17061441608094
 30
0
 40
1.92
  1
-0.02
 50
90
 41
0.9
  0
TEXT
  8
1
 62
2
 10
92.28582720767157
 20
13.0861699716365
 30
0
 40
3.2
  1
âË
 50
90
 41
0.9
  0
ENDBLK
  8
0
  0
BLOCK
  8
1
  2
*D8
 70
1
 10
0
 20
0
 30
0
  0
LINE
  8
1
 62
2
 10
86.01249387433825
 20
5.54270948499334
 30
0
 11
86.01249387433825
 21
35.54270948499334
 31
0
  0
LINE
  8
1
 62
2
 10
144.5858272076716
 20
35.54270948499334
 30
0
 11
85.01249387433825
 21
35.54270948499334
 31
0
  0
LINE
  8
1
 62
2
 10
144.5858272076716
 20
5.54270948499334
 30
0
 11
85.01249387433825
 21
5.54270948499334
 31
0
  0
SOLID
  8
1
 62
2
 10
86.01249387433825
 20
35.54270948499334
 30
0
 11
86.42849387433824
 21
32.34270948499334
 31
0
 12
85.59649387433825
 22
32.34270948499334
 32
0
 13
85.59649387433825
 23
32.34270948499334
 33
0
  0
SOLID
  8
1
 62
2
 10
86.01249387433825
 20
5.54270948499334
 30
0
 11
85.59649387433825
 21
8.742709484993341
 31
0
 12
86.42849387433824
 22
8.742709484993341
 32
0
 13
86.42849387433824
 23
8.742709484993341
 33
0
  0
TEXT
  8
1
 62
2
 10
83.15916054100491
 20
19.91890782119463
 30
0
 40
3.2
  1
30
 50
90
 41
0.9
  0
TEXT
  8
1
 62
2
 10
83.15916054100491
 20
15.87184899766522
 30
0
 40
3.2
  1
âË
 50
90
 41
0.9
  0
ENDBLK
  8
0
  0
BLOCK
  8
1
  2
*D9
 70
1
 10
0
 20
0
 30
0
  0
LINE
  8
1
 62
2
 10
115.0858272076716
 20
41.94919469918082
 30
0
 11
140.0858272076716
 21
41.94919469918082
 31
0
  0
LINE
  8
1
 62
2
 10
115.0858272076716
 20
26.54270948499335
 30
0
 11
115.0858272076716
 21
42.94919469918082
 31
0
  0
LINE
  8
1
 62
2
 10
140.0858272076716
 20
24.04270948499335
 30
0
 11
140.0858272076716
 21
42.94919469918082
 31
0
  0
SOLID
  8
1
 62
2
 10
115.0858272076716
 20
41.94919469918082
 30
0
 11
118.2858272076716
 21
42.36519469918082
 31
0
 12
118.2858272076716
 22
41.53319469918083
 32
0
 13
118.2858272076716
 23
41.53319469918083
 33
0
  0
SOLID
  8
1
 62
2
 10
140.0858272076716
 20
41.94919469918082
 30
0
 11
136.8858272076716
 21
41.53319469918083
 31
0
 12
136.8858272076716
 22
42.36519469918082
 32
0
 13
136.8858272076716
 23
42.36519469918082
 33
0
  0
TEXT
  8
1
 62
2
 10
125.157067837041
 20
43.94919469918082
 30
0
 40
3.2
  1
25
 41
0.9
  0
ENDBLK
  8
0
  0
BLOCK
  8
1
  2
*D10
 70
1
 10
0
 20
0
 30
0
  0
LINE
  8
1
 62
2
 10
150.0858272076716
 20
60.54270948499336
 30
0
 11
156.4858272076716
 21
60.54270948499336
 31
0
  0
LINE
  8
1
 62
2
 10
145.0858272076716
 20
60.54270948499336
 30
0
 11
138.6858272076716
 21
60.54270948499336
 31
0
  0
LINE
  8
1
 62
2
 10
145.0858272076716
 20
60.54270948499336
 30
0
 11
150.0858272076716
 21
60.54270948499336
 31
0
  0
LINE
  8
1
 62
2
 10
150.0858272076716
 20
41.04270948499334
 30
0
 11
150.0858272076716
 21
61.54270948499336
 31
0
  0
LINE
  8
1
 62
2
 10
145.0858272076716
 20
36.04270948499334
 30
0
 11
145.0858272076716
 21
61.54270948499336
 31
0
  0
SOLID
  8
1
 62
2
 10
145.0858272076716
 20
60.54270948499336
 30
0
 11
141.8858272076716
 21
60.12670948499336
 31
0
 12
141.8858272076716
 22
60.95870948499336
 32
0
 13
141.8858272076716
 23
60.95870948499336
 33
0
  0
SOLID
  8
1
 62
2
 10
150.0858272076716
 20
60.54270948499336
 30
0
 11
153.2858272076716
 21
60.95870948499336
 31
0
 12
153.2858272076716
 22
60.12670948499336
 32
0
 13
153.2858272076716
 23
60.12670948499336
 33
0
  0
TEXT
  8
1
 62
2
 10
146.5933466649646
 20
62.54270948499336
 30
0
 40
3.2
  1
5
 41
0.9
  0
ENDBLK
  8
0
  0
BLOCK
  8
1
  2
*D11
 70
1
 10
0
 20
0
 30
0
  0
LINE
  8
1
 62
2
 10
150.0858272076715
 20
70.54270948499337
 30
0
 11
190.0858272076715
 21
70.54270948499337
 31
0
  0
LINE
  8
1
 62
2
 10
150.0858272076715
 20
41.04270948499337
 30
0
 11
150.0858272076715
 21
71.54270948499337
 31
0
  0
LINE
  8
1
 62
2
 10
190.0858272076715
 20
40.54270948499337
 30
0
 11
190.0858272076715
 21
71.54270948499337
 31
0
  0
SOLID
  8
1
 62
2
 10
150.0858272076715
 20
70.54270948499337
 30
0
 11
153.2858272076715
 21
70.95870948499336
 31
0
 12
153.2858272076715
 22
70.12670948499337
 32
0
 13
153.2858272076715
 23
70.12670948499337
 33
0
  0
SOLID
  8
1
 62
2
 10
190.0858272076715
 20
70.54270948499337
 30
0
 11
186.8858272076716
 21
70.12670948499337
 31
0
 12
186.8858272076716
 22
70.95870948499336
 32
0
 13
186.8858272076716
 23
70.95870948499336
 33
0
  0
TEXT
  8
1
 62
2
 10
166.1657366925895
 20
72.54270948499337
 30
0
 40
3.2
  1
40
 41
0.9
  0
ENDBLK
  8
0
  0
BLOCK
  8
1
  2
*D12
 70
1
 10
0
 20
0
 30
0
  0
LINE
  8
1
 62
2
 10
115.0858272076716
 20
70.54270948499337
 30
0
 11
150.0858272076716
 21
70.54270948499337
 31
0
  0
LINE
  8
1
 62
2
 10
115.0858272076716
 20
26.54270948499337
 30
0
 11
115.0858272076716
 21
71.54270948499337
 31
0
  0
LINE
  8
1
 62
2
 10
150.0858272076716
 20
41.04270948499337
 30
0
 11
150.0858272076716
 21
71.54270948499337
 31
0
  0
SOLID
  8
1
 62
2
 10
115.0858272076716
 20
70.54270948499337
 30
0
 11
118.2858272076716
 21
70.95870948499336
 31
0
 12
118.2858272076716
 22
70.12670948499337
 32
0
 13
118.2858272076716
 23
70.12670948499337
 33
0
  0
SOLID
  8
1
 62
2
 10
150.0858272076716
 20
70.54270948499337
 30
0
 11
146.8858272076716
 21
70.12670948499337
 31
0
 12
146.8858272076716
 22
70.95870948499336
 32
0
 13
146.8858272076716
 23
70.95870948499336
 33
0
  0
TEXT
  8
1
 62
2
 10
129.8048630978777
 20
72.54270948499337
 30
0
 40
3.2
  1
35
 41
0.9
  0
ENDBLK
  8
0
  0
BLOCK
  8
1
  2
*D13
 70
1
 10
0
 20
0
 30
0
  0
LINE
  8
1
 62
2
 10
210.0858272076716
 20
-26.45729051500662
 30
0
 11
210.0858272076716
 21
37.54270948499338
 31
0
  0
LINE
  8
1
 62
2
 10
193.5858272076716
 20
-26.45729051500662
 30
0
 11
211.0858272076716
 21
-26.45729051500662
 31
0
  0
LINE
  8
1
 62
2
 10
193.5858272076716
 20
37.54270948499338
 30
0
 11
211.0858272076716
 21
37.54270948499338
 31
0
  0
SOLID
  8
1
 62
2
 10
210.0858272076716
 20
37.54270948499338
 30
0
 11
210.5018272076716
 21
34.34270948499338
 31
0
 12
209.6698272076716
 22
34.34270948499338
 32
0
 13
209.6698272076716
 23
34.34270948499338
 33
0
  0
SOLID
  8
1
 62
2
 10
210.0858272076716
 20
-26.45729051500662
 30
0
 11
209.6698272076716
 21
-23.25729051500662
 31
0
 12
210.5018272076716
 22
-23.25729051500662
 32
0
 13
210.5018272076716
 23
-23.25729051500662
 33
0
  0
TEXT
  8
1
 62
2
 10
207.2858272076716
 20
-3.714494355125028
 30
0
 40
3.2
  1
64H7
 50
90
 41
0.9
  0
TEXT
  8
1
 62
2
 10
205.2058272076716
 20
8.765505644874974
 30
0
 40
1.92
  1
+0.030
 50
90
 41
0.9
  0
TEXT
  8
1
 62
2
 10
208.0858272076716
 20
8.765505644874974
 30
0
 40
1.92
  1
 0
 50
90
 41
0.9
  0
TEXT
  8
1
 62
2
 10
207.2858272076716
 20
-7.35893879956947
 30
0
 40
3.2
  1
âË
 50
90
 41
0.9
  0
ENDBLK
  8
0
  0
BLOCK
  8
1
  2
*D14
 70
1
 10
0
 20
0
 30
0
  0
LINE
  8
1
 62
2
 10
252.557588024377
 20
50.54270948499336
 30
0
 11
258.957588024377
 21
50.54270948499336
 31
0
  0
LINE
  8
1
 62
2
 10
258.957588024377
 20
50.54270948499336
 30
0
 11
260.957588024377
 21
50.54270948499336
 31
0
  0
LINE
  8
1
 62
2
 10
260.957588024377
 20
50.54270948499336
 30
0
 11
267.357588024377
 21
50.54270948499336
 31
0
  0
LINE
  8
1
 62
2
 10
258.957588024377
 20
38.54270948499336
 30
0
 11
258.957588024377
 21
51.54270948499336
 31
0
  0
LINE
  8
1
 62
2
 10
260.957588024377
 20
41.54270948499336
 30
0
 11
260.957588024377
 21
51.54270948499336
 31
0
  0
SOLID
  8
1
 62
2
 10
258.957588024377
 20
50.54270948499336
 30
0
 11
255.757588024377
 21
50.12670948499336
 31
0
 12
255.757588024377
 22
50.95870948499336
 32
0
 13
255.757588024377
 23
50.95870948499336
 33
0
  0
SOLID
  8
1
 62
2
 10
260.957588024377
 20
50.54270948499336
 30
0
 11
264.157588024377
 21
50.95870948499336
 31
0
 12
264.157588024377
 22
50.12670948499336
 32
0
 13
264.157588024377
 23
50.12670948499336
 33
0
  0
TEXT
  8
1
 62
2
 10
264.737677033728
 20
52.54270948499336
 30
0
 40
3.2
  1
2
 41
0.9
  0
ENDBLK
  8
0
  0
BLOCK
  8
1
  2
*D15
 70
1
 10
0
 20
0
 30
0
  0
LINE
  8
1
 62
2
 10
247.957588024377
 20
60.54270948499337
 30
0
 11
260.957588024377
 21
60.54270948499337
 31
0
  0
LINE
  8
1
 62
2
 10
247.957588024377
 20
9.942709484993358
 30
0
 11
247.957588024377
 21
61.54270948499337
 31
0
  0
LINE
  8
1
 62
2
 10
260.957588024377
 20
41.54270948499337
 30
0
 11
260.957588024377
 21
61.54270948499337
 31
0
  0
SOLID
  8
1
 62
2
 10
260.957588024377
 20
60.54270948499337
 30
0
 11
257.757588024377
 21
60.12670948499337
 31
0
 12
257.757588024377
 22
60.95870948499336
 32
0
 13
257.757588024377
 23
60.95870948499336
 33
0
  0
SOLID
  8
1
 62
2
 10
247.957588024377
 20
60.54270948499337
 30
0
 11
251.157588024377
 21
60.95870948499336
 31
0
 12
251.157588024377
 22
60.12670948499337
 32
0
 13
251.157588024377
 23
60.12670948499337
 33
0
  0
TEXT
  8
1
 62
2
 10
252.736547232028
 20
62.54270948499336
 30
0
 40
3.2
  1
13
 41
0.9
  0
ENDBLK
  8
0
  0
BLOCK
  8
1
  2
*D16
 70
1
 10
0
 20
0
 30
0
  0
LINE
  8
1
 62
2
 10
232.957588024377
 20
-26.45729051500663
 30
0
 11
232.957588024377
 21
37.54270948499337
 31
0
  0
LINE
  8
1
 62
2
 10
257.957588024377
 20
-26.45729051500663
 30
0
 11
231.957588024377
 21
-26.45729051500663
 31
0
  0
LINE
  8
1
 62
2
 10
257.957588024377
 20
37.54270948499337
 30
0
 11
231.957588024377
 21
37.54270948499337
 31
0
  0
SOLID
  8
1
 62
2
 10
232.957588024377
 20
37.54270948499337
 30
0
 11
233.373588024377
 21
34.34270948499337
 31
0
 12
232.541588024377
 22
34.34270948499337
 32
0
 13
232.541588024377
 23
34.34270948499337
 33
0
  0
SOLID
  8
1
 62
2
 10
232.957588024377
 20
-26.45729051500663
 30
0
 11
232.541588024377
 21
-23.25729051500663
 31
0
 12
233.373588024377
 22
-23.25729051500663
 32
0
 13
233.373588024377
 23
-23.25729051500663
 33
0
  0
TEXT
  8
1
 62
2
 10
230.157588024377
 20
-2.904107697741835
 30
0
 40
3.2
  1
64h7
 50
90
 41
0.9
  0
TEXT
  8
1
 62
2
 10
228.077588024377
 20
9.255892302258168
 30
0
 40
1.92
  1
 0
 50
90
 41
0.9
  0
TEXT
  8
1
 62
2
 10
230.957588024377
 20
9.255892302258168
 30
0
 40
1.92
  1
-0.030
 50
90
 41
0.9
  0
TEXT
  8
1
 62
2
 10
230.157588024377
 20
-6.548552142186277
 30
0
 40
3.2
  1
âË
 50
90
 41
0.9
  0
ENDBLK
  8
0
  0
BLOCK
  8
1
  2
*D17
 70
1
 10
0
 20
0
 30
0
  0
LINE
  8
1
 62
2
 10
32.45775341301112
 20
36.79824320459817
 30
0
 11
42.04451864358677
 21
50.54270948499335
 31
0
  0
LINE
  8
1
 62
2
 10
42.04451864358677
 20
50.54270948499335
 30
0
 11
63.21978351315438
 21
50.54270948499335
 31
0
  0
SOLID
  8
1
 62
2
 10
32.45775341301112
 20
36.79824320459817
 30
0
 11
33.94722586203015
 21
39.66085177434941
 31
0
 12
34.62962733647058
 22
39.18487674592721
 32
0
 13
34.62962733647058
 23
39.18487674592721
 33
0
  0
TEXT
  8
1
 62
2
 10
53.02422795759882
 20
52.16163275522492
 30
0
 40
3.2
  1
5.5
 41
0.9
  0
TEXT
  8
1
 62
2
 10
43.93978351315438
 20
52.16163275522492
 30
0
 40
3.2
  1
4-âË
 41
0.9
  0
TEXT
  8
1
 62
2
 10
60.46422795759883
 20
52.16163275522492
 30
0
 40
3.2
  1
îè
 41
0.9
  0
ENDBLK
  8
0
  0
BLOCK
  8
1
  2
*D18
 70
1
 10
0
 20
0
 30
0
  0
LINE
  8
1
 62
2
 10
41.14887596729723
 20
17.38797199605596
 30
0
 11
-37.37983868012368
 21
-6.302553026069241
 31
0
  0
SOLID
  8
1
 62
2
 10
-37.37983868012368
 20
-6.302553026069241
 30
0
 11
-34.43636493507746
 21
-4.980048465690128
 31
0
 12
-34.19606424364663
 22
-5.776590729288154
 32
0
 13
-34.19606424364663
 23
-5.776590729288154
 33
0
  0
SOLID
  8
1
 62
2
 10
41.14887596729723
 20
17.38797199605596
 30
0
 11
38.205402222251
 21
16.06546743567684
 31
0
 12
37.96510153082018
 22
16.86200969927487
 32
0
 13
37.96510153082018
 23
16.86200969927487
 33
0
  0
TEXT
  8
1
 62
2
 10
-24.33406277310782
 20
-0.277877136267018
 30
0
 40
3.2
  1
82
 50
16.787500663032
 41
0.9
  0
TEXT
  8
1
 62
2
 10
-29.20182105065131
 20
-1.746381361677621
 30
0
 40
3.2
  1
(âË
 50
16.787500663032
 41
0.9
  0
TEXT
  8
1
 62
2
 10
-18.20681459158454
 20
1.570589720893182
 30
0
 40
3.2
  1
)
 50
16.787500663032
 41
0.9
  0
ENDBLK
  8
0
  0
ENDSEC
  0
SECTION
  2
ENTITIES
  0
LINE
  8
1
 62
1
 10
156.0858272076716
 20
-23.45729051500666
 30
0
 11
147.5858272076716
 21
-23.45729051500666
 31
0
  0
LINE
  8
1
 62
1
 10
156.0858272076716
 20
34.54270948499334
 30
0
 11
147.5858272076716
 21
34.54270948499334
 31
0
  0
LINE
  8
1
 62
2
 10
253.677936382447
 20
8.942709484993372
 30
0
 11
255.334305251966
 21
2.142709484993361
 31
0
  0
LINE
  8
1
 62
2
 10
252.677936382447
 20
8.942709484993372
 30
0
 11
254.334305251966
 21
2.142709484993361
 31
0
  0
LINE
  8
1
 62
2
 10
251.677936382447
 20
8.942709484993372
 30
0
 11
253.334305251966
 21
2.142709484993361
 31
0
  0
LINE
  8
1
 62
2
 10
243.235724897326
 20
-92.0127716496886
 30
0
 11
287.235724897326
 21
-92.0127716496886
 31
0
  0
LINE
  8
1
 62
1
 10
-38.11548135641323
 20
5.542709484993338
 30
0
 11
41.88451864358677
 21
5.542709484993338
 31
0
  0
LINE
  8
1
 62
1
 10
1.884518643586777
 20
45.54270948499334
 30
0
 11
1.884518643586777
 21
-34.45729051500666
 31
0
  0
LINE
  8
1
 62
3
 10
-27.11548135641322
 20
40.54270948499334
 30
0
 11
30.88451864358677
 21
40.54270948499334
 31
0
  0
LINE
  8
1
 62
3
 10
36.88451864358677
 20
34.54270948499334
 30
0
 11
36.88451864358677
 21
-23.45729051500666
 31
0
  0
LINE
  8
1
 62
3
 10
30.88451864358677
 20
-29.45729051500666
 30
0
 11
-27.11548135641322
 21
-29.45729051500666
 31
0
  0
LINE
  8
1
 62
3
 10
-33.11548135641323
 20
-23.45729051500666
 30
0
 11
-33.11548135641323
 21
34.54270948499334
 31
0
  0
LINE
  8
1
 62
1
 10
-36.11548135641323
 20
-23.45729051500666
 30
0
 11
-18.11548135641322
 21
-23.45729051500666
 31
0
  0
LINE
  8
1
 62
1
 10
21.88451864358677
 20
-23.45729051500666
 30
0
 11
39.88451864358677
 21
-23.45729051500666
 31
0
  0
LINE
  8
1
 62
1
 10
21.88451864358677
 20
34.54270948499334
 30
0
 11
39.88451864358677
 21
34.54270948499334
 31
0
  0
LINE
  8
1
 62
1
 10
-36.11548135641323
 20
34.54270948499334
 30
0
 11
-18.11548135641322
 21
34.54270948499334
 31
0
  0
LINE
  8
1
 62
1
 10
-27.11548135641322
 20
43.54270948499334
 30
0
 11
-27.11548135641322
 21
25.54270948499334
 31
0
  0
LINE
  8
1
 62
1
 10
-27.11548135641322
 20
-14.45729051500666
 30
0
 11
-27.11548135641322
 21
-32.45729051500666
 31
0
  0
LINE
  8
1
 62
1
 10
30.88451864358677
 20
-32.45729051500666
 30
0
 11
30.88451864358677
 21
-14.45729051500666
 31
0
  0
LINE
  8
1
 62
1
 10
30.88451864358677
 20
25.54270948499334
 30
0
 11
30.88451864358677
 21
43.54270948499334
 31
0
  0
LINE
  8
1
 62
1
 10
-16.11548135641322
 20
20.54270948499334
 30
0
 11
19.88451864358677
 21
20.54270948499334
 31
0
  0
LINE
  8
1
 62
3
 10
-0.1154813564132233
 20
25.12528517994917
 30
0
 11
-0.1154813564132233
 21
23.04270948499334
 31
0
  0
LINE
  8
1
 62
3
 10
-0.1154813564132233
 20
23.04270948499334
 30
0
 11
3.884518643586777
 21
23.04270948499334
 31
0
  0
LINE
  8
1
 62
3
 10
3.884518643586777
 20
23.04270948499334
 30
0
 11
3.884518643586777
 21
25.12528517994917
 31
0
  0
LINE
  8
1
 62
1
 10
-27.36548135641319
 20
19.54270948499334
 30
0
 11
-17.3654813564132
 21
19.54270948499334
 31
0
  0
LINE
  8
1
 62
1
 10
21.13451864358677
 20
19.54270948499334
 30
0
 11
31.13451864358677
 21
19.54270948499334
 31
0
  0
LINE
  8
1
 62
1
 10
-3.115481356413223
 20
-22.45729051500666
 30
0
 11
6.884518643586777
 21
-22.45729051500666
 31
0
  0
LINE
  8
1
 62
1
 10
26.13451864358677
 20
14.54270948499334
 30
0
 11
26.13451864358677
 21
24.54270948499334
 31
0
  0
LINE
  8
1
 62
1
 10
-22.3654813564132
 20
24.54270948499334
 30
0
 11
-22.3654813564132
 21
14.54270948499334
 31
0
  0
LINE
  8
1
 62
3
 10
190.0858272076716
 20
39.54270948499334
 30
0
 11
190.0858272076716
 21
-28.45729051500666
 31
0
  0
LINE
  8
1
 62
3
 10
188.5858272076716
 20
-29.45729051500666
 30
0
 11
188.5858272076716
 21
40.54270948499334
 31
0
  0
LINE
  8
1
 62
3
 10
150.0858272076716
 20
40.04270948499334
 30
0
 11
150.0858272076716
 21
28.54270948499334
 31
0
  0
LINE
  8
1
 62
3
 10
150.0858272076716
 20
-17.45729051500666
 30
0
 11
150.0858272076716
 21
-28.95729051500666
 31
0
  0
LINE
  8
1
 62
3
 10
150.0858272076716
 20
40.04270948499334
 30
0
 11
188.5858272076716
 21
40.54270948499334
 31
0
  0
LINE
  8
1
 62
3
 10
188.5858272076716
 20
39.54270948499334
 30
0
 11
190.0858272076716
 21
39.54270948499334
 31
0
  0
LINE
  8
1
 62
3
 10
188.5858272076716
 20
-28.45729051500666
 30
0
 11
190.0858272076716
 21
-28.45729051500666
 31
0
  0
LINE
  8
1
 62
3
 10
188.5858272076716
 20
-29.45729051500666
 30
0
 11
150.0858272076716
 21
-28.95729051500666
 31
0
  0
LINE
  8
1
 62
3
 10
150.0858272076716
 20
-17.45729051500666
 30
0
 11
151.0858272076716
 21
-17.45729051500666
 31
0
  0
LINE
  8
1
 62
3
 10
150.0858272076716
 20
28.54270948499334
 30
0
 11
151.0858272076716
 21
28.54270948499334
 31
0
  0
LINE
  8
1
 62
3
 10
145.5858272076716
 20
35.54270948499334
 30
0
 11
150.0858272076716
 21
35.54270948499334
 31
0
  0
LINE
  8
1
 62
3
 10
145.5858272076716
 20
5.542709484993338
 30
0
 11
151.0858272076716
 21
5.542709484993338
 31
0
  0
LINE
  8
1
 62
3
 10
145.0858272076716
 20
35.04270948499334
 30
0
 11
145.0858272076716
 21
6.042709484993338
 31
0
  0
LINE
  8
1
 62
3
 10
151.0858272076716
 20
28.54270948499334
 30
0
 11
151.0858272076716
 21
-17.45729051500666
 31
0
  0
LINE
  8
1
 62
3
 10
151.0858272076716
 20
28.54270948499334
 30
0
 11
151.0858272076716
 21
33.54270948499334
 31
0
  0
LINE
  8
1
 62
3
 10
151.0858272076716
 20
-17.45729051500666
 30
0
 11
151.0858272076716
 21
-22.45729051500666
 31
0
  0
LINE
  8
1
 62
3
 10
115.0858272076716
 20
25.54270948499334
 30
0
 11
145.0858272076716
 21
25.54270948499334
 31
0
  0
LINE
  8
1
 62
3
 10
145.0858272076716
 20
15.54270948499334
 30
0
 11
115.0858272076716
 21
15.54270948499334
 31
0
  0
LINE
  8
1
 62
3
 10
115.0858272076716
 20
25.54270948499334
 30
0
 11
115.0858272076716
 21
15.54270948499334
 31
0
  0
LINE
  8
1
 62
1
 10
110.0858272076716
 20
20.54270948499334
 30
0
 11
156.0858272076716
 21
20.54270948499334
 31
0
  0
LINE
  8
1
 62
2
  6
DASHED
 10
115.0858272076716
 20
23.04270948499334
 30
0
 11
140.0858272076716
 21
23.04270948499334
 31
0
  0
LINE
  8
1
 62
1
 10
140.0858272076716
 20
5.542709484993338
 30
0
 11
195.0858272076716
 21
5.542709484993338
 31
0
  0
LINE
  8
1
 62
1
 10
186.0858272076716
 20
-26.45729051500666
 30
0
 11
192.5858272076716
 21
-26.45729051500666
 31
0
  0
LINE
  8
1
 62
1
 10
186.0858272076716
 20
37.54270948499334
 30
0
 11
192.5858272076716
 21
37.54270948499334
 31
0
  0
LINE
  8
1
 62
3
 10
159.3236844956274
 20
41.16276598526177
 30
0
 11
179.321998083887
 21
41.42248434355086
 31
0
  0
LINE
  8
1
 62
3
 10
-21.61548135641322
 20
41.54270948499334
 30
0
 11
25.38451864358678
 21
41.54270948499334
 31
0
  0
LINE
  8
1
 62
3
 10
260.957588024377
 20
40.54270948499334
 30
0
 11
260.957588024377
 21
37.54270948499334
 31
0
  0
LINE
  8
1
 62
3
 10
260.957588024377
 20
37.54270948499334
 30
0
 11
258.957588024377
 21
37.54270948499334
 31
0
  0
LINE
  8
1
 62
3
 10
258.957588024377
 20
37.54270948499334
 30
0
 11
258.957588024377
 21
-26.45729051500666
 31
0
  0
LINE
  8
1
 62
3
 10
258.957588024377
 20
-26.45729051500666
 30
0
 11
260.957588024377
 21
-26.45729051500666
 31
0
  0
LINE
  8
1
 62
3
 10
260.957588024377
 20
-26.45729051500666
 30
0
 11
260.957588024377
 21
-29.45729051500666
 31
0
  0
LINE
  8
1
 62
3
 10
260.957588024377
 20
37.54270948499334
 30
0
 11
260.957588024377
 21
-26.45729051500666
 31
0
  0
LINE
  8
1
 62
3
 10
260.957588024377
 20
40.54270948499334
 30
0
 11
267.957588024377
 21
40.54270948499334
 31
0
  0
LINE
  8
1
 62
3
 10
260.957588024377
 20
-29.45729051500666
 30
0
 11
267.957588024377
 21
-29.45729051500666
 31
0
  0
LINE
  8
1
 62
3
 10
258.957588024377
 20
8.942709484993372
 30
0
 11
247.957588024377
 21
8.942709484993372
 31
0
  0
LINE
  8
1
 62
3
 10
247.957588024377
 20
8.942709484993372
 30
0
 11
247.957588024377
 21
2.142709484993361
 31
0
  0
LINE
  8
1
 62
3
 10
247.957588024377
 20
2.142709484993361
 30
0
 11
258.957588024377
 21
2.142709484993361
 31
0
  0
LINE
  8
1
 62
1
 10
242.957588024377
 20
5.542709484993338
 30
0
 11
270.957588024377
 21
5.542709484993338
 31
0
  0
LINE
  8
1
 62
1
  6
CENTER
 10
245.957588024377
 20
8.34270948499335
 30
0
 11
258.957588024377
 21
8.34270948499335
 31
0
  0
LINE
  8
1
 62
1
  6
CENTER
 10
245.957588024377
 20
2.742709484993327
 30
0
 11
258.957588024377
 21
2.742709484993327
 31
0
  0
LINE
  8
1
 62
2
 10
289.735724897326
 20
-54.01277164968857
 30
0
 11
240.735724897326
 21
-54.01277164968857
 31
0
  0
LINE
  8
1
 62
2
 10
240.735724897326
 20
-61.01277164968857
 30
0
 11
289.735724897326
 21
-61.01277164968857
 31
0
  0
LINE
  8
1
 62
2
 10
289.735724897326
 20
-68.01277164968857
 30
0
 11
240.735724897326
 21
-68.01277164968857
 31
0
  0
LINE
  8
1
 62
2
 10
240.735724897326
 20
-75.0127716496886
 30
0
 11
289.735724897326
 21
-75.0127716496886
 31
0
  0
LINE
  8
1
 62
2
 10
289.735724897326
 20
-82.0127716496886
 30
0
 11
240.735724897326
 21
-82.0127716496886
 31
0
  0
ARC
  8
1
 62
3
 10
-27.11548135641322
 20
-23.45729051500666
 30
0
 40
6
 50
270
 51
180
  0
ARC
  8
1
 62
3
 10
-27.11548135641322
 20
34.54270948499334
 30
0
 40
6.000000000000007
 50
180
 51
90
  0
ARC
  8
1
 62
3
 10
30.88451864358677
 20
34.54270948499334
 30
0
 40
6
 50
90
 51
0
  0
ARC
  8
1
 62
3
 10
30.88451864358677
 20
-23.45729051500666
 30
0
 40
6.000000000000004
 50
0
 51
270
  0
ARC
  8
1
 62
2
  6
DASHED
 10
140.0858272076716
 20
29.29270948499334
 30
0
 40
6.25
 50
270
 51
323.130102354156
  0
ARC
  8
1
 62
2
 10
1.884518643586777
 20
5.542709484993338
 30
0
 40
41.01219330881975
 50
190.7362366387865
 51
236.8772603887695
  0
ARC
  8
1
 62
2
 10
1.884518643586777
 20
5.542709484993338
 30
0
 40
41.01219330881976
 50
10.73623663878657
 51
56.87726038876952
  0
CIRCLE
  8
1
 62
3
 10
-27.11548135641322
 20
34.54270948499334
 30
0
 40
2.75
  0
CIRCLE
  8
1
 62
3
 10
-27.11548135641322
 20
-23.45729051500666
 30
0
 40
2.75
  0
CIRCLE
  8
1
 62
3
 10
30.88451864358677
 20
-23.45729051500666
 30
0
 40
2.750000000000004
  0
CIRCLE
  8
1
 62
3
 10
30.88451864358677
 20
34.54270948499334
 30
0
 40
2.750000000000004
  0
CIRCLE
  8
1
 62
3
 10
1.884518643586777
 20
20.54270948499334
 30
0
 40
14.99999999999999
  0
CIRCLE
  8
1
 62
3
 10
1.884518643586777
 20
20.54270948499334
 30
0
 40
5
  0
CIRCLE
  8
1
 62
3
 10
1.884518643586777
 20
20.54270948499334
 30
0
 40
6
  0
CIRCLE
  8
1
 62
3
 10
1.884518643586777
 20
-22.45729051500666
 30
0
 40
3.29999999999999
  0
CIRCLE
  8
1
 62
3
 10
26.13451864358677
 20
19.54270948499334
 30
0
 40
3.29999999999999
  0
CIRCLE
  8
1
 62
3
 10
-22.3654813564132
 20
19.54270948499334
 30
0
 40
3.299999999999997
  0
CIRCLE
  8
1
 62
4
  6
DIVIDE
 10
1.884518643586777
 20
5.542709484993338
 30
0
 40
41.01219330881975
  0
ARC
  8
1
 62
3
 10
145.5858272076716
 20
6.042709484993338
 30
0
 40
0.5
 50
180
 51
270
  0
ARC
  8
1
 62
3
 10
145.5858272076716
 20
35.04270948499334
 30
0
 40
0.5
 50
90
 51
180
  0
ARC
  8
1
 62
3
 10
-27.11548135641322
 20
34.54270948499334
 30
0
 40
6
 50
90
 51
180
  0
ARC
  8
1
 62
3
 10
30.88451864358677
 20
34.54270948499334
 30
0
 40
6.000000000000004
 50
0
 51
90
  0
ARC
  8
1
 62
3
 10
30.88451864358677
 20
-23.45729051500666
 30
0
 40
6
 50
270
 51
0
  0
ARC
  8
1
 62
3
 10
-27.11548135641322
 20
-23.45729051500666
 30
0
 40
6.000000000000007
 50
180
 51
270
  0
LINE
  8
1
 62
2
 10
289.735724897326
 20
-47.01277164968857
 30
0
 11
240.735724897326
 21
-47.01277164968857
 31
0
  0
LINE
  8
1
 62
2
 10
240.735724897326
 20
-47.01277164968857
 30
0
 11
252.1420611434785
 21
2.142709484993361
 31
0
  0
SOLID
  8
1
 62
2
 10
251.8291165581233
 20
-1.069696040300091
 30
0
 11
251.0083481557481
 21
-0.8792399576496495
 31
0
 12
252.1420611434785
 22
2.142709484993361
 32
0
 13
252.1420611434785
 23
2.142709484993361
 33
0
  0
LINE
  8
1
 62
2
 10
220.9460627080314
 20
57.52124205906841
 30
0
 11
192.9460627080314
 21
57.52124205906841
 31
0
  0
LINE
  8
1
 62
2
 10
192.9460627080314
 20
57.52124205906841
 30
0
 11
171.8893692768803
 21
41.33613348561937
 31
0
  0
SOLID
  8
1
 62
2
 10
174.1697441317357
 20
43.62029068112542
 30
0
 11
174.6832256270103
 21
42.95225546965318
 31
0
 12
171.8893692768803
 22
41.33613348561937
 32
0
 13
171.8893692768803
 23
41.33613348561937
 33
0
  0
TEXT
  8
1
 62
2
 10
229.235724897326
 20
-90.7627716496886
 30
0
 40
4
  1
èÜìçæèÄÞâsâjâIâôÄdùl
 41
0.9
 72
1
 11
265.235724897326
 21
-90.7627716496886
 31
0
  0
TEXT
  8
1
 62
2
 10
243.615417430328
 20
-45.59662398586897
 30
0
 40
4
  1
âwü@âèü@âJü@âïü@Ädü@ùl
 41
0.9
  0
TEXT
  8
1
 62
2
 10
243.615417430328
 20
-52.59662398586897
 30
0
 40
4
  1
âéâWâàü|âïü@üFü@éOüDéT
 41
0.9
  0
TEXT
  8
1
 62
2
 10
243.615417430328
 20
-59.59662398586897
 30
0
 40
4
  1
ê%%dü@ù═ü@èpü@üFü@éQéO%%d
 41
0.9
  0
TEXT
  8
1
 62
2
 10
243.615417430328
 20
-66.59662398586897
 30
0
 40
4
  1
Äòü@ü@ü@Éöü@üFü@éPéO
 41
0.9
  0
TEXT
  8
1
 62
2
 10
243.615417430328
 20
-73.59662398586897
 30
0
 40
4
  1
èOü@ü@ü@îaü@üFâËéUüDéW
 41
0.9
  0
TEXT
  8
1
 62
2
 10
243.615417430328
 20
-80.59662398586897
 30
0
 40
4
  1
é╦éÂéÛò¹î³ü@üFü@ü@ëE
 41
0.9
  0
TEXT
  8
1
 62
2
 10
193.5566248177805
 20
57.99612369998442
 30
0
 40
4
  1
âlü|âÇâvâîü|âg
 41
0.9
  0
TEXT
  8
1
 62
2
 10
-70.38112494260568
 20
-126.701527766487
 30
0
 40
8
  1
7H25~180FN(FBN)
 41
0.9
  0
DIMENSION
  8
1
  6
CONTINUOUS
 62
2
  2
*D0
  3
DMST_1
 10
3.884518643586768
 20
50.54270948499337
 30
0
 11
11.04655547724307
 21
54.94270948499337
 31
0
 12
0
 22
0
 32
0
 70
1
 13
-0.1154813564132233
 23
25.12528517994917
 33
0
 14
3.884518643586777
 24
25.12528517994917
 34
0
 53
0
  0
DIMENSION
  8
1
  6
CONTINUOUS
 62
2
  2
*D1
  3
DMST_2
 10
30.88451864358678
 20
60.54270948499337
 30
0
 11
2.179693606564577
 21
64.14270948499336
 31
0
 12
0
 22
0
 32
0
 70
1
 13
-27.11548135641322
 23
43.54270948499334
 33
0
 14
30.88451864358677
 24
43.54270948499334
 34
0
 53
0
  0
DIMENSION
  8
1
  6
CONTINUOUS
 62
2
  2
*D2
  3
DMST_3
 10
-33.11548135641322
 20
70.54270948499337
 30
0
 11
1.764059456376476
 21
74.14270948499336
 31
0
 12
0
 22
0
 32
0
 70
1
 13
36.88451864358677
 23
34.54270948499334
 33
0
 14
-33.11548135641323
 24
34.54270948499334
 34
0
 53
0
  0
DIMENSION
  8
1
  6
CONTINUOUS
 62
2
  2
*D3
  3
DMST_2
 10
56.88451864358677
 20
-23.45729051500665
 30
0
 11
53.28451864358678
 21
4.993892466492923
 31
0
 12
0
 22
0
 32
0
 70
1
 13
39.88451864358677
 23
34.54270948499334
 33
0
 14
39.88451864358677
 24
-23.45729051500666
 34
0
 53
0
  0
DIMENSION
  8
1
  6
CONTINUOUS
 62
2
  2
*D4
  3
DMST_3
 10
66.88451864358677
 20
-29.45729051500666
 30
0
 11
63.28451864358678
 21
4.578258316304812
 31
0
 12
0
 22
0
 32
0
 70
1
 13
30.88451864358677
 23
40.54270948499334
 33
0
 14
30.88451864358677
 24
-29.45729051500666
 34
0
 53
0
  0
DIMENSION
  8
1
  6
CONTINUOUS
 62
2
  2
*D5
  3
DMST_3
 10
-41.18480272972273
 20
5.542709484993322
 30
0
 11
-44.78480272972273
 21
12.75239660333659
 31
0
 12
0
 22
0
 32
0
 70
0
 13
-16.11548135641322
 23
20.54270948499334
 33
0
 14
-38.11548135641323
 24
5.542709484993338
 34
0
 50
90
 53
0
  0
DIMENSION
  8
1
  6
CONTINUOUS
 62
2
  2
*D6
  3
DMST_3
 10
105.0858272076716
 20
25.54270948499337
 30
0
 11
101.4858272076716
 21
31.48079344651973
 31
0
 12
0
 22
0
 32
0
 70
1
 13
115.0858272076716
 23
23.04270948499334
 33
0
 14
115.0858272076716
 24
25.54270948499334
 34
0
 53
0
  0
DIMENSION
  8
1
  6
CONTINUOUS
 62
2
  2
*D7
  3
DMST_4
 10
95.08582720767158
 20
25.54270948499335
 30
0
 11
90.68582720767158
 21
21.01239219385872
 31
0
 12
0
 22
0
 32
0
 70
1
  1
âË<>
 13
115.0858272076716
 23
15.54270948499334
 33
0
 14
115.0858272076716
 24
25.54270948499334
 34
0
 53
0
  0
DIMENSION
  8
1
  6
CONTINUOUS
 62
2
  2
*D8
  3
DMST_3
 10
86.01249387433825
 20
5.54270948499334
 30
0
 11
81.98582720767158
 21
20.29537840942993
 31
0
 12
0
 22
0
 32
0
 70
1
  1
âË<>
 13
145.5858272076716
 23
35.54270948499334
 33
0
 14
145.5858272076716
 24
5.542709484993338
 34
0
 53
0
  0
DIMENSION
  8
1
  6
CONTINUOUS
 62
2
  2
*D9
  3
DMST_3
 10
115.0858272076716
 20
41.94919469918082
 30
0
 11
127.557067837041
 21
45.54919469918082
 31
0
 12
0
 22
0
 32
0
 70
0
 13
140.0858272076716
 23
23.04270948499334
 33
0
 14
115.0858272076716
 24
25.54270948499334
 34
0
 53
0
  0
DIMENSION
  8
1
  6
CONTINUOUS
 62
2
  2
*D10
  3
DMST_3
 10
145.0858272076716
 20
60.54270948499336
 30
0
 11
147.5533466649646
 21
64.14270948499336
 31
0
 12
0
 22
0
 32
0
 70
0
 13
150.0858272076716
 23
40.04270948499334
 33
0
 14
145.0858272076716
 24
35.04270948499334
 34
0
 53
0
  0
DIMENSION
  8
1
  6
CONTINUOUS
 62
2
  2
*D11
  3
DMST_3
 10
150.0858272076715
 20
70.54270948499337
 30
0
 11
168.5657366925895
 21
74.14270948499336
 31
0
 12
0
 22
0
 32
0
 70
0
 13
190.0858272076716
 23
39.54270948499334
 33
0
 14
150.0858272076716
 24
40.04270948499334
 34
0
 53
0
  0
DIMENSION
  8
1
  6
CONTINUOUS
 62
2
  2
*D12
  3
DMST_3
 10
115.0858272076716
 20
70.54270948499337
 30
0
 11
132.2048630978777
 21
74.14270948499336
 31
0
 12
0
 22
0
 32
0
 70
0
 13
150.0858272076716
 23
40.04270948499334
 33
0
 14
115.0858272076716
 24
25.54270948499334
 34
0
 53
0
  0
DIMENSION
  8
1
  6
CONTINUOUS
 62
2
  2
*D13
  3
DMST_5
 10
210.0858272076716
 20
-26.45729051500662
 30
0
 11
205.6858272076716
 21
4.95128342265275
 31
0
 12
0
 22
0
 32
0
 70
1
  1
64H7
 13
192.5858272076716
 23
37.54270948499334
 33
0
 14
192.5858272076716
 24
-26.45729051500666
 34
0
 53
0
  0
DIMENSION
  8
1
  6
CONTINUOUS
 62
2
  2
*D14
  3
DMST_3
 10
260.957588024377
 20
50.54270948499336
 30
0
 11
265.697677033728
 21
54.14270948499336
 31
0
 12
0
 22
0
 32
0
 70
0
 13
258.957588024377
 23
37.54270948499334
 33
0
 14
260.957588024377
 24
40.54270948499334
 34
0
 53
0
  0
DIMENSION
  8
1
  6
CONTINUOUS
 62
2
  2
*D15
  3
DMST_3
 10
260.957588024377
 20
60.54270948499337
 30
0
 11
254.656547232028
 21
64.14270948499336
 31
0
 12
0
 22
0
 32
0
 70
0
 13
247.957588024377
 23
8.942709484993372
 33
0
 14
260.957588024377
 24
40.54270948499334
 34
0
 53
0
  0
DIMENSION
  8
1
  6
CONTINUOUS
 62
2
  2
*D16
  3
DMST_5
 10
232.957588024377
 20
37.54270948499337
 30
0
 11
228.557588024377
 21
5.601670080035944
 31
0
 12
0
 22
0
 32
0
 70
1
  1
64h7
 13
258.957588024377
 23
-26.45729051500666
 33
0
 14
258.957588024377
 24
37.54270948499334
 34
0
 53
0
  0
DIMENSION
  8
1
  6
CONTINUOUS
 62
2
  2
*D18
  3
DMST_6
 10
41.14887596729722
 20
17.38797199605596
 30
0
 11
-23.93666272860085
 21
1.513233732132107
 31
0
 12
0
 22
0
 32
0
 70
3
  1
82
 15
-37.37983868012368
 25
-6.302553026069241
 35
0
 40
0
 53
0
  0
INSERT
  8
0
  2
MOJINOMUKI
 10
201.2753818555985
 20
64.90079792480361
 30
0
  0
INSERT
  8
0
  2
____M3_________1
 10
-22.3654813564132
 20
19.54270948499334
 30
0
  0
INSERT
  8
0
  2
____M3_________2
 10
26.13451864358677
 20
19.54270948499334
 30
0
  0
INSERT
  8
0
  2
____M3_________3
 10
1.884518643586777
 20
-22.45729051500666
 30
0
  0
INSERT
  8
1
  2
*D17
 10
0
 20
0
 30
0
  0
ENDSEC
  0
EOF
