  0
SECTION
  2
HEADER
  9
$ACADVER
  1
AC1009
  9
$INSBASE
 10
0
 20
0
  9
$EXTMIN
 10
-62.81239248836305
 20
-126.070800061966
  9
$EXTMAX
 10
289.735724897326
 20
90.90079792480367
  9
$LIMMIN
 10
-62.81239248836305
 20
-126.070800061966
  9
$LIMMAX
 10
289.735724897326
 20
90.90079792480367
  9
$VIEWCTR
 10
10
 20
10
  9
$VIEWSIZE
 40
10
  9
$SNAPMODE
 70
0
  9
$SNAPUNIT
 10
1
 20
1
  9
$SNAPBASE
 10
0
 20
0
  9
$SNAPANG
 50
0
  9
$SNAPSTYLE
 70
0
  9
$SNAPISOPAIR
 70
0
  9
$GRIDMODE
 70
0
  9
$GRIDUNIT
 10
0
 20
0
  9
$ORTHOMODE
 70
0
  9
$REGENMODE
 70
1
  9
$FILLMODE
 70
1
  9
$QTEXTMODE
 70
0
  9
$DRAGMODE
 70
2
  9
$LTSCALE
 40
1
  9
$OSMODE
 70
0
  9
$ATTMODE
 70
1
  9
$TEXTSIZE
 40
3.5
  9
$TRACEWID
 40
0.5
  9
$TEXTSTYLE
  7
STANDARD
  9
$CLAYER
  8
0
  9
$CELTYPE
  6
BYLAYER
  9
$CECOLOR
 62
256
  9
$DIMSCALE
 40
1
  9
$DIMASZ
 40
0.18
  9
$DIMEXO
 40
0.0625
  9
$DIMDLI
 40
0.38
  9
$DIMRND
 40
0
  9
$DIMDLE
 40
0
  9
$DIMEXE
 40
0.18
  9
$DIMTP
 40
0
  9
$DIMTM
 40
0
  9
$DIMTXT
 40
0.18
  9
$DIMCEN
 40
0.09
  9
$DIMTSZ
 40
0
  9
$DIMTOL
 70
0
  9
$DIMLIM
 70
0
  9
$DIMTIH
 70
1
  9
$DIMTOH
 70
1
  9
$DIMSE1
 70
0
  9
$DIMSE2
 70
0
  9
$DIMTAD
 70
0
  9
$DIMZIN
 70
0
  9
$DIMBLK
  1

  9
$DIMASO
 70
1
  9
$DIMSHO
 70
1
  9
$DIMPOST
  1

  9
$DIMAPOST
  1

  9
$DIMALT
 70
0
  9
$DIMALTD
 70
2
  9
$DIMALTF
 40
25.4
  9
$DIMLFAC
 40
1
  9
$DIMTOFL
 70
0
  9
$DIMTVP
 40
0
  9
$DIMTIX
 70
0
  9
$DIMSOXD
 70
0
  9
$DIMSAH
 70
0
  9
$DIMBLK1
  1

  9
$DIMBLK2
  1

  9
$DIMSTYLE
  2
*UNNAMED
  9
$DIMCLRD
 70
0
  9
$DIMCLRE
 70
0
  9
$DIMCLRT
 70
0
  9
$DIMTFAC
 40
1
  9
$DIMGAP
 40
0.09
  9
$LUNITS
 70
2
  9
$LUPREC
 70
4
  9
$AXISMODE
 70
0
  9
$AXISUNIT
 10
0
 20
0
  9
$SKETCHINC
 40
0.1
  9
$FILLETRAD
 40
2
  9
$AUNITS
 70
0
  9
$AUPREC
 70
0
  9
$MENU
  1
ACAD
  9
$ELEVATION
 40
0
  9
$THICKNESS
 40
0
  9
$VIEWDIR
 10
0
 20
0
 30
1
  9
$LIMCHECK
 70
0
  9
$BLIPMODE
 70
1
  9
$CHAMFERA
 40
0
  9
$CHAMFERB
 40
0
  9
$FASTZOOM
 70
1
  9
$SKPOLY
 70
0
  9
$ANGBASE
 50
0
  9
$ANGDIR
 70
0
  9
$PDMODE
 70
0
  9
$PDSIZE
 40
0
  9
$PLINEWID
 40
0
  9
$COORDS
 70
2
  0
ENDSEC
  0
SECTION
  2
TABLES
  0
TABLE
  2
DIMSTYLE
 70
8
  0
DIMSTYLE
  2
DMST_1
 70
0
  3

  4

  5

  6

  7

 40
1
 41
3.2
 42
1
 43
7
 44
1
 45
0
 46
0
 47
0.03
 48
0
140
3.2
141
0
142
0
143
25.4
144
1
145
0
146
0.6
147
0.09
 71
1
 72
0
 73
0
 74
0
 75
0
 76
0
 77
1
 78
9
170
0
171
2
172
0
173
0
174
0
175
0
176
2
177
2
178
2
  0
DIMSTYLE
  2
DMST_2
 70
0
  3

  4

  5

  6

  7

 40
1
 41
3.2
 42
1
 43
7
 44
1
 45
0
 46
0
 47
0.3
 48
0.3
140
3.2
141
0
142
0
143
25.4
144
1
145
0
146
0.6
147
0.09
 71
1
 72
0
 73
0
 74
0
 75
0
 76
0
 77
1
 78
9
170
0
171
2
172
0
173
0
174
0
175
0
176
2
177
2
178
2
  0
DIMSTYLE
  2
DMST_3
 70
0
  3

  4

  5

  6

  7

 40
1
 41
3.2
 42
1
 43
7
 44
1
 45
0
 46
0
 47
0
 48
0
140
3.2
141
0
142
0
143
25.4
144
1
145
0
146
1
147
0.09
 71
0
 72
0
 73
0
 74
0
 75
0
 76
0
 77
1
 78
9
170
0
171
2
172
0
173
0
174
0
175
0
176
2
177
2
178
2
  0
DIMSTYLE
  2
DMST_4
 70
0
  3

  4

  5

  6

  7

 40
1
 41
3.2
 42
1
 43
7
 44
1
 45
0
 46
0
 47
0
 48
0
140
3.2
141
0
142
0
143
25.4
144
1
145
0
146
0.6
147
0.09
 71
1
 72
0
 73
0
 74
0
 75
0
 76
0
 77
1
 78
9
170
0
171
2
172
0
173
0
174
0
175
0
176
2
177
2
178
2
  0
DIMSTYLE
  2
DMST_5
 70
0
  3

  4

  5

  6

  7

 40
1
 41
3.2
 42
1
 43
7
 44
2
 45
0
 46
0
 47
0
 48
0
140
3.2
141
0
142
0
143
25.4
144
1
145
0
146
1
147
0.09
 71
0
 72
0
 73
0
 74
0
 75
0
 76
0
 77
1
 78
9
170
0
171
2
172
0
173
0
174
0
175
0
176
2
177
2
178
2
  0
DIMSTYLE
  2
DMST_6
 70
0
  3

  4

  5

  6

  7

 40
1
 41
3.2
 42
1
 43
7
 44
2
 45
0
 46
0
 47
0
 48
0
140
3.2
141
0
142
0
143
25.4
144
1
145
0
146
0.6
147
0.09
 71
1
 72
0
 73
0
 74
0
 75
0
 76
0
 77
1
 78
9
170
0
171
2
172
0
173
0
174
0
175
0
176
2
177
2
178
2
  0
DIMSTYLE
  2
DMST_7
 70
0
  3

  4

  5

  6

  7

 40
1
 41
3.2
 42
1
 43
7
 44
1.5
 45
0
 46
0
 47
0
 48
0
140
3.2
141
0
142
0
143
25.4
144
1
145
0
146
1
147
0.09
 71
0
 72
0
 73
0
 74
0
 75
0
 76
0
 77
1
 78
9
170
0
171
2
172
0
173
0
174
0
175
0
176
2
177
2
178
2
  0
DIMSTYLE
  2
DMST_8
 70
0
  3
)
  4

  5

  6

  7

 40
1
 41
3.2
 42
1
 43
7
 44
1
 45
0
 46
0
 47
0
 48
0
140
3.2
141
0
142
0
143
25.4
144
1
145
0
146
1
147
0.09
 71
0
 72
0
 73
0
 74
0
 75
0
 76
0
 77
1
 78
9
170
0
171
2
172
0
173
0
174
1
175
0
176
2
177
2
178
2
  0
ENDTAB
  0
TABLE
  2
LTYPE
 70
9
  0
LTYPE
  2
CONTINUOUS
 70
64
  3
Solid line
 72
65
 73
0
 40
0
  0
LTYPE
  2
BORDER
 70
64
  3
__ __ . __ __ .
 72
65
 73
6
 40
16.23576856381463
 49
4.638791018232751
 49
-2.319395509116375
 49
4.638791018232751
 49
-2.319395509116375
 49
0
 49
-2.319395509116375
  0
LTYPE
  2
CENTER
 70
64
  3
____ _ ____ _
 72
65
 73
4
 40
18.555164072931
 49
11.59697754558188
 49
-2.319395509116375
 49
2.319395509116375
 49
-2.319395509116375
  0
LTYPE
  2
DASHDOT
 70
64
  3
__ . __ . __ .
 72
65
 73
4
 40
9.277582036465502
 49
4.638791018232751
 49
-2.319395509116375
 49
0
 49
-2.319395509116375
  0
LTYPE
  2
DASHED
 70
64
  3
__ __ __ __ __
 72
65
 73
2
 40
6.958186527349126
 49
4.638791018232751
 49
-2.319395509116375
  0
LTYPE
  2
DIVIDE
 70
64
  3
__ . . __ . . 
 72
65
 73
6
 40
11.59697754558188
 49
4.638791018232751
 49
-2.319395509116375
 49
0
 49
-2.319395509116375
 49
0
 49
-2.319395509116375
  0
LTYPE
  2
DOT
 70
64
  3
..............
 72
65
 73
4
 40
4.638791018232751
 49
0
 49
-2.319395509116375
 49
0
 49
-2.319395509116375
  0
LTYPE
  2
HIDDEN
 70
64
  3
_ _ _ _ _ _ _
 72
65
 73
2
 40
3.479093263674563
 49
2.319395509116375
 49
-1.159697754558188
  0
LTYPE
  2
PHANTOM
 70
64
  3
_____ _ _ _____ _ _ 
 72
65
 73
6
 40
23.19395509116375
 49
11.59697754558188
 49
-2.319395509116375
 49
2.319395509116375
 49
-2.319395509116375
 49
2.319395509116375
 49
-2.319395509116375
  0
ENDTAB
  0
TABLE
  2
LAYER
 70
3
  0
LAYER
  2
1
 70
0
 62
7
  6
CONTINUOUS
  0
LAYER
  2
0
 70
0
 62
7
  6
CONTINUOUS
  0
ENDTAB
  0
TABLE
  2
STYLE
 70
4
  0
STYLE
  2
STANDARD
 70
0
 40
0
 41
1
 50
0
 71
0
 42
3.5
  3
txt
  4

  0
STYLE
  2
SIMPLEX
 70
0
 40
0
 41
1
 50
0
 71
0
 42
3.5
  3
simplex
  4

  0
STYLE
  2
COMPLEX
 70
0
 40
0
 41
1
 50
0
 71
0
 42
3.5
  3
complex
  4

  0
STYLE
  2
ITALIC
 70
0
 40
0
 41
1
 50
0
 71
0
 42
3.5
  3
italic
  4

  0
ENDTAB
  0
TABLE
  2
VIEW
 70
0
  0
ENDTAB
  0
ENDSEC
  0
SECTION
  2
BLOCKS
  0
BLOCK
  8
0
  2
____M3_________1
 70
0
 10
-22.3654813564132
 20
19.5427094849934
 30
0
  0
LINE
  8
1
 62
3
 10
-23.09521454588567
 20
20.79570169254396
 30
0
 11
-22.48417517473306
 21
20.18466232139133
 31
0
  0
LINE
  8
1
 62
3
 10
-21.63574816694071
 20
20.79570169254396
 30
0
 11
-22.24678753809334
 21
20.18466232139133
 31
0
  0
LINE
  8
1
 62
3
 10
-23.61847356396372
 20
18.81297629552091
 30
0
 11
-23.0074341928111
 21
19.42401566667354
 31
0
  0
LINE
  8
1
 62
3
 10
-23.61847356396372
 20
20.27244267446588
 30
0
 11
-23.00743419281111
 21
19.66140330331331
 31
0
  0
LINE
  8
1
 62
3
 10
-22.24678753809334
 20
18.90075664859552
 30
0
 11
-22.24065258827343
 21
18.89462169877561
 31
0
  0
LINE
  8
1
 62
3
 10
-22.24065258827343
 20
18.89462169877561
 30
0
 11
-21.63574816694072
 21
18.28971727744289
 31
0
  0
LINE
  8
1
 62
3
 10
-23.09521454588567
 20
18.28971727744289
 30
0
 11
-22.48417517473305
 21
18.90075664859552
 31
0
  0
LINE
  8
1
 62
3
 10
-21.11248914886267
 20
20.27244267446588
 30
0
 11
-21.72352852001529
 21
19.66140330331331
 31
0
  0
LINE
  8
1
 62
3
 10
-21.11248914886268
 20
18.81297629552091
 30
0
 11
-21.72352852001529
 21
19.42401566667354
 31
0
  0
ARC
  8
1
 62
3
 10
-22.3654813564132
 20
19.5427094849934
 30
0
 40
1.450000000000007
 50
30.21619828525087
 51
59.78380171474959
  0
ARC
  8
1
 62
3
 10
-22.3654813564132
 20
19.5427094849934
 30
0
 40
0.6349999999999959
 50
82.5415509436947
 51
97.45844905630561
  0
ARC
  8
1
 62
3
 10
-22.3654813564132
 20
19.5427094849934
 30
0
 40
1.450000000000034
 50
120.2161982852499
 51
149.783801714749
  0
ARC
  8
1
 62
3
 10
-22.3654813564132
 20
19.5427094849934
 30
0
 40
0.6349999999999988
 50
172.5415509436928
 51
187.4584490563023
  0
ARC
  8
1
 62
3
 10
-22.3654813564132
 20
19.5427094849934
 30
0
 40
1.450000000000008
 50
210.2161982852512
 51
239.783801714749
  0
ARC
  8
1
 62
3
 10
-22.3654813564132
 20
19.5427094849934
 30
0
 40
0.6350000000000036
 50
262.5415509436945
 51
277.4584490563067
  0
ARC
  8
1
 62
3
 10
-22.3654813564132
 20
19.5427094849934
 30
0
 40
1.449999999999992
 50
300.2161982852512
 51
329.7838017147487
  0
ARC
  8
1
 62
3
 10
-22.3654813564132
 20
19.5427094849934
 30
0
 40
0.6349999999999884
 50
352.5415509436975
 51
7.458449056307252
  0
CIRCLE
  8
1
 62
3
 10
-22.3654813564132
 20
19.5427094849934
 30
0
 40
2.549999999999997
  0
ARC
  8
1
 62
3
 10
-22.45353388088164
 20
20.21530361524276
 30
0
 40
0.04333333333334598
 50
225.00000000001
 51
277.4584490562969
  0
ARC
  8
1
 62
3
 10
-22.27742883194476
 20
20.2153036152427
 30
0
 40
0.04333333333331359
 50
262.5415509436928
 51
315.0000000000465
  0
ARC
  8
1
 62
3
 10
-23.03807548666252
 20
19.45465696052497
 30
0
 40
0.04333333333334598
 50
314.9999999999901
 51
7.458449056333375
  0
ARC
  8
1
 62
3
 10
-23.03807548666252
 20
19.63076200946188
 30
0
 40
0.04333333333333748
 50
352.5415509436685
 51
45.00000000001993
  0
ARC
  8
1
 62
3
 10
-22.27742883194475
 20
18.87011535474409
 30
0
 40
0.04333333333333844
 50
45.00000000001993
 51
97.45844905629872
  0
ARC
  8
1
 62
3
 10
-22.45353388088164
 20
18.87011535474409
 30
0
 40
0.04333333333331359
 50
82.54155094369274
 51
134.9999999999801
  0
ARC
  8
1
 62
3
 10
-21.69288722616387
 20
19.63076200946188
 30
0
 40
0.04333333333334598
 50
134.99999999999
 51
187.4584490563297
  0
ARC
  8
1
 62
3
 10
-21.69288722616387
 20
19.45465696052497
 30
0
 40
0.04333333333334805
 50
172.5415509436703
 51
225.00000000001
  0
ENDBLK
  8
0
  0
BLOCK
  8
0
  2
____M3_________2
 70
0
 10
26.13451864358677
 20
19.5427094849934
 30
0
  0
LINE
  8
1
 62
3
 10
25.4047854541143
 20
20.79570169254396
 30
0
 11
26.0158248252669
 21
20.18466232139133
 31
0
  0
LINE
  8
1
 62
3
 10
26.86425183305926
 20
20.79570169254396
 30
0
 11
26.25321246190663
 21
20.18466232139133
 31
0
  0
LINE
  8
1
 62
3
 10
24.88152643603625
 20
18.81297629552091
 30
0
 11
25.49256580718887
 21
19.42401566667354
 31
0
  0
LINE
  8
1
 62
3
 10
24.88152643603625
 20
20.27244267446588
 30
0
 11
25.49256580718885
 21
19.66140330331331
 31
0
  0
LINE
  8
1
 62
3
 10
26.25321246190663
 20
18.90075664859552
 30
0
 11
26.25934741172654
 21
18.89462169877561
 31
0
  0
LINE
  8
1
 62
3
 10
26.25934741172654
 20
18.89462169877561
 30
0
 11
26.86425183305925
 21
18.28971727744289
 31
0
  0
LINE
  8
1
 62
3
 10
25.4047854541143
 20
18.28971727744289
 30
0
 11
26.01582482526692
 21
18.90075664859552
 31
0
  0
LINE
  8
1
 62
3
 10
27.38751085113729
 20
20.27244267446588
 30
0
 11
26.77647147998468
 21
19.66140330331331
 31
0
  0
LINE
  8
1
 62
3
 10
27.38751085113729
 20
18.81297629552091
 30
0
 11
26.77647147998468
 21
19.42401566667354
 31
0
  0
ARC
  8
1
 62
3
 10
26.13451864358677
 20
19.5427094849934
 30
0
 40
1.450000000000001
 50
30.21619828525102
 51
59.78380171474948
  0
ARC
  8
1
 62
3
 10
26.13451864358677
 20
19.5427094849934
 30
0
 40
0.6349999999999973
 50
82.54155094369374
 51
97.45844905630531
  0
ARC
  8
1
 62
3
 10
26.13451864358677
 20
19.5427094849934
 30
0
 40
1.450000000000033
 50
120.2161982852498
 51
149.783801714749
  0
ARC
  8
1
 62
3
 10
26.13451864358677
 20
19.5427094849934
 30
0
 40
0.6350000000000058
 50
172.5415509436929
 51
187.4584490563024
  0
ARC
  8
1
 62
3
 10
26.13451864358677
 20
19.5427094849934
 30
0
 40
1.450000000000005
 50
210.2161982852513
 51
239.7838017147492
  0
ARC
  8
1
 62
3
 10
26.13451864358677
 20
19.5427094849934
 30
0
 40
0.635000000000003
 50
262.5415509436948
 51
277.4584490563067
  0
ARC
  8
1
 62
3
 10
26.13451864358677
 20
19.5427094849934
 30
0
 40
1.449999999999992
 50
300.2161982852512
 51
329.7838017147487
  0
ARC
  8
1
 62
3
 10
26.13451864358677
 20
19.5427094849934
 30
0
 40
0.6349999999999884
 50
352.5415509436975
 51
7.458449056307252
  0
CIRCLE
  8
1
 62
3
 10
26.13451864358677
 20
19.5427094849934
 30
0
 40
2.54999999999999
  0
ARC
  8
1
 62
3
 10
26.04646611911833
 20
20.21530361524276
 30
0
 40
0.04333333333335351
 50
225
 51
277.4584490562969
  0
ARC
  8
1
 62
3
 10
26.2225711680552
 20
20.2153036152427
 30
0
 40
0.04333333333331128
 50
262.5415509437161
 51
315.0000000000564
  0
ARC
  8
1
 62
3
 10
25.46192451333744
 20
19.45465696052497
 30
0
 40
0.04333333333335351
 50
315
 51
7.458449056331545
  0
ARC
  8
1
 62
3
 10
25.46192451333744
 20
19.63076200946188
 30
0
 40
0.04333333333333748
 50
352.5415509436685
 51
45.00000000001993
  0
ARC
  8
1
 62
3
 10
26.22257116805522
 20
18.87011535474409
 30
0
 40
0.04333333333333844
 50
45.00000000001993
 51
97.45844905630339
  0
ARC
  8
1
 62
3
 10
26.04646611911833
 20
18.87011535474409
 30
0
 40
0.04333333333331359
 50
82.54155094369274
 51
134.9999999999801
  0
ARC
  8
1
 62
3
 10
26.80711277383611
 20
19.63076200946188
 30
0
 40
0.04333333333335351
 50
135
 51
187.4584490563279
  0
ARC
  8
1
 62
3
 10
26.80711277383611
 20
19.45465696052497
 30
0
 40
0.04333333333335862
 50
172.5415509436721
 51
225
  0
ENDBLK
  8
0
  0
BLOCK
  8
0
  2
____M3_________3
 70
0
 10
1.884518643586777
 20
-22.4572905150066
 30
0
  0
LINE
  8
1
 62
3
 10
3.137510851137296
 20
-23.18702370447909
 30
0
 11
2.526471479984675
 21
-22.57598433332646
 31
0
  0
LINE
  8
1
 62
3
 10
3.137510851137307
 20
-21.72755732553412
 30
0
 11
2.526471479984675
 21
-22.33859669668675
 31
0
  0
LINE
  8
1
 62
3
 10
1.154785454114307
 20
-23.71028272255711
 30
0
 11
1.765824825266918
 21
-23.09924335140448
 31
0
  0
LINE
  8
1
 62
3
 10
2.009347411726555
 20
-23.10537830122439
 30
0
 11
2.614251833059257
 21
-23.71028272255711
 31
0
  0
LINE
  8
1
 62
3
 10
2.003212461906628
 20
-23.09924335140448
 30
0
 11
2.009347411726555
 21
-23.10537830122439
 31
0
  0
LINE
  8
1
 62
3
 10
0.6315264360362569
 20
-21.72755732553412
 30
0
 11
1.242565807188868
 21
-22.33859669668675
 31
0
  0
LINE
  8
1
 62
3
 10
0.6315264360362569
 20
-23.18702370447909
 30
0
 11
1.242565807188868
 21
-22.57598433332646
 31
0
  0
LINE
  8
1
 62
3
 10
2.614251833059267
 20
-21.20429830745604
 30
0
 11
2.003212461906628
 21
-21.81533767860867
 31
0
  0
LINE
  8
1
 62
3
 10
1.154785454114307
 20
-21.2042983074561
 30
0
 11
1.765824825266918
 21
-21.81533767860867
 31
0
  0
ARC
  8
1
 62
3
 10
1.884518643586777
 20
-22.4572905150066
 30
0
 40
0.6349999999999775
 50
352.5415509436974
 51
7.458449056307379
  0
ARC
  8
1
 62
3
 10
1.884518643586777
 20
-22.4572905150066
 30
0
 40
1.449999999999992
 50
300.2161982852512
 51
329.7838017147487
  0
ARC
  8
1
 62
3
 10
1.884518643586777
 20
-22.4572905150066
 30
0
 40
0.635000000000003
 50
262.5415509436948
 51
277.4584490563053
  0
ARC
  8
1
 62
3
 10
1.884518643586777
 20
-22.4572905150066
 30
0
 40
1.450000000000005
 50
210.2161982852513
 51
239.7838017147491
  0
ARC
  8
1
 62
3
 10
1.884518643586777
 20
-22.4572905150066
 30
0
 40
0.6349999999999953
 50
172.5415509436927
 51
187.4584490563024
  0
ARC
  8
1
 62
3
 10
1.884518643586777
 20
-22.4572905150066
 30
0
 40
1.449999999999981
 50
120.216198285251
 51
149.783801714749
  0
ARC
  8
1
 62
3
 10
1.884518643586777
 20
-22.4572905150066
 30
0
 40
0.6349999999999959
 50
82.5415509436947
 51
97.45844905630527
  0
ARC
  8
1
 62
3
 10
1.884518643586777
 20
-22.4572905150066
 30
0
 40
1.45000000000001
 50
30.21619828525081
 51
59.78380171474949
  0
CIRCLE
  8
1
 62
3
 10
1.884518643586777
 20
-22.4572905150066
 30
0
 40
2.54999999999999
  0
ARC
  8
1
 62
3
 10
2.557112773836106
 20
-22.54534303947503
 30
0
 40
0.04333333333335818
 50
172.541550943672
 51
225.0000000000004
  0
ARC
  8
1
 62
3
 10
2.557112773836106
 20
-22.36923799053812
 30
0
 40
0.04333333333331049
 50
135.000000000056
 51
187.458449056328
  0
ARC
  8
1
 62
3
 10
1.796466119118335
 20
-23.12988464525591
 30
0
 40
0.04333333333331413
 50
82.54155094368723
 51
134.9999999999867
  0
ARC
  8
1
 62
3
 10
1.972571168055225
 20
-23.12988464525591
 30
0
 40
0.04333333333333357
 50
45.00000000002636
 51
97.45844905632065
  0
ARC
  8
1
 62
3
 10
1.211924513337447
 20
-22.36923799053812
 30
0
 40
0.04333333333334827
 50
352.5415509436704
 51
44.99999999995308
  0
ARC
  8
1
 62
3
 10
1.211924513337447
 20
-22.54534303947503
 30
0
 40
0.04333333333334629
 50
314.9999999999905
 51
7.458449056331545
  0
ARC
  8
1
 62
3
 10
1.972571168055207
 20
-21.7846963847573
 30
0
 40
0.04333333333331257
 50
262.5415509437029
 51
315.0000000000469
  0
ARC
  8
1
 62
3
 10
1.796466119118335
 20
-21.78469638475724
 30
0
 40
0.04333333333334347
 50
225.0000000000133
 51
277.4584490563024
  0
ENDBLK
  8
0
  0
BLOCK
  8
0
  2
MOJINOMUKI
 70
0
 10
199.2753818555985
 20
64.90079792480367
 30
0
  0
LINE
  8
1
 62
2
 10
196.2753818555985
 20
64.90079792480367
 30
0
 11
196.2753818555985
 21
90.90079792480367
 31
0
  0
LINE
  8
1
 62
2
 10
196.2753818555985
 20
90.90079792480367
 30
0
 11
202.2753818555985
 21
90.90079792480367
 31
0
  0
LINE
  8
1
 62
2
 10
202.2753818555985
 20
90.90079792480367
 30
0
 11
202.2753818555985
 21
64.90079792480367
 31
0
  0
LINE
  8
1
 62
2
 10
202.2753818555985
 20
64.90079792480367
 30
0
 11
196.2753818555985
 21
64.90079792480367
 31
0
  0
LINE
  8
1
 62
2
 10
196.2753818555985
 20
70.90079792480367
 30
0
 11
202.2753818555985
 21
70.90079792480367
 31
0
  0
LINE
  8
1
 62
2
 10
201.7753818555985
 20
67.90079792480367
 30
0
 11
196.7753818555985
 21
67.90079792480367
 31
0
  0
LINE
  8
1
 62
2
 10
196.7753818555985
 20
67.90079792480367
 30
0
 11
199.2753818555985
 21
66.40079792480367
 31
0
  0
LINE
  8
1
 62
2
 10
199.2753818555985
 20
66.40079792480367
 30
0
 11
199.2753818555985
 21
68.90079792480367
 31
0
  0
TEXT
  8
1
 62
2
 10
201.2753818555985
 20
62.94754348693385
 30
0
 40
4
  1
òÂÄÜé╠î³é½
 50
90
 41
0.9
 72
1
 73
2
 11
199.2753818555985
 21
80.94754348693385
 31
0
  0
ENDBLK
  8
0
  0
BLOCK
  8
1
  2
*D0
 70
1
 10
0
 20
0
 30
0
  0
LINE
  8
1
 62
2
 10
3.884518643586768
 20
50.54270948499343
 30
0
 11
16.19055547724307
 21
50.54270948499343
 31
0
  0
LINE
  8
1
 62
2
 10
-0.1154813564132304
 20
50.54270948499343
 30
0
 11
3.884518643586768
 21
50.54270948499343
 31
0
  0
LINE
  8
1
 62
2
 10
-6.515481356413231
 20
50.54270948499343
 30
0
 11
-0.1154813564132304
 21
50.54270948499343
 31
0
  0
LINE
  8
1
 62
2
 10
3.884518643586768
 20
26.12528517994927
 30
0
 11
3.884518643586768
 21
51.54270948499343
 31
0
  0
LINE
  8
1
 62
2
 10
-0.1154813564132304
 20
26.12528517994927
 30
0
 11
-0.1154813564132304
 21
51.54270948499343
 31
0
  0
SOLID
  8
1
 62
2
 10
-0.1154813564132304
 20
50.54270948499343
 30
0
 11
-3.315481356413231
 21
50.12670948499343
 31
0
 12
-3.315481356413231
 22
50.95870948499343
 32
0
 13
-3.315481356413231
 23
50.95870948499343
 33
0
  0
SOLID
  8
1
 62
2
 10
3.884518643586768
 20
50.54270948499343
 30
0
 11
7.084518643586769
 21
50.95870948499343
 31
0
 12
7.084518643586769
 22
50.12670948499343
 32
0
 13
7.084518643586769
 23
50.12670948499343
 33
0
  0
TEXT
  8
1
 62
2
 10
5.90255547724307
 20
53.34270948499343
 30
0
 40
3.2
  1
4
 41
0.9
  0
TEXT
  8
1
 62
2
 10
9.422555477243069
 20
55.42270948499343
 30
0
 40
1.92
  1
+0.03
 41
0.9
  0
TEXT
  8
1
 62
2
 10
9.422555477243069
 20
52.54270948499343
 30
0
 40
1.92
  1
 0
 41
0.9
  0
ENDBLK
  8
0
  0
BLOCK
  8
1
  2
*D1
 70
1
 10
0
 20
0
 30
0
  0
LINE
  8
1
 62
2
 10
-27.11548135641322
 20
60.54270948499342
 30
0
 11
30.88451864358678
 21
60.54270948499342
 31
0
  0
LINE
  8
1
 62
2
 10
30.88451864358678
 20
44.54270948499342
 30
0
 11
30.88451864358678
 21
61.54270948499342
 31
0
  0
LINE
  8
1
 62
2
 10
-27.11548135641322
 20
44.54270948499342
 30
0
 11
-27.11548135641322
 21
61.54270948499342
 31
0
  0
SOLID
  8
1
 62
2
 10
-27.11548135641322
 20
60.54270948499342
 30
0
 11
-23.91548135641322
 21
60.95870948499342
 31
0
 12
-23.91548135641322
 22
60.12670948499343
 32
0
 13
-23.91548135641322
 23
60.12670948499343
 33
0
  0
SOLID
  8
1
 62
2
 10
30.88451864358678
 20
60.54270948499342
 30
0
 11
27.68451864358678
 21
60.12670948499343
 31
0
 12
27.68451864358678
 22
60.95870948499342
 32
0
 13
27.68451864358678
 23
60.95870948499342
 33
0
  0
TEXT
  8
1
 62
2
 10
-3.924306393435424
 20
62.54270948499342
 30
0
 40
3.2
  1
58
 41
0.9
  0
TEXT
  8
1
 62
2
 10
2.475693606564576
 20
63.18270948499342
 30
0
 40
1.92
  1
%%p0.3
 41
0.9
  0
ENDBLK
  8
0
  0
BLOCK
  8
1
  2
*D2
 70
1
 10
0
 20
0
 30
0
  0
LINE
  8
1
 62
2
 10
-33.11548135641322
 20
70.54270948499342
 30
0
 11
36.88451864358677
 21
70.54270948499342
 31
0
  0
LINE
  8
1
 62
2
 10
36.88451864358677
 20
35.54270948499343
 30
0
 11
36.88451864358677
 21
71.54270948499342
 31
0
  0
LINE
  8
1
 62
2
 10
-33.11548135641322
 20
35.54270948499343
 30
0
 11
-33.11548135641322
 21
71.54270948499342
 31
0
  0
SOLID
  8
1
 62
2
 10
-33.11548135641322
 20
70.54270948499342
 30
0
 11
-29.91548135641322
 21
70.95870948499342
 31
0
 12
-29.91548135641322
 22
70.12670948499343
 32
0
 13
-29.91548135641322
 23
70.12670948499343
 33
0
  0
SOLID
  8
1
 62
2
 10
36.88451864358677
 20
70.54270948499342
 30
0
 11
33.68451864358676
 21
70.12670948499343
 31
0
 12
33.68451864358676
 22
70.95870948499342
 32
0
 13
33.68451864358676
 23
70.95870948499342
 33
0
  0
TEXT
  8
1
 62
2
 10
-0.6359405436235239
 20
72.54270948499342
 30
0
 40
3.2
  1
70
 41
0.9
  0
ENDBLK
  8
0
  0
BLOCK
  8
1
  2
*D3
 70
1
 10
0
 20
0
 30
0
  0
LINE
  8
1
 62
2
 10
56.88451864358677
 20
-23.45729051500659
 30
0
 11
56.88451864358677
 21
34.54270948499341
 31
0
  0
LINE
  8
1
 62
2
 10
40.88451864358677
 20
34.54270948499341
 30
0
 11
57.88451864358677
 21
34.54270948499341
 31
0
  0
LINE
  8
1
 62
2
 10
40.88451864358677
 20
-23.45729051500659
 30
0
 11
57.88451864358677
 21
-23.45729051500659
 31
0
  0
SOLID
  8
1
 62
2
 10
56.88451864358677
 20
34.54270948499341
 30
0
 11
57.30051864358677
 21
31.34270948499341
 31
0
 12
56.46851864358678
 22
31.34270948499341
 32
0
 13
56.46851864358678
 23
31.34270948499341
 33
0
  0
SOLID
  8
1
 62
2
 10
56.88451864358677
 20
-23.45729051500659
 30
0
 11
56.46851864358677
 21
-20.25729051500659
 31
0
 12
57.30051864358677
 22
-20.25729051500659
 32
0
 13
57.30051864358677
 23
-20.25729051500659
 33
0
  0
TEXT
  8
1
 62
2
 10
54.88451864358678
 20
-1.110107533507021
 30
0
 40
3.2
  1
58
 50
90
 41
0.9
  0
TEXT
  8
1
 62
2
 10
54.24451864358678
 20
5.289892466492979
 30
0
 40
1.92
  1
%%p0.3
 50
90
 41
0.9
  0
ENDBLK
  8
0
  0
BLOCK
  8
1
  2
*D4
 70
1
 10
0
 20
0
 30
0
  0
LINE
  8
1
 62
2
 10
66.88451864358677
 20
-29.4572905150066
 30
0
 11
66.88451864358677
 21
40.5427094849934
 31
0
  0
LINE
  8
1
 62
2
 10
31.88451864358678
 20
40.5427094849934
 30
0
 11
67.88451864358677
 21
40.5427094849934
 31
0
  0
LINE
  8
1
 62
2
 10
31.88451864358677
 20
-29.4572905150066
 30
0
 11
67.88451864358677
 21
-29.4572905150066
 31
0
  0
SOLID
  8
1
 62
2
 10
66.88451864358677
 20
40.5427094849934
 30
0
 11
67.30051864358677
 21
37.34270948499339
 31
0
 12
66.46851864358678
 22
37.34270948499339
 32
0
 13
66.46851864358678
 23
37.34270948499339
 33
0
  0
SOLID
  8
1
 62
2
 10
66.88451864358677
 20
-29.4572905150066
 30
0
 11
66.46851864358678
 21
-26.25729051500661
 31
0
 12
67.30051864358677
 22
-26.25729051500661
 32
0
 13
67.30051864358677
 23
-26.25729051500661
 33
0
  0
TEXT
  8
1
 62
2
 10
64.88451864358677
 20
2.178258316304868
 30
0
 40
3.2
  1
70
 50
90
 41
0.9
  0
ENDBLK
  8
0
  0
BLOCK
  8
1
  2
*D5
 70
1
 10
0
 20
0
 30
0
  0
LINE
  8
1
 62
2
 10
-41.18480272972273
 20
5.542709484993381
 30
0
 11
-41.18480272972273
 21
20.54270948499338
 31
0
  0
LINE
  8
1
 62
2
 10
-17.11548135641323
 20
20.54270948499338
 30
0
 11
-42.18480272972273
 21
20.54270948499338
 31
0
  0
LINE
  8
1
 62
2
 10
-39.11548135641323
 20
5.542709484993381
 30
0
 11
-42.18480272972273
 21
5.542709484993381
 31
0
  0
SOLID
  8
1
 62
2
 10
-41.18480272972273
 20
20.54270948499338
 30
0
 11
-40.76880272972273
 21
17.34270948499338
 31
0
 12
-41.60080272972273
 22
17.34270948499338
 32
0
 13
-41.60080272972273
 23
17.34270948499338
 33
0
  0
SOLID
  8
1
 62
2
 10
-41.18480272972273
 20
5.542709484993381
 30
0
 11
-41.60080272972273
 21
8.742709484993382
 31
0
 12
-40.76880272972273
 22
8.742709484993382
 32
0
 13
-40.76880272972273
 23
8.742709484993382
 33
0
  0
TEXT
  8
1
 62
2
 10
-43.18480272972273
 20
10.83239660333665
 30
0
 40
3.2
  1
15
 50
90
 41
0.9
  0
ENDBLK
  8
0
  0
BLOCK
  8
1
  2
*D6
 70
1
 10
0
 20
0
 30
0
  0
LINE
  8
1
 62
2
 10
260.957588024377
 20
50.54270948499342
 30
0
 11
267.357588024377
 21
50.54270948499342
 31
0
  0
LINE
  8
1
 62
2
 10
258.957588024377
 20
50.54270948499342
 30
0
 11
260.957588024377
 21
50.54270948499342
 31
0
  0
LINE
  8
1
 62
2
 10
252.557588024377
 20
50.54270948499342
 30
0
 11
258.957588024377
 21
50.54270948499342
 31
0
  0
LINE
  8
1
 62
2
 10
260.957588024377
 20
41.54270948499342
 30
0
 11
260.957588024377
 21
51.54270948499342
 31
0
  0
LINE
  8
1
 62
2
 10
258.957588024377
 20
38.54270948499342
 30
0
 11
258.957588024377
 21
51.54270948499342
 31
0
  0
SOLID
  8
1
 62
2
 10
258.957588024377
 20
50.54270948499342
 30
0
 11
255.757588024377
 21
50.12670948499342
 31
0
 12
255.757588024377
 22
50.95870948499341
 32
0
 13
255.757588024377
 23
50.95870948499341
 33
0
  0
SOLID
  8
1
 62
2
 10
260.957588024377
 20
50.54270948499342
 30
0
 11
264.157588024377
 21
50.95870948499341
 31
0
 12
264.157588024377
 22
50.12670948499342
 32
0
 13
264.157588024377
 23
50.12670948499342
 33
0
  0
TEXT
  8
1
 62
2
 10
264.737677033728
 20
52.54270948499342
 30
0
 40
3.2
  1
2
 41
0.9
  0
ENDBLK
  8
0
  0
BLOCK
  8
1
  2
*D7
 70
1
 10
0
 20
0
 30
0
  0
LINE
  8
1
 62
2
 10
247.957588024377
 20
60.54270948499342
 30
0
 11
260.957588024377
 21
60.54270948499342
 31
0
  0
LINE
  8
1
 62
2
 10
260.957588024377
 20
41.54270948499342
 30
0
 11
260.957588024377
 21
61.54270948499342
 31
0
  0
LINE
  8
1
 62
2
 10
247.957588024377
 20
9.942709484993415
 30
0
 11
247.957588024377
 21
61.54270948499342
 31
0
  0
SOLID
  8
1
 62
2
 10
260.957588024377
 20
60.54270948499342
 30
0
 11
257.757588024377
 21
60.12670948499343
 31
0
 12
257.757588024377
 22
60.95870948499342
 32
0
 13
257.757588024377
 23
60.95870948499342
 33
0
  0
SOLID
  8
1
 62
2
 10
247.957588024377
 20
60.54270948499342
 30
0
 11
251.157588024377
 21
60.95870948499342
 31
0
 12
251.157588024377
 22
60.12670948499343
 32
0
 13
251.157588024377
 23
60.12670948499343
 33
0
  0
TEXT
  8
1
 62
2
 10
252.736547232028
 20
62.54270948499342
 30
0
 40
3.2
  1
13
 41
0.9
  0
ENDBLK
  8
0
  0
BLOCK
  8
1
  2
*D8
 70
1
 10
0
 20
0
 30
0
  0
LINE
  8
1
 62
2
 10
232.957588024377
 20
-26.45729051500657
 30
0
 11
232.957588024377
 21
37.54270948499343
 31
0
  0
LINE
  8
1
 62
2
 10
257.957588024377
 20
37.54270948499343
 30
0
 11
231.957588024377
 21
37.54270948499343
 31
0
  0
LINE
  8
1
 62
2
 10
257.957588024377
 20
-26.45729051500657
 30
0
 11
231.957588024377
 21
-26.45729051500657
 31
0
  0
SOLID
  8
1
 62
2
 10
232.957588024377
 20
37.54270948499343
 30
0
 11
233.373588024377
 21
34.34270948499343
 31
0
 12
232.541588024377
 22
34.34270948499343
 32
0
 13
232.541588024377
 23
34.34270948499343
 33
0
  0
SOLID
  8
1
 62
2
 10
232.957588024377
 20
-26.45729051500657
 30
0
 11
232.541588024377
 21
-23.25729051500657
 31
0
 12
233.373588024377
 22
-23.25729051500657
 32
0
 13
233.373588024377
 23
-23.25729051500657
 33
0
  0
TEXT
  8
1
 62
2
 10
230.157588024377
 20
-2.904107697741777
 30
0
 40
3.2
  1
64h7
 50
90
 41
0.9
  0
TEXT
  8
1
 62
2
 10
228.077588024377
 20
9.255892302258225
 30
0
 40
1.92
  1
 0
 50
90
 41
0.9
  0
TEXT
  8
1
 62
2
 10
230.957588024377
 20
9.255892302258225
 30
0
 40
1.92
  1
-0.030
 50
90
 41
0.9
  0
TEXT
  8
1
 62
2
 10
230.157588024377
 20
-6.548552142186219
 30
0
 40
3.2
  1
âË
 50
90
 41
0.9
  0
ENDBLK
  8
0
  0
BLOCK
  8
1
  2
*D9
 70
1
 10
0
 20
0
 30
0
  0
LINE
  8
1
 62
2
 10
110.0858272076717
 20
25.5427094849934
 30
0
 11
110.0858272076717
 21
33.97104068614122
 31
0
  0
LINE
  8
1
 62
2
 10
110.0858272076717
 20
23.0427094849934
 30
0
 11
110.0858272076717
 21
25.5427094849934
 31
0
  0
LINE
  8
1
 62
2
 10
110.0858272076717
 20
16.6427094849934
 30
0
 11
110.0858272076717
 21
23.0427094849934
 31
0
  0
LINE
  8
1
 62
2
 10
119.5858272076717
 20
25.5427094849934
 30
0
 11
108.0858272076717
 21
25.5427094849934
 31
0
  0
LINE
  8
1
 62
2
 10
119.0858272076717
 20
23.0427094849934
 30
0
 11
108.0858272076717
 21
23.0427094849934
 31
0
  0
SOLID
  8
1
 62
2
 10
110.0858272076717
 20
23.0427094849934
 30
0
 11
110.5018272076717
 21
19.8427094849934
 31
0
 12
109.6698272076717
 22
19.8427094849934
 32
0
 13
109.6698272076717
 23
19.8427094849934
 33
0
  0
SOLID
  8
1
 62
2
 10
110.0858272076717
 20
25.5427094849934
 30
0
 11
109.6698272076717
 21
28.74270948499339
 31
0
 12
110.5018272076717
 22
28.74270948499339
 32
0
 13
110.5018272076717
 23
28.74270948499339
 33
0
  0
TEXT
  8
1
 62
2
 10
108.0858272076717
 20
28.13104068614122
 30
0
 40
3.2
  1
2.5
 50
90
 41
0.9
  0
ENDBLK
  8
0
  0
BLOCK
  8
1
  2
*D10
 70
1
 10
0
 20
0
 30
0
  0
LINE
  8
1
 62
2
 10
100.0858272076717
 20
15.5427094849934
 30
0
 11
100.0858272076717
 21
25.5427094849934
 31
0
  0
LINE
  8
1
 62
2
 10
119.5858272076718
 20
25.5427094849934
 30
0
 11
98.08582720767171
 21
25.5427094849934
 31
0
  0
LINE
  8
1
 62
2
 10
119.5858272076718
 20
15.5427094849934
 30
0
 11
98.08582720767171
 21
15.5427094849934
 31
0
  0
SOLID
  8
1
 62
2
 10
100.0858272076717
 20
25.5427094849934
 30
0
 11
100.5018272076717
 21
22.3427094849934
 31
0
 12
99.66982720767172
 22
22.3427094849934
 32
0
 13
99.66982720767172
 23
22.3427094849934
 33
0
  0
SOLID
  8
1
 62
2
 10
100.0858272076717
 20
15.5427094849934
 30
0
 11
99.66982720767172
 21
18.7427094849934
 31
0
 12
100.5018272076717
 22
18.7427094849934
 32
0
 13
100.5018272076717
 23
18.7427094849934
 33
0
  0
TEXT
  8
1
 62
2
 10
96.4519459768092
 20
16.26093170721562
 30
0
 40
3.2
  1
10
 50
90
 41
0.9
  0
TEXT
  8
1
 62
2
 10
94.3719459768092
 20
23.23693170721562
 30
0
 40
1.92
  1
0
 50
90
 41
0.9
  0
TEXT
  8
1
 62
2
 10
97.25194597680921
 20
21.70093170721562
 30
0
 40
1.92
  1
-0.02
 50
90
 41
0.9
  0
TEXT
  8
1
 62
2
 10
96.4519459768092
 20
12.61648726277118
 30
0
 40
3.2
  1
âË
 50
90
 41
0.9
  0
ENDBLK
  8
0
  0
BLOCK
  8
1
  2
*D11
 70
1
 10
0
 20
0
 30
0
  0
LINE
  8
1
 62
2
 10
90.08582720767168
 20
5.542709484993331
 30
0
 11
90.08582720767168
 21
35.54270948499333
 31
0
  0
LINE
  8
1
 62
2
 10
149.5858272076717
 20
35.54270948499333
 30
0
 11
88.08582720767168
 21
35.54270948499333
 31
0
  0
LINE
  8
1
 62
2
 10
149.5858272076717
 20
5.542709484993331
 30
0
 11
88.08582720767168
 21
5.542709484993331
 31
0
  0
SOLID
  8
1
 62
2
 10
90.08582720767168
 20
35.54270948499333
 30
0
 11
90.50182720767168
 21
32.34270948499333
 31
0
 12
89.66982720767169
 22
32.34270948499333
 32
0
 13
89.66982720767169
 23
32.34270948499333
 33
0
  0
SOLID
  8
1
 62
2
 10
90.08582720767168
 20
5.542709484993331
 30
0
 11
89.66982720767169
 21
8.742709484993332
 31
0
 12
90.50182720767168
 22
8.742709484993332
 32
0
 13
90.50182720767168
 23
8.742709484993332
 33
0
  0
TEXT
  8
1
 62
2
 10
88.08582720767166
 20
19.70641460212738
 30
0
 40
3.2
  1
30
 50
90
 41
0.9
  0
TEXT
  8
1
 62
2
 10
88.08582720767166
 20
16.06197015768294
 30
0
 40
3.2
  1
âË
 50
90
 41
0.9
  0
ENDBLK
  8
0
  0
BLOCK
  8
1
  2
*D12
 70
1
 10
0
 20
0
 30
0
  0
LINE
  8
1
 62
2
 10
120.0858272076717
 20
40.54270948499342
 30
0
 11
145.0858272076717
 21
40.54270948499342
 31
0
  0
LINE
  8
1
 62
2
 10
145.0858272076717
 20
24.04270948499343
 30
0
 11
145.0858272076717
 21
42.54270948499342
 31
0
  0
LINE
  8
1
 62
2
 10
120.0858272076717
 20
26.25403435039861
 30
0
 11
120.0858272076717
 21
42.54270948499342
 31
0
  0
SOLID
  8
1
 62
2
 10
120.0858272076717
 20
40.54270948499342
 30
0
 11
123.2858272076717
 21
40.95870948499342
 31
0
 12
123.2858272076717
 22
40.12670948499343
 32
0
 13
123.2858272076717
 23
40.12670948499343
 33
0
  0
SOLID
  8
1
 62
2
 10
145.0858272076717
 20
40.54270948499342
 30
0
 11
141.8858272076718
 21
40.12670948499343
 31
0
 12
141.8858272076718
 22
40.95870948499342
 32
0
 13
141.8858272076718
 23
40.95870948499342
 33
0
  0
TEXT
  8
1
 62
2
 10
130.7949820683676
 20
42.54270948499342
 30
0
 40
3.2
  1
25
 41
0.9
  0
ENDBLK
  8
0
  0
BLOCK
  8
1
  2
*D13
 70
1
 10
0
 20
0
 30
0
  0
LINE
  8
1
 62
2
 10
205.0858272076715
 20
-26.45729051500656
 30
0
 11
205.0858272076715
 21
37.54270948499344
 31
0
  0
LINE
  8
1
 62
2
 10
188.5858272076715
 20
37.54270948499344
 30
0
 11
206.0858272076715
 21
37.54270948499344
 31
0
  0
LINE
  8
1
 62
2
 10
188.5858272076715
 20
-26.45729051500656
 30
0
 11
206.0858272076715
 21
-26.45729051500656
 31
0
  0
SOLID
  8
1
 62
2
 10
205.0858272076715
 20
37.54270948499344
 30
0
 11
205.5018272076715
 21
34.34270948499343
 31
0
 12
204.6698272076715
 22
34.34270948499343
 32
0
 13
204.6698272076715
 23
34.34270948499343
 33
0
  0
SOLID
  8
1
 62
2
 10
205.0858272076715
 20
-26.45729051500656
 30
0
 11
204.6698272076715
 21
-23.25729051500656
 31
0
 12
205.5018272076715
 22
-23.25729051500656
 32
0
 13
205.5018272076715
 23
-23.25729051500656
 33
0
  0
TEXT
  8
1
 62
2
 10
202.2858272076715
 20
-3.714494355124971
 30
0
 40
3.2
  1
64H7
 50
90
 41
0.9
  0
TEXT
  8
1
 62
2
 10
200.2058272076715
 20
8.765505644875031
 30
0
 40
1.92
  1
+0.030
 50
90
 41
0.9
  0
TEXT
  8
1
 62
2
 10
203.0858272076715
 20
8.765505644875031
 30
0
 40
1.92
  1
 0
 50
90
 41
0.9
  0
TEXT
  8
1
 62
2
 10
202.2858272076715
 20
-7.358938799569414
 30
0
 40
3.2
  1
âË
 50
90
 41
0.9
  0
ENDBLK
  8
0
  0
BLOCK
  8
1
  2
*D14
 70
1
 10
0
 20
0
 30
0
  0
LINE
  8
1
 62
2
 10
155.0858272076715
 20
70.54270948499342
 30
0
 11
185.0858272076715
 21
70.54270948499342
 31
0
  0
LINE
  8
1
 62
2
 10
185.0858272076715
 20
40.54270948499343
 30
0
 11
185.0858272076715
 21
71.54270948499342
 31
0
  0
LINE
  8
1
 62
2
 10
155.0858272076715
 20
41.04270948499343
 30
0
 11
155.0858272076715
 21
71.54270948499342
 31
0
  0
SOLID
  8
1
 62
2
 10
155.0858272076715
 20
70.54270948499342
 30
0
 11
158.2858272076715
 21
70.95870948499342
 31
0
 12
158.2858272076715
 22
70.12670948499343
 32
0
 13
158.2858272076715
 23
70.12670948499343
 33
0
  0
SOLID
  8
1
 62
2
 10
185.0858272076715
 20
70.54270948499342
 30
0
 11
181.8858272076715
 21
70.12670948499343
 31
0
 12
181.8858272076715
 22
70.95870948499342
 32
0
 13
181.8858272076715
 23
70.95870948499342
 33
0
  0
TEXT
  8
1
 62
2
 10
168.4611447158179
 20
72.54270948499342
 30
0
 40
3.2
  1
30
 41
0.9
  0
ENDBLK
  8
0
  0
BLOCK
  8
1
  2
*D15
 70
1
 10
0
 20
0
 30
0
  0
LINE
  8
1
 62
2
 10
150.0858272076716
 20
60.54270948499339
 30
0
 11
155.0858272076716
 21
60.54270948499339
 31
0
  0
LINE
  8
1
 62
2
 10
150.0858272076716
 20
60.54270948499339
 30
0
 11
143.6858272076716
 21
60.54270948499339
 31
0
  0
LINE
  8
1
 62
2
 10
155.0858272076716
 20
60.54270948499339
 30
0
 11
161.4858272076716
 21
60.54270948499339
 31
0
  0
LINE
  8
1
 62
2
 10
150.0858272076716
 20
36.0427094849934
 30
0
 11
150.0858272076716
 21
62.04270948499339
 31
0
  0
LINE
  8
1
 62
2
 10
155.0858272076716
 20
41.0427094849934
 30
0
 11
155.0858272076716
 21
62.04270948499339
 31
0
  0
SOLID
  8
1
 62
2
 10
155.0858272076716
 20
60.54270948499339
 30
0
 11
158.2858272076716
 21
60.95870948499338
 31
0
 12
158.2858272076716
 22
60.12670948499339
 32
0
 13
158.2858272076716
 23
60.12670948499339
 33
0
  0
SOLID
  8
1
 62
2
 10
150.0858272076716
 20
60.54270948499339
 30
0
 11
146.8858272076716
 21
60.12670948499339
 31
0
 12
146.8858272076716
 22
60.95870948499338
 32
0
 13
146.8858272076716
 23
60.95870948499338
 33
0
  0
TEXT
  8
1
 62
2
 10
151.536566114097
 20
62.54270948499339
 30
0
 40
3.2
  1
5
 41
0.9
  0
ENDBLK
  8
0
  0
BLOCK
  8
1
  2
*D16
 70
1
 10
0
 20
0
 30
0
  0
LINE
  8
1
 62
2
 10
120.0858272076718
 20
70.5427094849934
 30
0
 11
155.0858272076716
 21
70.5427094849934
 31
0
  0
LINE
  8
1
 62
2
 10
120.0858272076718
 20
26.25403435039863
 30
0
 11
120.0858272076718
 21
72.0427094849934
 31
0
  0
LINE
  8
1
 62
2
 10
155.0858272076716
 20
41.0427094849934
 30
0
 11
155.0858272076716
 21
72.0427094849934
 31
0
  0
SOLID
  8
1
 62
2
 10
155.0858272076716
 20
70.5427094849934
 30
0
 11
151.8858272076716
 21
70.1267094849934
 31
0
 12
151.8858272076716
 22
70.95870948499339
 32
0
 13
151.8858272076716
 23
70.95870948499339
 33
0
  0
SOLID
  8
1
 62
2
 10
120.0858272076718
 20
70.5427094849934
 30
0
 11
123.2858272076718
 21
70.95870948499339
 31
0
 12
123.2858272076718
 22
70.1267094849934
 32
0
 13
123.2858272076718
 23
70.1267094849934
 33
0
  0
TEXT
  8
1
 62
2
 10
134.537368963761
 20
72.5427094849934
 30
0
 40
3.2
  1
35
 41
0.9
  0
ENDBLK
  8
0
  0
BLOCK
  8
1
  2
*D17
 70
1
 10
0
 20
0
 30
0
  0
LINE
  8
1
 62
2
 10
42.04451864358677
 20
50.54270948499341
 30
0
 11
63.21978351315438
 21
50.54270948499341
 31
0
  0
LINE
  8
1
 62
2
 10
32.45775341301112
 20
36.79824320459822
 30
0
 11
42.04451864358677
 21
50.54270948499341
 31
0
  0
SOLID
  8
1
 62
2
 10
32.45775341301112
 20
36.79824320459822
 30
0
 11
33.94722586203015
 21
39.66085177434947
 31
0
 12
34.62962733647058
 22
39.18487674592726
 32
0
 13
34.62962733647058
 23
39.18487674592726
 33
0
  0
TEXT
  8
1
 62
2
 10
53.02422795759882
 20
52.16163275522498
 30
0
 40
3.2
  1
5.5
 41
0.9
  0
TEXT
  8
1
 62
2
 10
43.93978351315438
 20
52.16163275522498
 30
0
 40
3.2
  1
4-âË
 41
0.9
  0
TEXT
  8
1
 62
2
 10
60.46422795759883
 20
52.16163275522498
 30
0
 40
3.2
  1
îè
 41
0.9
  0
ENDBLK
  8
0
  0
BLOCK
  8
1
  2
*D18
 70
1
 10
0
 20
0
 30
0
  0
LINE
  8
1
 62
2
 10
41.14887596729723
 20
17.38797199605601
 30
0
 11
-37.37983868012368
 21
-6.302553026069184
 31
0
  0
SOLID
  8
1
 62
2
 10
-37.37983868012368
 20
-6.302553026069184
 30
0
 11
-34.43636493507746
 21
-4.980048465690071
 31
0
 12
-34.19606424364663
 22
-5.776590729288097
 32
0
 13
-34.19606424364663
 23
-5.776590729288097
 33
0
  0
SOLID
  8
1
 62
2
 10
41.14887596729723
 20
17.38797199605601
 30
0
 11
38.205402222251
 21
16.0654674356769
 31
0
 12
37.96510153082018
 22
16.86200969927492
 32
0
 13
37.96510153082018
 23
16.86200969927492
 33
0
  0
TEXT
  8
1
 62
2
 10
-24.33406277310782
 20
-0.277877136266961
 30
0
 40
3.2
  1
82
 50
16.787500663032
 41
0.9
  0
TEXT
  8
1
 62
2
 10
-29.20182105065131
 20
-1.746381361677564
 30
0
 40
3.2
  1
(âË
 50
16.787500663032
 41
0.9
  0
TEXT
  8
1
 62
2
 10
-18.20681459158454
 20
1.570589720893239
 30
0
 40
3.2
  1
)
 50
16.787500663032
 41
0.9
  0
ENDBLK
  8
0
  0
ENDSEC
  0
SECTION
  2
ENTITIES
  0
POINT
  8
1
 62
4
  6
DIVIDE
 10
150.5858272076716
 20
35.5427094849934
 30
0
  0
POINT
  8
1
 62
4
  6
DIVIDE
 10
150.5858272076716
 20
5.542709484993395
 30
0
  0
LINE
  8
1
 62
2
 10
253.677936382447
 20
8.942709484993429
 30
0
 11
255.334305251966
 21
2.142709484993418
 31
0
  0
LINE
  8
1
 62
2
 10
252.677936382447
 20
8.942709484993429
 30
0
 11
254.334305251966
 21
2.142709484993418
 31
0
  0
LINE
  8
1
 62
2
 10
251.677936382447
 20
8.942709484993429
 30
0
 11
253.334305251966
 21
2.142709484993418
 31
0
  0
LINE
  8
1
 62
2
 10
243.235724897326
 20
-92.01277164968855
 30
0
 11
287.235724897326
 21
-92.01277164968855
 31
0
  0
LINE
  8
1
 62
1
 10
-38.11548135641323
 20
5.542709484993395
 30
0
 11
41.88451864358677
 21
5.542709484993395
 31
0
  0
LINE
  8
1
 62
1
 10
1.884518643586777
 20
45.54270948499334
 30
0
 11
1.884518643586777
 21
-34.4572905150066
 31
0
  0
LINE
  8
1
 62
3
 10
-27.11548135641322
 20
40.54270948499334
 30
0
 11
30.88451864358677
 21
40.5427094849934
 31
0
  0
LINE
  8
1
 62
3
 10
36.88451864358677
 20
34.5427094849934
 30
0
 11
36.88451864358677
 21
-23.4572905150066
 31
0
  0
LINE
  8
1
 62
3
 10
30.88451864358677
 20
-29.4572905150066
 30
0
 11
-27.11548135641322
 21
-29.4572905150066
 31
0
  0
LINE
  8
1
 62
3
 10
-33.11548135641323
 20
-23.4572905150066
 30
0
 11
-33.11548135641323
 21
34.5427094849934
 31
0
  0
LINE
  8
1
 62
1
 10
-36.11548135641323
 20
-23.4572905150066
 30
0
 11
-18.11548135641322
 21
-23.4572905150066
 31
0
  0
LINE
  8
1
 62
1
 10
21.88451864358677
 20
-23.4572905150066
 30
0
 11
39.88451864358677
 21
-23.4572905150066
 31
0
  0
LINE
  8
1
 62
1
 10
21.88451864358677
 20
34.5427094849934
 30
0
 11
39.88451864358677
 21
34.5427094849934
 31
0
  0
LINE
  8
1
 62
1
 10
-36.11548135641323
 20
34.5427094849934
 30
0
 11
-18.11548135641322
 21
34.5427094849934
 31
0
  0
LINE
  8
1
 62
1
 10
-27.11548135641322
 20
43.5427094849934
 30
0
 11
-27.11548135641322
 21
25.5427094849934
 31
0
  0
LINE
  8
1
 62
1
 10
-27.11548135641322
 20
-14.4572905150066
 30
0
 11
-27.11548135641322
 21
-32.4572905150066
 31
0
  0
LINE
  8
1
 62
1
 10
30.88451864358677
 20
-32.4572905150066
 30
0
 11
30.88451864358677
 21
-14.4572905150066
 31
0
  0
LINE
  8
1
 62
1
 10
30.88451864358677
 20
25.5427094849934
 30
0
 11
30.88451864358677
 21
43.54270948499334
 31
0
  0
LINE
  8
1
 62
1
 10
-16.11548135641322
 20
20.5427094849934
 30
0
 11
19.88451864358677
 21
20.5427094849934
 31
0
  0
LINE
  8
1
 62
3
 10
-0.1154813564132233
 20
25.12528517994917
 30
0
 11
-0.1154813564132233
 21
23.0427094849934
 31
0
  0
LINE
  8
1
 62
3
 10
-0.1154813564132233
 20
23.0427094849934
 30
0
 11
3.884518643586777
 21
23.0427094849934
 31
0
  0
LINE
  8
1
 62
3
 10
3.884518643586777
 20
23.0427094849934
 30
0
 11
3.884518643586777
 21
25.12528517994923
 31
0
  0
LINE
  8
1
 62
1
 10
-27.36548135641319
 20
19.5427094849934
 30
0
 11
-17.3654813564132
 21
19.5427094849934
 31
0
  0
LINE
  8
1
 62
1
 10
21.13451864358677
 20
19.54270948499334
 30
0
 11
31.13451864358677
 21
19.5427094849934
 31
0
  0
LINE
  8
1
 62
1
 10
-3.115481356413223
 20
-22.4572905150066
 30
0
 11
6.884518643586777
 21
-22.4572905150066
 31
0
  0
LINE
  8
1
 62
1
 10
26.13451864358677
 20
14.5427094849934
 30
0
 11
26.13451864358677
 21
24.5427094849934
 31
0
  0
LINE
  8
1
 62
1
 10
-22.3654813564132
 20
24.5427094849934
 30
0
 11
-22.3654813564132
 21
14.5427094849934
 31
0
  0
LINE
  8
1
 62
3
 10
-21.61548135641322
 20
41.5427094849934
 30
0
 11
25.38451864358678
 21
41.5427094849934
 31
0
  0
LINE
  8
1
 62
3
 10
260.957588024377
 20
40.5427094849934
 30
0
 11
260.957588024377
 21
37.5427094849934
 31
0
  0
LINE
  8
1
 62
3
 10
260.957588024377
 20
37.5427094849934
 30
0
 11
258.957588024377
 21
37.5427094849934
 31
0
  0
LINE
  8
1
 62
3
 10
258.957588024377
 20
37.5427094849934
 30
0
 11
258.957588024377
 21
-26.4572905150066
 31
0
  0
LINE
  8
1
 62
3
 10
258.957588024377
 20
-26.4572905150066
 30
0
 11
260.957588024377
 21
-26.4572905150066
 31
0
  0
LINE
  8
1
 62
3
 10
260.957588024377
 20
-26.4572905150066
 30
0
 11
260.957588024377
 21
-29.4572905150066
 31
0
  0
LINE
  8
1
 62
3
 10
260.957588024377
 20
37.5427094849934
 30
0
 11
260.957588024377
 21
-26.4572905150066
 31
0
  0
LINE
  8
1
 62
3
 10
260.957588024377
 20
40.5427094849934
 30
0
 11
267.957588024377
 21
40.5427094849934
 31
0
  0
LINE
  8
1
 62
3
 10
260.957588024377
 20
-29.4572905150066
 30
0
 11
267.957588024377
 21
-29.4572905150066
 31
0
  0
LINE
  8
1
 62
3
 10
258.957588024377
 20
8.942709484993429
 30
0
 11
247.957588024377
 21
8.942709484993429
 31
0
  0
LINE
  8
1
 62
3
 10
247.957588024377
 20
8.942709484993429
 30
0
 11
247.957588024377
 21
2.142709484993418
 31
0
  0
LINE
  8
1
 62
3
 10
247.957588024377
 20
2.142709484993418
 30
0
 11
258.957588024377
 21
2.142709484993418
 31
0
  0
LINE
  8
1
 62
1
 10
242.957588024377
 20
5.542709484993395
 30
0
 11
270.957588024377
 21
5.542709484993395
 31
0
  0
LINE
  8
1
 62
1
  6
CENTER
 10
245.957588024377
 20
8.342709484993406
 30
0
 11
258.957588024377
 21
8.342709484993406
 31
0
  0
LINE
  8
1
 62
1
  6
CENTER
 10
245.957588024377
 20
2.742709484993384
 30
0
 11
258.957588024377
 21
2.742709484993384
 31
0
  0
LINE
  8
1
 62
2
 10
289.735724897326
 20
-54.01277164968852
 30
0
 11
240.735724897326
 21
-54.01277164968852
 31
0
  0
LINE
  8
1
 62
2
 10
240.735724897326
 20
-61.01277164968852
 30
0
 11
289.735724897326
 21
-61.01277164968852
 31
0
  0
LINE
  8
1
 62
2
 10
289.735724897326
 20
-68.01277164968852
 30
0
 11
240.735724897326
 21
-68.01277164968852
 31
0
  0
LINE
  8
1
 62
2
 10
240.735724897326
 20
-75.01277164968855
 30
0
 11
289.735724897326
 21
-75.01277164968855
 31
0
  0
LINE
  8
1
 62
2
 10
289.735724897326
 20
-82.01277164968855
 30
0
 11
240.735724897326
 21
-82.01277164968855
 31
0
  0
LINE
  8
1
 62
3
 10
120.0858272076718
 20
20.5427094849934
 30
0
 11
120.0858272076718
 21
25.25403435039863
 31
0
  0
LINE
  8
1
 62
3
 10
120.0858272076718
 20
25.25403435039863
 30
0
 11
120.5858272076718
 21
25.5427094849934
 31
0
  0
LINE
  8
1
 62
1
 10
150.0858272076716
 20
20.5427094849934
 30
0
 11
115.0858272076718
 21
20.5427094849934
 31
0
  0
LINE
  8
1
 62
3
 10
120.5858272076718
 20
25.5427094849934
 30
0
 11
150.0858272076718
 21
25.5427094849934
 31
0
  0
LINE
  8
1
 62
2
  6
DASHED
 10
120.0858272076718
 20
23.0427094849934
 30
0
 11
145.0858272076718
 21
23.0427094849934
 31
0
  0
LINE
  8
1
 62
3
 10
120.0858272076718
 20
15.83138461958816
 30
0
 11
120.0858272076718
 21
20.5427094849934
 31
0
  0
LINE
  8
1
 62
3
 10
120.5858272076718
 20
15.5427094849934
 30
0
 11
120.0858272076718
 21
15.83138461958816
 31
0
  0
LINE
  8
1
 62
3
 10
150.0858272076718
 20
15.5427094849934
 30
0
 11
120.5858272076718
 21
15.5427094849934
 31
0
  0
LINE
  8
1
 62
1
 10
190.0858272076716
 20
5.542709484993395
 30
0
 11
145.0858272076716
 21
5.542709484993395
 31
0
  0
LINE
  8
1
 62
3
 10
150.5858272076716
 20
35.5427094849934
 30
0
 11
155.0858272076716
 21
35.5427094849934
 31
0
  0
LINE
  8
1
 62
3
 10
150.0858272076716
 20
6.042709484993395
 30
0
 11
150.0858272076716
 21
35.0427094849934
 31
0
  0
LINE
  8
1
 62
3
 10
156.0858272076716
 20
5.542709484993392
 30
0
 11
150.5858272076716
 21
5.542709484993395
 31
0
  0
LINE
  8
1
 62
1
 10
160.7858272076716
 20
20.5427094849934
 30
0
 11
150.0858272076716
 21
20.5427094849934
 31
0
  0
LINE
  8
1
 62
3
 10
159.3198246271853
 20
41.11714402314201
 30
0
 11
179.3167474673856
 21
41.46796723086482
 31
0
  0
LINE
  8
1
 62
1
 10
181.0858272076716
 20
37.5427094849934
 30
0
 11
187.5858272076716
 21
37.5427094849934
 31
0
  0
LINE
  8
1
 62
1
 10
181.0858272076716
 20
-26.4572905150066
 30
0
 11
187.5858272076716
 21
-26.4572905150066
 31
0
  0
LINE
  8
1
 62
3
 10
156.0858272076716
 20
-17.4572905150066
 30
0
 11
156.0858272076716
 21
-22.4572905150066
 31
0
  0
LINE
  8
1
 62
3
 10
156.0858272076716
 20
28.5427094849934
 30
0
 11
156.0858272076716
 21
33.5427094849934
 31
0
  0
LINE
  8
1
 62
3
 10
156.0858272076716
 20
28.5427094849934
 30
0
 11
156.0858272076716
 21
-17.4572905150066
 31
0
  0
LINE
  8
1
 62
3
 10
155.0858272076716
 20
28.5427094849934
 30
0
 11
156.0858272076716
 21
28.5427094849934
 31
0
  0
LINE
  8
1
 62
3
 10
155.0858272076716
 20
-17.4572905150066
 30
0
 11
156.0858272076716
 21
-17.4572905150066
 31
0
  0
LINE
  8
1
 62
3
 10
183.5858272076716
 20
-29.4572905150066
 30
0
 11
155.0858272076716
 21
-28.9572905150066
 31
0
  0
LINE
  8
1
 62
3
 10
183.5858272076716
 20
-28.4572905150066
 30
0
 11
185.0858272076716
 21
-28.4572905150066
 31
0
  0
LINE
  8
1
 62
3
 10
183.5858272076716
 20
39.5427094849934
 30
0
 11
185.0858272076716
 21
39.5427094849934
 31
0
  0
LINE
  8
1
 62
3
 10
155.0858272076716
 20
40.0427094849934
 30
0
 11
183.5858272076716
 21
40.5427094849934
 31
0
  0
LINE
  8
1
 62
3
 10
155.0858272076716
 20
-17.4572905150066
 30
0
 11
155.0858272076716
 21
-28.9572905150066
 31
0
  0
LINE
  8
1
 62
3
 10
155.0858272076716
 20
40.0427094849934
 30
0
 11
155.0858272076716
 21
28.5427094849934
 31
0
  0
LINE
  8
1
 62
3
 10
183.5858272076716
 20
-29.4572905150066
 30
0
 11
183.5858272076716
 21
40.5427094849934
 31
0
  0
LINE
  8
1
 62
3
 10
185.0858272076716
 20
39.5427094849934
 30
0
 11
185.0858272076716
 21
-28.4572905150066
 31
0
  0
LINE
  8
1
 62
1
 10
152.5858272076716
 20
34.5427094849934
 30
0
 11
161.0858272076716
 21
34.5427094849934
 31
0
  0
LINE
  8
1
 62
1
 10
152.5858272076716
 20
-23.4572905150066
 30
0
 11
161.0858272076716
 21
-23.4572905150066
 31
0
  0
ARC
  8
1
 62
3
 10
-27.11548135641322
 20
-23.4572905150066
 30
0
 40
6
 50
270
 51
180
  0
ARC
  8
1
 62
3
 10
-27.11548135641322
 20
34.5427094849934
 30
0
 40
6.000000000000007
 50
180
 51
90
  0
ARC
  8
1
 62
3
 10
30.88451864358677
 20
34.5427094849934
 30
0
 40
6
 50
90
 51
0
  0
ARC
  8
1
 62
3
 10
30.88451864358677
 20
-23.4572905150066
 30
0
 40
6.000000000000004
 50
0
 51
270
  0
ARC
  8
1
 62
2
 10
1.884518643586777
 20
5.542709484993395
 30
0
 40
41.01219330881975
 50
190.7362366387865
 51
236.8772603887695
  0
ARC
  8
1
 62
2
 10
1.884518643586777
 20
5.542709484993395
 30
0
 40
41.01219330881976
 50
10.73623663878658
 51
56.87726038876951
  0
ARC
  8
1
 62
2
  6
DASHED
 10
145.0858272076718
 20
29.2927094849934
 30
0
 40
6.25
 50
270
 51
323.130102354156
  0
CIRCLE
  8
1
 62
3
 10
-27.11548135641322
 20
34.5427094849934
 30
0
 40
2.75
  0
CIRCLE
  8
1
 62
3
 10
-27.11548135641322
 20
-23.4572905150066
 30
0
 40
2.75
  0
CIRCLE
  8
1
 62
3
 10
30.88451864358677
 20
-23.4572905150066
 30
0
 40
2.750000000000004
  0
CIRCLE
  8
1
 62
3
 10
30.88451864358677
 20
34.5427094849934
 30
0
 40
2.750000000000004
  0
CIRCLE
  8
1
 62
3
 10
1.884518643586777
 20
20.5427094849934
 30
0
 40
14.99999999999999
  0
CIRCLE
  8
1
 62
3
 10
1.884518643586777
 20
20.5427094849934
 30
0
 40
5
  0
CIRCLE
  8
1
 62
3
 10
1.884518643586777
 20
20.5427094849934
 30
0
 40
6
  0
CIRCLE
  8
1
 62
3
 10
1.884518643586777
 20
-22.4572905150066
 30
0
 40
3.29999999999999
  0
CIRCLE
  8
1
 62
3
 10
26.13451864358677
 20
19.5427094849934
 30
0
 40
3.29999999999999
  0
CIRCLE
  8
1
 62
3
 10
-22.3654813564132
 20
19.5427094849934
 30
0
 40
3.299999999999997
  0
CIRCLE
  8
1
 62
4
  6
DIVIDE
 10
1.884518643586777
 20
5.542709484993395
 30
0
 40
41.01219330881975
  0
ARC
  8
1
 62
3
 10
-27.11548135641322
 20
34.5427094849934
 30
0
 40
5.999999999999936
 50
90
 51
180
  0
ARC
  8
1
 62
3
 10
30.88451864358677
 20
34.5427094849934
 30
0
 40
6.000000000000004
 50
0
 51
90
  0
ARC
  8
1
 62
3
 10
30.88451864358677
 20
-23.4572905150066
 30
0
 40
6
 50
270
 51
0
  0
ARC
  8
1
 62
3
 10
-27.11548135641322
 20
-23.4572905150066
 30
0
 40
6.000000000000007
 50
180
 51
270
  0
ARC
  8
1
 62
3
 10
150.5858272076716
 20
6.042709484993395
 30
0
 40
0.5
 50
180
 51
270
  0
ARC
  8
1
 62
3
 10
150.5858272076716
 20
35.0427094849934
 30
0
 40
0.5
 50
90
 51
180
  0
LINE
  8
1
 62
2
 10
289.735724897326
 20
-47.01277164968852
 30
0
 11
240.735724897326
 21
-47.01277164968852
 31
0
  0
LINE
  8
1
 62
2
 10
240.735724897326
 20
-47.01277164968852
 30
0
 11
252.1420611434785
 21
2.142709484993418
 31
0
  0
SOLID
  8
1
 62
2
 10
251.8291165581233
 20
-1.069696040300034
 30
0
 11
251.0083481557481
 21
-0.8792399576495926
 31
0
 12
252.1420611434785
 22
2.142709484993418
 32
0
 13
252.1420611434785
 23
2.142709484993418
 33
0
  0
LINE
  8
1
 62
2
 10
218.9460627080314
 20
57.52124205906847
 30
0
 11
190.9460627080314
 21
57.52124205906847
 31
0
  0
LINE
  8
1
 62
2
 10
190.9460627080314
 20
57.52124205906847
 30
0
 11
171.8893692768802
 21
41.33613348561943
 31
0
  0
SOLID
  8
1
 62
2
 10
174.0556825416763
 20
43.72874093591449
 30
0
 11
174.6011195827699
 21
43.08653168344361
 31
0
 12
171.8893692768802
 22
41.33613348561943
 32
0
 13
171.8893692768802
 23
41.33613348561943
 33
0
  0
TEXT
  8
1
 62
2
 10
229.235724897326
 20
-90.76277164968855
 30
0
 40
4
  1
èÜìçæèÄÞâsâjâIâôÄdùl
 41
0.9
 72
1
 11
265.235724897326
 21
-90.76277164968855
 31
0
  0
TEXT
  8
1
 62
2
 10
243.615417430328
 20
-45.59662398586892
 30
0
 40
4
  1
âwü@âèü@âJü@âïü@Ädü@ùl
 41
0.9
  0
TEXT
  8
1
 62
2
 10
243.615417430328
 20
-52.59662398586892
 30
0
 40
4
  1
âéâWâàü|âïü@üFü@éOüDéT
 41
0.9
  0
TEXT
  8
1
 62
2
 10
243.615417430328
 20
-59.59662398586892
 30
0
 40
4
  1
ê%%dü@ù═ü@èpü@üFü@éQéO%%d
 41
0.9
  0
TEXT
  8
1
 62
2
 10
243.615417430328
 20
-66.59662398586892
 30
0
 40
4
  1
Äòü@ü@ü@Éöü@üFü@éPéO
 41
0.9
  0
TEXT
  8
1
 62
2
 10
243.615417430328
 20
-73.59662398586892
 30
0
 40
4
  1
èOü@ü@ü@îaü@üFâËéUüDéW
 41
0.9
  0
TEXT
  8
1
 62
2
 10
243.615417430328
 20
-80.59662398586892
 30
0
 40
4
  1
é╦éÂéÛò¹î³ü@üFü@ü@ëE
 41
0.9
  0
TEXT
  8
1
 62
2
 10
191.5566248177805
 20
57.99612369998448
 30
0
 40
4
  1
âlü|âÇâvâîü|âg
 41
0.9
  0
TEXT
  8
1
 62
2
 10
-62.81239248836305
 20
-126.070800061966
 30
0
 40
8
  1
7H3~18FN(FBN)
 41
0.9
  0
DIMENSION
  8
1
  6
CONTINUOUS
 62
2
  2
*D0
  3
DMST_1
 10
3.884518643586768
 20
50.54270948499343
 30
0
 11
11.04655547724307
 21
54.94270948499343
 31
0
 12
0
 22
0
 32
0
 70
1
 13
-0.1154813564132233
 23
25.12528517994917
 33
0
 14
3.884518643586777
 24
25.12528517994923
 34
0
 53
0
  0
DIMENSION
  8
1
  6
CONTINUOUS
 62
2
  2
*D1
  3
DMST_2
 10
30.88451864358678
 20
60.54270948499342
 30
0
 11
2.179693606564577
 21
64.14270948499342
 31
0
 12
0
 22
0
 32
0
 70
1
 13
-27.11548135641322
 23
43.5427094849934
 33
0
 14
30.88451864358677
 24
43.54270948499334
 34
0
 53
0
  0
DIMENSION
  8
1
  6
CONTINUOUS
 62
2
  2
*D2
  3
DMST_3
 10
-33.11548135641322
 20
70.54270948499342
 30
0
 11
1.764059456376476
 21
74.14270948499342
 31
0
 12
0
 22
0
 32
0
 70
1
 13
36.88451864358677
 23
34.5427094849934
 33
0
 14
-33.11548135641323
 24
34.5427094849934
 34
0
 53
0
  0
DIMENSION
  8
1
  6
CONTINUOUS
 62
2
  2
*D3
  3
DMST_2
 10
56.88451864358677
 20
-23.45729051500659
 30
0
 11
53.28451864358678
 21
4.99389246649298
 31
0
 12
0
 22
0
 32
0
 70
1
 13
39.88451864358677
 23
34.5427094849934
 33
0
 14
39.88451864358677
 24
-23.4572905150066
 34
0
 53
0
  0
DIMENSION
  8
1
  6
CONTINUOUS
 62
2
  2
*D4
  3
DMST_3
 10
66.88451864358677
 20
-29.4572905150066
 30
0
 11
63.28451864358678
 21
4.578258316304868
 31
0
 12
0
 22
0
 32
0
 70
1
 13
30.88451864358677
 23
40.5427094849934
 33
0
 14
30.88451864358677
 24
-29.4572905150066
 34
0
 53
0
  0
DIMENSION
  8
1
  6
CONTINUOUS
 62
2
  2
*D5
  3
DMST_3
 10
-41.18480272972273
 20
5.542709484993381
 30
0
 11
-44.78480272972273
 21
12.75239660333665
 31
0
 12
0
 22
0
 32
0
 70
0
 13
-16.11548135641322
 23
20.5427094849934
 33
0
 14
-38.11548135641323
 24
5.542709484993395
 34
0
 50
90
 53
0
  0
DIMENSION
  8
1
  6
CONTINUOUS
 62
2
  2
*D6
  3
DMST_3
 10
260.957588024377
 20
50.54270948499342
 30
0
 11
265.697677033728
 21
54.14270948499342
 31
0
 12
0
 22
0
 32
0
 70
0
 13
258.957588024377
 23
37.5427094849934
 33
0
 14
260.957588024377
 24
40.5427094849934
 34
0
 53
0
  0
DIMENSION
  8
1
  6
CONTINUOUS
 62
2
  2
*D7
  3
DMST_3
 10
260.957588024377
 20
60.54270948499342
 30
0
 11
254.656547232028
 21
64.14270948499342
 31
0
 12
0
 22
0
 32
0
 70
0
 13
247.957588024377
 23
8.942709484993429
 33
0
 14
260.957588024377
 24
40.5427094849934
 34
0
 53
0
  0
DIMENSION
  8
1
  6
CONTINUOUS
 62
2
  2
*D8
  3
DMST_4
 10
232.957588024377
 20
37.54270948499343
 30
0
 11
228.557588024377
 21
5.601670080036001
 31
0
 12
0
 22
0
 32
0
 70
1
  1
64h7
 13
258.957588024377
 23
-26.4572905150066
 33
0
 14
258.957588024377
 24
37.5427094849934
 34
0
 53
0
  0
DIMENSION
  8
1
  6
CONTINUOUS
 62
2
  2
*D9
  3
DMST_5
 10
110.0858272076717
 20
25.5427094849934
 30
0
 11
106.4858272076717
 21
31.05104068614122
 31
0
 12
0
 22
0
 32
0
 70
0
 13
120.0858272076718
 23
23.0427094849934
 33
0
 14
120.5858272076718
 24
25.5427094849934
 34
0
 50
90
 53
0
  0
DIMENSION
  8
1
  6
CONTINUOUS
 62
2
  2
*D10
  3
DMST_6
 10
100.0858272076717
 20
15.5427094849934
 30
0
 11
94.8519459768092
 21
20.5427094849934
 31
0
 12
0
 22
0
 32
0
 70
0
  1
âË<>
 13
120.5858272076718
 23
25.5427094849934
 33
0
 14
120.5858272076718
 24
15.5427094849934
 34
0
 50
90
 53
0
  0
DIMENSION
  8
1
  6
CONTINUOUS
 62
2
  2
*D11
  3
DMST_5
 10
90.08582720767168
 20
5.542709484993331
 30
0
 11
86.48582720767166
 21
20.28419237990516
 31
0
 12
0
 22
0
 32
0
 70
0
  1
âË<>
 13
150.5858272076716
 23
35.5427094849934
 33
0
 14
150.5858272076716
 24
5.542709484993395
 34
0
 50
90
 53
0
  0
DIMENSION
  8
1
  6
CONTINUOUS
 62
2
  2
*D12
  3
DMST_5
 10
145.0858272076717
 20
40.54270948499342
 30
0
 11
133.1949820683676
 21
44.14270948499342
 31
0
 12
0
 22
0
 32
0
 70
0
 13
120.0858272076718
 23
25.25403435039863
 33
0
 14
145.0858272076718
 24
23.0427094849934
 34
0
 53
0
  0
DIMENSION
  8
1
  6
CONTINUOUS
 62
2
  2
*D13
  3
DMST_4
 10
205.0858272076715
 20
-26.45729051500656
 30
0
 11
200.6858272076715
 21
4.951283422652807
 31
0
 12
0
 22
0
 32
0
 70
1
  1
64H7
 13
187.5858272076716
 23
37.5427094849934
 33
0
 14
187.5858272076716
 24
-26.4572905150066
 34
0
 53
0
  0
DIMENSION
  8
1
  6
CONTINUOUS
 62
2
  2
*D14
  3
DMST_3
 10
185.0858272076715
 20
70.54270948499342
 30
0
 11
170.8611447158179
 21
74.14270948499342
 31
0
 12
0
 22
0
 32
0
 70
0
 13
155.0858272076716
 23
40.0427094849934
 33
0
 14
185.0858272076716
 24
39.5427094849934
 34
0
 53
0
  0
DIMENSION
  8
1
  6
CONTINUOUS
 62
2
  2
*D15
  3
DMST_7
 10
150.0858272076716
 20
60.54270948499339
 30
0
 11
152.496566114097
 21
64.14270948499339
 31
0
 12
0
 22
0
 32
0
 70
0
 13
155.0858272076716
 23
40.0427094849934
 33
0
 14
150.0858272076716
 24
35.0427094849934
 34
0
 53
0
  0
DIMENSION
  8
1
  6
CONTINUOUS
 62
2
  2
*D16
  3
DMST_7
 10
120.0858272076718
 20
70.5427094849934
 30
0
 11
136.937368963761
 21
74.14270948499339
 31
0
 12
0
 22
0
 32
0
 70
0
 13
155.0858272076716
 23
40.0427094849934
 33
0
 14
120.0858272076718
 24
25.25403435039863
 34
0
 53
0
  0
DIMENSION
  8
1
  6
CONTINUOUS
 62
2
  2
*D18
  3
DMST_8
 10
41.14887596729723
 20
17.38797199605601
 30
0
 11
-23.93666272860085
 21
1.513233732132164
 31
0
 12
0
 22
0
 32
0
 70
3
  1
82
 15
-37.37983868012368
 25
-6.302553026069184
 35
0
 40
0
 53
0
  0
INSERT
  8
0
  2
____M3_________1
 10
-22.3654813564132
 20
19.5427094849934
 30
0
  0
INSERT
  8
0
  2
____M3_________2
 10
26.13451864358677
 20
19.5427094849934
 30
0
  0
INSERT
  8
0
  2
____M3_________3
 10
1.884518643586777
 20
-22.4572905150066
 30
0
  0
INSERT
  8
0
  2
MOJINOMUKI
 10
199.2753818555985
 20
64.90079792480367
 30
0
  0
INSERT
  8
1
  2
*D17
 10
0
 20
0
 30
0
  0
ENDSEC
  0
EOF
