  0
SECTION
  2
HEADER
  9
$ACADVER
  1
AC1009
  9
$INSBASE
 10
0
 20
0
  9
$EXTMIN
 10
-655.506134339818
 20
-69.6079718199246
  9
$EXTMAX
 10
-387.5566148356672
 20
93.61960278037125
  9
$LIMMIN
 10
-655.506134339818
 20
-69.6079718199246
  9
$LIMMAX
 10
-387.5566148356672
 20
93.61960278037125
  9
$VIEWCTR
 10
10
 20
10
  9
$VIEWSIZE
 40
10
  9
$SNAPMODE
 70
0
  9
$SNAPUNIT
 10
1
 20
1
  9
$SNAPBASE
 10
0
 20
0
  9
$SNAPANG
 50
0
  9
$SNAPSTYLE
 70
0
  9
$SNAPISOPAIR
 70
0
  9
$GRIDMODE
 70
0
  9
$GRIDUNIT
 10
0
 20
0
  9
$ORTHOMODE
 70
0
  9
$REGENMODE
 70
1
  9
$FILLMODE
 70
1
  9
$QTEXTMODE
 70
0
  9
$DRAGMODE
 70
2
  9
$LTSCALE
 40
1
  9
$OSMODE
 70
0
  9
$ATTMODE
 70
1
  9
$TEXTSIZE
 40
3.5
  9
$TRACEWID
 40
0.5
  9
$TEXTSTYLE
  7
STANDARD
  9
$CLAYER
  8
0
  9
$CELTYPE
  6
BYLAYER
  9
$CECOLOR
 62
256
  9
$DIMSCALE
 40
1
  9
$DIMASZ
 40
0.18
  9
$DIMEXO
 40
0.0625
  9
$DIMDLI
 40
0.38
  9
$DIMRND
 40
0
  9
$DIMDLE
 40
0
  9
$DIMEXE
 40
0.18
  9
$DIMTP
 40
0
  9
$DIMTM
 40
0
  9
$DIMTXT
 40
0.18
  9
$DIMCEN
 40
0.09
  9
$DIMTSZ
 40
0
  9
$DIMTOL
 70
0
  9
$DIMLIM
 70
0
  9
$DIMTIH
 70
1
  9
$DIMTOH
 70
1
  9
$DIMSE1
 70
0
  9
$DIMSE2
 70
0
  9
$DIMTAD
 70
0
  9
$DIMZIN
 70
0
  9
$DIMBLK
  1

  9
$DIMASO
 70
1
  9
$DIMSHO
 70
1
  9
$DIMPOST
  1

  9
$DIMAPOST
  1

  9
$DIMALT
 70
0
  9
$DIMALTD
 70
2
  9
$DIMALTF
 40
25.4
  9
$DIMLFAC
 40
1
  9
$DIMTOFL
 70
0
  9
$DIMTVP
 40
0
  9
$DIMTIX
 70
0
  9
$DIMSOXD
 70
0
  9
$DIMSAH
 70
0
  9
$DIMBLK1
  1

  9
$DIMBLK2
  1

  9
$DIMSTYLE
  2
*UNNAMED
  9
$DIMCLRD
 70
0
  9
$DIMCLRE
 70
0
  9
$DIMCLRT
 70
0
  9
$DIMTFAC
 40
1
  9
$DIMGAP
 40
0.09
  9
$LUNITS
 70
2
  9
$LUPREC
 70
4
  9
$AXISMODE
 70
0
  9
$AXISUNIT
 10
0
 20
0
  9
$SKETCHINC
 40
0.1
  9
$FILLETRAD
 40
2
  9
$AUNITS
 70
0
  9
$AUPREC
 70
0
  9
$MENU
  1
ACAD
  9
$ELEVATION
 40
0
  9
$THICKNESS
 40
0
  9
$VIEWDIR
 10
0
 20
0
 30
1
  9
$LIMCHECK
 70
0
  9
$BLIPMODE
 70
1
  9
$CHAMFERA
 40
0
  9
$CHAMFERB
 40
0
  9
$FASTZOOM
 70
1
  9
$SKPOLY
 70
0
  9
$ANGBASE
 50
0
  9
$ANGDIR
 70
0
  9
$PDMODE
 70
0
  9
$PDSIZE
 40
0
  9
$PLINEWID
 40
0
  9
$COORDS
 70
2
  0
ENDSEC
  0
SECTION
  2
TABLES
  0
TABLE
  2
DIMSTYLE
 70
6
  0
DIMSTYLE
  2
DMST_1
 70
0
  3

  4

  5

  6

  7

 40
1
 41
3.2
 42
1
 43
7
 44
2
 45
0
 46
0
 47
0.3
 48
0.3
140
3.2
141
0
142
0
143
25.4
144
1
145
0
146
0.6
147
0.09
 71
1
 72
0
 73
0
 74
0
 75
0
 76
0
 77
1
 78
9
170
0
171
2
172
0
173
0
174
0
175
0
176
2
177
2
178
2
  0
DIMSTYLE
  2
DMST_2
 70
0
  3

  4

  5

  6

  7

 40
1
 41
3.2
 42
1
 43
7
 44
2
 45
0
 46
0
 47
0
 48
0
140
3.2
141
0
142
0
143
25.4
144
1
145
0
146
1
147
0.09
 71
0
 72
0
 73
0
 74
0
 75
0
 76
0
 77
1
 78
9
170
0
171
2
172
0
173
0
174
0
175
0
176
2
177
2
178
2
  0
DIMSTYLE
  2
DMST_3
 70
0
  3

  4

  5

  6

  7

 40
1
 41
3.2
 42
1
 43
7
 44
2
 45
0
 46
0
 47
0
 48
0
140
3.2
141
0
142
0
143
25.4
144
1
145
0
146
0.6
147
0.09
 71
1
 72
0
 73
0
 74
0
 75
0
 76
0
 77
1
 78
9
170
0
171
2
172
0
173
0
174
0
175
0
176
2
177
2
178
2
  0
DIMSTYLE
  2
DMST_4
 70
0
  3

  4

  5

  6

  7

 40
1
 41
3.2
 42
1
 43
7
 44
1.5
 45
0
 46
0
 47
0
 48
0
140
3.2
141
0
142
0
143
25.4
144
1
145
0
146
1
147
0.09
 71
0
 72
0
 73
0
 74
0
 75
0
 76
0
 77
1
 78
9
170
0
171
2
172
0
173
0
174
0
175
0
176
2
177
2
178
2
  0
DIMSTYLE
  2
DMST_5
 70
0
  3

  4

  5

  6
DOT
  7

 40
1
 41
1.6
 42
1
 43
7
 44
2
 45
0
 46
0
 47
0
 48
0
140
3.2
141
0
142
0
143
25.4
144
1
145
0
146
1
147
0.09
 71
0
 72
0
 73
0
 74
0
 75
0
 76
0
 77
1
 78
9
170
0
171
2
172
0
173
1
174
0
175
0
176
2
177
2
178
2
  0
DIMSTYLE
  2
DMST_6
 70
0
  3
)
  4

  5

  6

  7

 40
1
 41
3.2
 42
1
 43
7
 44
2
 45
0
 46
0
 47
0
 48
0
140
3.2
141
0
142
0
143
25.4
144
1
145
0
146
1
147
0.09
 71
0
 72
0
 73
0
 74
0
 75
0
 76
0
 77
1
 78
9
170
0
171
2
172
0
173
0
174
1
175
0
176
2
177
2
178
2
  0
ENDTAB
  0
TABLE
  2
LTYPE
 70
9
  0
LTYPE
  2
CONTINUOUS
 70
64
  3
Solid line
 72
65
 73
0
 40
0
  0
LTYPE
  2
BORDER
 70
64
  3
__ __ . __ __ .
 72
65
 73
6
 40
12.33978050348063
 49
3.525651572423037
 49
-1.762825786211519
 49
3.525651572423037
 49
-1.762825786211519
 49
0
 49
-1.762825786211519
  0
LTYPE
  2
CENTER
 70
64
  3
____ _ ____ _
 72
65
 73
4
 40
14.10260628969215
 49
8.814128931057594
 49
-1.762825786211519
 49
1.762825786211519
 49
-1.762825786211519
  0
LTYPE
  2
DASHDOT
 70
64
  3
__ . __ . __ .
 72
65
 73
4
 40
7.051303144846075
 49
3.525651572423037
 49
-1.762825786211519
 49
0
 49
-1.762825786211519
  0
LTYPE
  2
DASHED
 70
64
  3
__ __ __ __ __
 72
65
 73
2
 40
5.288477358634556
 49
3.525651572423037
 49
-1.762825786211519
  0
LTYPE
  2
DIVIDE
 70
64
  3
__ . . __ . . 
 72
65
 73
6
 40
8.814128931057594
 49
3.525651572423037
 49
-1.762825786211519
 49
0
 49
-1.762825786211519
 49
0
 49
-1.762825786211519
  0
LTYPE
  2
DOT
 70
64
  3
..............
 72
65
 73
4
 40
3.525651572423037
 49
0
 49
-1.762825786211519
 49
0
 49
-1.762825786211519
  0
LTYPE
  2
HIDDEN
 70
64
  3
_ _ _ _ _ _ _
 72
65
 73
2
 40
2.644238679317278
 49
1.762825786211519
 49
-0.8814128931057593
  0
LTYPE
  2
PHANTOM
 70
64
  3
_____ _ _ _____ _ _ 
 72
65
 73
6
 40
17.62825786211519
 49
8.814128931057594
 49
-1.762825786211519
 49
1.762825786211519
 49
-1.762825786211519
 49
1.762825786211519
 49
-1.762825786211519
  0
ENDTAB
  0
TABLE
  2
LAYER
 70
3
  0
LAYER
  2
1
 70
0
 62
7
  6
CONTINUOUS
  0
LAYER
  2
0
 70
0
 62
7
  6
CONTINUOUS
  0
ENDTAB
  0
TABLE
  2
STYLE
 70
4
  0
STYLE
  2
STANDARD
 70
0
 40
0
 41
1
 50
0
 71
0
 42
3.5
  3
txt
  4

  0
STYLE
  2
SIMPLEX
 70
0
 40
0
 41
1
 50
0
 71
0
 42
3.5
  3
simplex
  4

  0
STYLE
  2
COMPLEX
 70
0
 40
0
 41
1
 50
0
 71
0
 42
3.5
  3
complex
  4

  0
STYLE
  2
ITALIC
 70
0
 40
0
 41
1
 50
0
 71
0
 42
3.5
  3
italic
  4

  0
ENDTAB
  0
TABLE
  2
VIEW
 70
0
  0
ENDTAB
  0
ENDSEC
  0
SECTION
  2
BLOCKS
  0
BLOCK
  8
0
  2
____M4_________1
 70
0
 10
-644.9832815023339
 20
3.419602780371179
 30
0
  0
LINE
  8
1
 62
3
 10
-646.1315326644382
 20
5.296173927097641
 30
0
 11
-645.1722941774605
 21
4.336935440119873
 31
0
  0
LINE
  8
1
 62
3
 10
-643.8350303402297
 20
5.296173927097641
 30
0
 11
-644.7942688272074
 21
4.336935440119873
 31
0
  0
LINE
  8
1
 62
3
 10
-646.8598526490604
 20
2.27135161826692
 30
0
 11
-645.9006141620825
 21
3.230590105244687
 31
0
  0
LINE
  8
1
 62
3
 10
-646.8598526490604
 20
4.567853942475494
 30
0
 11
-645.9006141620825
 21
3.60861545549767
 31
0
  0
LINE
  8
1
 62
3
 10
-643.8350303402297
 20
1.543031633644773
 30
0
 11
-644.7942688272074
 21
2.502270120622597
 31
0
  0
LINE
  8
1
 62
3
 10
-646.1315326644382
 20
1.543031633644773
 30
0
 11
-645.1722941774605
 21
2.502270120622541
 31
0
  0
LINE
  8
1
 62
3
 10
-643.1067103556074
 20
4.567853942475494
 30
0
 11
-644.0659488425853
 21
3.60861545549767
 31
0
  0
LINE
  8
1
 62
3
 10
-643.1067103556074
 20
2.27135161826692
 30
0
 11
-644.0659488425853
 21
3.230590105244687
 31
0
  0
LINE
  8
1
 62
3
 10
-582.8350303402297
 20
41.54303163364477
 30
0
 11
-583.7942688272075
 21
42.50227012062254
 31
0
  0
LINE
  8
1
 62
3
 10
-585.1315326644383
 20
41.54303163364477
 30
0
 11
-584.1722941774605
 21
42.50227012062254
 31
0
  0
LINE
  8
1
 62
3
 10
-582.1067103556076
 20
44.56785394247549
 30
0
 11
-583.0659488425853
 21
43.60861545549767
 31
0
  0
LINE
  8
1
 62
3
 10
-582.1067103556076
 20
42.27135161826692
 30
0
 11
-583.0659488425853
 21
43.23059010524469
 31
0
  0
LINE
  8
1
 62
3
 10
-585.1315326644383
 20
45.29617392709764
 30
0
 11
-584.1722941774605
 21
44.33693544011987
 31
0
  0
LINE
  8
1
 62
3
 10
-582.8350303402297
 20
45.29617392709758
 30
0
 11
-583.7942688272075
 21
44.33693544011987
 31
0
  0
LINE
  8
1
 62
3
 10
-585.8598526490604
 20
42.27135161826692
 30
0
 11
-584.9006141620825
 21
43.23059010524469
 31
0
  0
LINE
  8
1
 62
3
 10
-585.8598526490604
 20
44.56785394247549
 30
0
 11
-584.9006141620825
 21
43.60861545549767
 31
0
  0
ARC
  8
1
 62
3
 10
-644.9832815023339
 20
3.419602780371179
 30
0
 40
2.199999999999992
 50
31.46195895465374
 51
58.53804104534954
  0
ARC
  8
1
 62
3
 10
-644.9832815023339
 20
3.419602780371179
 30
0
 40
0.9150000000000489
 50
80.83777127596727
 51
99.16222872403274
  0
ARC
  8
1
 62
3
 10
-644.9832815023339
 20
3.419602780371179
 30
0
 40
2.200000000000041
 50
121.461958954653
 51
148.5380410453478
  0
ARC
  8
1
 62
3
 10
-644.9832815023339
 20
3.419602780371179
 30
0
 40
0.9150000000000501
 50
170.8377712759673
 51
189.1622287240292
  0
ARC
  8
1
 62
3
 10
-644.9832815023339
 20
3.419602780371179
 30
0
 40
2.20000000000006
 50
211.461958954651
 51
238.5380410453462
  0
ARC
  8
1
 62
3
 10
-644.9832815023339
 20
3.419602780371179
 30
0
 40
0.914999999999994
 50
260.8377712759667
 51
279.1622287240333
  0
ARC
  8
1
 62
3
 10
-644.9832815023339
 20
3.419602780371179
 30
0
 40
2.199999999999934
 50
301.4619589546512
 51
328.5380410453475
  0
ARC
  8
1
 62
3
 10
-644.9832815023339
 20
3.419602780371179
 30
0
 40
0.9149999999999289
 50
350.8377712759696
 51
9.162228724033829
  0
ARC
  8
1
 62
3
 10
-583.983281502334
 20
43.41960278037118
 30
0
 40
2.199999999999963
 50
211.4619589546525
 51
238.5380410453462
  0
ARC
  8
1
 62
3
 10
-583.983281502334
 20
43.41960278037118
 30
0
 40
0.9149999999999761
 50
260.8377712759738
 51
279.1622287240333
  0
ARC
  8
1
 62
3
 10
-583.983281502334
 20
43.41960278037118
 30
0
 40
2.199999999999993
 50
301.4619589546538
 51
328.5380410453475
  0
ARC
  8
1
 62
3
 10
-583.983281502334
 20
43.41960278037118
 30
0
 40
0.9150000000000422
 50
350.8377712759703
 51
9.162228724032722
  0
ARC
  8
1
 62
3
 10
-583.983281502334
 20
43.41960278037118
 30
0
 40
2.199999999999989
 50
31.46195895465361
 51
58.53804104534613
  0
ARC
  8
1
 62
3
 10
-583.983281502334
 20
43.41960278037118
 30
0
 40
0.9150000000000502
 50
80.83777127596727
 51
99.16222872402568
  0
ARC
  8
1
 62
3
 10
-583.983281502334
 20
43.41960278037118
 30
0
 40
2.200000000000041
 50
121.461958954653
 51
148.5380410453464
  0
ARC
  8
1
 62
3
 10
-583.983281502334
 20
43.41960278037118
 30
0
 40
0.9149999999999379
 50
170.8377712759661
 51
189.1622287240338
  0
CIRCLE
  8
1
 62
3
 10
-644.9832815023339
 20
3.419602780371179
 30
0
 40
3.25
  0
CIRCLE
  8
1
 62
3
 10
-583.983281502334
 20
43.41960278037118
 30
0
 40
3.25
  0
ARC
  8
1
 62
3
 10
-645.1369388384011
 20
4.372290779179139
 30
0
 40
0.04999999999999299
 50
224.9999999999086
 51
279.1622287240696
  0
ARC
  8
1
 62
3
 10
-644.8296241662667
 20
4.372290779179139
 30
0
 40
0.04999999999992934
 50
260.837771276059
 51
315.0000000000914
  0
ARC
  8
1
 62
3
 10
-645.9359695011418
 20
3.265945444304066
 30
0
 40
0.04999999999999237
 50
314.9999999999079
 51
9.162228724005642
  0
ARC
  8
1
 62
3
 10
-645.9359695011418
 20
3.573260116438405
 30
0
 40
0.04999999999994569
 50
350.83777127593
 51
45
  0
ARC
  8
1
 62
3
 10
-644.8296241662667
 20
2.466914781563219
 30
0
 40
0.05000000000007213
 50
44.99999999999928
 51
99.16222872393097
  0
ARC
  8
1
 62
3
 10
-645.1369388384011
 20
2.466914781563219
 30
0
 40
0.0500000000000018
 50
80.83777127594043
 51
135.0000000000461
  0
ARC
  8
1
 62
3
 10
-644.030593503526
 20
3.573260116438405
 30
0
 40
0.04999999999991198
 50
135
 51
189.16222872407
  0
ARC
  8
1
 62
3
 10
-644.030593503526
 20
3.265945444304066
 30
0
 40
0.04999999999993664
 50
170.8377712759944
 51
225.0000000000921
  0
ARC
  8
1
 62
3
 10
-583.8296241662667
 20
42.46691478156322
 30
0
 40
0.04999999999995217
 50
45.00000000004606
 51
99.16222872405957
  0
ARC
  8
1
 62
3
 10
-584.1369388384012
 20
42.46691478156322
 30
0
 40
0.0500000000000199
 50
80.83777127581182
 51
134.999999999954
  0
ARC
  8
1
 62
3
 10
-583.030593503526
 20
43.57326011643841
 30
0
 40
0.04999999999990695
 50
135.0000000000057
 51
189.162228724078
  0
ARC
  8
1
 62
3
 10
-583.030593503526
 20
43.26594544430401
 30
0
 40
0.04999999999994456
 50
170.8377712759381
 51
225.0000000000461
  0
ARC
  8
1
 62
3
 10
-584.1369388384012
 20
44.37229077917914
 30
0
 40
0.04999999999991198
 50
225
 51
279.1622287241985
  0
ARC
  8
1
 62
3
 10
-583.8296241662667
 20
44.3722907791792
 30
0
 40
0.05000000000000882
 50
260.8377712759417
 51
314.9999999999482
  0
ARC
  8
1
 62
3
 10
-584.9359695011419
 20
43.26594544430407
 30
0
 40
0.05000000000007778
 50
314.9999999999943
 51
9.162228723912554
  0
ARC
  8
1
 62
3
 10
-584.9359695011419
 20
43.57326011643841
 30
0
 40
0.05000000000005905
 50
350.8377712759428
 51
44.99999999990213
  0
ENDBLK
  8
0
  0
BLOCK
  8
0
  2
MOJINOMUKI
 70
0
 10
-447.9853857875377
 20
60.59345170474285
 30
0
  0
LINE
  8
1
 62
2
 10
-447.9853857875377
 20
62.09345170474285
 30
0
 11
-447.9853857875377
 21
64.59345170474285
 31
0
  0
LINE
  8
1
 62
2
 10
-450.4853857875377
 20
63.59345170474285
 30
0
 11
-447.9853857875377
 21
62.09345170474285
 31
0
  0
LINE
  8
1
 62
2
 10
-445.4853857875377
 20
63.59345170474285
 30
0
 11
-450.4853857875377
 21
63.59345170474285
 31
0
  0
LINE
  8
1
 62
2
 10
-450.9853857875377
 20
66.59345170474285
 30
0
 11
-444.9853857875377
 21
66.59345170474285
 31
0
  0
LINE
  8
1
 62
2
 10
-444.9853857875377
 20
60.59345170474285
 30
0
 11
-450.9853857875377
 21
60.59345170474282
 31
0
  0
LINE
  8
1
 62
2
 10
-444.9853857875376
 20
86.59345170474285
 30
0
 11
-444.9853857875377
 21
60.59345170474285
 31
0
  0
LINE
  8
1
 62
2
 10
-450.9853857875376
 20
86.59345170474282
 30
0
 11
-444.9853857875376
 21
86.59345170474285
 31
0
  0
LINE
  8
1
 62
2
 10
-450.9853857875377
 20
60.59345170474282
 30
0
 11
-450.9853857875376
 21
86.59345170474282
 31
0
  0
TEXT
  8
1
 62
2
 10
-445.9853857875376
 20
58.64019726687297
 30
0
 40
4
  1
òÂÄÜé╠î³é½
 50
90
 41
0.9
 72
1
 73
2
 11
-447.9853857875376
 21
76.64019726687297
 31
0
  0
ENDBLK
  8
0
  0
BLOCK
  8
0
  2
____M4_________2
 70
0
 10
-644.9832815023339
 20
3.419602780371235
 30
0
  0
LINE
  8
1
 62
3
 10
-645.1722941774605
 20
42.50227012062265
 30
0
 11
-646.1315326644382
 21
41.54303163364483
 31
0
  0
LINE
  8
1
 62
3
 10
-644.7942688272074
 20
42.50227012062265
 30
0
 11
-643.8350303402297
 21
41.54303163364483
 31
0
  0
LINE
  8
1
 62
3
 10
-645.9006141620825
 20
43.60861545549773
 30
0
 11
-646.8598526490604
 21
44.56785394247555
 31
0
  0
LINE
  8
1
 62
3
 10
-645.9006141620825
 20
43.23059010524474
 30
0
 11
-646.8598526490604
 21
42.27135161826692
 31
0
  0
LINE
  8
1
 62
3
 10
-644.7942688272074
 20
44.33693544011993
 30
0
 11
-643.8350303402297
 21
45.29617392709775
 31
0
  0
LINE
  8
1
 62
3
 10
-645.1722941774605
 20
44.33693544011993
 30
0
 11
-646.1315326644382
 21
45.29617392709775
 31
0
  0
LINE
  8
1
 62
3
 10
-644.0659488425853
 20
43.23059010524474
 30
0
 11
-643.1067103556074
 21
42.27135161826692
 31
0
  0
LINE
  8
1
 62
3
 10
-644.0659488425853
 20
43.60861545549784
 30
0
 11
-643.1067103556074
 21
44.56785394247555
 31
0
  0
LINE
  8
1
 62
3
 10
-583.7942688272075
 20
4.33693544011993
 30
0
 11
-582.8350303402297
 21
5.296173927097755
 31
0
  0
LINE
  8
1
 62
3
 10
-584.1722941774605
 20
4.33693544011993
 30
0
 11
-585.1315326644383
 21
5.296173927097755
 31
0
  0
LINE
  8
1
 62
3
 10
-583.0659488425853
 20
3.230590105244744
 30
0
 11
-582.1067103556076
 21
2.27135161826692
 31
0
  0
LINE
  8
1
 62
3
 10
-583.0659488425853
 20
3.608615455497841
 30
0
 11
-582.1067103556076
 21
4.567853942475551
 31
0
  0
LINE
  8
1
 62
3
 10
-584.1722941774605
 20
2.502270120622654
 30
0
 11
-585.1315326644383
 21
1.54303163364483
 31
0
  0
LINE
  8
1
 62
3
 10
-583.7942688272075
 20
2.502270120622654
 30
0
 11
-582.8350303402297
 21
1.54303163364483
 31
0
  0
LINE
  8
1
 62
3
 10
-584.9006141620825
 20
3.608615455497841
 30
0
 11
-585.8598526490604
 21
4.567853942475551
 31
0
  0
LINE
  8
1
 62
3
 10
-584.9006141620825
 20
3.230590105244744
 30
0
 11
-585.8598526490604
 21
2.27135161826692
 31
0
  0
ARC
  8
1
 62
3
 10
-644.9832815023339
 20
43.41960278037124
 30
0
 40
2.19999999999994
 50
301.4619589546512
 51
328.5380410453461
  0
ARC
  8
1
 62
3
 10
-644.9832815023339
 20
43.41960278037124
 30
0
 40
0.9149999999999449
 50
260.8377712759662
 51
279.1622287240338
  0
ARC
  8
1
 62
3
 10
-644.9832815023339
 20
43.41960278037124
 30
0
 40
2.200000000000093
 50
211.4619589546524
 51
238.5380410453463
  0
ARC
  8
1
 62
3
 10
-644.9832815023339
 20
43.41960278037124
 30
0
 40
0.9150000000000491
 50
170.8377712759677
 51
189.1622287240261
  0
ARC
  8
1
 62
3
 10
-644.9832815023339
 20
43.41960278037124
 30
0
 40
2.200000000000077
 50
121.4619589546524
 51
148.5380410453479
  0
ARC
  8
1
 62
3
 10
-644.9832815023339
 20
43.41960278037124
 30
0
 40
0.9150000000000431
 50
80.83777127596721
 51
99.16222872403279
  0
ARC
  8
1
 62
3
 10
-644.9832815023339
 20
43.41960278037124
 30
0
 40
2.199999999999989
 50
31.46195895465361
 51
58.53804104535011
  0
ARC
  8
1
 62
3
 10
-644.9832815023339
 20
43.41960278037124
 30
0
 40
0.9149999999999211
 50
350.8377712759727
 51
9.162228724033415
  0
ARC
  8
1
 62
3
 10
-583.983281502334
 20
3.419602780371235
 30
0
 40
2.20000000000009
 50
121.4619589546522
 51
148.5380410453462
  0
ARC
  8
1
 62
3
 10
-583.983281502334
 20
3.419602780371235
 30
0
 40
0.9150000000000506
 50
80.8377712759673
 51
99.16222872402568
  0
ARC
  8
1
 62
3
 10
-583.983281502334
 20
3.419602780371235
 30
0
 40
2.199999999999993
 50
31.46195895465378
 51
58.53804104534779
  0
ARC
  8
1
 62
3
 10
-583.983281502334
 20
3.419602780371235
 30
0
 40
0.915000000000032
 50
350.8377712759744
 51
9.162228724032749
  0
ARC
  8
1
 62
3
 10
-583.983281502334
 20
3.419602780371235
 30
0
 40
2.199999999999993
 50
301.4619589546538
 51
328.5380410453462
  0
ARC
  8
1
 62
3
 10
-583.983281502334
 20
3.419602780371235
 30
0
 40
0.9149999999999199
 50
260.8377712759732
 51
279.1622287240339
  0
ARC
  8
1
 62
3
 10
-583.983281502334
 20
3.419602780371235
 30
0
 40
2.199999999999992
 50
211.4619589546537
 51
238.5380410453462
  0
ARC
  8
1
 62
3
 10
-583.983281502334
 20
3.419602780371235
 30
0
 40
0.9149999999999381
 50
170.8377712759661
 51
189.1622287240268
  0
CIRCLE
  8
1
 62
3
 10
-644.9832815023339
 20
43.41960278037124
 30
0
 40
3.25
  0
CIRCLE
  8
1
 62
3
 10
-583.983281502334
 20
3.419602780371235
 30
0
 40
3.25
  0
ARC
  8
1
 62
3
 10
-645.1369388384011
 20
42.46691478156339
 30
0
 40
0.04999999999994569
 50
80.83777127593005
 51
135.0000000000979
  0
ARC
  8
1
 62
3
 10
-644.8296241662667
 20
42.46691478156339
 30
0
 40
0.04999999999998735
 50
44.99999999990213
 51
99.16222872394133
  0
ARC
  8
1
 62
3
 10
-645.9359695011418
 20
43.57326011643846
 30
0
 40
0.04999999999994569
 50
350.83777127593
 51
45
  0
ARC
  8
1
 62
3
 10
-645.9359695011418
 20
43.26594544430412
 30
0
 40
0.04999999999999739
 50
314.9999999999021
 51
9.162228724069948
  0
ARC
  8
1
 62
3
 10
-644.8296241662667
 20
44.3722907791792
 30
0
 40
0.04999999999993459
 50
260.8377712760599
 51
315.0000000000863
  0
ARC
  8
1
 62
3
 10
-645.1369388384011
 20
44.3722907791792
 30
0
 40
0.04999999999999739
 50
224.9999999999137
 51
279.1622287240687
  0
ARC
  8
1
 62
3
 10
-644.030593503526
 20
43.26594544430412
 30
0
 40
0.04999999999994569
 50
170.83777127593
 51
225.0000000000979
  0
ARC
  8
1
 62
3
 10
-644.030593503526
 20
43.57326011643846
 30
0
 40
0.04999999999999237
 50
134.9999999999079
 51
189.16222872407
  0
ARC
  8
1
 62
3
 10
-583.8296241662667
 20
4.372290779179195
 30
0
 40
0.04999999999994569
 50
260.83777127593
 51
315
  0
ARC
  8
1
 62
3
 10
-584.1369388384012
 20
4.372290779179195
 30
0
 40
0.04999999999991198
 50
225
 51
279.1622287241985
  0
ARC
  8
1
 62
3
 10
-583.030593503526
 20
3.265945444304123
 30
0
 40
0.04999999999994569
 50
170.83777127593
 51
225.0000000000925
  0
ARC
  8
1
 62
3
 10
-583.030593503526
 20
3.573260116438462
 30
0
 40
0.04999999999999268
 50
134.9999999999075
 51
189.16222872407
  0
ARC
  8
1
 62
3
 10
-584.1369388384012
 20
2.466914781563389
 30
0
 40
0.04999999999996334
 50
80.83777127580136
 51
135.0000000000004
  0
ARC
  8
1
 62
3
 10
-583.8296241662667
 20
2.466914781563275
 30
0
 40
0.04999999999999237
 50
45.00000000009213
 51
99.1622287240492
  0
ARC
  8
1
 62
3
 10
-584.9359695011419
 20
3.573260116438462
 30
0
 40
0.05000000000005791
 50
350.8377712759508
 51
45.00000000000036
  0
ARC
  8
1
 62
3
 10
-584.9359695011419
 20
3.265945444304123
 30
0
 40
0.05000000000007307
 50
314.9999999999997
 51
9.162228724049205
  0
ENDBLK
  8
0
  0
BLOCK
  8
1
  2
*D0
 70
1
 10
0
 20
0
 30
0
  0
LINE
  8
1
 62
2
 10
-564.483281502334
 20
-5.580397219628839
 30
0
 11
-564.483281502334
 21
52.41960278037125
 31
0
  0
LINE
  8
1
 62
2
 10
-579.483281502334
 20
52.41960278037125
 30
0
 11
-562.483281502334
 21
52.41960278037125
 31
0
  0
LINE
  8
1
 62
2
 10
-579.4832815023339
 20
-5.580397219628839
 30
0
 11
-562.483281502334
 21
-5.580397219628839
 31
0
  0
SOLID
  8
1
 62
2
 10
-564.483281502334
 20
52.41960278037125
 30
0
 11
-564.0672815023339
 21
49.21960278037125
 31
0
 12
-564.899281502334
 22
49.21960278037125
 32
0
 13
-564.899281502334
 23
49.21960278037125
 33
0
  0
SOLID
  8
1
 62
2
 10
-564.483281502334
 20
-5.580397219628839
 30
0
 11
-564.899281502334
 21
-2.380397219628839
 31
0
 12
-564.0672815023339
 22
-2.380397219628839
 32
0
 13
-564.0672815023339
 23
-2.380397219628839
 33
0
  0
TEXT
  8
1
 62
2
 10
-566.483281502334
 20
17.09605220451571
 30
0
 40
3.2
  1
58
 50
90
 41
0.9
  0
TEXT
  8
1
 62
2
 10
-567.123281502334
 20
23.49605220451571
 30
0
 40
1.92
  1
%%p0.3
 50
90
 41
0.9
  0
ENDBLK
  8
0
  0
BLOCK
  8
1
  2
*D1
 70
1
 10
0
 20
0
 30
0
  0
LINE
  8
1
 62
2
 10
-554.483281502334
 20
-11.58039721962882
 30
0
 11
-554.483281502334
 21
58.41960278037124
 31
0
  0
LINE
  8
1
 62
2
 10
-584.483281502334
 20
58.41960278037124
 30
0
 11
-552.483281502334
 21
58.41960278037124
 31
0
  0
LINE
  8
1
 62
2
 10
-584.4832815023339
 20
-11.58039721962882
 30
0
 11
-552.483281502334
 21
-11.58039721962882
 31
0
  0
SOLID
  8
1
 62
2
 10
-554.483281502334
 20
58.41960278037124
 30
0
 11
-554.0672815023339
 21
55.21960278037123
 31
0
 12
-554.899281502334
 22
55.21960278037123
 32
0
 13
-554.899281502334
 23
55.21960278037123
 33
0
  0
SOLID
  8
1
 62
2
 10
-554.483281502334
 20
-11.58039721962882
 30
0
 11
-554.899281502334
 21
-8.380397219628824
 31
0
 12
-554.0672815023339
 22
-8.380397219628824
 32
0
 13
-554.0672815023339
 23
-8.380397219628824
 33
0
  0
TEXT
  8
1
 62
2
 10
-556.483281502334
 20
20.4912582680216
 30
0
 40
3.2
  1
70
 50
90
 41
0.9
  0
ENDBLK
  8
0
  0
BLOCK
  8
1
  2
*D2
 70
1
 10
0
 20
0
 30
0
  0
LINE
  8
1
 62
2
 10
-649.483281502334
 20
83.41960278037121
 30
0
 11
-579.483281502334
 21
83.41960278037121
 31
0
  0
LINE
  8
1
 62
2
 10
-579.483281502334
 20
53.41960278037115
 30
0
 11
-579.483281502334
 21
85.41960278037121
 31
0
  0
LINE
  8
1
 62
2
 10
-649.483281502334
 20
53.41960278037115
 30
0
 11
-649.483281502334
 21
85.41960278037121
 31
0
  0
SOLID
  8
1
 62
2
 10
-579.483281502334
 20
83.41960278037121
 30
0
 11
-582.683281502334
 21
83.00360278037121
 31
0
 12
-582.683281502334
 22
83.8356027803712
 32
0
 13
-582.683281502334
 23
83.8356027803712
 33
0
  0
SOLID
  8
1
 62
2
 10
-649.483281502334
 20
83.41960278037121
 30
0
 11
-646.2832815023339
 21
83.8356027803712
 31
0
 12
-646.2832815023339
 22
83.00360278037121
 32
0
 13
-646.2832815023339
 23
83.00360278037121
 33
0
  0
TEXT
  8
1
 62
2
 10
-617.692110298639
 20
85.41960278037121
 30
0
 40
3.2
  1
70
 41
0.9
  0
ENDBLK
  8
0
  0
BLOCK
  8
1
  2
*D3
 70
1
 10
0
 20
0
 30
0
  0
LINE
  8
1
 62
2
 10
-643.483281502334
 20
73.41960278037121
 30
0
 11
-585.483281502334
 21
73.41960278037121
 31
0
  0
LINE
  8
1
 62
2
 10
-585.483281502334
 20
58.41960278037121
 30
0
 11
-585.483281502334
 21
75.41960278037121
 31
0
  0
LINE
  8
1
 62
2
 10
-643.483281502334
 20
58.41960278037115
 30
0
 11
-643.483281502334
 21
75.41960278037121
 31
0
  0
SOLID
  8
1
 62
2
 10
-585.483281502334
 20
73.41960278037121
 30
0
 11
-588.683281502334
 21
73.00360278037121
 31
0
 12
-588.683281502334
 22
73.8356027803712
 32
0
 13
-588.683281502334
 23
73.8356027803712
 33
0
  0
SOLID
  8
1
 62
2
 10
-643.483281502334
 20
73.41960278037121
 30
0
 11
-640.2832815023339
 21
73.8356027803712
 31
0
 12
-640.2832815023339
 22
73.00360278037121
 32
0
 13
-640.2832815023339
 23
73.00360278037121
 33
0
  0
TEXT
  8
1
 62
2
 10
-621.550507266886
 20
75.41960278037121
 30
0
 40
3.2
  1
58
 41
0.9
  0
TEXT
  8
1
 62
2
 10
-615.1505072668859
 20
76.05960278037121
 30
0
 40
1.92
  1
%%p0.3
 41
0.9
  0
ENDBLK
  8
0
  0
BLOCK
  8
1
  2
*D4
 70
1
 10
0
 20
0
 30
0
  0
LINE
  8
1
 62
2
 10
-474.4832815023339
 20
88.41960278037109
 30
0
 11
-404.4832815023339
 21
88.41960278037109
 31
0
  0
LINE
  8
1
 62
2
 10
-474.4832815023339
 20
59.41960278037124
 30
0
 11
-474.4832815023339
 21
90.41960278037109
 31
0
  0
LINE
  8
1
 62
2
 10
-404.4832815023339
 20
54.91960278037118
 30
0
 11
-404.4832815023339
 21
90.41960278037109
 31
0
  0
SOLID
  8
1
 62
2
 10
-474.4832815023339
 20
88.41960278037109
 30
0
 11
-471.2832815023339
 21
88.83560278037109
 31
0
 12
-471.2832815023339
 22
88.0036027803711
 32
0
 13
-471.2832815023339
 23
88.0036027803711
 33
0
  0
SOLID
  8
1
 62
2
 10
-404.4832815023339
 20
88.41960278037109
 30
0
 11
-407.6832815023339
 21
88.0036027803711
 31
0
 12
-407.6832815023339
 22
88.83560278037109
 32
0
 13
-407.6832815023339
 23
88.83560278037109
 33
0
  0
TEXT
  8
1
 62
2
 10
-441.9338899188195
 20
90.41960278037109
 30
0
 40
3.2
  1
70
 41
0.9
  0
ENDBLK
  8
0
  0
BLOCK
  8
1
  2
*D5
 70
1
 10
0
 20
0
 30
0
  0
LINE
  8
1
 62
2
 10
-487.483281502334
 20
88.41960278037124
 30
0
 11
-474.483281502334
 21
88.41960278037124
 31
0
  0
LINE
  8
1
 62
2
 10
-474.483281502334
 20
59.41960278037124
 30
0
 11
-474.483281502334
 21
90.41960278037124
 31
0
  0
LINE
  8
1
 62
2
 10
-487.483281502334
 20
27.30110278037154
 30
0
 11
-487.483281502334
 21
90.41960278037124
 31
0
  0
SOLID
  8
1
 62
2
 10
-487.483281502334
 20
88.41960278037124
 30
0
 11
-484.283281502334
 21
88.83560278037123
 31
0
 12
-484.283281502334
 22
88.00360278037124
 32
0
 13
-484.283281502334
 23
88.00360278037124
 33
0
  0
SOLID
  8
1
 62
2
 10
-474.483281502334
 20
88.41960278037124
 30
0
 11
-477.683281502334
 21
88.00360278037124
 31
0
 12
-477.683281502334
 22
88.83560278037123
 32
0
 13
-477.683281502334
 23
88.83560278037123
 33
0
  0
TEXT
  8
1
 62
2
 10
-483.106802692688
 20
90.41960278037126
 30
0
 40
3.2
  1
13
 41
0.9
  0
ENDBLK
  8
0
  0
BLOCK
  8
1
  2
*D6
 70
1
 10
0
 20
0
 30
0
  0
LINE
  8
1
 62
2
 10
-497.483281502334
 20
-8.580397219628701
 30
0
 11
-497.483281502334
 21
55.41960278037129
 31
0
  0
LINE
  8
1
 62
2
 10
-477.3706212195744
 20
-8.580397219628701
 30
0
 11
-499.483281502334
 21
-8.580397219628701
 31
0
  0
LINE
  8
1
 62
2
 10
-477.3706212195744
 20
55.41960278037129
 30
0
 11
-499.483281502334
 21
55.41960278037129
 31
0
  0
SOLID
  8
1
 62
2
 10
-497.483281502334
 20
55.41960278037129
 30
0
 11
-497.067281502334
 21
52.21960278037129
 31
0
 12
-497.899281502334
 22
52.21960278037129
 32
0
 13
-497.899281502334
 23
52.21960278037129
 33
0
  0
SOLID
  8
1
 62
2
 10
-497.483281502334
 20
-8.580397219628701
 30
0
 11
-497.899281502334
 21
-5.3803972196287
 31
0
 12
-497.067281502334
 22
-5.3803972196287
 32
0
 13
-497.067281502334
 23
-5.3803972196287
 33
0
  0
TEXT
  8
1
 62
2
 10
-500.283281502334
 20
15.77782500259346
 30
0
 40
3.2
  1
64h7
 50
90
 41
0.9
  0
TEXT
  8
1
 62
2
 10
-502.363281502334
 20
29.47382500259346
 30
0
 40
1.92
  1
0
 50
90
 41
0.9
  0
TEXT
  8
1
 62
2
 10
-499.483281502334
 20
27.93782500259346
 30
0
 40
1.92
  1
-0.03
 50
90
 41
0.9
  0
TEXT
  8
1
 62
2
 10
-500.283281502334
 20
12.13338055814901
 30
0
 40
3.2
  1
âË
 50
90
 41
0.9
  0
ENDBLK
  8
0
  0
BLOCK
  8
1
  2
*D7
 70
1
 10
0
 20
0
 30
0
  0
LINE
  8
1
 62
2
 10
-389.0566148356672
 20
-10.08039721962875
 30
0
 11
-389.0566148356672
 21
56.91960278037118
 31
0
  0
LINE
  8
1
 62
2
 10
-406.4832815023339
 20
-10.08039721962875
 30
0
 11
-387.5566148356672
 21
-10.08039721962875
 31
0
  0
LINE
  8
1
 62
2
 10
-406.4832815023339
 20
56.91960278037118
 30
0
 11
-387.5566148356672
 21
56.91960278037118
 31
0
  0
SOLID
  8
1
 62
2
 10
-389.0566148356672
 20
56.91960278037118
 30
0
 11
-388.6406148356672
 21
53.71960278037118
 31
0
 12
-389.4726148356672
 22
53.71960278037118
 32
0
 13
-389.4726148356672
 23
53.71960278037118
 33
0
  0
SOLID
  8
1
 62
2
 10
-389.0566148356672
 20
-10.08039721962875
 30
0
 11
-389.4726148356672
 21
-6.880397219628753
 31
0
 12
-388.6406148356672
 22
-6.880397219628753
 32
0
 13
-388.6406148356672
 23
-6.880397219628753
 33
0
  0
TEXT
  8
1
 62
2
 10
-391.9099481690005
 20
23.04313219213594
 30
0
 40
3.2
  1
67
 50
90
 41
0.9
  0
TEXT
  8
1
 62
2
 10
-391.9099481690005
 20
18.99607336860653
 30
0
 40
3.2
  1
âË
 50
90
 41
0.9
  0
ENDBLK
  8
0
  0
BLOCK
  8
1
  2
*D8
 70
1
 10
0
 20
0
 30
0
  0
LINE
  8
1
 62
2
 10
-474.4832815023339
 20
73.41960278037109
 30
0
 11
-474.4832815023339
 21
73.41960278037109
 31
0
  0
LINE
  8
1
 62
2
 10
-476.4832815023339
 20
73.41960278037109
 30
0
 11
-474.4832815023339
 21
73.41960278037109
 31
0
  0
LINE
  8
1
 62
2
 10
-476.4832815023339
 20
73.41960278037109
 30
0
 11
-482.8832815023339
 21
73.41960278037109
 31
0
  0
LINE
  8
1
 62
2
 10
-476.4832815023339
 20
55.91960278037124
 30
0
 11
-476.4832815023339
 21
75.41960278037109
 31
0
  0
LINE
  8
1
 62
2
 10
-474.4832815023339
 20
59.41960278037124
 30
0
 11
-474.4832815023339
 21
75.41960278037109
 31
0
  0
SOLID
  8
1
 62
2
 10
-476.4832815023339
 20
73.41960278037109
 30
0
 11
-479.6832815023339
 21
73.0036027803711
 31
0
 12
-479.6832815023339
 22
73.83560278037109
 32
0
 13
-479.6832815023339
 23
73.83560278037109
 33
0
  0
TEXT
  8
1
 62
2
 10
-482.6332281238453
 20
75.41960278037109
 30
0
 40
3.2
  1
2
 41
0.9
  0
ENDBLK
  8
0
  0
BLOCK
  8
1
  2
*D9
 70
1
 10
0
 20
0
 30
0
  0
LINE
  8
1
 62
2
 10
-474.4832815023339
 20
73.41960278037109
 30
0
 11
-467.9832815023339
 21
73.41960278037109
 31
0
  0
LINE
  8
1
 62
2
 10
-467.9832815023339
 20
73.41960278037109
 30
0
 11
-458.8389534610065
 21
73.41960278037109
 31
0
  0
LINE
  8
1
 62
2
 10
-474.4832815023339
 20
59.41960278037124
 30
0
 11
-474.4832815023339
 21
75.41960278037109
 31
0
  0
LINE
  8
1
 62
2
 10
-467.9832815023339
 20
59.41960278037124
 30
0
 11
-467.9832815023339
 21
75.41960278037109
 31
0
  0
CIRCLE
  8
1
 62
2
 10
-474.4832815023339
 20
73.41960278037109
 30
0
 40
0.8
  0
SOLID
  8
1
 62
2
 10
-467.9832815023339
 20
73.41960278037109
 30
0
 11
-464.7832815023339
 21
73.83560278037109
 31
0
 12
-464.7832815023339
 22
73.0036027803711
 32
0
 13
-464.7832815023339
 23
73.0036027803711
 33
0
  0
TEXT
  8
1
 62
2
 10
-464.6789534610065
 20
75.41960278037109
 30
0
 40
3.2
  1
6.5
 41
0.9
  0
ENDBLK
  8
0
  0
BLOCK
  8
1
  2
*D10
 70
1
 10
0
 20
0
 30
0
  0
LINE
  8
1
 62
2
 10
-652.5019214493242
 20
8.070888939103561
 30
0
 11
-576.4646415553437
 21
38.76831662163886
 31
0
  0
SOLID
  8
1
 62
2
 10
-576.4646415553437
 20
38.76831662163886
 30
0
 11
-579.2762167473535
 21
37.18461812139485
 31
0
 12
-579.5876833306691
 22
37.95611832714841
 32
0
 13
-579.5876833306691
 23
37.95611832714841
 33
0
  0
SOLID
  8
1
 62
2
 10
-652.5019214493242
 20
8.070888939103561
 30
0
 11
-649.6903462573144
 21
9.654587439347571
 31
0
 12
-649.3788796739989
 22
8.883087233594013
 32
0
 13
-649.3788796739989
 23
8.883087233594013
 33
0
  0
TEXT
  8
1
 62
2
 10
-600.4396192011085
 20
31.24608353717336
 30
0
 40
3.2
  1
82
 50
21.98469289449674
 41
0.9
  0
TEXT
  8
1
 62
2
 10
-605.1543426807136
 20
29.34267663913431
 30
0
 40
3.2
  1
(âË
 50
21.98469289449674
 41
0.9
  0
TEXT
  8
1
 62
2
 10
-594.5050022337734
 20
33.64198033190782
 30
0
 40
3.2
  1
)
 50
21.98469289449674
 41
0.9
  0
ENDBLK
  8
0
  0
BLOCK
  8
1
  2
*D11
 70
1
 10
0
 20
0
 30
0
  0
LINE
  8
1
 62
2
 10
-564.050207888919
 20
68.41960278037125
 30
0
 11
-544.843281502334
 21
68.41960278037125
 31
0
  0
LINE
  8
1
 62
2
 10
-583.2795952071815
 20
54.06467624759302
 30
0
 11
-564.050207888919
 21
68.41960278037125
 31
0
  0
SOLID
  8
1
 62
2
 10
-583.2795952071815
 20
54.06467624759302
 30
0
 11
-580.9641604500456
 21
56.31230119082689
 31
0
 12
-580.4664509501443
 22
55.64558591898439
 32
0
 13
-580.4664509501443
 23
55.64558591898439
 33
0
  0
TEXT
  8
1
 62
2
 10
-555.0388370578895
 20
69.77190629758272
 30
0
 40
3.2
  1
5.5
 41
0.9
  0
TEXT
  8
1
 62
2
 10
-564.123281502334
 20
69.77190629758272
 30
0
 40
3.2
  1
4-âË
 41
0.9
  0
TEXT
  8
1
 62
2
 10
-547.5988370578896
 20
69.77190629758272
 30
0
 40
3.2
  1
îè
 41
0.9
  0
ENDBLK
  8
0
  0
BLOCK
  8
1
  2
*D12
 70
1
 10
0
 20
0
 30
0
  0
LINE
  8
1
 62
2
 10
-597.8370666508256
 20
-16.76791487631635
 30
0
 11
-592.4267921521775
 21
-29.82947294711371
 31
0
  0
LINE
  8
1
 62
2
 10
-614.4832815023339
 20
-17.58039721962879
 30
0
 11
-614.4832815023337
 21
-34.21678145983758
 31
0
  0
LINE
  8
1
 62
2
 10
-592.4267921521775
 20
-29.82947294711371
 30
0
 11
-591.6614252874474
 21
-31.67723201213628
 31
0
  0
LINE
  8
1
 62
2
 10
-614.4832815023337
 20
-34.21678145983758
 30
0
 11
-614.4832815023337
 21
-36.21678145983758
 31
0
  0
ARC
  8
1
 62
2
 10
-614.4832815023341
 20
23.41960278037164
 30
0
 40
57.63638424020922
 50
270
 51
292.5000000000001
  0
SOLID
  8
1
 62
2
 10
-614.4832815023337
 20
-34.21678145983758
 30
0
 11
-611.2960612105212
 21
-33.71212037409934
 31
0
 12
-611.2729676551778
 22
-34.54379981216523
 32
0
 13
-611.2729676551778
 23
-34.54379981216523
 33
0
  0
SOLID
  8
1
 62
2
 10
-592.4267921521775
 20
-29.82947294711371
 30
0
 11
-595.2675909029873
 21
-31.3601324315836
 31
0
 12
-595.5645251818592
 22
-30.58292330011972
 32
0
 13
-595.5645251818592
 23
-30.58292330011972
 33
0
  0
TEXT
  8
1
 62
2
 10
-610.843276949184
 20
-32.3673851126599
 30
0
 40
3.2
  1
22.5%%d
 50
9.358459135396368
 41
0.9
  0
ENDBLK
  8
0
  0
ENDSEC
  0
SECTION
  2
ENTITIES
  0
POINT
  8
1
 62
4
  6
DIVIDE
 10
-474.4832815023339
 20
58.41960278037124
 30
0
  0
POINT
  8
1
 62
4
  6
DIVIDE
 10
-474.4832815023339
 20
58.41960278037124
 30
0
  0
POINT
  8
1
 62
4
  6
DIVIDE
 10
-476.3706212195744
 20
55.41960278037124
 30
0
  0
POINT
  8
1
 62
4
  6
DIVIDE
 10
-476.3706212195744
 20
-8.580397219628765
 30
0
  0
POINT
  8
1
 62
4
  6
DIVIDE
 10
-407.4832815023339
 20
-10.08039721962876
 30
0
  0
POINT
  8
1
 62
4
  6
DIVIDE
 10
-407.4832815023339
 20
56.91960278037118
 30
0
  0
LINE
  8
1
 62
1
 10
-590.4832815023339
 20
-5.580397219628821
 30
0
 11
-580.4832815023339
 21
-5.58039721962885
 31
0
  0
LINE
  8
1
 62
1
 10
-585.4832815023339
 20
-0.5803972196288214
 30
0
 11
-585.4832815023339
 21
-10.58039721962882
 31
0
  0
LINE
  8
1
 62
3
 10
-614.483281502334
 20
-11.58039721962882
 30
0
 11
-585.4832815023339
 21
-11.58039721962882
 31
0
  0
LINE
  8
1
 62
3
 10
-579.483281502334
 20
-5.580397219628821
 30
0
 11
-579.483281502334
 21
23.41960278037121
 31
0
  0
LINE
  8
1
 62
1
 10
-643.483281502334
 20
-0.5803972196288214
 30
0
 11
-643.4832815023341
 21
-10.58039721962882
 31
0
  0
LINE
  8
1
 62
1
 10
-638.483281502334
 20
-5.580397219628821
 30
0
 11
-648.483281502334
 21
-5.580397219628821
 31
0
  0
LINE
  8
1
 62
3
 10
-649.483281502334
 20
23.41960278037121
 30
0
 11
-649.483281502334
 21
-5.580397219628821
 31
0
  0
LINE
  8
1
 62
3
 10
-643.483281502334
 20
-11.58039721962882
 30
0
 11
-614.483281502334
 21
-11.58039721962882
 31
0
  0
LINE
  8
1
 62
1
 10
-638.483281502334
 20
52.41960278037124
 30
0
 11
-648.483281502334
 21
52.41960278037124
 31
0
  0
LINE
  8
1
 62
1
 10
-643.483281502334
 20
47.41960278037124
 30
0
 11
-643.483281502334
 21
57.41960278037118
 31
0
  0
LINE
  8
1
 62
3
 10
-614.483281502334
 20
58.41960278037124
 30
0
 11
-643.483281502334
 21
58.41960278037124
 31
0
  0
LINE
  8
1
 62
3
 10
-649.483281502334
 20
52.41960278037118
 30
0
 11
-649.483281502334
 21
23.41960278037121
 31
0
  0
LINE
  8
1
 62
1
 10
-585.483281502334
 20
47.41960278037124
 30
0
 11
-585.483281502334
 21
57.41960278037124
 31
0
  0
LINE
  8
1
 62
1
 10
-590.483281502334
 20
52.41960278037124
 30
0
 11
-580.483281502334
 21
52.41960278037124
 31
0
  0
LINE
  8
1
 62
1
 10
-614.483281502334
 20
-16.58039721962876
 30
0
 11
-614.483281502334
 21
63.41960278037124
 31
0
  0
LINE
  8
1
 62
3
 10
-579.483281502334
 20
23.41960278037121
 30
0
 11
-579.483281502334
 21
52.41960278037118
 31
0
  0
LINE
  8
1
 62
3
 10
-585.483281502334
 20
58.41960278037124
 30
0
 11
-614.483281502334
 21
58.41960278037124
 31
0
  0
LINE
  8
1
 62
1
 10
-654.483281502334
 20
23.41960278037124
 30
0
 11
-574.483281502334
 21
23.41960278037124
 31
0
  0
LINE
  8
1
 62
40
  6
DASHED
 10
-608.3295849173145
 20
-11.03517944705715
 30
0
 11
-608.1037483214685
 21
-11.58039721962876
 31
0
  0
LINE
  8
1
 62
40
  6
DASHED
 10
-594.4713919296452
 20
-5.294927961580868
 30
0
 11
-594.0887084972801
 21
-6.218807494092118
 31
0
  0
LINE
  8
1
 62
3
 10
-608.1037483214685
 20
-11.58039721962876
 30
0
 11
-607.9469014849494
 21
-11.95905897956851
 31
0
  0
LINE
  8
1
 62
1
 10
-644.9832815023339
 20
-2.580397219628821
 30
0
 11
-644.9832815023339
 21
9.419602780371179
 31
0
  0
LINE
  8
1
 62
1
 10
-638.983281502334
 20
3.419602780371179
 30
0
 11
-650.9832815023339
 21
3.419602780371179
 31
0
  0
LINE
  8
1
 62
1
 10
-583.983281502334
 20
49.41960278037118
 30
0
 11
-583.983281502334
 21
37.41960278037118
 31
0
  0
LINE
  8
1
 62
1
 10
-589.983281502334
 20
43.41960278037118
 30
0
 11
-577.983281502334
 21
43.41960278037118
 31
0
  0
LINE
  8
1
 62
3
 10
-467.2832815023339
 20
-0.0725232038807917
 30
0
 11
-452.1510277678009
 21
0.1689296108362441
 31
0
  0
LINE
  8
1
 62
3
 10
-467.2832815023339
 20
8.680628506307244
 30
0
 11
-452.1510277678009
 21
8.922081321024336
 31
0
  0
LINE
  8
1
 62
3
 10
-457.3157127814772
 20
3.93075404836685
 30
0
 11
-452.1510277678009
 21
8.922081321024336
 31
0
  0
LINE
  8
1
 62
3
 10
-452.1510277678009
 20
37.91712423971808
 30
0
 11
-457.3157127814772
 21
42.90845151237556
 31
0
  0
LINE
  8
1
 62
3
 10
-452.1510277678009
 20
37.91712423971808
 30
0
 11
-467.2832815023339
 21
38.15857705443511
 31
0
  0
LINE
  8
1
 62
3
 10
-452.1510277678009
 20
46.67027594990611
 30
0
 11
-467.2832815023339
 21
46.91172876462315
 31
0
  0
LINE
  8
1
 62
3
 10
-458.3447453533735
 20
51.24289781826894
 30
0
 11
-458.3447453533735
 21
58.24377130298376
 31
0
  0
LINE
  8
1
 62
3
 10
-422.3447453533735
 20
50.67416317761491
 30
0
 11
-458.3447453533735
 21
51.24289781826894
 31
0
  0
LINE
  8
1
 62
3
 10
-422.3447453533735
 20
57.67503666232983
 30
0
 11
-422.3447453533735
 21
50.67416317761491
 31
0
  0
LINE
  8
1
 62
4
  6
DIVIDE
 10
-614.483281502334
 20
-11.58039721962882
 30
0
 11
-614.483281502334
 21
-16.58039721962876
 31
0
  0
LINE
  8
1
 62
3
 10
-467.2832815023339
 20
58.41172876462315
 30
0
 11
-467.2832815023339
 21
-5.294927961580868
 31
0
  0
LINE
  8
1
 62
3
 10
-467.2832815023339
 20
58.41172876462315
 30
0
 11
-414.483281502334
 21
57.41960278037118
 31
0
  0
LINE
  8
1
 62
3
 10
-404.483281502334
 20
23.41960278037118
 30
0
 11
-404.4832815023339
 21
53.91960278037118
 31
0
  0
LINE
  8
1
 62
3
 10
-414.483281502334
 20
56.97793611370457
 30
0
 11
-407.4832815023339
 21
56.91960278037118
 31
0
  0
LINE
  8
1
 62
3
 10
-407.4832815023339
 20
56.91960278037118
 30
0
 11
-404.4832815023339
 21
53.91960278037118
 31
0
  0
LINE
  8
1
 62
3
 10
-407.4832815023339
 20
23.41960278037118
 30
0
 11
-407.4832815023339
 21
56.91960278037118
 31
0
  0
LINE
  8
1
 62
3
 10
-414.483281502334
 20
57.41960278037118
 30
0
 11
-414.483281502334
 21
23.41960278037118
 31
0
  0
LINE
  8
1
 62
1
 10
-399.4832815023339
 20
23.41960278037118
 30
0
 11
-476.4832815023339
 21
23.41960278037118
 31
0
  0
LINE
  8
1
 62
3
 10
-404.4832815023339
 20
-7.080397219628878
 30
0
 11
-404.483281502334
 21
23.41960278037118
 31
0
  0
LINE
  8
1
 62
3
 10
-407.4832815023339
 20
-10.08039721962876
 30
0
 11
-414.483281502334
 21
-10.13873055296216
 31
0
  0
LINE
  8
1
 62
3
 10
-404.4832815023339
 20
-7.080397219628878
 30
0
 11
-407.4832815023339
 21
-10.08039721962876
 31
0
  0
LINE
  8
1
 62
3
 10
-414.4832815023339
 20
-10.58039721962882
 30
0
 11
-460.2850707400613
 21
-11.46196417935016
 31
0
  0
LINE
  8
1
 62
3
 10
-407.4832815023339
 20
-10.08039721962876
 30
0
 11
-407.4832815023339
 21
23.41960278037118
 31
0
  0
LINE
  8
1
 62
3
 10
-414.483281502334
 20
23.41960278037118
 30
0
 11
-414.4832815023339
 21
-10.58039721962882
 31
0
  0
LINE
  8
1
 62
1
 10
-604.0433866646267
 20
-1.78453292657025
 30
0
 11
-598.2197500831908
 21
-15.8440353438051
 31
0
  0
LINE
  8
1
 62
3
 10
-467.9832815023339
 20
-11.58039721962882
 30
0
 11
-474.4832815023339
 21
-11.58039721962882
 31
0
  0
LINE
  8
1
 62
3
 10
-474.4832815023339
 20
23.41960278037118
 30
0
 11
-474.4832815023339
 21
-11.58039721962882
 31
0
  0
LINE
  8
1
 62
3
 10
-467.2832815023339
 20
23.41960278037118
 30
0
 11
-467.2832815023339
 21
-5.294927961580868
 31
0
  0
LINE
  8
1
 62
3
 10
-467.9832815023339
 20
-11.58039721962882
 30
0
 11
-467.9832815023339
 21
23.41960278037118
 31
0
  0
LINE
  8
1
 62
3
 10
-476.4832815023339
 20
-8.080397219628821
 30
0
 11
-475.9832815023339
 21
-8.580397219628821
 31
0
  0
LINE
  8
1
 62
3
 10
-474.4832815023339
 20
-8.580397219628821
 30
0
 11
-475.9832815023339
 21
-8.580397219628821
 31
0
  0
LINE
  8
1
 62
3
 10
-476.4832815023339
 20
-8.080397219628821
 30
0
 11
-476.4832815023339
 21
23.41960278037118
 31
0
  0
LINE
  8
1
 62
3
 10
-474.4832815023339
 20
58.41960278037124
 30
0
 11
-474.4832815023339
 21
23.41960278037118
 31
0
  0
LINE
  8
1
 62
3
 10
-467.2832815023339
 20
58.41960278037118
 30
0
 11
-467.2832815023339
 21
23.41960278037118
 31
0
  0
LINE
  8
1
 62
3
 10
-467.9832815023339
 20
23.41960278037118
 30
0
 11
-467.9832815023339
 21
58.41960278037124
 31
0
  0
LINE
  8
1
 62
3
 10
-474.4832815023339
 20
55.41960278037118
 30
0
 11
-475.983281502334
 21
55.41960278037118
 31
0
  0
LINE
  8
1
 62
3
 10
-474.4832815023339
 20
58.41960278037124
 30
0
 11
-467.2832815023339
 21
58.41960278037118
 31
0
  0
LINE
  8
1
 62
3
 10
-476.4832815023339
 20
23.41960278037118
 30
0
 11
-476.4832815023339
 21
54.91960278037124
 31
0
  0
LINE
  8
1
 62
3
 10
-475.983281502334
 20
55.41960278037118
 30
0
 11
-476.4832815023339
 21
54.91960278037124
 31
0
  0
LINE
  8
1
 62
1
 10
-644.9832815023339
 20
37.41960278037124
 30
0
 11
-644.9832815023339
 21
49.41960278037124
 31
0
  0
LINE
  8
1
 62
1
 10
-650.9832815023339
 20
43.41960278037124
 30
0
 11
-638.983281502334
 21
43.41960278037124
 31
0
  0
LINE
  8
1
 62
1
 10
-577.983281502334
 20
3.419602780371235
 30
0
 11
-589.983281502334
 21
3.419602780371235
 31
0
  0
LINE
  8
1
 62
1
 10
-583.983281502334
 20
9.419602780371235
 30
0
 11
-583.983281502334
 21
-2.580397219628765
 31
0
  0
LINE
  8
1
 62
1
  6
CENTER
 10
-478.483281502334
 20
20.63810278037107
 30
0
 11
-489.483281502334
 21
20.63810278037107
 31
0
  0
LINE
  8
1
 62
2
 10
-528.953668659071
 20
-54.29437883929154
 30
0
 11
-485.4692986576789
 21
-54.29437883929154
 31
0
  0
LINE
  8
1
 62
2
 10
-528.953668659071
 20
-47.29437883929154
 30
0
 11
-485.4692986576789
 21
-47.29437883929154
 31
0
  0
LINE
  8
1
 62
2
 10
-528.953668659071
 20
-40.29437883929154
 30
0
 11
-485.4692986576789
 21
-40.29437883929154
 31
0
  0
LINE
  8
1
 62
2
 10
-528.953668659071
 20
-33.29437883929154
 30
0
 11
-485.4692986576789
 21
-33.29437883929154
 31
0
  0
LINE
  8
1
 62
2
 10
-528.953668659071
 20
-26.29437883929154
 30
0
 11
-485.4692986576789
 21
-26.29437883929154
 31
0
  0
LINE
  8
1
 62
3
 10
-476.483281502334
 20
26.80110278037137
 30
0
 11
-486.983281502334
 21
26.80110278037154
 31
0
  0
LINE
  8
1
 62
1
 10
-492.483281502334
 20
23.41960278037124
 30
0
 11
-476.4832815023339
 21
23.41960278037118
 31
0
  0
LINE
  8
1
 62
3
 10
-487.483281502334
 20
20.53810278037093
 30
0
 11
-486.983281502334
 21
20.03810278037093
 31
0
  0
LINE
  8
1
 62
3
 10
-487.483281502334
 20
23.41960278037124
 30
0
 11
-487.483281502334
 21
20.53810278037093
 31
0
  0
LINE
  8
1
 62
3
 10
-487.483281502334
 20
23.41960278037124
 30
0
 11
-487.483281502334
 21
26.30110278037154
 31
0
  0
LINE
  8
1
 62
1
  6
CENTER
 10
-489.483281502334
 20
26.20110278037134
 30
0
 11
-478.483281502334
 21
26.20110278037134
 31
0
  0
LINE
  8
1
 62
2
 10
-481.4534825710551
 20
20.03810278037105
 30
0
 11
-483.8838522244966
 21
26.80110278037148
 31
0
  0
LINE
  8
1
 62
2
 10
-482.4534825710551
 20
20.03810278037105
 30
0
 11
-484.8838522244966
 21
26.80110278037148
 31
0
  0
LINE
  8
1
 62
2
 10
-483.4534825710551
 20
20.03810278037105
 30
0
 11
-485.8838522244966
 21
26.80110278037148
 31
0
  0
LINE
  8
1
 62
3
 10
-486.983281502334
 20
20.03810278037093
 30
0
 11
-476.483281502334
 21
20.03810278037105
 31
0
  0
LINE
  8
1
 62
3
 10
-486.983281502334
 20
26.80110278037154
 30
0
 11
-487.483281502334
 21
26.30110278037154
 31
0
  0
LINE
  8
1
 62
3
 10
-592.4882105528659
 20
-34.90744767069833
 30
0
 11
-602.1505912198603
 21
-11.58039721962876
 31
0
  0
LINE
  8
1
 62
3
 10
-590.4491097716607
 20
-34.60402057222387
 30
0
 11
-599.9858068192756
 21
-11.58039721962876
 31
0
  0
LINE
  8
1
 62
3
 10
-588.4100089904557
 20
-34.3005934737493
 30
0
 11
-597.8210224186907
 21
-11.58039721962876
 31
0
  0
LINE
  8
1
 62
40
  6
DASHED
 10
-604.4899540646448
 20
-11.15892757194393
 30
0
 11
-604.3153756204451
 21
-11.58039721962876
 31
0
  0
LINE
  8
1
 62
40
  6
DASHED
 10
-602.5763225072462
 20
-10.55259097169494
 30
0
 11
-602.1505912198603
 21
-11.58039721962876
 31
0
  0
LINE
  8
1
 62
40
  6
DASHED
 10
-598.880804377201
 20
-9.021857242234546
 30
0
 11
-597.8210224186907
 21
-11.58039721962876
 31
0
  0
LINE
  8
1
 62
3
 10
-604.3153756204451
 20
-11.58039721962876
 30
0
 11
-594.1446279017058
 21
-36.13475430168427
 31
0
  0
LINE
  8
1
 62
2
 10
-579.093247315792
 20
-68.55231255000706
 30
0
 11
-582.920081639443
 21
-59.31351722489427
 31
0
  0
LINE
  8
1
 62
2
 10
-579.5551870820477
 20
-68.74365426618965
 30
0
 11
-583.3820214056987
 21
-59.50485894107675
 31
0
  0
LINE
  8
1
 62
2
 10
-580.0171268483034
 20
-68.93499598237213
 30
0
 11
-583.8439611719542
 21
-59.69620065725934
 31
0
  0
LINE
  8
1
 62
3
 10
-593.8384811558138
 20
-36.87385792769322
 30
0
 11
-584.3059009382099
 21
-59.88754237344182
 31
0
  0
LINE
  8
1
 62
40
  6
DASHED
 10
-599.9858068192756
 20
-11.58039721962876
 30
0
 11
-600.7066779371906
 21
-9.840060390035035
 31
0
  0
LINE
  8
1
 62
40
  6
DASHED
 10
-595.6562380181059
 20
-11.58039721962876
 30
0
 11
-597.0989178045545
 21
-8.09746011302326
 31
0
  0
LINE
  8
1
 62
3
 10
-582.4581418731873
 20
-59.12217550871162
 30
0
 11
-592.1820638069737
 21
-35.6465512967074
 31
0
  0
LINE
  8
1
 62
3
 10
-578.7626237431422
 20
-57.59144177925123
 30
0
 11
-588.1038622445634
 21
-35.03969709975837
 31
0
  0
LINE
  8
1
 62
3
 10
-586.7535916416156
 20
-33.07328684276348
 30
0
 11
-595.6562380181059
 21
-11.58039721962876
 31
0
  0
LINE
  8
1
 62
2
 10
-574.4738496532356
 20
-66.63889538818165
 30
0
 11
-578.3006839768866
 21
-57.40010006306875
 31
0
  0
LINE
  8
1
 62
2
 10
-574.01190988698
 20
-66.44755367199906
 30
0
 11
-577.8387442106308
 21
-57.20875834688627
 31
0
  0
LINE
  8
1
 62
2
 10
-573.5499701207243
 20
-66.25621195581653
 30
0
 11
-577.3768044443751
 21
-57.01741663070362
 31
0
  0
LINE
  8
1
 62
2
 10
-575.8596689520025
 20
-67.21292053672926
 30
0
 11
-579.6865032756534
 21
-57.97412521161635
 31
0
  0
LINE
  8
1
 62
2
 10
-575.3977291857469
 20
-67.02157882054667
 30
0
 11
-579.2245635093979
 21
-57.78278349543382
 31
0
  0
LINE
  8
1
 62
2
 10
-576.3216087182582
 20
-67.40426225291174
 30
0
 11
-580.1484430419091
 21
-58.16546692779895
 31
0
  0
LINE
  8
1
 62
2
 10
-577.2454882507694
 20
-67.78694568527686
 30
0
 11
-581.0723225744204
 21
-58.54815036016402
 31
0
  0
LINE
  8
1
 62
2
 10
-577.7074280170251
 20
-67.97828740145945
 30
0
 11
-581.534262340676
 21
-58.73949207634655
 31
0
  0
LINE
  8
1
 62
2
 10
-578.1693677832807
 20
-68.16962911764193
 30
0
 11
-581.9962021069316
 21
-58.93083379252914
 31
0
  0
LINE
  8
1
 62
3
 10
-580.6103828081648
 20
-58.35680864398142
 30
0
 11
-590.1429630257686
 21
-35.34312419823283
 31
0
  0
LINE
  8
1
 62
3
 10
-576.9148646781196
 20
-56.82607491452103
 30
0
 11
-586.4474448957235
 21
-33.81239046877243
 31
0
  0
LINE
  8
1
 62
3
 10
-576.9148646781196
 20
-56.82607491452103
 30
0
 11
-584.3059009382099
 21
-59.88754237344182
 31
0
  0
LINE
  8
1
 62
3
 10
-459.9832815023339
 20
-11.12240465134636
 30
0
 11
-459.9832815023339
 21
-7.257778356321808
 31
0
  0
LINE
  8
1
 62
3
 10
-462.4832815023339
 20
-8.594985397965104
 30
0
 11
-462.4832815023339
 21
-11.1217417357912
 31
0
  0
LINE
  8
1
 62
3
 10
-465.9832815023339
 20
-7.594985397965104
 30
0
 11
-465.9832815023339
 21
-21.95905897956845
 31
0
  0
LINE
  8
1
 62
3
 10
-463.9832815023339
 20
-7.594985397965276
 30
0
 11
-463.9832815023339
 21
-22.45905897956845
 31
0
  0
LINE
  8
1
 62
3
 10
-467.9832815023339
 20
-7.594985397965276
 30
0
 11
-467.9832815023339
 21
-21.45905897956845
 31
0
  0
LINE
  8
1
 62
3
 10
-461.9832815023339
 20
-21.95905897956845
 30
0
 11
-462.9832815023339
 21
-7.728959994180856
 31
0
  0
LINE
  8
1
 62
3
 10
-469.9832815023339
 20
-21.95905897956845
 30
0
 11
-469.2539357844582
 21
-11.58039721962876
 31
0
  0
LINE
  8
1
 62
3
 10
-469.2805457019527
 20
-11.95905897956857
 30
0
 11
-470.4832815023339
 21
-11.95905897956845
 31
0
  0
LINE
  8
1
 62
3
 10
-467.9832815023339
 20
-5.294927961580868
 30
0
 11
-463.4832815023339
 21
-5.294927961580868
 31
0
  0
LINE
  8
1
 62
3
 10
-467.9832815023339
 20
-6.218807494092118
 30
0
 11
-463.4832815023339
 21
-6.218807494092005
 31
0
  0
LINE
  8
1
 62
3
 10
-467.9832815023339
 20
-7.594985397965276
 30
0
 11
-463.4832815023339
 21
-7.594985397965104
 31
0
  0
LINE
  8
1
 62
3
 10
-470.4832815023339
 20
-11.58039721962876
 30
0
 11
-470.4832815023339
 21
-11.95905897956845
 31
0
  0
ARC
  8
1
 62
2
 10
-614.483281502334
 20
23.41960278037121
 30
0
 40
41.00000000000002
 50
19.01792838728375
 51
53.25061882444513
  0
ARC
  8
1
 62
2
 10
-614.483281502334
 20
23.41960278037121
 30
0
 40
40.99999999999999
 50
199.0179283872837
 51
233.2506188244451
  0
ARC
  8
1
 62
40
  6
DASHED
 10
-614.1005980699688
 20
22.49572324785998
 30
0
 40
35.00000000000001
 50
283.1938414663048
 51
304.8736251161885
  0
ARC
  8
1
 62
3
 10
-614.1005980699688
 20
22.49572324785998
 30
0
 40
35.00000000000002
 50
280.1263748838114
 51
283.1938414663048
  0
ARC
  8
1
 62
3
 10
-455.7949935747869
 20
2.357217538383225
 30
0
 40
2.188287927547084
 50
134.0220864142505
 51
237.9987293889817
  0
ARC
  8
1
 62
3
 10
-454.5451764854109
 20
-6.988957135643659
 30
0
 40
7.547667901906271
 50
71.5060952068374
 51
102.7024994568902
  0
ARC
  8
1
 62
3
 10
-455.7949935747869
 20
44.48198802235908
 30
0
 40
2.188287927547043
 50
122.0012706110177
 51
225.9779135857477
  0
ARC
  8
1
 62
3
 10
-454.5451764854109
 20
53.82816269638607
 30
0
 40
7.547667901906308
 50
257.2975005431098
 51
288.4939047931625
  0
ARC
  8
1
 62
40
  6
DASHED
 10
-614.483281502334
 20
23.41960278037121
 30
0
 40
35.00000000000006
 50
272.5000000000001
 51
312.5
  0
CIRCLE
  8
1
 62
3
 10
-614.483281502334
 20
23.41960278037121
 30
0
 40
4.09999999999987
  0
CIRCLE
  8
1
 62
4
  6
DIVIDE
 10
-614.483281502334
 20
23.41960278037121
 30
0
 40
41
  0
CIRCLE
  8
1
 62
3
 10
-614.483281502334
 20
23.41960278037121
 30
0
 40
32
  0
CIRCLE
  8
1
 62
3
 10
-585.4832815023339
 20
-5.580397219628821
 30
0
 40
2.75
  0
CIRCLE
  8
1
 62
3
 10
-643.483281502334
 20
-5.580397219628793
 30
0
 40
2.75
  0
CIRCLE
  8
1
 62
3
 10
-643.483281502334
 20
52.41960278037124
 30
0
 40
2.75
  0
CIRCLE
  8
1
 62
3
 10
-585.483281502334
 20
52.41960278037124
 30
0
 40
2.75
  0
CIRCLE
  8
1
 62
3
 10
-614.483281502334
 20
23.41960278037121
 30
0
 40
29
  0
CIRCLE
  8
1
 62
3
 10
-644.9832815023339
 20
3.419602780371179
 30
0
 40
3.950000000000045
  0
CIRCLE
  8
1
 62
3
 10
-583.983281502334
 20
43.41960278037118
 30
0
 40
3.950000000000045
  0
CIRCLE
  8
1
 62
3
 10
-644.9832815023339
 20
43.41960278037124
 30
0
 40
3.950000000000045
  0
CIRCLE
  8
1
 62
3
 10
-583.983281502334
 20
3.419602780371235
 30
0
 40
3.950000000000045
  0
CIRCLE
  8
1
 62
3
 10
-614.483281502334
 20
23.41960278037121
 30
0
 40
3.381500000003168
  0
CIRCLE
  8
1
 62
1
  6
DASHDOT
 10
-614.483281502334
 20
23.41960278037121
 30
0
 40
2.781500000003259
  0
POLYLINE
  8
1
 62
2
 66
1
  0
VERTEX
  8
1
 10
-593.8384811558138
 20
-36.87385792769322
 30
0
 42
-0.00329844804765229
  0
VERTEX
  8
1
 10
-593.5255664907994
 20
-36.58405038393552
 30
0
 42
-0.01008437812738259
  0
VERTEX
  8
1
 10
-593.2080596245964
 20
-36.30532939456796
 30
0
 42
-0.01738728140011258
  0
VERTEX
  8
1
 10
-592.8813683560168
 20
-36.04878151398066
 30
0
 42
-0.02533597904408434
  0
VERTEX
  8
1
 10
-592.540900483872
 20
-35.82549329656376
 30
0
 42
-0.03358561680834644
  0
VERTEX
  8
1
 10
-592.1820638069737
 20
-35.6465512967074
 30
0
 42
-0.03358561680821262
  0
VERTEX
  8
1
 10
-591.8017968578631
 20
-35.51934655067167
 30
0
 42
-0.02533597904380882
  0
VERTEX
  8
1
 10
-591.4031611039986
 20
-35.43648802219649
 30
0
 42
-0.0173872814002665
  0
VERTEX
  8
1
 10
-590.9907487465692
 20
-35.3868891568917
 30
0
 42
-0.01008437812741256
  0
VERTEX
  8
1
 10
-590.5691519867631
 20
-35.35946340036719
 30
0
 42
-0.00329844804763275
  0
VERTEX
  8
1
 10
-590.1429630257686
 20
-35.34312419823283
 30
0
 42
0.003298448047599443
  0
VERTEX
  8
1
 10
-589.7167740647741
 20
-35.32678499609848
 30
0
 42
0.01002260566465927
  0
VERTEX
  8
1
 10
-589.2951773049679
 20
-35.299359239574
 30
0
 42
0.0173443706666326
  0
VERTEX
  8
1
 10
-588.8827649475384
 20
-35.24976037426924
 30
0
 42
0.02528613368050068
  0
VERTEX
  8
1
 10
-588.4841291936741
 20
-35.16690184579409
 30
0
 42
0.03366994074325418
  0
VERTEX
  8
1
 10
-588.1038622445634
 20
-35.03969709975837
 30
0
 42
0.03624463442821827
  0
VERTEX
  8
1
 10
-587.7450255676652
 20
-34.86075509990201
 30
0
 42
0.02271310129276165
  0
VERTEX
  8
1
 10
-587.4045576955203
 20
-34.6374668824851
 30
0
 42
0.01991681447192355
  0
VERTEX
  8
1
 10
-587.0778664269408
 20
-34.38091900189777
 30
0
 42
0.007450858153263858
  0
VERTEX
  8
1
 10
-586.7603595607379
 20
-34.10219801253017
 30
0
 42
0.005870053313563277
  0
VERTEX
  8
1
 10
-586.4474448957235
 20
-33.81239046877243
 30
0
  0
SEQEND
  8
1
  0
POLYLINE
  8
1
 62
2
 66
1
  0
VERTEX
  8
1
 10
-594.1446279017058
 20
-36.13475430168427
 30
0
 42
-0.003298448047664281
  0
VERTEX
  8
1
 10
-593.8317132366914
 20
-35.84494675792653
 30
0
 42
-0.01008437812756468
  0
VERTEX
  8
1
 10
-593.5142063704885
 20
-35.56622576855892
 30
0
 42
-0.01738728140026472
  0
VERTEX
  8
1
 10
-593.187515101909
 20
-35.3096778879716
 30
0
 42
-0.02533597904409922
  0
VERTEX
  8
1
 10
-592.8470472297641
 20
-35.08638967055469
 30
0
 42
-0.03358561680859919
  0
VERTEX
  8
1
 10
-592.4882105528659
 20
-34.90744767069833
 30
0
 42
-0.03358561680848938
  0
VERTEX
  8
1
 10
-592.1079436037552
 20
-34.78024292466262
 30
0
 42
-0.02533597904401746
  0
VERTEX
  8
1
 10
-591.7093078498908
 20
-34.69738439618745
 30
0
 42
-0.01738728140024939
  0
VERTEX
  8
1
 10
-591.2968954924614
 20
-34.6477855308827
 30
0
 42
-0.01008437812739902
  0
VERTEX
  8
1
 10
-590.8752987326552
 20
-34.62035977435822
 30
0
 42
-0.003298448047616097
  0
VERTEX
  8
1
 10
-590.4491097716607
 20
-34.60402057222387
 30
0
 42
0.003298448047616152
  0
VERTEX
  8
1
 10
-590.0229208106662
 20
-34.5876813700895
 30
0
 42
0.01002260566465161
  0
VERTEX
  8
1
 10
-589.6013240508601
 20
-34.56025561356499
 30
0
 42
0.01734437066666398
  0
VERTEX
  8
1
 10
-589.1889116934307
 20
-34.5106567482602
 30
0
 42
0.02528613368043252
  0
VERTEX
  8
1
 10
-588.7902759395664
 20
-34.42779821978502
 30
0
 42
0.03366994074330903
  0
VERTEX
  8
1
 10
-588.4100089904557
 20
-34.3005934737493
 30
0
 42
0.0362446344282166
  0
VERTEX
  8
1
 10
-588.0511723135576
 20
-34.12165147389295
 30
0
 42
0.02271310129260136
  0
VERTEX
  8
1
 10
-587.7107044414126
 20
-33.89836325647605
 30
0
 42
0.01991681447207904
  0
VERTEX
  8
1
 10
-587.384013172833
 20
-33.64181537588875
 30
0
 42
0.007450858153174702
  0
VERTEX
  8
1
 10
-587.0665063066301
 20
-33.36309438652118
 30
0
 42
0.00587005331357016
  0
VERTEX
  8
1
 10
-586.7535916416156
 20
-33.07328684276348
 30
0
  0
SEQEND
  8
1
  0
POLYLINE
  8
1
 62
2
 66
1
  0
VERTEX
  8
1
 10
-469.9832815023339
 20
-21.95905897956845
 30
0
 42
-0.00329844804760233
  0
VERTEX
  8
1
 10
-469.5832815023339
 20
-21.81105897956845
 30
0
 42
-0.01008437812744432
  0
VERTEX
  8
1
 10
-469.1832815023339
 20
-21.67505897956845
 30
0
 42
-0.01738728140019697
  0
VERTEX
  8
1
 10
-468.7832815023339
 20
-21.56305897956845
 30
0
 42
-0.02533597904393969
  0
VERTEX
  8
1
 10
-468.3832815023339
 20
-21.48705897956845
 30
0
 42
-0.03358561680837933
  0
VERTEX
  8
1
 10
-467.9832815023339
 20
-21.45905897956845
 30
0
 42
-0.03358561680838445
  0
VERTEX
  8
1
 10
-467.5832815023339
 20
-21.48705897956845
 30
0
 42
-0.02533597904389459
  0
VERTEX
  8
1
 10
-467.1832815023339
 20
-21.56305897956845
 30
0
 42
-0.01738728140018854
  0
VERTEX
  8
1
 10
-466.7832815023339
 20
-21.67505897956845
 30
0
 42
-0.01008437812744943
  0
VERTEX
  8
1
 10
-466.3832815023339
 20
-21.81105897956845
 30
0
 42
-0.003298448047602108
  0
VERTEX
  8
1
 10
-465.9832815023339
 20
-21.95905897956845
 30
0
 42
0.003298448047617762
  0
VERTEX
  8
1
 10
-465.5832815023339
 20
-22.10705897956845
 30
0
 42
0.01002260566465966
  0
VERTEX
  8
1
 10
-465.1832815023339
 20
-22.24305897956845
 30
0
 42
0.01734437066663199
  0
VERTEX
  8
1
 10
-464.7832815023339
 20
-22.35505897956845
 30
0
 42
0.02528613368048591
  0
VERTEX
  8
1
 10
-464.3832815023339
 20
-22.43105897956845
 30
0
 42
0.03366994074324946
  0
VERTEX
  8
1
 10
-463.9832815023339
 20
-22.45905897956845
 30
0
 42
0.03624463442821037
  0
VERTEX
  8
1
 10
-463.583281502334
 20
-22.43105897956845
 30
0
 42
0.02271310129278459
  0
VERTEX
  8
1
 10
-463.1832815023339
 20
-22.35505897956845
 30
0
 42
0.01991681447185725
  0
VERTEX
  8
1
 10
-462.7832815023339
 20
-22.24305897956845
 30
0
 42
0.007450858153353292
  0
VERTEX
  8
1
 10
-462.3832815023339
 20
-22.10705897956845
 30
0
 42
0.005870053313428159
  0
VERTEX
  8
1
 10
-461.9832815023339
 20
-21.95905897956845
 30
0
  0
SEQEND
  8
1
  0
POLYLINE
  8
1
 62
3
 66
1
  0
VERTEX
  8
1
 10
-462.4832815023339
 20
-11.1217417357912
 30
0
 42
-0.0317973906069342
  0
VERTEX
  8
1
 10
-462.4839851545153
 20
-11.13259012858077
 30
0
 42
-0.01466449503640419
  0
VERTEX
  8
1
 10
-462.4848377303445
 20
-11.13798077012165
 30
0
 42
-0.01387666759025235
  0
VERTEX
  8
1
 10
-462.4860001487574
 20
-11.14333114583788
 30
0
 42
-0.01314142151155686
  0
VERTEX
  8
1
 10
-462.4874544168223
 20
-11.14862783378795
 30
0
 42
-0.01246585584367471
  0
VERTEX
  8
1
 10
-462.4891825416076
 20
-11.15385741203027
 30
0
 42
-0.01185815770907777
  0
VERTEX
  8
1
 10
-462.4911665301818
 20
-11.15900645862328
 30
0
 42
-0.01131713871250434
  0
VERTEX
  8
1
 10
-462.4933883896132
 20
-11.16406155162558
 30
0
 42
-0.02132655232060996
  0
VERTEX
  8
1
 10
-462.4984737493217
 20
-11.17383618909134
 30
0
 42
-0.01250278517759977
  0
VERTEX
  8
1
 10
-462.5020315082631
 20
-11.17967655247688
 30
0
 42
-0.01179145245889241
  0
VERTEX
  8
1
 10
-462.5058553938754
 20
-11.18531703390879
 30
0
 42
-0.0110301012910095
  0
VERTEX
  8
1
 10
-462.5099250881803
 20
-11.19076682208513
 30
0
 42
-0.01024818957861924
  0
VERTEX
  8
1
 10
-462.5142202732
 20
-11.19603510570359
 30
0
 42
-0.009456533642515724
  0
VERTEX
  8
1
 10
-462.5187206309556
 20
-11.20113107346238
 30
0
 42
-0.008666067141039614
  0
VERTEX
  8
1
 10
-462.5234058434699
 20
-11.20606391405946
 30
0
 42
-0.007884276243668371
  0
VERTEX
  8
1
 10
-462.5282555927644
 20
-11.21084281619267
 30
0
 42
-0.007116213714929878
  0
VERTEX
  8
1
 10
-462.533249560861
 20
-11.21547696855994
 30
0
 42
-0.00636415471386941
  0
VERTEX
  8
1
 10
-462.5383674297814
 20
-11.21997555985946
 30
0
 42
-0.005630018504247629
  0
VERTEX
  8
1
 10
-462.5435888815479
 20
-11.22434777878891
 30
0
 42
-0.00665340394756584
  0
VERTEX
  8
1
 10
-462.550468708916
 20
-11.22982840396769
 30
0
 42
-0.006331647299903406
  0
VERTEX
  8
1
 10
-462.5574793469081
 20
-11.23512153790495
 30
0
 42
-0.006003203136525607
  0
VERTEX
  8
1
 10
-462.5646123160679
 20
-11.24023572069328
 30
0
 42
-0.005671352663472623
  0
VERTEX
  8
1
 10
-462.5718591369389
 20
-11.24517949242468
 30
0
 42
-0.00533744628840722
  0
VERTEX
  8
1
 10
-462.5792113300652
 20
-11.24996139319165
 30
0
 42
-0.005003006151663948
  0
VERTEX
  8
1
 10
-462.5866604159902
 20
-11.25458996308657
 30
0
 42
-0.004669128629824477
  0
VERTEX
  8
1
 10
-462.5941979152576
 20
-11.25907374220163
 30
0
 42
-0.004336701806762981
  0
VERTEX
  8
1
 10
-462.6018153484105
 20
-11.26342127062926
 30
0
 42
-0.004006264244263284
  0
VERTEX
  8
1
 10
-462.6095042359934
 20
-11.26764108846165
 30
0
 42
-0.003678419792484575
  0
VERTEX
  8
1
 10
-462.6172560985496
 20
-11.27174173579124
 30
0
 42
-0.004269428683234181
  0
VERTEX
  8
1
 10
-462.6269586369176
 20
-11.27667906392313
 30
0
 42
-0.004078174907895116
  0
VERTEX
  8
1
 10
-462.6367401985169
 20
-11.28145271421824
 30
0
 42
-0.003886117451066816
  0
VERTEX
  8
1
 10
-462.6465957794437
 20
-11.28606959087855
 30
0
 42
-0.003694004957779693
  0
VERTEX
  8
1
 10
-462.6565203757949
 20
-11.29053659810616
 30
0
 42
-0.003501753032213652
  0
VERTEX
  8
1
 10
-462.6665089836665
 20
-11.29486064010312
 30
0
 42
-0.003311058299515916
  0
VERTEX
  8
1
 10
-462.6765565991554
 20
-11.29904862107126
 30
0
 42
-0.003116949946618112
  0
VERTEX
  8
1
 10
-462.686658218358
 20
-11.30310744521265
 30
0
 42
-0.002938981088963121
  0
VERTEX
  8
1
 10
-462.6968088373713
 20
-11.30704401672953
 30
0
 42
-0.002704882149996023
  0
VERTEX
  8
1
 10
-462.7070034522914
 20
-11.31086523982365
 30
0
 42
-0.002684924991875399
  0
VERTEX
  8
1
 10
-462.7172370592149
 20
-11.31457801869726
 30
0
 42
-0.002486532392671258
  0
VERTEX
  8
1
 10
-462.7309694526699
 20
-11.31938543610596
 30
0
  0
SEQEND
  8
1
  0
POLYLINE
  8
1
 62
3
 66
1
  0
VERTEX
  8
1
 10
-459.9832815023339
 20
-11.12240465134636
 30
0
 42
-0.04122800217905155
  0
VERTEX
  8
1
 10
-459.9858792796692
 20
-11.15300775541314
 30
0
 42
-0.01835632305892442
  0
VERTEX
  8
1
 10
-459.9889940711879
 20
-11.16819307616375
 30
0
 42
-0.01689829903054264
  0
VERTEX
  8
1
 10
-459.9932017489181
 20
-11.18323240340157
 30
0
 42
-0.01555205049430502
  0
VERTEX
  8
1
 10
-459.9984140260928
 20
-11.19807707262247
 30
0
 42
-0.01433194402480301
  0
VERTEX
  8
1
 10
-460.004542615945
 20
-11.21267841932207
 30
0
 42
-0.01325102003387356
  0
VERTEX
  8
1
 10
-460.0114992317079
 20
-11.22698777899631
 30
0
 42
-0.01231448291175788
  0
VERTEX
  8
1
 10
-460.0191955866146
 20
-11.24095648714076
 30
0
 42
-0.01150455592241887
  0
VERTEX
  8
1
 10
-460.0275433938979
 20
-11.25453587925138
 30
0
 42
-0.02489843172668503
  0
VERTEX
  8
1
 10
-460.0494198643501
 20
-11.28488477944028
 30
0
 42
-0.01316584990367599
  0
VERTEX
  8
1
 10
-460.063202680821
 20
-11.30124101423313
 30
0
 42
-0.01220578318503537
  0
VERTEX
  8
1
 10
-460.0777317215054
 20
-11.31680516745014
 30
0
 42
-0.01117990030397275
  0
VERTEX
  8
1
 10
-460.0929358917041
 20
-11.33163641133889
 30
0
 42
-0.01011921348127534
  0
VERTEX
  8
1
 10
-460.1087440967194
 20
-11.34579391814694
 30
0
 42
-0.009043192876666972
  0
VERTEX
  8
1
 10
-460.1250852418518
 20
-11.35933686012181
 30
0
 42
-0.007965900460231169
  0
VERTEX
  8
1
 10
-460.1418882324031
 20
-11.37232440951128
 30
0
 42
-0.006896936534943786
  0
VERTEX
  8
1
 10
-460.1590819736744
 20
-11.38481573856301
 30
0
 42
-0.005840884626144825
  0
VERTEX
  8
1
 10
-460.1765953709674
 20
-11.39687001952446
 30
0
 42
-0.004799792948924228
  0
VERTEX
  8
1
 10
-460.1943573295832
 20
-11.40854642464347
 30
0
 42
-0.005727361840138685
  0
VERTEX
  8
1
 10
-460.2189783444623
 20
-11.42400822285627
 30
0
 42
-0.005451374577422723
  0
VERTEX
  8
1
 10
-460.2439117896908
 20
-11.43889944889438
 30
0
 42
-0.005170759672609167
  0
VERTEX
  8
1
 10
-460.2691373798106
 20
-11.45324703856279
 30
0
 42
-0.0048877043059638
  0
VERTEX
  8
1
 10
-460.294634829363
 20
-11.46707792766628
 30
0
 42
-0.004603064019210917
  0
VERTEX
  8
1
 10
-460.3203838528893
 20
-11.48041905200994
 30
0
 42
-0.004317832020782258
  0
VERTEX
  8
1
 10
-460.3463641649315
 20
-11.49329734739866
 30
0
 42
-0.004032727726236623
  0
VERTEX
  8
1
 10
-460.372555480031
 20
-11.50573974963724
 30
0
 42
-0.003748343474691601
  0
VERTEX
  8
1
 10
-460.398937512729
 20
-11.5177731945308
 30
0
 42
-0.003465047465133139
  0
VERTEX
  8
1
 10
-460.4254899775677
 20
-11.529424617884
 30
0
 42
-0.003183260376962554
  0
VERTEX
  8
1
 10
-460.4521925890886
 20
-11.540720955502
 30
0
 42
-0.003787972685793163
  0
VERTEX
  8
1
 10
-460.4864608725931
 20
-11.55465907615252
 30
0
 42
-0.003597416275646847
  0
VERTEX
  8
1
 10
-460.5209269171461
 20
-11.56808779754877
 30
0
 42
-0.003406285355152929
  0
VERTEX
  8
1
 10
-460.5555769834154
 20
-11.58103216662091
 30
0
 42
-0.003215065136545105
  0
VERTEX
  8
1
 10
-460.5903973320684
 20
-11.59351723029882
 30
0
 42
-0.003023978441554265
  0
VERTEX
  8
1
 10
-460.6253742237722
 20
-11.60556803551242
 30
0
 42
-0.002833252093015709
  0
VERTEX
  8
1
 10
-460.6604939191945
 20
-11.61720962919153
 30
0
 42
-0.002643040437739243
  0
VERTEX
  8
1
 10
-460.6957426790027
 20
-11.62846705826626
 30
0
 42
-0.002453458599657521
  0
VERTEX
  8
1
 10
-460.7311067638643
 20
-11.63936536966636
 30
0
 42
-0.002264556434877531
  0
VERTEX
  8
1
 10
-460.7665724344466
 20
-11.64992961032186
 30
0
 42
-0.002076403855980979
  0
VERTEX
  8
1
 10
-460.8021259514175
 20
-11.66018482716268
 30
0
 42
-0.002337234398182327
  0
VERTEX
  8
1
 10
-460.8448741337169
 20
-11.67210921638761
 30
0
 42
-0.002255330955348903
  0
VERTEX
  8
1
 10
-460.8877236093135
 20
-11.68363872247779
 30
0
 42
-0.002173233687635144
  0
VERTEX
  8
1
 10
-460.930669035671
 20
-11.69478708886649
 30
0
 42
-0.00209104916271573
  0
VERTEX
  8
1
 10
-460.9737050702535
 20
-11.70556805898701
 30
0
 42
-0.002008815848701137
  0
VERTEX
  8
1
 10
-461.0168263705242
 20
-11.71599537627251
 30
0
 42
-0.001926583319055117
  0
VERTEX
  8
1
 10
-461.060027593947
 20
-11.72608278415623
 30
0
 42
-0.001844387491737976
  0
VERTEX
  8
1
 10
-461.1033033979853
 20
-11.7358440260713
 30
0
 42
-0.001762266757206128
  0
VERTEX
  8
1
 10
-461.1466484401029
 20
-11.74529284545086
 30
0
 42
-0.001680229491800567
  0
VERTEX
  8
1
 10
-461.1900573777637
 20
-11.75444298572837
 30
0
 42
-0.00159835237597947
  0
VERTEX
  8
1
 10
-461.2335248684311
 20
-11.76330819033687
 30
0
 42
-0.003456016609075756
  0
VERTEX
  8
1
 10
-461.3330350995492
 20
-11.78255344936895
 30
0
 42
-0.001651374527248914
  0
VERTEX
  8
1
 10
-461.3828854375298
 20
-11.79166988809125
 30
0
 42
-0.001600257482567438
  0
VERTEX
  8
1
 10
-461.4327944887494
 20
-11.80046203241996
 30
0
 42
-0.00154919936124554
  0
VERTEX
  8
1
 10
-461.4827586769271
 20
-11.80893975695659
 30
0
 42
-0.001498256641702828
  0
VERTEX
  8
1
 10
-461.5327744257809
 20
-11.81711293630294
 30
0
 42
-0.001447112431280511
  0
VERTEX
  8
1
 10
-461.5828381590299
 20
-11.82499144506059
 30
0
 42
-0.001397058361454061
  0
VERTEX
  8
1
 10
-461.6329463003927
 20
-11.83258515783113
 30
0
 42
-0.001343293951817258
  0
VERTEX
  8
1
 10
-461.6830952735877
 20
-11.83990394921622
 30
0
 42
-0.002679663263810988
  0
VERTEX
  8
1
 10
-461.788423874596
 20
-11.85440781370318
 30
0
 42
-0.002675253940809413
  0
VERTEX
  8
1
 10
-461.8988226357861
 20
-11.8684088412015
 30
0
 42
-0.002569473475112848
  0
VERTEX
  8
1
 10
-462.0093604367051
 20
-11.8812503463793
 30
0
 42
-0.002459514923138124
  0
VERTEX
  8
1
 10
-462.1200216983627
 20
-11.89297964208968
 30
0
 42
-0.00234823162940089
  0
VERTEX
  8
1
 10
-462.2307908417692
 20
-11.90364404118579
 30
0
 42
-0.002319000685708886
  0
VERTEX
  8
1
 10
-462.3450567228
 20
-11.91357076157548
 30
0
 42
-0.006590188710725021
  0
VERTEX
  8
1
 10
-462.6875574373181
 20
-11.93714271171763
 30
0
  0
SEQEND
  8
1
  0
POLYLINE
  8
1
 62
3
 66
1
  0
VERTEX
  8
1
 10
-463.4832815023339
 20
-5.294927961580868
 30
0
 42
-0.02643718230957701
  0
VERTEX
  8
1
 10
-462.8401369821662
 20
-5.327891919954969
 30
0
 42
-0.01516766461983279
  0
VERTEX
  8
1
 10
-462.3470787283168
 20
-5.400844852548331
 30
0
 42
-0.02142136794059338
  0
VERTEX
  8
1
 10
-461.9524813598315
 20
-5.49224388528694
 30
0
 42
-0.02278120878432989
  0
VERTEX
  8
1
 10
-461.5304373124231
 20
-5.628519095319671
 30
0
 42
-0.01899779288864792
  0
VERTEX
  8
1
 10
-461.1926545781968
 20
-5.773348375818263
 30
0
 42
-0.02172166134034773
  0
VERTEX
  8
1
 10
-460.9276084311332
 20
-5.916383077041573
 30
0
 42
-0.02319434913975263
  0
VERTEX
  8
1
 10
-460.6919765889773
 20
-6.073322370277852
 30
0
 42
-0.02708380603434752
  0
VERTEX
  8
1
 10
-460.4879912305952
 20
-6.242134323448641
 30
0
 42
-0.03031409770084579
  0
VERTEX
  8
1
 10
-460.3145668234208
 20
-6.423998110107674
 30
0
 42
-0.03467153278654334
  0
VERTEX
  8
1
 10
-460.1766564340721
 20
-6.614268634029055
 30
0
 42
-0.02601766859752843
  0
VERTEX
  8
1
 10
-460.0886882735317
 20
-6.779574535434262
 30
0
 42
-0.05657164044564015
  0
VERTEX
  8
1
 10
-460.0183850107518
 20
-6.980801981603412
 30
0
 42
-0.06217457427994162
  0
VERTEX
  8
1
 10
-459.9832815023339
 20
-7.257778356321808
 30
0
  0
SEQEND
  8
1
  0
POLYLINE
  8
1
 62
3
 66
1
  0
VERTEX
  8
1
 10
-463.4832815023339
 20
-6.218807494092005
 30
0
 42
-0.02643718230953143
  0
VERTEX
  8
1
 10
-462.8401369821661
 20
-6.251771452466291
 30
0
 42
-0.01516766461967731
  0
VERTEX
  8
1
 10
-462.3470787283167
 20
-6.324724385059604
 30
0
 42
-0.02142136794049468
  0
VERTEX
  8
1
 10
-461.9524813598314
 20
-6.416123417798137
 30
0
 42
-0.02278120878446663
  0
VERTEX
  8
1
 10
-461.5304373124231
 20
-6.55239862783087
 30
0
 42
-0.0189977928887054
  0
VERTEX
  8
1
 10
-461.1926545781969
 20
-6.697227908329523
 30
0
 42
-0.0217216613402461
  0
VERTEX
  8
1
 10
-460.9276084311332
 20
-6.840262609552935
 30
0
 42
-0.0231943491393284
  0
VERTEX
  8
1
 10
-460.6919765889774
 20
-6.997201902789213
 30
0
 42
-0.02708380603392843
  0
VERTEX
  8
1
 10
-460.4879912305951
 20
-7.166013855959894
 30
0
 42
-0.03031409770149014
  0
VERTEX
  8
1
 10
-460.3145668234209
 20
-7.347877642618924
 30
0
 42
-0.03467153278744659
  0
VERTEX
  8
1
 10
-460.1766564340722
 20
-7.538148166540364
 30
0
 42
-0.02601766859877292
  0
VERTEX
  8
1
 10
-460.0886882735318
 20
-7.70345406794556
 30
0
 42
-0.05657164044686677
  0
VERTEX
  8
1
 10
-460.0183850107517
 20
-7.904681514114704
 30
0
 42
-0.06217457427995418
  0
VERTEX
  8
1
 10
-459.9832815023339
 20
-8.181657888833286
 30
0
  0
SEQEND
  8
1
  0
ARC
  8
1
 62
3
 10
-585.4832815023339
 20
-5.580397219628821
 30
0
 40
5.999999999999998
 50
270
 51
0
  0
ARC
  8
1
 62
3
 10
-643.483281502334
 20
-5.580397219628793
 30
0
 40
6
 50
180.0000000000003
 51
270
  0
ARC
  8
1
 62
3
 10
-643.483281502334
 20
52.41960278037124
 30
0
 40
6
 50
90
 51
180
  0
ARC
  8
1
 62
3
 10
-585.483281502334
 20
52.41960278037124
 30
0
 40
6
 50
0
 51
90
  0
ARC
  8
1
 62
3
 10
-456.42471258656
 20
1.349506188360124
 30
0
 40
1.000000000000013
 50
237.9987293889854
 51
282.7024994568906
  0
ARC
  8
1
 62
3
 10
-456.42471258656
 20
45.48969937238223
 30
0
 40
1.00000000000004
 50
77.29750054310944
 51
122.0012706110148
  0
ARC
  8
1
 62
3
 10
-463.4832815023339
 20
-8.594985397965104
 30
0
 40
1
 50
0
 51
90
  0
LINE
  8
1
 62
2
 10
-411.0934113580211
 20
68.41960278037067
 30
0
 11
-431.1895482060888
 21
68.41960278037084
 31
0
  0
LINE
  8
1
 62
2
 10
-431.1895482060888
 20
68.41960278037084
 30
0
 11
-435.577720906364
 21
57.91083846983759
 31
0
  0
SOLID
  8
1
 62
2
 10
-434.7334285476528
 20
61.02606783305644
 30
0
 11
-433.9559164230827
 21
60.70140002451575
 31
0
 12
-435.577720906364
 22
57.91083846983759
 32
0
 13
-435.577720906364
 23
57.91083846983759
 33
0
  0
LINE
  8
1
 62
2
 10
-528.953668659071
 20
-19.29437883929154
 30
0
 11
-485.4692986576789
 21
-19.29437883929154
 31
0
  0
LINE
  8
1
 62
2
 10
-485.4692986576789
 20
-19.29437883929154
 30
0
 11
-482.363565021354
 21
20.01960278037137
 31
0
  0
SOLID
  8
1
 62
2
 10
-482.195594569821
 20
16.79636380383692
 30
0
 11
-483.0355536582087
 21
16.86271905676398
 31
0
 12
-482.363565021354
 22
20.01960278037137
 32
0
 13
-482.363565021354
 23
20.01960278037137
 33
0
  0
LINE
  8
1
 62
2
 10
-538.4413924046469
 20
-31.60028323238765
 30
0
 11
-577.6678332505669
 21
-31.60028323238765
 31
0
  0
LINE
  8
1
 62
2
 10
-577.6678332505669
 20
-31.60028323238765
 30
0
 11
-583.0125713806814
 21
-42.10490869382306
 31
0
  0
SOLID
  8
1
 62
2
 10
-581.9369285993549
 20
-39.06180564275509
 30
0
 11
-581.1859672125107
 21
-39.44389370227179
 31
0
 12
-583.0125713806814
 22
-42.10490869382306
 32
0
 13
-583.0125713806814
 23
-42.10490869382306
 33
0
  0
TEXT
  8
1
 62
2
 10
-546.2775202736867
 20
-26.79048733934959
 30
0
 40
2.2
  1
+40
 41
0.9
  0
TEXT
  8
1
 62
2
 10
-546.2775202736867
 20
-30.64048733934959
 30
0
 40
2.2
  1
 0
 41
0.9
  0
TEXT
  8
1
 62
2
 10
-575.788953909577
 20
-29.40639146099164
 30
0
 40
3.199999999999999
  1
âèü[âhÉ³ÆÀé%%d300
 41
0.9
  0
TEXT
  8
1
 62
2
 10
-430.7069744576556
 20
69.48130969843021
 30
0
 40
3.5
  1
âlü[âÇâvâîü[âg
 41
0.72
 73
2
 11
-430.7069744576556
 21
71.23130969843021
 31
0
  0
TEXT
  8
1
 62
2
 10
-526.834712792435
 20
-18.37217911318152
 30
0
 40
4
  1
âéâWâàü[âïü@üFü@éOüDéT
 41
0.7200000000000001
  0
TEXT
  8
1
 62
2
 10
-526.834712792435
 20
-25.37217911318152
 30
0
 40
4
  1
ê%%dü@ù═ü@èpü@üFü@éQéOüï
 41
0.7200000000000001
  0
TEXT
  8
1
 62
2
 10
-526.834712792435
 20
-32.37217911318152
 30
0
 40
4
  1
Äòü@ü@ü@Éöü@üFü@éPéO
 41
0.7200000000000001
  0
TEXT
  8
1
 62
2
 10
-526.834712792435
 20
-39.37217911318152
 30
0
 40
4
  1
èOü@ü@ü@îaü@üFü@âËéUüDéW
 41
0.7200000000000001
  0
TEXT
  8
1
 62
2
 10
-526.834712792435
 20
-46.37217911318152
 30
0
 40
4
  1
é╦éÂéÛò¹î³ü@üFü@ëE
 41
0.7200000000000001
  0
TEXT
  8
1
 62
2
 10
-526.834712792435
 20
-53.37217911318152
 30
0
 40
4
  1
ü@ü@ü@âwâèâJâïÄdùl
 41
0.7200000000000001
  0
TEXT
  8
1
 62
2
 10
-655.506134339818
 20
-69.6079718199246
 30
0
 40
8
  1
IH7PF10N
 41
0.9
  0
DIMENSION
  8
1
  6
CONTINUOUS
 62
2
  2
*D0
  3
DMST_1
 10
-564.483281502334
 20
-5.580397219628839
 30
0
 11
-568.083281502334
 21
23.20005220451571
 31
0
 12
0
 22
0
 32
0
 70
0
 13
-580.483281502334
 23
52.41960278037124
 33
0
 14
-580.4832815023339
 24
-5.58039721962885
 34
0
 50
90
 53
0
  0
DIMENSION
  8
1
  6
CONTINUOUS
 62
2
  2
*D1
  3
DMST_2
 10
-554.483281502334
 20
-11.58039721962882
 30
0
 11
-558.083281502334
 21
22.8912582680216
 31
0
 12
0
 22
0
 32
0
 70
0
 13
-585.483281502334
 23
58.41960278037124
 33
0
 14
-585.4832815023339
 24
-11.58039721962882
 34
0
 50
90
 53
0
  0
DIMENSION
  8
1
  6
CONTINUOUS
 62
2
  2
*D2
  3
DMST_2
 10
-649.483281502334
 20
83.41960278037121
 30
0
 11
-615.292110298639
 21
87.0196027803712
 31
0
 12
0
 22
0
 32
0
 70
0
 13
-579.483281502334
 23
52.41960278037118
 33
0
 14
-649.483281502334
 24
52.41960278037118
 34
0
 53
0
  0
DIMENSION
  8
1
  6
CONTINUOUS
 62
2
  2
*D3
  3
DMST_1
 10
-643.483281502334
 20
73.41960278037121
 30
0
 11
-615.446507266886
 21
77.0196027803712
 31
0
 12
0
 22
0
 32
0
 70
0
 13
-585.483281502334
 23
57.41960278037124
 33
0
 14
-643.483281502334
 24
57.41960278037118
 34
0
 53
0
  0
DIMENSION
  8
1
  6
CONTINUOUS
 62
2
  2
*D4
  3
DMST_2
 10
-474.4832815023339
 20
88.41960278037109
 30
0
 11
-439.5338899188195
 21
92.01960278037109
 31
0
 12
0
 22
0
 32
0
 70
0
 13
-404.4832815023339
 23
53.91960278037118
 33
0
 14
-474.4832815023339
 24
58.41960278037124
 34
0
 53
0
  0
DIMENSION
  8
1
  6
CONTINUOUS
 62
2
  2
*D5
  3
DMST_2
 10
-487.483281502334
 20
88.41960278037124
 30
0
 11
-481.186802692688
 21
92.01960278037126
 31
0
 12
0
 22
0
 32
0
 70
0
 13
-474.4832815023339
 23
58.41960278037124
 33
0
 14
-487.483281502334
 24
26.30110278037154
 34
0
 53
0
  0
DIMENSION
  8
1
  6
CONTINUOUS
 62
2
  2
*D6
  3
DMST_3
 10
-497.483281502334
 20
-8.580397219628701
 30
0
 11
-501.883281502334
 21
23.41960278037124
 31
0
 12
0
 22
0
 32
0
 70
0
  1
64h7
 13
-476.3706212195744
 23
55.41960278037124
 33
0
 14
-476.3706212195744
 24
-8.580397219628765
 34
0
 50
90
 53
0
  0
DIMENSION
  8
1
  6
CONTINUOUS
 62
2
  2
*D7
  3
DMST_4
 10
-389.0566148356672
 20
56.91960278037119
 30
0
 11
-393.0832815023339
 21
23.41960278037124
 31
0
 12
0
 22
0
 32
0
 70
1
  1
âË<>
 13
-407.4832815023339
 23
-10.08039721962876
 33
0
 14
-407.4832815023339
 24
56.91960278037118
 34
0
 53
0
  0
DIMENSION
  8
1
  6
CONTINUOUS
 62
2
  2
*D9
  3
DMST_5
 10
-467.9832815023339
 20
73.41960278037109
 30
0
 11
-461.7589534610065
 21
77.01960278037109
 31
0
 12
0
 22
0
 32
0
 70
0
 13
-474.4832815023339
 23
58.41960278037124
 33
0
 14
-467.9832815023339
 24
58.41960278037124
 34
0
 53
0
  0
DIMENSION
  8
1
  6
CONTINUOUS
 62
2
  2
*D10
  3
DMST_6
 10
-652.5019214493242
 20
8.07088893910357
 30
0
 11
-600.2060985196521
 21
33.06582885715737
 31
0
 12
0
 22
0
 32
0
 70
3
  1
(âË<>
 15
-576.4646415553437
 25
38.76831662163885
 35
0
 40
0
 53
0
  0
DIMENSION
  8
1
  6
CONTINUOUS
 62
2
  2
*D12
  3
DMST_2
 10
-614.483281502334
 20
-11.58039721962882
 30
0
 11
-605.6963910163579
 21
-29.89757435179649
 31
0
 12
0
 22
0
 32
0
 70
2
 13
-604.0433866646267
 23
-1.78453292657025
 33
0
 14
-598.2197500831908
 24
-15.8440353438051
 34
0
 15
-614.483281502334
 25
-16.58039721962876
 35
0
 16
-603.2389807410663
 26
-33.1093144980903
 36
0
 53
0
  0
INSERT
  8
0
  2
____M4_________1
 10
-644.9832815023339
 20
3.419602780371179
 30
0
  0
INSERT
  8
0
  2
MOJINOMUKI
 10
-447.9853857875377
 20
60.59345170474285
 30
0
  0
INSERT
  8
0
  2
____M4_________2
 10
-644.9832815023339
 20
3.419602780371235
 30
0
  0
INSERT
  8
1
  2
*D8
 10
0
 20
0
 30
0
  0
INSERT
  8
1
  2
*D11
 10
0
 20
0
 30
0
  0
ENDSEC
  0
EOF
