  0
SECTION
  2
HEADER
  9
$ACADVER
  1
AC1009
  9
$INSBASE
 10
0
 20
0
  9
$EXTMIN
 10
-23.0777289693082
 20
-1024.5925423342
  9
$EXTMAX
 10
327.9135660923974
 20
-820.53449787634
  9
$LIMMIN
 10
-23.0777289693082
 20
-1024.5925423342
  9
$LIMMAX
 10
327.9135660923974
 20
-820.53449787634
  9
$VIEWCTR
 10
10
 20
10
  9
$VIEWSIZE
 40
10
  9
$SNAPMODE
 70
0
  9
$SNAPUNIT
 10
1
 20
1
  9
$SNAPBASE
 10
0
 20
0
  9
$SNAPANG
 50
0
  9
$SNAPSTYLE
 70
0
  9
$SNAPISOPAIR
 70
0
  9
$GRIDMODE
 70
0
  9
$GRIDUNIT
 10
0
 20
0
  9
$ORTHOMODE
 70
0
  9
$REGENMODE
 70
1
  9
$FILLMODE
 70
1
  9
$QTEXTMODE
 70
0
  9
$DRAGMODE
 70
2
  9
$LTSCALE
 40
1
  9
$OSMODE
 70
0
  9
$ATTMODE
 70
1
  9
$TEXTSIZE
 40
3.5
  9
$TRACEWID
 40
0.5
  9
$TEXTSTYLE
  7
STANDARD
  9
$CLAYER
  8
0
  9
$CELTYPE
  6
BYLAYER
  9
$CECOLOR
 62
256
  9
$DIMSCALE
 40
1
  9
$DIMASZ
 40
0.18
  9
$DIMEXO
 40
0.0625
  9
$DIMDLI
 40
0.38
  9
$DIMRND
 40
0
  9
$DIMDLE
 40
0
  9
$DIMEXE
 40
0.18
  9
$DIMTP
 40
0
  9
$DIMTM
 40
0
  9
$DIMTXT
 40
0.18
  9
$DIMCEN
 40
0.09
  9
$DIMTSZ
 40
0
  9
$DIMTOL
 70
0
  9
$DIMLIM
 70
0
  9
$DIMTIH
 70
1
  9
$DIMTOH
 70
1
  9
$DIMSE1
 70
0
  9
$DIMSE2
 70
0
  9
$DIMTAD
 70
0
  9
$DIMZIN
 70
0
  9
$DIMBLK
  1

  9
$DIMASO
 70
1
  9
$DIMSHO
 70
1
  9
$DIMPOST
  1

  9
$DIMAPOST
  1

  9
$DIMALT
 70
0
  9
$DIMALTD
 70
2
  9
$DIMALTF
 40
25.4
  9
$DIMLFAC
 40
1
  9
$DIMTOFL
 70
0
  9
$DIMTVP
 40
0
  9
$DIMTIX
 70
0
  9
$DIMSOXD
 70
0
  9
$DIMSAH
 70
0
  9
$DIMBLK1
  1

  9
$DIMBLK2
  1

  9
$DIMSTYLE
  2
*UNNAMED
  9
$DIMCLRD
 70
0
  9
$DIMCLRE
 70
0
  9
$DIMCLRT
 70
0
  9
$DIMTFAC
 40
1
  9
$DIMGAP
 40
0.09
  9
$LUNITS
 70
2
  9
$LUPREC
 70
4
  9
$AXISMODE
 70
0
  9
$AXISUNIT
 10
0
 20
0
  9
$SKETCHINC
 40
0.1
  9
$FILLETRAD
 40
2
  9
$AUNITS
 70
0
  9
$AUPREC
 70
0
  9
$MENU
  1
ACAD
  9
$ELEVATION
 40
0
  9
$THICKNESS
 40
0
  9
$VIEWDIR
 10
0
 20
0
 30
1
  9
$LIMCHECK
 70
0
  9
$BLIPMODE
 70
1
  9
$CHAMFERA
 40
0
  9
$CHAMFERB
 40
0
  9
$FASTZOOM
 70
1
  9
$SKPOLY
 70
0
  9
$ANGBASE
 50
0
  9
$ANGDIR
 70
0
  9
$PDMODE
 70
0
  9
$PDSIZE
 40
0
  9
$PLINEWID
 40
0
  9
$COORDS
 70
2
  0
ENDSEC
  0
SECTION
  2
TABLES
  0
TABLE
  2
DIMSTYLE
 70
5
  0
DIMSTYLE
  2
DMST_1
 70
0
  3

  4

  5

  6

  7

 40
1
 41
3.2
 42
1
 43
7
 44
2
 45
0
 46
0
 47
0
 48
0
140
3.2
141
0
142
0
143
25.4
144
1
145
0
146
0.6
147
0.09
 71
1
 72
0
 73
0
 74
0
 75
0
 76
0
 77
1
 78
9
170
0
171
2
172
0
173
0
174
0
175
0
176
2
177
2
178
2
  0
DIMSTYLE
  2
DMST_2
 70
0
  3

  4

  5

  6

  7

 40
1
 41
3.2
 42
1
 43
7
 44
2
 45
0
 46
0
 47
0
 48
0
140
3.2
141
0
142
0
143
25.4
144
1
145
0
146
1
147
0.09
 71
0
 72
0
 73
0
 74
0
 75
0
 76
0
 77
1
 78
9
170
0
171
2
172
0
173
0
174
0
175
0
176
2
177
2
178
2
  0
DIMSTYLE
  2
DMST_3
 70
0
  3

  4

  5

  6

  7

 40
1
 41
3.2
 42
1
 43
7
 44
1.5
 45
0
 46
0
 47
0
 48
0
140
3.2
141
0
142
0
143
25.4
144
1
145
0
146
1
147
0.09
 71
0
 72
0
 73
0
 74
0
 75
0
 76
0
 77
1
 78
9
170
0
171
2
172
0
173
0
174
0
175
0
176
2
177
2
178
2
  0
DIMSTYLE
  2
DMST_4
 70
0
  3

  4

  5

  6

  7

 40
1
 41
3.2
 42
1
 43
7
 44
1.5
 45
0
 46
0
 47
0.3
 48
0.3
140
3.2
141
0
142
0
143
25.4
144
1
145
0
146
0.6
147
0.09
 71
1
 72
0
 73
0
 74
0
 75
0
 76
0
 77
1
 78
9
170
0
171
2
172
0
173
0
174
0
175
0
176
2
177
2
178
2
  0
DIMSTYLE
  2
DMST_5
 70
0
  3
)
  4

  5

  6

  7

 40
1
 41
3.2
 42
1
 43
7
 44
1.5
 45
0
 46
0
 47
0
 48
0
140
3.2
141
0
142
0
143
25.4
144
1
145
0
146
1
147
0.09
 71
0
 72
0
 73
0
 74
0
 75
0
 76
0
 77
1
 78
9
170
0
171
2
172
0
173
0
174
1
175
0
176
2
177
2
178
2
  0
ENDTAB
  0
TABLE
  2
LTYPE
 70
9
  0
LTYPE
  2
CONTINUOUS
 70
64
  3
Solid line
 72
65
 73
0
 40
0
  0
LTYPE
  2
BORDER
 70
64
  3
__ __ . __ __ .
 72
65
 73
6
 40
16.16407279889433
 49
4.61830651396981
 49
-2.309153256984905
 49
4.61830651396981
 49
-2.309153256984905
 49
0
 49
-2.309153256984905
  0
LTYPE
  2
CENTER
 70
64
  3
____ _ ____ _
 72
65
 73
4
 40
18.47322605587924
 49
11.54576628492453
 49
-2.309153256984905
 49
2.309153256984905
 49
-2.309153256984905
  0
LTYPE
  2
DASHDOT
 70
64
  3
__ . __ . __ .
 72
65
 73
4
 40
9.236613027939621
 49
4.61830651396981
 49
-2.309153256984905
 49
0
 49
-2.309153256984905
  0
LTYPE
  2
DASHED
 70
64
  3
__ __ __ __ __
 72
65
 73
2
 40
6.927459770954716
 49
4.61830651396981
 49
-2.309153256984905
  0
LTYPE
  2
DIVIDE
 70
64
  3
__ . . __ . . 
 72
65
 73
6
 40
11.54576628492453
 49
4.61830651396981
 49
-2.309153256984905
 49
0
 49
-2.309153256984905
 49
0
 49
-2.309153256984905
  0
LTYPE
  2
DOT
 70
64
  3
..............
 72
65
 73
4
 40
4.61830651396981
 49
0
 49
-2.309153256984905
 49
0
 49
-2.309153256984905
  0
LTYPE
  2
HIDDEN
 70
64
  3
_ _ _ _ _ _ _
 72
65
 73
2
 40
3.463729885477358
 49
2.309153256984905
 49
-1.154576628492453
  0
LTYPE
  2
PHANTOM
 70
64
  3
_____ _ _ _____ _ _ 
 72
65
 73
6
 40
23.09153256984905
 49
11.54576628492453
 49
-2.309153256984905
 49
2.309153256984905
 49
-2.309153256984905
 49
2.309153256984905
 49
-2.309153256984905
  0
ENDTAB
  0
TABLE
  2
LAYER
 70
3
  0
LAYER
  2
1
 70
0
 62
7
  6
CONTINUOUS
  0
LAYER
  2
0
 70
0
 62
7
  6
CONTINUOUS
  0
ENDTAB
  0
TABLE
  2
STYLE
 70
4
  0
STYLE
  2
STANDARD
 70
0
 40
0
 41
1
 50
0
 71
0
 42
3.5
  3
txt
  4

  0
STYLE
  2
SIMPLEX
 70
0
 40
0
 41
1
 50
0
 71
0
 42
3.5
  3
simplex
  4

  0
STYLE
  2
COMPLEX
 70
0
 40
0
 41
1
 50
0
 71
0
 42
3.5
  3
complex
  4

  0
STYLE
  2
ITALIC
 70
0
 40
0
 41
1
 50
0
 71
0
 42
3.5
  3
italic
  4

  0
ENDTAB
  0
TABLE
  2
VIEW
 70
0
  0
ENDTAB
  0
ENDSEC
  0
SECTION
  2
BLOCKS
  0
BLOCK
  8
1
  2
*D0
 70
1
 10
0
 20
0
 30
0
  0
LINE
  8
1
 62
2
 10
296.213566092397
 20
-921.1329722216096
 30
0
 11
296.213566092397
 21
-867.1329722216096
 31
0
  0
LINE
  8
1
 62
2
 10
313.9635660923969
 20
-921.1329722216096
 30
0
 11
294.213566092397
 21
-921.1329722216096
 31
0
  0
LINE
  8
1
 62
2
 10
313.9635660923969
 20
-867.1329722216096
 30
0
 11
294.213566092397
 21
-867.1329722216096
 31
0
  0
SOLID
  8
1
 62
2
 10
296.213566092397
 20
-867.1329722216096
 30
0
 11
296.629566092397
 21
-870.3329722216097
 31
0
 12
295.797566092397
 22
-870.3329722216097
 32
0
 13
295.797566092397
 23
-870.3329722216097
 33
0
  0
SOLID
  8
1
 62
2
 10
296.213566092397
 20
-921.1329722216096
 30
0
 11
295.797566092397
 21
-917.9329722216096
 31
0
 12
296.629566092397
 22
-917.9329722216096
 32
0
 13
296.629566092397
 23
-917.9329722216096
 33
0
  0
TEXT
  8
1
 62
2
 10
293.413566092397
 20
-901.7747499993874
 30
0
 40
3.2
  1
54h7
 50
90
 41
0.9
  0
TEXT
  8
1
 62
2
 10
291.333566092397
 20
-888.0787499993875
 30
0
 40
1.92
  1
0
 50
90
 41
0.9
  0
TEXT
  8
1
 62
2
 10
294.213566092397
 20
-889.6147499993874
 30
0
 40
1.92
  1
-0.03
 50
90
 41
0.9
  0
TEXT
  8
1
 62
2
 10
293.413566092397
 20
-905.4191944438319
 30
0
 40
3.2
  1
âË
 50
90
 41
0.9
  0
ENDBLK
  8
0
  0
BLOCK
  8
0
  2
B
 70
0
 10
-29.39405419661421
 20
-1254.036187847675
 30
0
  0
POINT
  8
1
 62
4
  6
DIVIDE
 10
314.9635660923971
 20
-921.1329722216096
 30
0
  0
POINT
  8
1
 62
4
  6
DIVIDE
 10
314.9635660923971
 20
-867.1329722216096
 30
0
  0
DIMENSION
  8
1
  6
CONTINUOUS
 62
2
  2
*D0
  3
DMST_1
 10
296.213566092397
 20
-921.1329722216096
 30
0
 11
291.813566092397
 21
-894.1329722216096
 31
0
 12
0
 22
0
 32
0
 70
0
  1
54h7
 13
314.9635660923971
 23
-867.1329722216096
 33
0
 14
314.9635660923971
 24
-921.1329722216096
 34
0
 50
90
 53
0
  0
ENDBLK
  8
0
  0
BLOCK
  8
1
  2
*D1
 70
1
 10
0
 20
0
 30
0
  0
LINE
  8
1
 62
2
 10
306.213566092398
 20
-844.1329722216096
 30
0
 11
316.213566092398
 21
-844.1329722216096
 31
0
  0
LINE
  8
1
 62
2
 10
316.213566092398
 20
-862.6329722216096
 30
0
 11
316.213566092398
 21
-842.1329722216096
 31
0
  0
LINE
  8
1
 62
2
 10
306.213566092398
 20
-891.1329722216096
 30
0
 11
306.213566092398
 21
-842.1329722216096
 31
0
  0
SOLID
  8
1
 62
2
 10
306.213566092398
 20
-844.1329722216096
 30
0
 11
309.413566092398
 21
-843.7169722216096
 31
0
 12
309.413566092398
 22
-844.5489722216097
 32
0
 13
309.413566092398
 23
-844.5489722216097
 33
0
  0
SOLID
  8
1
 62
2
 10
316.213566092398
 20
-844.1329722216096
 30
0
 11
313.013566092398
 21
-844.5489722216097
 31
0
 12
313.013566092398
 22
-843.7169722216096
 32
0
 13
313.013566092398
 23
-843.7169722216096
 33
0
  0
TEXT
  8
1
 62
2
 10
309.293566092398
 20
-842.1329722216096
 30
0
 40
3.2
  1
10
 41
0.9
  0
ENDBLK
  8
0
  0
BLOCK
  8
0
  2
G6G__1
 70
0
 10
388.0730873751691
 20
-1040.11834957626
 30
0
  0
POINT
  8
1
 62
4
  6
DIVIDE
 10
316.213566092398
 20
-863.6329722216096
 30
0
  0
LINE
  8
1
 62
2
 10
259.2858428104885
 20
-978.8284538412727
 30
0
 11
302.7702128118815
 21
-978.8284538412727
 31
0
  0
LINE
  8
1
 62
2
 10
307.0972818869279
 20
-891.6329722216096
 30
0
 11
309.216779746127
 21
-896.6329722216096
 31
0
  0
LINE
  8
1
 62
2
 10
308.0972818869279
 20
-891.6329722216096
 30
0
 11
310.216779746127
 21
-896.6329722216096
 31
0
  0
LINE
  8
1
 62
2
 10
309.0972818869279
 20
-891.6329722216096
 30
0
 11
311.216779746127
 21
-896.6329722216096
 31
0
  0
LINE
  8
1
 62
3
 10
306.713566092398
 20
-896.6329722216096
 30
0
 11
314.213566092398
 21
-896.6329722216096
 31
0
  0
LINE
  8
1
 62
3
 10
306.213566092398
 20
-896.1329722216096
 30
0
 11
306.713566092398
 21
-896.6329722216096
 31
0
  0
LINE
  8
1
 62
3
 10
306.213566092398
 20
-894.1329722216096
 30
0
 11
306.213566092398
 21
-896.1329722216096
 31
0
  0
LINE
  8
1
 62
3
 10
306.713566092398
 20
-891.6329722216096
 30
0
 11
306.213566092398
 21
-892.1329722216096
 31
0
  0
LINE
  8
1
 62
2
  6
CENTER
 10
313.713566092398
 20
-892.2329722216095
 30
0
 11
304.213566092398
 21
-892.2329722216095
 31
0
  0
LINE
  8
1
 62
3
 10
306.213566092398
 20
-892.1329722216096
 30
0
 11
306.213566092398
 21
-894.1329722216096
 31
0
  0
LINE
  8
1
 62
3
 10
314.213566092398
 20
-891.6329722216096
 30
0
 11
306.713566092398
 21
-891.6329722216096
 31
0
  0
LINE
  8
1
 62
1
 10
314.213566092398
 20
-894.1329722216096
 30
0
 11
301.213566092398
 21
-894.1329722216096
 31
0
  0
LINE
  8
1
 62
2
  6
CENTER
 10
304.213566092398
 20
-896.0329722216097
 30
0
 11
313.713566092398
 21
-896.0329722216097
 31
0
  0
LINE
  8
1
 62
2
 10
259.2858428104885
 20
-943.8284538412727
 30
0
 11
302.7702128118815
 21
-943.8284538412727
 31
0
  0
LINE
  8
1
 62
2
 10
259.2858428104885
 20
-950.8284538412727
 30
0
 11
302.7702128118815
 21
-950.8284538412727
 31
0
  0
LINE
  8
1
 62
2
 10
259.2858428104885
 20
-957.8284538412727
 30
0
 11
302.7702128118815
 21
-957.8284538412727
 31
0
  0
LINE
  8
1
 62
2
 10
259.2858428104885
 20
-964.8284538412727
 30
0
 11
302.7702128118815
 21
-964.8284538412727
 31
0
  0
LINE
  8
1
 62
2
 10
259.2858428104885
 20
-971.8284538412727
 30
0
 11
302.7702128118815
 21
-971.8284538412727
 31
0
  0
LINE
  8
1
 62
2
 10
259.2858428104885
 20
-936.8284538412727
 30
0
 11
302.7702128118815
 21
-936.8284538412727
 31
0
  0
LINE
  8
1
 62
2
 10
302.7702128118815
 20
-936.8284538412727
 30
0
 11
310.341803523866
 21
-896.6329722216096
 31
0
  0
SOLID
  8
1
 62
2
 10
310.163446805674
 20
-899.8556531635452
 30
0
 11
309.3354329594104
 21
-899.6996808578248
 31
0
 12
310.341803523866
 22
-896.6329722216096
 32
0
 13
310.341803523866
 23
-896.6329722216096
 33
0
  0
TEXT
  8
1
 62
2
 10
261.4047986771246
 20
-935.9062541151627
 30
0
 40
4
  1
   âwâèâJâïÄdùl
 41
0.7200000000000001
  0
TEXT
  8
1
 62
2
 10
261.4047986771246
 20
-942.9062541151627
 30
0
 40
4
  1
âéâWâàü[âï : éOüDéS
 41
0.7200000000000001
  0
TEXT
  8
1
 62
2
 10
261.4047986771246
 20
-949.9062541151627
 30
0
 40
4
  1
êü@ù═ü@èp : 20%%d
 41
0.7200000000000001
  0
TEXT
  8
1
 62
2
 10
261.4047986771246
 20
-956.9062541151627
 30
0
 40
4
  1
Äòü@ü@ü@Éö : 9
 41
0.7200000000000001
  0
TEXT
  8
1
 62
2
 10
261.4047986771246
 20
-963.9062541151627
 30
0
 40
4
  1
èOü@ü@ü@îa : âË5
 41
0.7200000000000001
  0
TEXT
  8
1
 62
2
 10
261.4047986771246
 20
-970.9062541151627
 30
0
 40
4
  1
é╦éÂéÛò¹î³ : ëE
 41
0.7200000000000001
  0
TEXT
  8
1
 62
2
 10
261.4047986771246
 20
-977.9062541151627
 30
0
 40
4
  1
 èÜìçæèÄÞâsâjâIâôÄdùl
 41
0.7200000000000001
  0
DIMENSION
  8
1
  6
CONTINUOUS
 62
2
  2
*D1
  3
DMST_2
 10
316.213566092398
 20
-844.1329722216096
 30
0
 11
311.213566092398
 21
-840.5329722216096
 31
0
 12
0
 22
0
 32
0
 70
0
 13
306.213566092398
 23
-892.1329722216096
 33
0
 14
316.213566092398
 24
-863.6329722216096
 34
0
 53
0
  0
ENDBLK
  8
0
  0
BLOCK
  8
1
  2
*D2
 70
1
 10
0
 20
0
 30
0
  0
LINE
  8
1
 62
2
 10
141.109169700088
 20
-844.1329722216096
 30
0
 11
166.109169700088
 21
-844.1329722216096
 31
0
  0
LINE
  8
1
 62
2
 10
166.109169700088
 20
-863.1329722216096
 30
0
 11
166.109169700088
 21
-842.1329722216096
 31
0
  0
LINE
  8
1
 62
2
 10
141.109169700088
 20
-880.7329722216095
 30
0
 11
141.109169700088
 21
-842.1329722216096
 31
0
  0
SOLID
  8
1
 62
2
 10
141.109169700088
 20
-844.1329722216096
 30
0
 11
144.309169700088
 21
-843.7169722216096
 31
0
 12
144.309169700088
 22
-844.5489722216097
 32
0
 13
144.309169700088
 23
-844.5489722216097
 33
0
  0
SOLID
  8
1
 62
2
 10
166.109169700088
 20
-844.1329722216096
 30
0
 11
162.909169700088
 21
-844.5489722216097
 31
0
 12
162.909169700088
 22
-843.7169722216096
 32
0
 13
162.909169700088
 23
-843.7169722216096
 33
0
  0
TEXT
  8
1
 62
2
 10
150.9785572769
 20
-842.1329722216096
 30
0
 40
3.2
  1
25
 41
0.9
  0
ENDBLK
  8
0
  0
BLOCK
  8
1
  2
*D3
 70
1
 10
0
 20
0
 30
0
  0
LINE
  8
1
 62
2
 10
141.109169700088
 20
-871.2329722216097
 30
0
 11
153.109169700088
 21
-871.2329722216097
 31
0
  0
LINE
  8
1
 62
2
 10
141.109169700088
 20
-880.7329722216097
 30
0
 11
141.109169700088
 21
-869.2329722216097
 31
0
  0
LINE
  8
1
 62
2
 10
153.109169700088
 20
-880.7329722216097
 30
0
 11
153.109169700088
 21
-869.2329722216097
 31
0
  0
SOLID
  8
1
 62
2
 10
141.109169700088
 20
-871.2329722216097
 30
0
 11
144.309169700088
 21
-870.8169722216096
 31
0
 12
144.309169700088
 22
-871.6489722216097
 32
0
 13
144.309169700088
 23
-871.6489722216097
 33
0
  0
SOLID
  8
1
 62
2
 10
153.109169700088
 20
-871.2329722216097
 30
0
 11
149.909169700088
 21
-871.6489722216097
 31
0
 12
149.909169700088
 22
-870.8169722216096
 32
0
 13
149.909169700088
 23
-870.8169722216096
 33
0
  0
TEXT
  8
1
 62
2
 10
145.656094471459
 20
-869.2329722216097
 30
0
 40
3.2
  1
12
 41
0.9
  0
ENDBLK
  8
0
  0
BLOCK
  8
1
  2
*D4
 70
1
 10
0
 20
0
 30
0
  0
LINE
  8
1
 62
2
 10
131.109169700088
 20
-888.1329722216096
 30
0
 11
131.109169700088
 21
-881.7329722216095
 31
0
  0
LINE
  8
1
 62
2
 10
131.109169700088
 20
-881.7329722216095
 30
0
 11
131.109169700088
 21
-881.1329722216096
 31
0
  0
LINE
  8
1
 62
2
 10
131.109169700088
 20
-881.1329722216096
 30
0
 11
131.109169700088
 21
-873.7493405832929
 31
0
  0
LINE
  8
1
 62
2
 10
140.109169700088
 20
-881.7329722216095
 30
0
 11
129.109169700088
 21
-881.7329722216095
 31
0
  0
LINE
  8
1
 62
2
 10
156.3091697000881
 20
-881.1329722216096
 30
0
 11
129.109169700088
 21
-881.1329722216096
 31
0
  0
SOLID
  8
1
 62
2
 10
131.109169700088
 20
-881.1329722216096
 30
0
 11
130.693169700088
 21
-877.9329722216096
 31
0
 12
131.525169700088
 22
-877.9329722216096
 32
0
 13
131.525169700088
 23
-877.9329722216096
 33
0
  0
SOLID
  8
1
 62
2
 10
131.109169700088
 20
-881.7329722216095
 30
0
 11
131.525169700088
 21
-884.9329722216096
 31
0
 12
130.693169700088
 22
-884.9329722216096
 32
0
 13
130.693169700088
 23
-884.9329722216096
 33
0
  0
TEXT
  8
1
 62
2
 10
129.109169700088
 20
-879.5893405832929
 30
0
 40
3.2
  1
0.5
 50
90
 41
0.9
  0
ENDBLK
  8
0
  0
BLOCK
  8
1
  2
*D5
 70
1
 10
0
 20
0
 30
0
  0
LINE
  8
1
 62
2
 10
121.109169700088
 20
-887.1329722216096
 30
0
 11
121.109169700088
 21
-881.1329722216096
 31
0
  0
LINE
  8
1
 62
2
 10
121.109169700088
 20
-887.1329722216096
 30
0
 11
121.109169700088
 21
-893.5329722216096
 31
0
  0
LINE
  8
1
 62
2
 10
121.109169700088
 20
-881.1329722216096
 30
0
 11
121.109169700088
 21
-874.7329722216097
 31
0
  0
LINE
  8
1
 62
2
 10
140.609169700088
 20
-887.1329722216096
 30
0
 11
119.109169700088
 21
-887.1329722216096
 31
0
  0
LINE
  8
1
 62
2
 10
156.3091697000881
 20
-881.1329722216096
 30
0
 11
119.109169700088
 21
-881.1329722216096
 31
0
  0
SOLID
  8
1
 62
2
 10
121.109169700088
 20
-881.1329722216096
 30
0
 11
120.693169700088
 21
-877.9329722216096
 31
0
 12
121.525169700088
 22
-877.9329722216096
 32
0
 13
121.525169700088
 23
-877.9329722216096
 33
0
  0
SOLID
  8
1
 62
2
 10
121.109169700088
 20
-887.1329722216096
 30
0
 11
121.525169700088
 21
-890.3329722216097
 31
0
 12
120.693169700088
 22
-890.3329722216097
 32
0
 13
120.693169700088
 23
-890.3329722216097
 33
0
  0
TEXT
  8
1
 62
2
 10
118.309169700088
 20
-887.2636929752279
 30
0
 40
3.2
  1
6
 50
90
 41
0.9
  0
TEXT
  8
1
 62
2
 10
116.229169700088
 20
-882.2076929752278
 30
0
 40
1.92
  1
0
 50
90
 41
0.9
  0
TEXT
  8
1
 62
2
 10
119.109169700088
 20
-883.7436929752279
 30
0
 40
1.92
  1
-0.02
 50
90
 41
0.9
  0
TEXT
  8
1
 62
2
 10
118.309169700088
 20
-890.9081374196722
 30
0
 40
3.2
  1
âË
 50
90
 41
0.9
  0
ENDBLK
  8
0
  0
BLOCK
  8
0
  2
TOP
 70
0
 10
35.6826621181167
 20
-985.6755753765631
 30
0
  0
POINT
  8
1
 62
4
  6
DIVIDE
 10
166.109169700088
 20
-864.1329722216096
 30
0
  0
LINE
  8
1
 62
3
 10
141.109169700088
 20
-886.6329722216096
 30
0
 11
141.609169700088
 21
-887.1329722216096
 31
0
  0
LINE
  8
1
 62
3
 10
141.609169700088
 20
-887.1329722216096
 30
0
 11
161.109169700088
 21
-887.1329722216096
 31
0
  0
LINE
  8
1
 62
3
 10
141.109169700088
 20
-884.1329722216096
 30
0
 11
141.109169700088
 21
-886.6329722216096
 31
0
  0
LINE
  8
1
 62
3
 10
153.109169700088
 20
-881.7329722216095
 30
0
 11
141.109169700088
 21
-881.7329722216095
 31
0
  0
LINE
  8
1
 62
3
 10
141.109169700088
 20
-881.7329722216095
 30
0
 11
141.109169700088
 21
-884.1329722216096
 31
0
  0
LINE
  8
1
 62
3
 10
161.109169700088
 20
-881.1329722216096
 30
0
 11
157.3091697000881
 21
-881.1329722216096
 31
0
  0
LINE
  8
1
 62
1
 10
161.109169700088
 20
-884.1329722216096
 30
0
 11
136.109169700088
 21
-884.1329722216096
 31
0
  0
LINE
  8
1
 62
3
 10
26.28579329232991
 20
-881.7329722216095
 30
0
 11
29.88579329232994
 21
-881.7329722216095
 31
0
  0
ARC
  8
1
 62
3
 10
153.109169700088
 20
-866.7329722216095
 30
0
 40
15
 50
270
 51
286.2602047083122
  0
CIRCLE
  8
1
 62
3
 10
28.08579329232998
 20
-884.1329722216096
 30
0
 40
3
  0
DIMENSION
  8
1
  6
CONTINUOUS
 62
2
  2
*D2
  3
DMST_2
 10
141.109169700088
 20
-844.1329722216096
 30
0
 11
153.3785572769
 21
-840.5329722216096
 31
0
 12
0
 22
0
 32
0
 70
0
 13
166.109169700088
 23
-864.1329722216096
 33
0
 14
141.109169700088
 24
-881.7329722216095
 34
0
 53
0
  0
DIMENSION
  8
1
  6
CONTINUOUS
 62
2
  2
*D3
  3
DMST_2
 10
153.109169700088
 20
-871.2329722216097
 30
0
 11
147.576094471459
 21
-867.6329722216096
 31
0
 12
0
 22
0
 32
0
 70
0
 13
141.109169700088
 23
-881.7329722216095
 33
0
 14
153.109169700088
 24
-881.7329722216095
 34
0
 53
0
  0
DIMENSION
  8
1
  6
CONTINUOUS
 62
2
  2
*D4
  3
DMST_2
 10
131.109169700088
 20
-881.1329722216095
 30
0
 11
127.509169700088
 21
-876.669340583293
 31
0
 12
0
 22
0
 32
0
 70
0
  1
0.5
 13
141.109169700088
 23
-881.7329722216095
 33
0
 14
157.3091697000881
 24
-881.1329722216096
 34
0
 50
90
 53
0
  0
DIMENSION
  8
1
  6
CONTINUOUS
 62
2
  2
*D5
  3
DMST_1
 10
121.109169700088
 20
-881.1329722216096
 30
0
 11
116.709169700088
 21
-883.94191519745
 31
0
 12
0
 22
0
 32
0
 70
0
  1
âË<>
 13
141.609169700088
 23
-887.1329722216096
 33
0
 14
157.3091697000881
 24
-881.1329722216096
 34
0
 50
90
 53
0
  0
ENDBLK
  8
0
  0
BLOCK
  8
0
  2
MOJINOMUKI
 70
0
 10
200.526670561757
 20
-846.5344978763401
 30
0
  0
LINE
  8
1
 62
2
 10
200.526670561757
 20
-845.0344978763401
 30
0
 11
200.526670561757
 21
-842.5344978763401
 31
0
  0
LINE
  8
1
 62
2
 10
198.026670561757
 20
-843.5344978763401
 30
0
 11
200.526670561757
 21
-845.0344978763401
 31
0
  0
LINE
  8
1
 62
2
 10
203.026670561757
 20
-843.5344978763401
 30
0
 11
198.026670561757
 21
-843.5344978763401
 31
0
  0
LINE
  8
1
 62
2
 10
197.526670561757
 20
-840.5344978763401
 30
0
 11
203.526670561757
 21
-840.5344978763401
 31
0
  0
LINE
  8
1
 62
2
 10
203.526670561757
 20
-846.5344978763401
 30
0
 11
197.526670561757
 21
-846.5344978763401
 31
0
  0
LINE
  8
1
 62
2
 10
203.526670561757
 20
-820.53449787634
 30
0
 11
203.526670561757
 21
-846.5344978763401
 31
0
  0
LINE
  8
1
 62
2
 10
197.526670561757
 20
-820.53449787634
 30
0
 11
203.526670561757
 21
-820.53449787634
 31
0
  0
LINE
  8
1
 62
2
 10
197.526670561757
 20
-846.5344978763401
 30
0
 11
197.526670561757
 21
-820.53449787634
 31
0
  0
TEXT
  8
1
 62
2
 10
202.526670561757
 20
-848.48775231421
 30
0
 40
4
  1
òÂÄÜé╠î³é½
 50
90
 41
0.9
 72
1
 73
2
 11
200.526670561757
 21
-830.48775231421
 31
0
  0
ENDBLK
  8
0
  0
BLOCK
  8
0
  2
____M3_______
 70
0
 10
48.58579329232987
 20
-881.6329722216096
 30
0
  0
LINE
  8
1
 62
3
 10
27.4438404559321
 20
-917.7516660399294
 30
0
 11
26.83280108477948
 21
-918.3627054110821
 31
0
  0
LINE
  8
1
 62
3
 10
27.4438404559321
 20
-917.5142784032898
 30
0
 11
26.83280108477948
 21
-916.9032390321372
 31
0
  0
LINE
  8
1
 62
3
 10
28.20448711064978
 20
-918.2749250580075
 30
0
 11
28.81552648180241
 21
-918.8859644291601
 31
0
  0
LINE
  8
1
 62
3
 10
27.35606010285755
 20
-918.8859644291601
 30
0
 11
27.96096452419022
 21
-918.2810600078274
 31
0
  0
LINE
  8
1
 62
3
 10
27.96096452419022
 20
-918.2810600078274
 30
0
 11
27.96709947401018
 21
-918.2749250580075
 31
0
  0
LINE
  8
1
 62
3
 10
28.72774612872786
 20
-917.5142784032898
 30
0
 11
29.33878549988049
 21
-916.9032390321372
 31
0
  0
LINE
  8
1
 62
3
 10
28.72774612872786
 20
-917.7516660399294
 30
0
 11
29.33878549988049
 21
-918.3627054110821
 31
0
  0
LINE
  8
1
 62
3
 10
27.96709947401018
 20
-916.9910193852118
 30
0
 11
27.35606010285755
 21
-916.3799800140591
 31
0
  0
LINE
  8
1
 62
3
 10
28.20448711064989
 20
-916.9910193852118
 30
0
 11
28.81552648180241
 21
-916.3799800140591
 31
0
  0
LINE
  8
1
 62
3
 10
6.943840455932104
 20
-881.7516660399294
 30
0
 11
6.332801084779476
 21
-882.3627054110821
 31
0
  0
LINE
  8
1
 62
3
 10
6.943840455932104
 20
-881.5142784032898
 30
0
 11
6.332801084779476
 21
-880.9032390321372
 31
0
  0
LINE
  8
1
 62
3
 10
7.704487110649893
 20
-882.2749250580075
 30
0
 11
8.315526481802522
 21
-882.8859644291601
 31
0
  0
LINE
  8
1
 62
3
 10
6.856060102857555
 20
-882.8859644291601
 30
0
 11
7.460964524190331
 21
-882.2810600078274
 31
0
  0
LINE
  8
1
 62
3
 10
7.460964524190331
 20
-882.2810600078274
 30
0
 11
7.467099474010183
 21
-882.2749250580075
 31
0
  0
LINE
  8
1
 62
3
 10
8.227746128727972
 20
-881.5142784032898
 30
0
 11
8.838785499880487
 21
-880.9032390321372
 31
0
  0
LINE
  8
1
 62
3
 10
8.227746128727972
 20
-881.7516660399294
 30
0
 11
8.838785499880487
 21
-882.3627054110821
 31
0
  0
LINE
  8
1
 62
3
 10
7.467099474010183
 20
-880.9910193852118
 30
0
 11
6.856060102857555
 21
-880.3799800140591
 31
0
  0
LINE
  8
1
 62
3
 10
7.704487110649893
 20
-880.9910193852118
 30
0
 11
8.315526481802522
 21
-880.3799800140591
 31
0
  0
LINE
  8
1
 62
3
 10
49.83878549988037
 20
-882.3627054110821
 30
0
 11
49.22774612872774
 21
-881.7516660399294
 31
0
  0
LINE
  8
1
 62
3
 10
49.83878549988037
 20
-880.9032390321372
 30
0
 11
49.22774612872774
 21
-881.5142784032898
 31
0
  0
LINE
  8
1
 62
3
 10
47.85606010285733
 20
-882.8859644291601
 30
0
 11
48.46709947400996
 21
-882.2749250580075
 31
0
  0
LINE
  8
1
 62
3
 10
48.71062206046963
 20
-882.2810600078274
 30
0
 11
49.31552648180241
 21
-882.8859644291601
 31
0
  0
LINE
  8
1
 62
3
 10
48.70448711064978
 20
-882.2749250580075
 30
0
 11
48.71062206046963
 21
-882.2810600078274
 31
0
  0
LINE
  8
1
 62
3
 10
47.33280108477936
 20
-880.9032390321372
 30
0
 11
47.94384045593199
 21
-881.5142784032898
 31
0
  0
LINE
  8
1
 62
3
 10
47.33280108477936
 20
-882.3627054110821
 30
0
 11
47.94384045593199
 21
-881.7516660399294
 31
0
  0
LINE
  8
1
 62
3
 10
49.31552648180241
 20
-880.3799800140591
 30
0
 11
48.70448711064978
 21
-880.9910193852118
 31
0
  0
LINE
  8
1
 62
3
 10
47.85606010285733
 20
-880.3799800140591
 30
0
 11
48.46709947400996
 21
-880.9910193852118
 31
0
  0
ARC
  8
1
 62
3
 10
28.08579329232998
 20
-917.6329722216096
 30
0
 40
0.6349999999998897
 50
172.5415509436915
 51
187.4584490563085
  0
ARC
  8
1
 62
3
 10
28.08579329232998
 20
-917.6329722216096
 30
0
 40
1.449999999999959
 50
210.2161982852495
 51
239.7838017147504
  0
ARC
  8
1
 62
3
 10
28.08579329232998
 20
-917.6329722216096
 30
0
 40
0.6349999999998931
 50
262.5415509436916
 51
277.4584490563084
  0
ARC
  8
1
 62
3
 10
28.08579329232998
 20
-917.6329722216096
 30
0
 40
1.449999999999964
 50
300.2161982852496
 51
329.7838017147506
  0
ARC
  8
1
 62
3
 10
28.08579329232998
 20
-917.6329722216096
 30
0
 40
0.6350000000000058
 50
352.5415509436929
 51
7.458449056307128
  0
ARC
  8
1
 62
3
 10
28.08579329232998
 20
-917.6329722216096
 30
0
 40
1.449999999999965
 50
30.2161982852494
 51
59.7838017147504
  0
ARC
  8
1
 62
3
 10
28.08579329232998
 20
-917.6329722216096
 30
0
 40
0.6349999999998931
 50
82.54155094369155
 51
97.45844905630845
  0
ARC
  8
1
 62
3
 10
28.08579329232998
 20
-917.6329722216096
 30
0
 40
1.449999999999964
 50
120.2161982852496
 51
149.7838017147504
  0
ARC
  8
1
 62
3
 10
7.585793292329981
 20
-881.6329722216096
 30
0
 40
0.634999999999894
 50
172.5415509436915
 51
187.4584490563085
  0
ARC
  8
1
 62
3
 10
7.585793292329981
 20
-881.6329722216096
 30
0
 40
1.449999999999962
 50
210.2161982852495
 51
239.7838017147505
  0
ARC
  8
1
 62
3
 10
7.585793292329981
 20
-881.6329722216096
 30
0
 40
0.6349999999998931
 50
262.5415509436916
 51
277.4584490563084
  0
ARC
  8
1
 62
3
 10
7.585793292329981
 20
-881.6329722216096
 30
0
 40
1.450000000000019
 50
300.2161982852534
 51
329.7838017147506
  0
ARC
  8
1
 62
3
 10
7.585793292329981
 20
-881.6329722216096
 30
0
 40
0.6350000000001185
 50
352.5415509436942
 51
7.458449056305795
  0
ARC
  8
1
 62
3
 10
7.585793292329981
 20
-881.6329722216096
 30
0
 40
1.449999999999962
 50
30.21619828524948
 51
59.78380171474664
  0
ARC
  8
1
 62
3
 10
7.585793292329981
 20
-881.6329722216096
 30
0
 40
0.6349999999998931
 50
82.54155094369155
 51
97.45844905630845
  0
ARC
  8
1
 62
3
 10
7.585793292329981
 20
-881.6329722216096
 30
0
 40
1.449999999999962
 50
120.2161982852495
 51
149.7838017147505
  0
ARC
  8
1
 62
3
 10
48.58579329232987
 20
-881.6329722216096
 30
0
 40
0.6350000000000058
 50
352.5415509436929
 51
7.458449056307128
  0
ARC
  8
1
 62
3
 10
48.58579329232987
 20
-881.6329722216096
 30
0
 40
1.450000000000019
 50
300.2161982852534
 51
329.7838017147506
  0
ARC
  8
1
 62
3
 10
48.58579329232987
 20
-881.6329722216096
 30
0
 40
0.6349999999998931
 50
262.5415509436916
 51
277.4584490563084
  0
ARC
  8
1
 62
3
 10
48.58579329232987
 20
-881.6329722216096
 30
0
 40
1.449999999999962
 50
210.2161982852495
 51
239.7838017147467
  0
ARC
  8
1
 62
3
 10
48.58579329232987
 20
-881.6329722216096
 30
0
 40
0.6350000000000058
 50
172.5415509436929
 51
187.4584490563071
  0
ARC
  8
1
 62
3
 10
48.58579329232987
 20
-881.6329722216096
 30
0
 40
1.450000000000019
 50
120.2161982852534
 51
149.7838017147505
  0
ARC
  8
1
 62
3
 10
48.58579329232987
 20
-881.6329722216096
 30
0
 40
0.6349999999998931
 50
82.54155094369155
 51
97.45844905630845
  0
ARC
  8
1
 62
3
 10
48.58579329232987
 20
-881.6329722216096
 30
0
 40
1.449999999999962
 50
30.21619828524948
 51
59.78380171474664
  0
CIRCLE
  8
1
 62
3
 10
28.08579329232998
 20
-917.6329722216096
 30
0
 40
2.5
  0
CIRCLE
  8
1
 62
3
 10
7.585793292329981
 20
-881.6329722216096
 30
0
 40
2.5
  0
CIRCLE
  8
1
 62
3
 10
48.58579329232987
 20
-881.6329722216096
 30
0
 40
2.5
  0
ARC
  8
1
 62
3
 10
27.41319916208067
 20
-917.721024746078
 30
0
 40
0.04333333333335351
 50
315
 51
7.458449056165426
  0
ARC
  8
1
 62
3
 10
27.41319916208067
 20
-917.5449196971413
 30
0
 40
0.04333333333342136
 50
352.5415509438346
 51
45
  0
ARC
  8
1
 62
3
 10
28.17384581679846
 20
-918.3055663518589
 30
0
 40
0.04333333333327563
 50
45.00000000010296
 51
97.45844905631103
  0
ARC
  8
1
 62
3
 10
27.99774076786161
 20
-918.3055663518589
 30
0
 40
0.04333333333341478
 50
82.5415509438287
 51
135
  0
ARC
  8
1
 62
3
 10
28.75838742257929
 20
-917.5449196971413
 30
0
 40
0.04333333333335351
 50
135
 51
187.4584490561862
  0
ARC
  8
1
 62
3
 10
28.75838742257929
 20
-917.721024746078
 30
0
 40
0.04333333333330159
 50
172.5415509438139
 51
225
  0
ARC
  8
1
 62
3
 10
27.99774076786161
 20
-916.9603780913603
 30
0
 40
0.04333333333335351
 50
225
 51
277.4584490561713
  0
ARC
  8
1
 62
3
 10
28.17384581679846
 20
-916.9603780913603
 30
0
 40
0.04333333333342861
 50
262.541550943689
 51
315
  0
ARC
  8
1
 62
3
 10
6.913199162080673
 20
-881.721024746078
 30
0
 40
0.04333333333335351
 50
315
 51
7.458449056166799
  0
ARC
  8
1
 62
3
 10
6.913199162080673
 20
-881.5449196971413
 30
0
 40
0.04333333333341344
 50
352.5415509438332
 51
45
  0
ARC
  8
1
 62
3
 10
7.673845816798462
 20
-882.3055663518589
 30
0
 40
0.04333333333335351
 50
45
 51
97.45844905631569
  0
ARC
  8
1
 62
3
 10
7.497740767861615
 20
-882.3055663518589
 30
0
 40
0.04333333333341431
 50
82.54155094383336
 51
135
  0
ARC
  8
1
 62
3
 10
8.25838742257929
 20
-881.5449196971413
 30
0
 40
0.04333333333327312
 50
134.9999999998937
 51
187.4584490562057
  0
ARC
  8
1
 62
3
 10
8.25838742257929
 20
-881.721024746078
 30
0
 40
0.04333333333318886
 50
172.5415509437943
 51
225.0000000001063
  0
ARC
  8
1
 62
3
 10
7.497740767861615
 20
-880.9603780913603
 30
0
 40
0.04333333333335351
 50
225
 51
277.4584490561666
  0
ARC
  8
1
 62
3
 10
7.673845816798462
 20
-880.9603780913603
 30
0
 40
0.04333333333342907
 50
262.5415509436843
 51
315
  0
ARC
  8
1
 62
3
 10
49.25838742257918
 20
-881.721024746078
 30
0
 40
0.04333333333330863
 50
172.5415509438151
 51
224.9999999999867
  0
ARC
  8
1
 62
3
 10
49.25838742257918
 20
-881.5449196971413
 30
0
 40
0.04333333333336356
 50
135.0000000000133
 51
187.4584490561849
  0
ARC
  8
1
 62
3
 10
48.49774076786139
 20
-882.3055663518589
 30
0
 40
0.04333333333342907
 50
82.54155094368431
 51
134.9999999999933
  0
ARC
  8
1
 62
3
 10
48.67384581679835
 20
-882.3055663518589
 30
0
 40
0.04333333333335351
 50
45
 51
97.45844905631569
  0
ARC
  8
1
 62
3
 10
47.91319916208056
 20
-881.5449196971413
 30
0
 40
0.04333333333330159
 50
352.5415509438139
 51
45
  0
ARC
  8
1
 62
3
 10
47.91319916208056
 20
-881.721024746078
 30
0
 40
0.04333333333335351
 50
315
 51
7.458449056186157
  0
ARC
  8
1
 62
3
 10
48.67384581679835
 20
-880.9603780913603
 30
0
 40
0.04333333333342907
 50
262.5415509436843
 51
315
  0
ARC
  8
1
 62
3
 10
48.49774076786139
 20
-880.9603780913603
 30
0
 40
0.04333333333334849
 50
225.0000000000067
 51
277.4584490563157
  0
ENDBLK
  8
0
  0
BLOCK
  8
1
  2
*D6
 70
1
 10
0
 20
0
 30
0
  0
LINE
  8
1
 62
2
 10
166.109169700088
 20
-854.1329722216096
 30
0
 11
172.509169700088
 21
-854.1329722216096
 31
0
  0
LINE
  8
1
 62
2
 10
161.109169700088
 20
-854.1329722216096
 30
0
 11
154.709169700088
 21
-854.1329722216096
 31
0
  0
LINE
  8
1
 62
2
 10
161.109169700088
 20
-854.1329722216096
 30
0
 11
166.109169700088
 21
-854.1329722216096
 31
0
  0
LINE
  8
1
 62
2
 10
166.109169700088
 20
-863.1329722216096
 30
0
 11
166.109169700088
 21
-852.1329722216096
 31
0
  0
LINE
  8
1
 62
2
 10
161.109169700088
 20
-874.6329722216096
 30
0
 11
161.109169700088
 21
-852.1329722216096
 31
0
  0
SOLID
  8
1
 62
2
 10
166.109169700088
 20
-854.1329722216096
 30
0
 11
169.309169700088
 21
-853.7169722216096
 31
0
 12
169.309169700088
 22
-854.5489722216097
 32
0
 13
169.309169700088
 23
-854.5489722216097
 33
0
  0
SOLID
  8
1
 62
2
 10
161.109169700088
 20
-854.1329722216096
 30
0
 11
157.909169700088
 21
-854.5489722216097
 31
0
 12
157.909169700088
 22
-853.7169722216096
 32
0
 13
157.909169700088
 23
-853.7169722216096
 33
0
  0
TEXT
  8
1
 62
2
 10
162.691404097693
 20
-852.1329722216096
 30
0
 40
3.2
  1
5
 41
0.9
  0
ENDBLK
  8
0
  0
BLOCK
  8
1
  2
*D7
 70
1
 10
0
 20
0
 30
0
  0
LINE
  8
1
 62
2
 10
166.109169700088
 20
-844.1329722216096
 30
0
 11
193.109169700088
 21
-844.1329722216096
 31
0
  0
LINE
  8
1
 62
2
 10
193.109169700088
 20
-862.6422314808688
 30
0
 11
193.109169700088
 21
-842.1329722216096
 31
0
  0
LINE
  8
1
 62
2
 10
166.109169700088
 20
-863.1329722216096
 30
0
 11
166.109169700088
 21
-842.1329722216096
 31
0
  0
SOLID
  8
1
 62
2
 10
193.109169700088
 20
-844.1329722216096
 30
0
 11
189.909169700088
 21
-844.5489722216097
 31
0
 12
189.909169700088
 22
-843.7169722216096
 32
0
 13
189.909169700088
 23
-843.7169722216096
 33
0
  0
SOLID
  8
1
 62
2
 10
166.109169700088
 20
-844.1329722216096
 30
0
 11
169.309169700088
 21
-843.7169722216096
 31
0
 12
169.309169700088
 22
-844.5489722216097
 32
0
 13
169.309169700088
 23
-844.5489722216097
 33
0
  0
TEXT
  8
1
 62
2
 10
177.183022472313
 20
-842.1329722216096
 30
0
 40
3.2
  1
27
 41
0.9
  0
ENDBLK
  8
0
  0
BLOCK
  8
1
  2
*D8
 70
1
 10
0
 20
0
 30
0
  0
LINE
  8
1
 62
2
 10
208.1091697000879
 20
-921.1329722216096
 30
0
 11
208.1091697000879
 21
-867.1329722216096
 31
0
  0
LINE
  8
1
 62
2
 10
197.109169700088
 20
-867.1329722216096
 30
0
 11
210.1091697000879
 21
-867.1329722216096
 31
0
  0
LINE
  8
1
 62
2
 10
197.109169700088
 20
-921.1329722216096
 30
0
 11
210.1091697000879
 21
-921.1329722216096
 31
0
  0
SOLID
  8
1
 62
2
 10
208.1091697000879
 20
-867.1329722216096
 30
0
 11
208.5251697000879
 21
-870.3329722216097
 31
0
 12
207.6931697000879
 22
-870.3329722216097
 32
0
 13
207.6931697000879
 23
-870.3329722216097
 33
0
  0
SOLID
  8
1
 62
2
 10
208.1091697000879
 20
-921.1329722216096
 30
0
 11
207.6931697000879
 21
-917.9329722216096
 31
0
 12
208.5251697000879
 22
-917.9329722216096
 32
0
 13
208.5251697000879
 23
-917.9329722216096
 33
0
  0
TEXT
  8
1
 62
2
 10
205.3091697000879
 20
-901.9347499993875
 30
0
 40
3.2
  1
54H7
 50
90
 41
0.9
  0
TEXT
  8
1
 62
2
 10
203.2291697000879
 20
-889.4547499993874
 30
0
 40
1.92
  1
+0.03
 50
90
 41
0.9
  0
TEXT
  8
1
 62
2
 10
206.1091697000879
 20
-887.9187499993874
 30
0
 40
1.92
  1
0
 50
90
 41
0.9
  0
TEXT
  8
1
 62
2
 10
205.3091697000879
 20
-905.5791944438319
 30
0
 40
3.2
  1
âË
 50
90
 41
0.9
  0
ENDBLK
  8
0
  0
BLOCK
  8
1
  2
*D9
 70
1
 10
0
 20
0
 30
0
  0
LINE
  8
1
 62
2
 10
151.109169700088
 20
-893.1329722216096
 30
0
 11
151.109169700088
 21
-875.1329722216097
 31
0
  0
LINE
  8
1
 62
2
 10
151.109169700088
 20
-893.1329722216096
 30
0
 11
151.109169700088
 21
-902.0565108399883
 31
0
  0
LINE
  8
1
 62
2
 10
160.609169700088
 20
-893.1329722216096
 30
0
 11
149.109169700088
 21
-893.1329722216096
 31
0
  0
LINE
  8
1
 62
2
 10
160.609169700088
 20
-875.1329722216097
 30
0
 11
149.109169700088
 21
-875.1329722216097
 31
0
  0
SOLID
  8
1
 62
2
 10
151.109169700088
 20
-875.1329722216097
 30
0
 11
151.525169700088
 21
-878.3329722216098
 31
0
 12
150.693169700088
 22
-878.3329722216098
 32
0
 13
150.693169700088
 23
-878.3329722216098
 33
0
  0
SOLID
  8
1
 62
2
 10
151.109169700088
 20
-893.1329722216096
 30
0
 11
150.693169700088
 21
-889.9329722216096
 31
0
 12
151.525169700088
 22
-889.9329722216096
 32
0
 13
151.525169700088
 23
-889.9329722216096
 33
0
  0
TEXT
  8
1
 62
2
 10
149.109169700088
 20
-898.4120663955439
 30
0
 40
3.2
  1
18
 50
90
 41
0.9
  0
TEXT
  8
1
 62
2
 10
149.109169700088
 20
-902.0565108399884
 30
0
 40
3.2
  1
âË
 50
90
 41
0.9
  0
ENDBLK
  8
0
  0
BLOCK
  8
0
  2
G6G__2
 70
0
 10
357.174623302534
 20
-770.62316328268
 30
0
  0
LINE
  8
1
 62
1
 10
169.109169700088
 20
-918.8829722216096
 30
0
 11
163.109169700088
 21
-918.8829722216096
 31
0
  0
LINE
  8
1
 62
1
 10
196.109169700088
 20
-921.1329722216096
 30
0
 11
190.109169700088
 21
-921.1329722216096
 31
0
  0
LINE
  8
1
 62
1
 10
190.109169700088
 20
-867.1329722216096
 30
0
 11
196.109169700088
 21
-867.1329722216096
 31
0
  0
LINE
  8
1
 62
1
 10
163.109169700088
 20
-869.3829722216096
 30
0
 11
169.109169700088
 21
-869.3829722216096
 31
0
  0
LINE
  8
1
 62
1
 10
40.08579329232998
 20
-884.1329722216096
 30
0
 11
16.08579329232998
 21
-884.1329722216096
 31
0
  0
LINE
  8
1
 62
1
 10
34.08579329232998
 20
-917.6329722216096
 30
0
 11
22.08579329232998
 21
-917.6329722216096
 31
0
  0
LINE
  8
1
 62
1
 10
54.58579329232987
 20
-881.6329722216096
 30
0
 11
42.58579329232987
 21
-881.6329722216096
 31
0
  0
LINE
  8
1
 62
1
 10
48.58579329232987
 20
-887.6329722216096
 30
0
 11
48.58579329232987
 21
-875.6329722216096
 31
0
  0
LINE
  8
1
 62
1
 10
13.58579329232998
 20
-881.6329722216096
 30
0
 11
1.585793292329981
 21
-881.6329722216096
 31
0
  0
LINE
  8
1
 62
1
 10
7.585793292329981
 20
-875.6329722216096
 30
0
 11
7.585793292329981
 21
-887.6329722216096
 31
0
  0
LINE
  8
1
 62
3
 10
28.08579329232998
 20
-863.6329722216096
 30
0
 11
52.83579329232998
 21
-863.6329722216096
 31
0
  0
LINE
  8
1
 62
3
 10
58.58579329232998
 20
-869.3829722216096
 30
0
 11
58.58579329232998
 21
-894.1329722216096
 31
0
  0
LINE
  8
1
 62
3
 10
58.58579329232998
 20
-894.1329722216096
 30
0
 11
58.58579329232998
 21
-918.8829722216096
 31
0
  0
LINE
  8
1
 62
3
 10
52.83579329232998
 20
-924.6329722216096
 30
0
 11
28.08579329232998
 21
-924.6329722216096
 31
0
  0
LINE
  8
1
 62
3
 10
28.08579329232998
 20
-924.6329722216096
 30
0
 11
3.335793292329981
 21
-924.6329722216096
 31
0
  0
LINE
  8
1
 62
3
 10
-2.414206707670019
 20
-918.8829722216096
 30
0
 11
-2.414206707670019
 21
-894.1329722216096
 31
0
  0
LINE
  8
1
 62
3
 10
-2.414206707670019
 20
-894.1329722216096
 30
0
 11
-2.414206707670019
 21
-869.3829722216096
 31
0
  0
LINE
  8
1
 62
3
 10
3.335793292329981
 20
-863.6329722216096
 30
0
 11
28.08579329232998
 21
-863.6329722216096
 31
0
  0
LINE
  8
1
 62
3
 10
193.109169700088
 20
-863.6422314808688
 30
0
 11
193.109169700088
 21
-924.6237129623503
 31
0
  0
LINE
  8
1
 62
3
 10
193.109169700088
 20
-924.6237129623503
 30
0
 11
167.590654356082
 21
-924.1511478633872
 31
0
  0
LINE
  8
1
 62
3
 10
166.109169700088
 20
-924.1329722216096
 30
0
 11
167.4184932303956
 21
-924.1329722216096
 31
0
  0
LINE
  8
1
 62
3
 10
167.4184932303956
 20
-864.1329722216096
 30
0
 11
166.109169700088
 21
-864.1329722216096
 31
0
  0
LINE
  8
1
 62
1
 10
198.609169700088
 20
-894.1329722216096
 30
0
 11
156.109169700088
 21
-894.1329722216096
 31
0
  0
LINE
  8
1
 62
3
 10
166.109169700088
 20
-914.1329722216096
 30
0
 11
166.109169700088
 21
-924.1329722216096
 31
0
  0
LINE
  8
1
 62
3
 10
166.8091697000879
 20
-914.1329722216096
 30
0
 11
166.109169700088
 21
-914.1329722216096
 31
0
  0
LINE
  8
1
 62
3
 10
161.109169700088
 20
-892.6329722216096
 30
0
 11
161.109169700088
 21
-875.6329722216096
 31
0
  0
LINE
  8
1
 62
3
 10
166.3091697000879
 20
-893.1329722216096
 30
0
 11
161.609169700088
 21
-893.1329722216096
 31
0
  0
LINE
  8
1
 62
3
 10
161.609169700088
 20
-875.1329722216096
 30
0
 11
166.3091697000879
 21
-875.1329722216096
 31
0
  0
LINE
  8
1
 62
3
 10
166.109169700088
 20
-864.1329722216096
 30
0
 11
166.109169700088
 21
-874.1329722216096
 31
0
  0
LINE
  8
1
 62
3
 10
166.109169700088
 20
-874.1329722216096
 30
0
 11
166.8091697000879
 21
-874.1329722216096
 31
0
  0
LINE
  8
1
 62
3
 10
167.590654356082
 20
-864.1147965798318
 30
0
 11
193.109169700088
 21
-863.6422314808688
 31
0
  0
LINE
  8
1
 62
3
 10
166.8091697000879
 20
-918.8829722216096
 30
0
 11
166.8091697000879
 21
-869.3829722216096
 31
0
  0
LINE
  8
1
 62
1
 10
171.8091697000879
 20
-884.1329722216096
 30
0
 11
161.109169700088
 21
-884.1329722216096
 31
0
  0
LINE
  8
1
 62
3
 10
172.676406935371
 20
-863.0204445234458
 30
0
 11
187.676406935371
 21
-862.742666745668
 31
0
  0
CIRCLE
  8
1
 62
3
 10
28.08579329232998
 20
-917.6329722216096
 30
0
 40
3.200000000000042
  0
CIRCLE
  8
1
 62
3
 10
7.585793292329981
 20
-881.6329722216096
 30
0
 40
3.199999999999931
  0
CIRCLE
  8
1
 62
3
 10
48.58579329232987
 20
-881.6329722216096
 30
0
 40
3.199999999999932
  0
CIRCLE
  8
1
 62
3
 10
28.08579329232998
 20
-884.1329722216096
 30
0
 40
6
  0
CIRCLE
  8
1
 62
3
 10
28.08579329232998
 20
-884.1329722216096
 30
0
 40
9
  0
CIRCLE
  8
1
 62
3
 10
53.08579329232998
 20
-869.1329722216096
 30
0
 40
5
  0
CIRCLE
  8
1
 62
3
 10
53.08579329232998
 20
-919.1329722216096
 30
0
 40
5
  0
CIRCLE
  8
1
 62
3
 10
3.085793292329981
 20
-919.1329722216096
 30
0
 40
5
  0
CIRCLE
  8
1
 62
3
 10
3.085793292329981
 20
-869.1329722216096
 30
0
 40
5
  0
ARC
  8
1
 62
3
 10
52.83579329232998
 20
-869.3829722216096
 30
0
 40
5.75
 50
0
 51
90
  0
ARC
  8
1
 62
3
 10
52.83579329232998
 20
-918.8829722216096
 30
0
 40
5.75
 50
270
 51
0
  0
ARC
  8
1
 62
3
 10
3.335793292329981
 20
-918.8829722216096
 30
0
 40
5.75
 50
180
 51
270
  0
ARC
  8
1
 62
3
 10
3.335793292329981
 20
-869.3829722216096
 30
0
 40
5.75
 50
90
 51
180
  0
ARC
  8
1
 62
3
 10
167.609169700088
 20
-923.1513192870621
 30
0
 40
1.000000000000117
 50
259.0077351798139
 51
268.9390883097384
  0
ARC
  8
1
 62
3
 10
166.3091697000879
 20
-893.6329722216096
 30
0
 40
0.5
 50
0
 51
90
  0
ARC
  8
1
 62
3
 10
161.609169700088
 20
-892.6329722216096
 30
0
 40
0.5
 50
180
 51
270
  0
ARC
  8
1
 62
3
 10
161.609169700088
 20
-875.6329722216096
 30
0
 40
0.5
 50
90
 51
180
  0
ARC
  8
1
 62
3
 10
166.3091697000879
 20
-874.6329722216096
 30
0
 40
0.5
 50
270
 51
0
  0
ARC
  8
1
 62
3
 10
167.609169700088
 20
-865.1146251561572
 30
0
 40
1.000000000000267
 50
91.06091169026141
 51
100.9922648201862
  0
LINE
  8
1
 62
2
 10
218.5838186683611
 20
-854.1329722216096
 30
0
 11
195.013635960976
 21
-854.1329722216096
 31
0
  0
LINE
  8
1
 62
2
 10
195.013635960976
 20
-854.1329722216096
 30
0
 11
181.3286332198824
 21
-862.8602181107697
 31
0
  0
SOLID
  8
1
 62
2
 10
183.80016419729
 20
-860.7844006332073
 30
0
 11
184.2532099187837
 21
-861.4948116860438
 31
0
 12
181.3286332198824
 22
-862.8602181107697
 32
0
 13
181.3286332198824
 23
-862.8602181107697
 33
0
  0
TEXT
  8
1
 62
2
 10
195.8866056908781
 20
-853.036164769424
 30
0
 40
4
  1
âlü[âÇâvâîü[âg
 41
0.7200000000000001
  0
DIMENSION
  8
1
  6
CONTINUOUS
 62
2
  2
*D6
  3
DMST_2
 10
166.109169700088
 20
-854.1329722216096
 30
0
 11
163.651404097693
 21
-850.5329722216096
 31
0
 12
0
 22
0
 32
0
 70
0
 13
161.109169700088
 23
-875.6329722216096
 33
0
 14
166.109169700088
 24
-864.1329722216096
 34
0
 53
0
  0
DIMENSION
  8
1
  6
CONTINUOUS
 62
2
  2
*D7
  3
DMST_2
 10
166.109169700088
 20
-844.1329722216096
 30
0
 11
179.583022472313
 21
-840.5329722216096
 31
0
 12
0
 22
0
 32
0
 70
0
 13
193.109169700088
 23
-863.6422314808688
 33
0
 14
166.109169700088
 24
-864.1329722216096
 34
0
 53
0
  0
DIMENSION
  8
1
  6
CONTINUOUS
 62
2
  2
*D8
  3
DMST_1
 10
208.1091697000879
 20
-867.1329722216096
 30
0
 11
203.7091697000879
 21
-894.1329722216096
 31
0
 12
0
 22
0
 32
0
 70
0
  1
54H7
 13
196.109169700088
 23
-921.1329722216096
 33
0
 14
196.109169700088
 24
-867.1329722216096
 34
0
 50
90
 53
0
  0
DIMENSION
  8
1
  6
CONTINUOUS
 62
2
  2
*D9
  3
DMST_2
 10
151.109169700088
 20
-893.1329722216096
 30
0
 11
147.509169700088
 21
-898.3142886177661
 31
0
 12
0
 22
0
 32
0
 70
0
  1
âË<>
 13
161.609169700088
 23
-875.1329722216096
 33
0
 14
161.609169700088
 24
-893.1329722216096
 34
0
 50
90
 53
0
  0
INSERT
  8
0
  2
B
 10
-29.39405419661421
 20
-1254.036187847675
 30
0
  0
INSERT
  8
0
  2
G6G__1
 10
388.0730873751691
 20
-1040.11834957626
 30
0
  0
INSERT
  8
0
  2
TOP
 10
35.6826621181167
 20
-985.6755753765631
 30
0
  0
INSERT
  8
0
  2
MOJINOMUKI
 10
200.526670561757
 20
-846.5344978763401
 30
0
  0
INSERT
  8
0
  2
____M3_______
 10
48.58579329232987
 20
-881.6329722216096
 30
0
  0
ENDBLK
  8
0
  0
BLOCK
  8
1
  2
*D10
 70
1
 10
0
 20
0
 30
0
  0
LINE
  8
1
 62
2
 10
14.2945709616116
 20
-894.1329722216096
 30
0
 11
14.2945709616116
 21
-884.1329722216096
 31
0
  0
LINE
  8
1
 62
2
 10
62.58579329232998
 20
-894.1329722216096
 30
0
 11
12.7945709616116
 21
-894.1329722216096
 31
0
  0
LINE
  8
1
 62
2
 10
27.08579329232996
 20
-884.1329722216096
 30
0
 11
12.7945709616116
 21
-884.1329722216096
 31
0
  0
SOLID
  8
1
 62
2
 10
14.2945709616116
 20
-884.1329722216096
 30
0
 11
14.7105709616116
 21
-887.3329722216097
 31
0
 12
13.8785709616116
 22
-887.3329722216097
 32
0
 13
13.8785709616116
 23
-887.3329722216097
 33
0
  0
SOLID
  8
1
 62
2
 10
14.2945709616116
 20
-894.1329722216096
 30
0
 11
13.8785709616116
 21
-890.9329722216096
 31
0
 12
14.7105709616116
 22
-890.9329722216096
 32
0
 13
14.7105709616116
 23
-890.9329722216096
 33
0
  0
TEXT
  8
1
 62
2
 10
12.2945709616116
 20
-890.666683228532
 30
0
 40
3.2
  1
10
 50
90
 41
0.9
  0
ENDBLK
  8
0
  0
BLOCK
  8
1
  2
*D11
 70
1
 10
0
 20
0
 30
0
  0
LINE
  8
1
 62
2
 10
-2.414206707670019
 20
-844.1329722216096
 30
0
 11
58.58579329232992
 21
-844.1329722216096
 31
0
  0
LINE
  8
1
 62
2
 10
-2.414206707670019
 20
-893.1329722216096
 30
0
 11
-2.414206707670019
 21
-842.6329722216096
 31
0
  0
LINE
  8
1
 62
2
 10
58.58579329232992
 20
-893.1329722216096
 30
0
 11
58.58579329232992
 21
-842.6329722216096
 31
0
  0
SOLID
  8
1
 62
2
 10
58.58579329232992
 20
-844.1329722216096
 30
0
 11
55.38579329232992
 21
-844.5489722216097
 31
0
 12
55.38579329232992
 22
-843.7169722216096
 32
0
 13
55.38579329232992
 23
-843.7169722216096
 33
0
  0
SOLID
  8
1
 62
2
 10
-2.414206707670019
 20
-844.1329722216096
 30
0
 11
0.785793292329982
 21
-843.7169722216096
 31
0
 12
0.785793292329982
 22
-844.5489722216097
 32
0
 13
0.785793292329982
 23
-844.5489722216097
 33
0
  0
TEXT
  8
1
 62
2
 10
26.16579329232998
 20
-842.1329722216096
 30
0
 40
3.2
  1
61
 41
0.9
  0
ENDBLK
  8
0
  0
BLOCK
  8
1
  2
*D12
 70
1
 10
0
 20
0
 30
0
  0
LINE
  8
1
 62
2
 10
83.08579329232992
 20
-924.6329722216096
 30
0
 11
83.08579329232992
 21
-863.6329722216096
 31
0
  0
LINE
  8
1
 62
2
 10
29.08579329232992
 20
-924.6329722216096
 30
0
 11
84.58579329232992
 21
-924.6329722216096
 31
0
  0
LINE
  8
1
 62
2
 10
29.08579329232992
 20
-863.6329722216096
 30
0
 11
84.58579329232992
 21
-863.6329722216096
 31
0
  0
SOLID
  8
1
 62
2
 10
83.08579329232992
 20
-863.6329722216096
 30
0
 11
83.50179329232992
 21
-866.8329722216097
 31
0
 12
82.66979329232993
 22
-866.8329722216097
 32
0
 13
82.66979329232993
 23
-866.8329722216097
 33
0
  0
SOLID
  8
1
 62
2
 10
83.08579329232992
 20
-924.6329722216096
 30
0
 11
82.66979329232993
 21
-921.4329722216096
 31
0
 12
83.50179329232992
 22
-921.4329722216096
 32
0
 13
83.50179329232992
 23
-921.4329722216096
 33
0
  0
TEXT
  8
1
 62
2
 10
81.08579329232992
 20
-896.0529722216096
 30
0
 40
3.2
  1
61
 50
90
 41
0.9
  0
ENDBLK
  8
0
  0
BLOCK
  8
1
  2
*D13
 70
1
 10
0
 20
0
 30
0
  0
LINE
  8
1
 62
2
 10
3.335793292329981
 20
-854.1329722216096
 30
0
 11
52.83579329232998
 21
-854.1329722216096
 31
0
  0
LINE
  8
1
 62
2
 10
3.335793292329981
 20
-861.3829722216095
 30
0
 11
3.335793292329981
 21
-852.6329722216096
 31
0
  0
LINE
  8
1
 62
2
 10
52.83579329232998
 20
-861.3829722216096
 30
0
 11
52.83579329232998
 21
-852.6329722216096
 31
0
  0
SOLID
  8
1
 62
2
 10
52.83579329232998
 20
-854.1329722216096
 30
0
 11
49.63579329232998
 21
-854.5489722216097
 31
0
 12
49.63579329232998
 22
-853.7169722216096
 32
0
 13
49.63579329232998
 23
-853.7169722216096
 33
0
  0
SOLID
  8
1
 62
2
 10
3.335793292329981
 20
-854.1329722216096
 30
0
 11
6.535793292329982
 21
-853.7169722216096
 31
0
 12
6.535793292329982
 22
-854.5489722216097
 32
0
 13
6.535793292329982
 23
-854.5489722216097
 33
0
  0
TEXT
  8
1
 62
2
 10
20.02179329232998
 20
-852.1329722216096
 30
0
 40
3.2
  1
49.5
 41
0.9
  0
TEXT
  8
1
 62
2
 10
30.34179329232998
 20
-851.4929722216096
 30
0
 40
1.92
  1
%%p0.3
 41
0.9
  0
ENDBLK
  8
0
  0
BLOCK
  8
1
  2
*D14
 70
1
 10
0
 20
0
 30
0
  0
LINE
  8
1
 62
2
 10
73.08579329232995
 20
-918.8829722216096
 30
0
 11
73.08579329232995
 21
-869.3829722216096
 31
0
  0
LINE
  8
1
 62
2
 10
60.83579329232998
 20
-918.8829722216096
 30
0
 11
74.58579329232995
 21
-918.8829722216096
 31
0
  0
LINE
  8
1
 62
2
 10
60.83579329232999
 20
-869.3829722216096
 30
0
 11
74.58579329232995
 21
-869.3829722216096
 31
0
  0
SOLID
  8
1
 62
2
 10
73.08579329232995
 20
-869.3829722216096
 30
0
 11
73.50179329232995
 21
-872.5829722216097
 31
0
 12
72.66979329232996
 22
-872.5829722216097
 32
0
 13
72.66979329232996
 23
-872.5829722216097
 33
0
  0
SOLID
  8
1
 62
2
 10
73.08579329232995
 20
-918.8829722216096
 30
0
 11
72.66979329232996
 21
-915.6829722216096
 31
0
 12
73.50179329232995
 22
-915.6829722216096
 32
0
 13
73.50179329232995
 23
-915.6829722216096
 33
0
  0
TEXT
  8
1
 62
2
 10
71.08579329232995
 20
-902.1969722216096
 30
0
 40
3.2
  1
49.5
 50
90
 41
0.9
  0
TEXT
  8
1
 62
2
 10
70.44579329232995
 20
-891.8769722216097
 30
0
 40
1.92
  1
%%p0.3
 50
90
 41
0.9
  0
ENDBLK
  8
0
  0
BLOCK
  8
1
  2
*D15
 70
1
 10
0
 20
0
 30
0
  0
LINE
  8
1
 62
2
 10
314.2135660923974
 20
-853.6329722216096
 30
0
 11
307.8135660923974
 21
-853.6329722216096
 31
0
  0
LINE
  8
1
 62
2
 10
314.2135660923974
 20
-853.6329722216096
 30
0
 11
316.2135660923974
 21
-853.6329722216096
 31
0
  0
LINE
  8
1
 62
2
 10
322.6135660923974
 20
-853.6329722216096
 30
0
 11
316.2135660923974
 21
-853.6329722216096
 31
0
  0
LINE
  8
1
 62
2
 10
316.2135660923974
 20
-862.6329722216096
 30
0
 11
316.2135660923974
 21
-851.6329722216096
 31
0
  0
LINE
  8
1
 62
2
 10
314.2135660923974
 20
-866.8829722216096
 30
0
 11
314.2135660923974
 21
-851.6329722216096
 31
0
  0
SOLID
  8
1
 62
2
 10
314.2135660923974
 20
-853.6329722216096
 30
0
 11
311.0135660923974
 21
-854.0489722216097
 31
0
 12
311.0135660923974
 22
-853.2169722216096
 32
0
 13
311.0135660923974
 23
-853.2169722216096
 33
0
  0
SOLID
  8
1
 62
2
 10
316.2135660923974
 20
-853.6329722216096
 30
0
 11
319.4135660923974
 21
-853.2169722216096
 31
0
 12
319.4135660923974
 22
-854.0489722216097
 32
0
 13
319.4135660923974
 23
-854.0489722216097
 33
0
  0
TEXT
  8
1
 62
2
 10
311.054228403618
 20
-851.6329722216096
 30
0
 40
3.2
  1
2
 41
0.9
  0
ENDBLK
  8
0
  0
BLOCK
  8
1
  2
*D16
 70
1
 10
0
 20
0
 30
0
  0
LINE
  8
1
 62
2
 10
60.57306889061331
 20
-881.1108017342759
 30
0
 11
-4.401482305953344
 21
-907.1551427089433
 31
0
  0
SOLID
  8
1
 62
2
 10
-4.401482305953344
 20
-907.1551427089433
 30
0
 11
-1.585994906188321
 21
-905.5784097887047
 31
0
 12
-1.276439310603702
 22
-906.3506787400696
 32
0
 13
-1.276439310603702
 23
-906.3506787400696
 33
0
  0
SOLID
  8
1
 62
2
 10
60.57306889061331
 20
-881.1108017342759
 30
0
 11
57.75758149084828
 21
-882.6875346545146
 31
0
 12
57.44802589526366
 22
-881.9152657031497
 32
0
 13
57.44802589526366
 23
-881.9152657031497
 33
0
  0
TEXT
  8
1
 62
2
 10
5.347639435391129
 20
-901.0926237137228
 30
0
 40
3.2
  1
70
 50
21.84284335015355
 41
0.9
  0
TEXT
  8
1
 62
2
 10
0.628218065938924
 20
-902.9843523534065
 30
0
 40
3.2
  1
(âË
 50
21.84284335015355
 41
0.9
  0
TEXT
  8
1
 62
2
 10
11.2881698305058
 20
-898.7114268246103
 30
0
 40
3.2
  1
)
 50
21.84284335015355
 41
0.9
  0
ENDBLK
  8
0
  0
BLOCK
  8
1
  2
*D17
 70
1
 10
0
 20
0
 30
0
  0
LINE
  8
1
 62
2
 10
54.43506439731789
 20
-867.8003061378286
 30
0
 11
68.24579329232992
 21
-854.1329722216096
 31
0
  0
LINE
  8
1
 62
2
 10
68.24579329232992
 20
-854.1329722216096
 30
0
 11
92.72579329232993
 21
-854.1329722216096
 31
0
  0
SOLID
  8
1
 62
2
 10
54.43506439731789
 20
-867.8003061378286
 30
0
 11
56.41696592847713
 21
-865.2537158054844
 31
0
 12
57.00220067590195
 22
-865.845090720751
 32
0
 13
57.00220067590195
 23
-865.845090720751
 33
0
  0
TEXT
  8
1
 62
2
 10
82.53023773677437
 20
-852.1329722216096
 30
0
 40
3.2
  1
4.5
 41
0.9
  0
TEXT
  8
1
 62
2
 10
73.44579329232992
 20
-852.1329722216096
 30
0
 40
3.2
  1
4-âË
 41
0.9
  0
TEXT
  8
1
 62
2
 10
89.97023773677438
 20
-852.1329722216096
 30
0
 40
3.2
  1
îè
 41
0.9
  0
ENDBLK
  8
0
  0
ENDSEC
  0
SECTION
  2
ENTITIES
  0
POINT
  8
1
 62
4
  6
DIVIDE
 10
28.08579329232996
 20
-884.1329722216096
 30
0
  0
POINT
  8
1
 62
4
  6
DIVIDE
 10
-2.414206707670019
 20
-894.1329722216096
 30
0
  0
POINT
  8
1
 62
4
  6
DIVIDE
 10
58.58579329232992
 20
-894.1329722216096
 30
0
  0
POINT
  8
1
 62
4
  6
DIVIDE
 10
28.08579329232992
 20
-863.6329722216096
 30
0
  0
POINT
  8
1
 62
4
  6
DIVIDE
 10
28.08579329232992
 20
-924.6329722216096
 30
0
  0
LINE
  8
1
 62
3
 10
322.2135660923974
 20
-924.6329722216096
 30
0
 11
316.2135660923974
 21
-924.6329722216096
 31
0
  0
LINE
  8
1
 62
3
 10
316.2135660923974
 20
-867.1329722216096
 30
0
 11
314.9635660923974
 21
-867.1329722216096
 31
0
  0
LINE
  8
1
 62
3
 10
316.2135660923974
 20
-894.1329722216096
 30
0
 11
316.2135660923974
 21
-863.6329722216096
 31
0
  0
LINE
  8
1
 62
3
 10
314.2135660923974
 20
-867.8829722216096
 30
0
 11
314.2135660923974
 21
-894.1329722216096
 31
0
  0
LINE
  8
1
 62
3
 10
316.2135660923974
 20
-863.6329722216096
 30
0
 11
322.9135660923974
 21
-863.6329722216096
 31
0
  0
LINE
  8
1
 62
3
 10
314.9635660923974
 20
-867.1329722216096
 30
0
 11
314.2135660923974
 21
-867.8829722216096
 31
0
  0
LINE
  8
1
 62
3
 10
314.9635660923974
 20
-921.1329722216096
 30
0
 11
316.2135660923974
 21
-921.1329722216096
 31
0
  0
LINE
  8
1
 62
3
 10
316.2135660923974
 20
-924.6329722216096
 30
0
 11
316.2135660923974
 21
-894.1329722216096
 31
0
  0
LINE
  8
1
 62
3
 10
314.2135660923974
 20
-894.1329722216096
 30
0
 11
314.2135660923974
 21
-920.3829722216096
 31
0
  0
LINE
  8
1
 62
3
 10
314.2135660923974
 20
-920.3829722216096
 30
0
 11
314.9635660923974
 21
-921.1329722216096
 31
0
  0
LINE
  8
1
 62
1
 10
327.9135660923974
 20
-894.1329722216096
 30
0
 11
314.2135660923974
 21
-894.1329722216096
 31
0
  0
LINE
  8
1
 62
1
 10
63.58579329232998
 20
-894.1329722216096
 30
0
 11
-7.414206707670022
 21
-894.1329722216096
 31
0
  0
LINE
  8
1
 62
1
 10
28.08579329232992
 20
-929.6329722216096
 30
0
 11
28.08579329232998
 21
-858.6329722216096
 31
0
  0
LINE
  8
1
 62
1
 10
52.83579329232998
 20
-862.3829722216096
 30
0
 11
52.83579329232998
 21
-876.3829722216096
 31
0
  0
LINE
  8
1
 62
1
 10
59.83579329232999
 20
-869.3829722216096
 30
0
 11
45.83579329232998
 21
-869.3829722216096
 31
0
  0
LINE
  8
1
 62
1
 10
3.335793292329981
 20
-862.3829722216095
 30
0
 11
3.335793292329981
 21
-876.3829722216095
 31
0
  0
LINE
  8
1
 62
1
 10
-3.664206707670033
 20
-918.8829722216096
 30
0
 11
10.33579329232997
 21
-918.8829722216096
 31
0
  0
LINE
  8
1
 62
1
 10
52.83579329232998
 20
-925.8829722216096
 30
0
 11
52.83579329232998
 21
-911.8829722216096
 31
0
  0
LINE
  8
1
 62
1
 10
-3.664206707670019
 20
-869.3829722216095
 30
0
 11
10.33579329232998
 21
-869.3829722216096
 31
0
  0
LINE
  8
1
 62
1
 10
3.335793292329974
 20
-925.8829722216096
 30
0
 11
3.335793292329974
 21
-911.8829722216096
 31
0
  0
LINE
  8
1
 62
1
 10
59.83579329232998
 20
-918.8829722216096
 30
0
 11
45.83579329232998
 21
-918.8829722216096
 31
0
  0
ARC
  8
1
 62
2
 10
28.08579329232998
 20
-894.1329722216096
 30
0
 40
34.99999999999998
 50
17.96511639139872
 51
58.5992184902046
  0
ARC
  8
1
 62
2
 10
28.08579329232998
 20
-894.1329722216096
 30
0
 40
35.00000000000005
 50
197.9651163913987
 51
238.5992184902045
  0
CIRCLE
  8
1
 62
4
  6
DIVIDE
 10
28.08579329232998
 20
-894.1329722216096
 30
0
 40
35
  0
CIRCLE
  8
1
 62
3
 10
52.83579329232998
 20
-869.3829722216096
 30
0
 40
2.25
  0
CIRCLE
  8
1
 62
3
 10
3.335793292329981
 20
-869.3829722216095
 30
0
 40
2.25
  0
CIRCLE
  8
1
 62
3
 10
3.335793292329974
 20
-918.8829722216096
 30
0
 40
2.25
  0
CIRCLE
  8
1
 62
3
 10
52.83579329232998
 20
-918.8829722216096
 30
0
 40
2.25
  0
TEXT
  8
1
 62
2
 10
-23.0777289693082
 20
-1024.5925423342
 30
0
 40
8
  1
6HN
 41
0.9
  0
DIMENSION
  8
1
  6
CONTINUOUS
 62
2
  2
*D10
  3
DMST_3
 10
14.2945709616116
 20
-884.1329722216096
 30
0
 11
10.6945709616116
 21
-888.746683228532
 31
0
 12
0
 22
0
 32
0
 70
0
 13
63.58579329232998
 23
-894.1329722216096
 33
0
 14
28.08579329232996
 24
-884.1329722216096
 34
0
 50
90
 53
0
  0
DIMENSION
  8
1
  6
CONTINUOUS
 62
2
  2
*D11
  3
DMST_3
 10
58.58579329232992
 20
-844.1329722216096
 30
0
 11
28.08579329232998
 21
-840.5329722216096
 31
0
 12
0
 22
0
 32
0
 70
1
 13
-2.414206707670019
 23
-894.1329722216096
 33
0
 14
58.58579329232992
 24
-894.1329722216096
 34
0
 53
0
  0
DIMENSION
  8
1
  6
CONTINUOUS
 62
2
  2
*D12
  3
DMST_3
 10
83.08579329232992
 20
-924.6329722216096
 30
0
 11
79.48579329232993
 21
-894.1329722216096
 31
0
 12
0
 22
0
 32
0
 70
1
 13
28.08579329232992
 23
-863.6329722216096
 33
0
 14
28.08579329232992
 24
-924.6329722216096
 34
0
 53
0
  0
DIMENSION
  8
1
  6
CONTINUOUS
 62
2
  2
*D13
  3
DMST_4
 10
3.335793292329981
 20
-854.1329722216096
 30
0
 11
28.08579329232998
 21
-850.5329722216096
 31
0
 12
0
 22
0
 32
0
 70
1
 13
52.83579329232998
 23
-862.3829722216096
 33
0
 14
3.335793292329981
 24
-862.3829722216095
 34
0
 53
0
  0
DIMENSION
  8
1
  6
CONTINUOUS
 62
2
  2
*D14
  3
DMST_4
 10
73.08579329232995
 20
-918.8829722216096
 30
0
 11
69.48579329232996
 21
-894.1329722216096
 31
0
 12
0
 22
0
 32
0
 70
1
 13
59.83579329232999
 23
-869.3829722216096
 33
0
 14
59.83579329232998
 24
-918.8829722216096
 34
0
 53
0
  0
DIMENSION
  8
1
  6
CONTINUOUS
 62
2
  2
*D15
  3
DMST_2
 10
314.2135660923974
 20
-853.6329722216096
 30
0
 11
312.014228403618
 21
-850.0329722216096
 31
0
 12
0
 22
0
 32
0
 70
0
 13
316.2135660923974
 23
-863.6329722216096
 33
0
 14
314.2135660923974
 24
-867.8829722216096
 34
0
 53
0
  0
DIMENSION
  8
1
  6
CONTINUOUS
 62
2
  2
*D16
  3
DMST_5
 10
60.5730688906133
 20
-881.1108017342759
 30
0
 11
5.585664615761047
 21
-899.273462106888
 31
0
 12
0
 22
0
 32
0
 70
3
  1
(âË<>
 15
-4.40148230595333
 25
-907.1551427089433
 35
0
 40
0
 53
0
  0
INSERT
  8
0
  2
G6G__2
 10
357.174623302534
 20
-770.62316328268
 30
0
  0
INSERT
  8
1
  2
*D17
 10
0
 20
0
 30
0
  0
ENDSEC
  0
EOF
