  0
SECTION
  2
HEADER
  9
$ACADVER
  1
AC1009
  9
$INSBASE
 10
0
 20
0
  9
$EXTMIN
 10
3.043612101541951
 20
622.2866096571411
  9
$EXTMAX
 10
250.603546793008
 20
838.7326679560658
  9
$LIMMIN
 10
3.043612101541951
 20
622.2866096571411
  9
$LIMMAX
 10
250.603546793008
 20
838.7326679560658
  9
$VIEWCTR
 10
10
 20
10
  9
$VIEWSIZE
 40
10
  9
$SNAPMODE
 70
0
  9
$SNAPUNIT
 10
1
 20
1
  9
$SNAPBASE
 10
0
 20
0
  9
$SNAPANG
 50
0
  9
$SNAPSTYLE
 70
0
  9
$SNAPISOPAIR
 70
0
  9
$GRIDMODE
 70
0
  9
$GRIDUNIT
 10
0
 20
0
  9
$ORTHOMODE
 70
0
  9
$REGENMODE
 70
1
  9
$FILLMODE
 70
1
  9
$QTEXTMODE
 70
0
  9
$DRAGMODE
 70
2
  9
$LTSCALE
 40
1
  9
$OSMODE
 70
0
  9
$ATTMODE
 70
1
  9
$TEXTSIZE
 40
3.5
  9
$TRACEWID
 40
0.5
  9
$TEXTSTYLE
  7
STANDARD
  9
$CLAYER
  8
0
  9
$CELTYPE
  6
BYLAYER
  9
$CECOLOR
 62
256
  9
$DIMSCALE
 40
1
  9
$DIMASZ
 40
0.18
  9
$DIMEXO
 40
0.0625
  9
$DIMDLI
 40
0.38
  9
$DIMRND
 40
0
  9
$DIMDLE
 40
0
  9
$DIMEXE
 40
0.18
  9
$DIMTP
 40
0
  9
$DIMTM
 40
0
  9
$DIMTXT
 40
0.18
  9
$DIMCEN
 40
0.09
  9
$DIMTSZ
 40
0
  9
$DIMTOL
 70
0
  9
$DIMLIM
 70
0
  9
$DIMTIH
 70
1
  9
$DIMTOH
 70
1
  9
$DIMSE1
 70
0
  9
$DIMSE2
 70
0
  9
$DIMTAD
 70
0
  9
$DIMZIN
 70
0
  9
$DIMBLK
  1

  9
$DIMASO
 70
1
  9
$DIMSHO
 70
1
  9
$DIMPOST
  1

  9
$DIMAPOST
  1

  9
$DIMALT
 70
0
  9
$DIMALTD
 70
2
  9
$DIMALTF
 40
25.4
  9
$DIMLFAC
 40
1
  9
$DIMTOFL
 70
0
  9
$DIMTVP
 40
0
  9
$DIMTIX
 70
0
  9
$DIMSOXD
 70
0
  9
$DIMSAH
 70
0
  9
$DIMBLK1
  1

  9
$DIMBLK2
  1

  9
$DIMSTYLE
  2
*UNNAMED
  9
$DIMCLRD
 70
0
  9
$DIMCLRE
 70
0
  9
$DIMCLRT
 70
0
  9
$DIMTFAC
 40
1
  9
$DIMGAP
 40
0.09
  9
$LUNITS
 70
2
  9
$LUPREC
 70
4
  9
$AXISMODE
 70
0
  9
$AXISUNIT
 10
0
 20
0
  9
$SKETCHINC
 40
0.1
  9
$FILLETRAD
 40
2
  9
$AUNITS
 70
0
  9
$AUPREC
 70
0
  9
$MENU
  1
ACAD
  9
$ELEVATION
 40
0
  9
$THICKNESS
 40
0
  9
$VIEWDIR
 10
0
 20
0
 30
1
  9
$LIMCHECK
 70
0
  9
$BLIPMODE
 70
1
  9
$CHAMFERA
 40
0
  9
$CHAMFERB
 40
0
  9
$FASTZOOM
 70
1
  9
$SKPOLY
 70
0
  9
$ANGBASE
 50
0
  9
$ANGDIR
 70
0
  9
$PDMODE
 70
0
  9
$PDSIZE
 40
0
  9
$PLINEWID
 40
0
  9
$COORDS
 70
2
  0
ENDSEC
  0
SECTION
  2
TABLES
  0
TABLE
  2
DIMSTYLE
 70
4
  0
DIMSTYLE
  2
DMST_1
 70
0
  3

  4

  5

  6

  7

 40
1
 41
3.2
 42
1
 43
7
 44
1.5
 45
0
 46
0
 47
0
 48
0
140
3.2
141
0
142
0
143
25.4
144
1
145
0
146
1
147
0.09
 71
0
 72
0
 73
0
 74
0
 75
0
 76
0
 77
1
 78
9
170
0
171
2
172
0
173
0
174
0
175
0
176
2
177
2
178
2
  0
DIMSTYLE
  2
DMST_2
 70
0
  3

  4

  5

  6

  7

 40
1
 41
3.2
 42
1
 43
7
 44
1.5
 45
0
 46
0
 47
0
 48
0
140
3.2
141
0
142
0
143
25.4
144
1
145
0
146
0.6
147
0.09
 71
1
 72
0
 73
0
 74
0
 75
0
 76
0
 77
1
 78
9
170
0
171
2
172
0
173
0
174
0
175
0
176
2
177
2
178
2
  0
DIMSTYLE
  2
DMST_3
 70
0
  3
±0.3
  4

  5

  6

  7

 40
1
 41
3.2
 42
1
 43
7
 44
1.5
 45
0
 46
0
 47
0
 48
0
140
3.2
141
0
142
0
143
25.4
144
1
145
0
146
1
147
0.09
 71
0
 72
0
 73
0
 74
0
 75
0
 76
0
 77
1
 78
9
170
0
171
2
172
0
173
0
174
0
175
0
176
2
177
2
178
2
  0
DIMSTYLE
  2
DMST_4
 70
0
  3
)
  4

  5

  6

  7

 40
1
 41
3.2
 42
1
 43
7
 44
1.5
 45
0
 46
0
 47
0
 48
0
140
3.2
141
0
142
0
143
25.4
144
1
145
0
146
1
147
0.09
 71
0
 72
0
 73
0
 74
0
 75
0
 76
0
 77
1
 78
9
170
0
171
2
172
0
173
0
174
1
175
0
176
2
177
2
178
2
  0
ENDTAB
  0
TABLE
  2
LTYPE
 70
9
  0
LTYPE
  2
CONTINUOUS
 70
64
  3
Solid line
 72
65
 73
0
 40
0
  0
LTYPE
  2
BORDER
 70
64
  3
__ __ . __ __ .
 72
65
 73
6
 40
11.40078646605436
 49
3.257367561729816
 49
-1.628683780864908
 49
3.257367561729816
 49
-1.628683780864908
 49
0
 49
-1.628683780864908
  0
LTYPE
  2
CENTER
 70
64
  3
____ _ ____ _
 72
65
 73
4
 40
13.02947024691927
 49
8.143418904324541
 49
-1.628683780864908
 49
1.628683780864908
 49
-1.628683780864908
  0
LTYPE
  2
DASHDOT
 70
64
  3
__ . __ . __ .
 72
65
 73
4
 40
6.514735123459633
 49
3.257367561729816
 49
-1.628683780864908
 49
0
 49
-1.628683780864908
  0
LTYPE
  2
DASHED
 70
64
  3
__ __ __ __ __
 72
65
 73
2
 40
4.886051342594724
 49
3.257367561729816
 49
-1.628683780864908
  0
LTYPE
  2
DIVIDE
 70
64
  3
__ . . __ . . 
 72
65
 73
6
 40
8.143418904324541
 49
3.257367561729816
 49
-1.628683780864908
 49
0
 49
-1.628683780864908
 49
0
 49
-1.628683780864908
  0
LTYPE
  2
DOT
 70
64
  3
..............
 72
65
 73
4
 40
3.257367561729816
 49
0
 49
-1.628683780864908
 49
0
 49
-1.628683780864908
  0
LTYPE
  2
HIDDEN
 70
64
  3
_ _ _ _ _ _ _
 72
65
 73
2
 40
2.443025671297362
 49
1.628683780864908
 49
-0.8143418904324541
  0
LTYPE
  2
PHANTOM
 70
64
  3
_____ _ _ _____ _ _ 
 72
65
 73
6
 40
16.28683780864908
 49
8.143418904324541
 49
-1.628683780864908
 49
1.628683780864908
 49
-1.628683780864908
 49
1.628683780864908
 49
-1.628683780864908
  0
ENDTAB
  0
TABLE
  2
LAYER
 70
3
  0
LAYER
  2
1
 70
0
 62
7
  6
CONTINUOUS
  0
LAYER
  2
0
 70
0
 62
7
  6
CONTINUOUS
  0
ENDTAB
  0
TABLE
  2
STYLE
 70
4
  0
STYLE
  2
STANDARD
 70
0
 40
0
 41
1
 50
0
 71
0
 42
3.5
  3
txt
  4

  0
STYLE
  2
SIMPLEX
 70
0
 40
0
 41
1
 50
0
 71
0
 42
3.5
  3
simplex
  4

  0
STYLE
  2
COMPLEX
 70
0
 40
0
 41
1
 50
0
 71
0
 42
3.5
  3
complex
  4

  0
STYLE
  2
ITALIC
 70
0
 40
0
 41
1
 50
0
 71
0
 42
3.5
  3
italic
  4

  0
ENDTAB
  0
TABLE
  2
VIEW
 70
0
  0
ENDTAB
  0
ENDSEC
  0
SECTION
  2
BLOCKS
  0
BLOCK
  8
1
  2
*D0
 70
1
 10
0
 20
0
 30
0
  0
LINE
  8
1
 62
2
 10
128.1820870035915
 20
770.5326679560658
 30
0
 11
128.1820870035915
 21
795.5326679560658
 31
0
  0
LINE
  8
1
 62
2
 10
186.1820870035915
 20
795.5326679560658
 30
0
 11
126.6820870035915
 21
795.5326679560658
 31
0
  0
LINE
  8
1
 62
2
 10
186.1820870035915
 20
770.5326679560658
 30
0
 11
126.6820870035915
 21
770.5326679560658
 31
0
  0
SOLID
  8
1
 62
2
 10
128.1820870035915
 20
795.5326679560658
 30
0
 11
128.5980870035915
 21
792.3326679560657
 31
0
 12
127.7660870035915
 22
792.3326679560657
 32
0
 13
127.7660870035915
 23
792.3326679560657
 33
0
  0
SOLID
  8
1
 62
2
 10
128.1820870035915
 20
770.5326679560658
 30
0
 11
127.7660870035915
 21
773.7326679560658
 31
0
 12
128.5980870035915
 22
773.7326679560658
 32
0
 13
128.5980870035915
 23
773.7326679560658
 33
0
  0
TEXT
  8
1
 62
2
 10
125.3287536702581
 20
782.6561973678305
 30
0
 40
3.2
  1
25
 50
90
 41
0.9
  0
TEXT
  8
1
 62
2
 10
125.3287536702581
 20
778.6091385443011
 30
0
 40
3.2
  1
φ
 50
90
 41
0.9
  0
ENDBLK
  8
0
  0
BLOCK
  8
1
  2
*D1
 70
1
 10
0
 20
0
 30
0
  0
LINE
  8
1
 62
2
 10
148.1820870035915
 20
787.0326679560658
 30
0
 11
148.1820870035915
 21
793.4326679560658
 31
0
  0
LINE
  8
1
 62
2
 10
148.1820870035915
 20
786.0326679560658
 30
0
 11
148.1820870035915
 21
787.0326679560658
 31
0
  0
LINE
  8
1
 62
2
 10
148.1820870035915
 20
779.6326679560658
 30
0
 11
148.1820870035915
 21
786.0326679560658
 31
0
  0
LINE
  8
1
 62
2
 10
174.0550703497989
 20
787.0326679560658
 30
0
 11
146.6820870035915
 21
787.0326679560658
 31
0
  0
LINE
  8
1
 62
2
 10
157.1820870035915
 20
786.0326679560658
 30
0
 11
146.6820870035915
 21
786.0326679560658
 31
0
  0
SOLID
  8
1
 62
2
 10
148.1820870035915
 20
787.0326679560658
 30
0
 11
147.7660870035915
 21
790.2326679560658
 31
0
 12
148.5980870035915
 22
790.2326679560658
 32
0
 13
148.5980870035915
 23
790.2326679560658
 33
0
  0
SOLID
  8
1
 62
2
 10
148.1820870035915
 20
786.0326679560658
 30
0
 11
148.5980870035915
 21
782.8326679560657
 31
0
 12
147.7660870035915
 22
782.8326679560657
 32
0
 13
147.7660870035915
 23
782.8326679560657
 33
0
  0
TEXT
  8
1
 62
2
 10
146.1820870035915
 20
791.318539096167
 30
0
 40
3.2
  1
1
 50
90
 41
0.9
  0
ENDBLK
  8
0
  0
BLOCK
  8
1
  2
*D2
 70
1
 10
0
 20
0
 30
0
  0
LINE
  8
1
 62
2
 10
138.1820870035914
 20
787.0326679560658
 30
0
 11
138.1820870035914
 21
793.4326679560658
 31
0
  0
LINE
  8
1
 62
2
 10
138.1820870035914
 20
779.0326679560658
 30
0
 11
138.1820870035914
 21
772.6326679560658
 31
0
  0
LINE
  8
1
 62
2
 10
138.1820870035914
 20
779.0326679560658
 30
0
 11
138.1820870035914
 21
787.0326679560658
 31
0
  0
LINE
  8
1
 62
2
 10
174.0550703497988
 20
787.0326679560658
 30
0
 11
136.6820870035914
 21
787.0326679560658
 31
0
  0
LINE
  8
1
 62
2
 10
157.1820870035913
 20
779.0326679560658
 30
0
 11
136.6820870035914
 21
779.0326679560658
 31
0
  0
SOLID
  8
1
 62
2
 10
138.1820870035914
 20
787.0326679560658
 30
0
 11
137.7660870035914
 21
790.2326679560658
 31
0
 12
138.5980870035914
 22
790.2326679560658
 32
0
 13
138.5980870035914
 23
790.2326679560658
 33
0
  0
SOLID
  8
1
 62
2
 10
138.1820870035914
 20
779.0326679560658
 30
0
 11
138.5980870035914
 21
775.8326679560657
 31
0
 12
137.7660870035914
 22
775.8326679560657
 32
0
 13
137.7660870035914
 23
775.8326679560657
 33
0
  0
TEXT
  8
1
 62
2
 10
135.328753670258
 20
779.8641973678305
 30
0
 40
3.2
  1
8
 50
90
 41
0.9
  0
TEXT
  8
1
 62
2
 10
133.248753670258
 20
783.3841973678304
 30
0
 40
1.92
  1
 0
 50
90
 41
0.9
  0
TEXT
  8
1
 62
2
 10
136.128753670258
 20
783.3841973678304
 30
0
 40
1.92
  1
-0.02
 50
90
 41
0.9
  0
TEXT
  8
1
 62
2
 10
135.328753670258
 20
775.8171385443011
 30
0
 40
3.2
  1
φ
 50
90
 41
0.9
  0
ENDBLK
  8
0
  0
BLOCK
  8
1
  2
*D3
 70
1
 10
0
 20
0
 30
0
  0
LINE
  8
1
 62
2
 10
158.1820870035914
 20
813.5326679560658
 30
0
 11
171.1820870035914
 21
813.5326679560658
 31
0
  0
LINE
  8
1
 62
2
 10
171.1820870035914
 20
787.0326679560658
 30
0
 11
171.1820870035914
 21
815.0326679560658
 31
0
  0
LINE
  8
1
 62
2
 10
158.1820870035914
 20
787.0326679560658
 30
0
 11
158.1820870035914
 21
815.0326679560658
 31
0
  0
SOLID
  8
1
 62
2
 10
158.1820870035914
 20
813.5326679560658
 30
0
 11
161.3820870035914
 21
813.9486679560658
 31
0
 12
161.3820870035914
 22
813.1166679560657
 32
0
 13
161.3820870035914
 23
813.1166679560657
 33
0
  0
SOLID
  8
1
 62
2
 10
171.1820870035914
 20
813.5326679560658
 30
0
 11
167.9820870035914
 21
813.1166679560657
 31
0
 12
167.9820870035914
 22
813.9486679560658
 32
0
 13
167.9820870035914
 23
813.9486679560658
 33
0
  0
TEXT
  8
1
 62
2
 10
162.827279326785
 20
815.5326679560658
 30
0
 40
3.2
  1
13
 41
0.9
  0
ENDBLK
  8
0
  0
BLOCK
  8
1
  2
*D4
 70
1
 10
0
 20
0
 30
0
  0
LINE
  8
1
 62
2
 10
158.1820870035914
 20
833.5326679560658
 30
0
 11
190.1820870035915
 21
833.5326679560658
 31
0
  0
LINE
  8
1
 62
2
 10
190.1820870035915
 20
803.4326679560658
 30
0
 11
190.1820870035915
 21
835.0326679560658
 31
0
  0
LINE
  8
1
 62
2
 10
158.1820870035914
 20
787.0326679560658
 30
0
 11
158.1820870035914
 21
835.0326679560658
 31
0
  0
SOLID
  8
1
 62
2
 10
190.1820870035915
 20
833.5326679560658
 30
0
 11
186.9820870035915
 21
833.1166679560657
 31
0
 12
186.9820870035915
 22
833.9486679560658
 32
0
 13
186.9820870035915
 23
833.9486679560658
 33
0
  0
SOLID
  8
1
 62
2
 10
158.1820870035914
 20
833.5326679560658
 30
0
 11
161.3820870035914
 21
833.9486679560658
 31
0
 12
161.3820870035914
 22
833.1166679560657
 32
0
 13
161.3820870035914
 23
833.1166679560657
 33
0
  0
TEXT
  8
1
 62
2
 10
171.329427680124
 20
835.5326679560658
 30
0
 40
3.2
  1
32
 41
0.9
  0
ENDBLK
  8
0
  0
BLOCK
  8
1
  2
*D5
 70
1
 10
0
 20
0
 30
0
  0
LINE
  8
1
 62
2
 10
190.1820870035915
 20
823.5326679560658
 30
0
 11
196.5820870035915
 21
823.5326679560658
 31
0
  0
LINE
  8
1
 62
2
 10
187.1820870035914
 20
823.5326679560658
 30
0
 11
190.1820870035915
 21
823.5326679560658
 31
0
  0
LINE
  8
1
 62
2
 10
180.7820870035914
 20
823.5326679560658
 30
0
 11
187.1820870035914
 21
823.5326679560658
 31
0
  0
LINE
  8
1
 62
2
 10
190.1820870035915
 20
803.4326679560658
 30
0
 11
190.1820870035915
 21
825.0326679560658
 31
0
  0
LINE
  8
1
 62
2
 10
187.1820870035914
 20
796.5326679560658
 30
0
 11
187.1820870035914
 21
825.0326679560658
 31
0
  0
SOLID
  8
1
 62
2
 10
190.1820870035915
 20
823.5326679560658
 30
0
 11
193.3820870035914
 21
823.9486679560658
 31
0
 12
193.3820870035914
 22
823.1166679560657
 32
0
 13
193.3820870035914
 23
823.1166679560657
 33
0
  0
SOLID
  8
1
 62
2
 10
187.1820870035914
 20
823.5326679560658
 30
0
 11
183.9820870035914
 21
823.1166679560657
 31
0
 12
183.9820870035914
 22
823.9486679560658
 32
0
 13
183.9820870035914
 23
823.9486679560658
 33
0
  0
TEXT
  8
1
 62
2
 10
194.226782079768
 20
825.5326679560658
 30
0
 40
3.2
  1
3
 41
0.9
  0
ENDBLK
  8
0
  0
BLOCK
  8
1
  2
*D6
 70
1
 10
0
 20
0
 30
0
  0
LINE
  8
1
 62
2
 10
190.1820870035915
 20
833.5326679560658
 30
0
 11
240.1820870035915
 21
833.5326679560658
 31
0
  0
LINE
  8
1
 62
2
 10
240.1820870035915
 20
804.0326679560658
 30
0
 11
240.1820870035915
 21
835.0326679560658
 31
0
  0
LINE
  8
1
 62
2
 10
190.1820870035915
 20
803.4326679560658
 30
0
 11
190.1820870035915
 21
835.0326679560658
 31
0
  0
SOLID
  8
1
 62
2
 10
240.1820870035915
 20
833.5326679560658
 30
0
 11
236.9820870035915
 21
833.1166679560657
 31
0
 12
236.9820870035915
 22
833.9486679560658
 32
0
 13
236.9820870035915
 23
833.9486679560658
 33
0
  0
SOLID
  8
1
 62
2
 10
190.1820870035915
 20
833.5326679560658
 30
0
 11
193.3820870035914
 21
833.9486679560658
 31
0
 12
193.3820870035914
 22
833.1166679560657
 32
0
 13
193.3820870035914
 23
833.1166679560657
 33
0
  0
TEXT
  8
1
 62
2
 10
212.414439592621
 20
835.5326679560658
 30
0
 40
3.2
  1
50
 41
0.9
  0
ENDBLK
  8
0
  0
BLOCK
  8
1
  2
*D7
 70
1
 10
0
 20
0
 30
0
  0
LINE
  8
1
 62
2
 10
24.73330450481095
 20
773.0326679560658
 30
0
 11
24.73330450481095
 21
783.0326679560658
 31
0
  0
LINE
  8
1
 62
2
 10
38.68208700359141
 20
783.0326679560658
 30
0
 11
23.23330450481095
 21
783.0326679560658
 31
0
  0
LINE
  8
1
 62
2
 10
38.68208700359141
 20
773.0326679560658
 30
0
 11
23.23330450481095
 21
773.0326679560658
 31
0
  0
SOLID
  8
1
 62
2
 10
24.73330450481095
 20
783.0326679560658
 30
0
 11
25.14930450481095
 21
779.8326679560657
 31
0
 12
24.31730450481095
 22
779.8326679560657
 32
0
 13
24.31730450481095
 23
779.8326679560657
 33
0
  0
SOLID
  8
1
 62
2
 10
24.73330450481095
 20
773.0326679560658
 30
0
 11
24.31730450481095
 21
776.2326679560658
 31
0
 12
25.14930450481095
 22
776.2326679560658
 32
0
 13
25.14930450481095
 23
776.2326679560658
 33
0
  0
TEXT
  8
1
 62
2
 10
22.73330450481095
 20
776.0086502567668
 30
0
 40
3.2
  1
10
 50
90
 41
0.9
  0
ENDBLK
  8
0
  0
BLOCK
  8
1
  2
*D8
 70
1
 10
0
 20
0
 30
0
  0
LINE
  8
1
 62
2
 10
95.18208700359142
 20
742.5326679560658
 30
0
 11
95.18208700359142
 21
803.5326679560658
 31
0
  0
LINE
  8
1
 62
2
 10
65.68208700359142
 20
803.5326679560658
 30
0
 11
96.68208700359142
 21
803.5326679560658
 31
0
  0
LINE
  8
1
 62
2
 10
65.68208700359142
 20
742.5326679560658
 30
0
 11
96.68208700359142
 21
742.5326679560658
 31
0
  0
SOLID
  8
1
 62
2
 10
95.18208700359142
 20
803.5326679560658
 30
0
 11
95.59808700359142
 21
800.3326679560657
 31
0
 12
94.76608700359142
 22
800.3326679560657
 32
0
 13
94.76608700359142
 23
800.3326679560657
 33
0
  0
SOLID
  8
1
 62
2
 10
95.18208700359142
 20
742.5326679560658
 30
0
 11
94.76608700359142
 21
745.7326679560658
 31
0
 12
95.59808700359142
 22
745.7326679560658
 32
0
 13
95.59808700359142
 23
745.7326679560658
 33
0
  0
TEXT
  8
1
 62
2
 10
93.18208700359142
 20
771.1126679560658
 30
0
 40
3.2
  1
61
 50
90
 41
0.9
  0
ENDBLK
  8
0
  0
BLOCK
  8
1
  2
*D9
 70
1
 10
0
 20
0
 30
0
  0
LINE
  8
1
 62
2
 10
85.18208700359141
 20
748.2826679560658
 30
0
 11
85.18208700359141
 21
797.7826679560658
 31
0
  0
LINE
  8
1
 62
2
 10
72.43208700359141
 20
797.7826679560658
 30
0
 11
86.68208700359141
 21
797.7826679560658
 31
0
  0
LINE
  8
1
 62
2
 10
72.43208700359141
 20
748.2826679560658
 30
0
 11
86.68208700359141
 21
748.2826679560658
 31
0
  0
SOLID
  8
1
 62
2
 10
85.18208700359141
 20
797.7826679560658
 30
0
 11
85.5980870035914
 21
794.5826679560657
 31
0
 12
84.76608700359141
 22
794.5826679560657
 32
0
 13
84.76608700359141
 23
794.5826679560657
 33
0
  0
SOLID
  8
1
 62
2
 10
85.18208700359141
 20
748.2826679560658
 30
0
 11
84.76608700359141
 21
751.4826679560658
 31
0
 12
85.5980870035914
 22
751.4826679560658
 32
0
 13
85.5980870035914
 23
751.4826679560658
 33
0
  0
TEXT
  8
1
 62
2
 10
83.18208700359141
 20
762.9103150148893
 30
0
 40
3.2
  1
49.5
 50
90
 41
0.9
  0
TEXT
  8
1
 62
2
 10
83.18208700359141
 20
773.3903150148893
 30
0
 40
3.2
  1
±0.3
 50
90
 41
0.9
  0
ENDBLK
  8
0
  0
BLOCK
  8
1
  2
*D10
 70
1
 10
0
 20
0
 30
0
  0
LINE
  8
1
 62
2
 10
14.9320870035914
 20
813.5326679560658
 30
0
 11
64.43208700359141
 21
813.5326679560658
 31
0
  0
LINE
  8
1
 62
2
 10
64.43208700359141
 20
805.7826679560658
 30
0
 11
64.43208700359141
 21
815.0326679560658
 31
0
  0
LINE
  8
1
 62
2
 10
14.9320870035914
 20
805.7826679560658
 30
0
 11
14.9320870035914
 21
815.0326679560658
 31
0
  0
SOLID
  8
1
 62
2
 10
14.9320870035914
 20
813.5326679560658
 30
0
 11
18.1320870035914
 21
813.9486679560658
 31
0
 12
18.1320870035914
 22
813.1166679560657
 32
0
 13
18.1320870035914
 23
813.1166679560657
 33
0
  0
SOLID
  8
1
 62
2
 10
64.43208700359141
 20
813.5326679560658
 30
0
 11
61.2320870035914
 21
813.1166679560657
 31
0
 12
61.2320870035914
 22
813.9486679560658
 32
0
 13
61.2320870035914
 23
813.9486679560658
 33
0
  0
TEXT
  8
1
 62
2
 10
29.55973406241494
 20
815.5326679560658
 30
0
 40
3.2
  1
49.5
 41
0.9
  0
TEXT
  8
1
 62
2
 10
40.03973406241494
 20
815.5326679560658
 30
0
 40
3.2
  1
±0.3
 41
0.9
  0
ENDBLK
  8
0
  0
BLOCK
  8
1
  2
*D11
 70
1
 10
0
 20
0
 30
0
  0
LINE
  8
1
 62
2
 10
9.182087003591413
 20
823.5326679560658
 30
0
 11
70.18208700359142
 21
823.5326679560658
 31
0
  0
LINE
  8
1
 62
2
 10
70.18208700359142
 20
799.0326679560658
 30
0
 11
70.18208700359142
 21
825.0326679560658
 31
0
  0
LINE
  8
1
 62
2
 10
9.182087003591413
 20
799.0326679560658
 30
0
 11
9.182087003591413
 21
825.0326679560658
 31
0
  0
SOLID
  8
1
 62
2
 10
70.18208700359142
 20
823.5326679560658
 30
0
 11
66.98208700359142
 21
823.1166679560657
 31
0
 12
66.98208700359142
 22
823.9486679560658
 32
0
 13
66.98208700359142
 23
823.9486679560658
 33
0
  0
SOLID
  8
1
 62
2
 10
9.182087003591413
 20
823.5326679560658
 30
0
 11
12.38208700359141
 21
823.9486679560658
 31
0
 12
12.38208700359141
 22
823.1166679560657
 32
0
 13
12.38208700359141
 23
823.1166679560657
 33
0
  0
TEXT
  8
1
 62
2
 10
37.76208700359141
 20
825.5326679560658
 30
0
 40
3.2
  1
61
 41
0.9
  0
ENDBLK
  8
0
  0
BLOCK
  8
1
  2
*D12
 70
1
 10
0
 20
0
 30
0
  0
LINE
  8
1
 62
2
 10
72.57300671083081
 20
785.0039837071405
 30
0
 11
6.791167296352
 21
761.061352204991
 31
0
  0
SOLID
  8
1
 62
2
 10
6.791167296352
 20
761.061352204991
 30
0
 11
9.655903303243431
 21
762.54672879388
 31
0
 12
9.940464062490385
 22
761.7649045333861
 32
0
 13
9.940464062490385
 23
761.7649045333861
 33
0
  0
SOLID
  8
1
 62
2
 10
72.57300671083081
 20
785.0039837071405
 30
0
 11
69.70827070393938
 21
783.5186071182515
 31
0
 12
69.42370994469242
 22
784.3004313787453
 32
0
 13
69.42370994469242
 23
784.3004313787453
 33
0
  0
TEXT
  8
1
 62
2
 10
16.53014128376186
 20
766.3128009548772
 30
0
 40
3.2
  1
70
 50
19.99999999999997
 41
0.9
  0
TEXT
  8
1
 62
2
 10
11.75232635852151
 20
764.5738185372569
 30
0
 40
3.2
  1
(φ
 50
19.99999999999997
 41
0.9
  0
TEXT
  8
1
 62
2
 10
22.54417405679168
 20
768.5017298721615
 30
0
 40
3.2
  1
)
 50
19.99999999999997
 41
0.9
  0
ENDBLK
  8
0
  0
BLOCK
  8
1
  2
*D13
 70
1
 10
0
 20
0
 30
0
  0
LINE
  8
1
 62
2
 10
80.34208700359143
 20
813.5326679560658
 30
0
 11
99.82208700359143
 21
813.5326679560658
 31
0
  0
LINE
  8
1
 62
2
 10
66.03109722248962
 20
799.3655976196513
 30
0
 11
80.34208700359143
 21
813.5326679560658
 31
0
  0
SOLID
  8
1
 62
2
 10
66.03109722248962
 20
799.3655976196513
 30
0
 11
67.76489376265396
 21
801.594149965304
 31
0
 12
68.27705944936076
 22
801.0767813255894
 32
0
 13
68.27705944936076
 23
801.0767813255894
 33
0
  0
TEXT
  8
1
 62
2
 10
89.62653144803588
 20
814.9832505884488
 30
0
 40
3.2
  1
4.5
 41
0.9
  0
TEXT
  8
1
 62
2
 10
80.54208700359143
 20
814.9832505884488
 30
0
 40
3.2
  1
4-φ
 41
0.9
  0
TEXT
  8
1
 62
2
 10
97.06653144803588
 20
814.9832505884488
 30
0
 40
3.2
  1
穴
 41
0.9
  0
ENDBLK
  8
0
  0
ENDSEC
  0
SECTION
  2
ENTITIES
  0
LINE
  8
1
 62
2
 10
3.043612101541951
 20
646.256460621879
 30
0
 11
250.603546793008
 21
646.256460621879
 31
0
  0
LINE
  8
1
 62
2
 10
13.04361210154196
 20
681.256460621879
 30
0
 11
13.04361210154196
 21
639.256460621879
 31
0
  0
LINE
  8
1
 62
2
 10
33.04361210154196
 20
681.256460621879
 30
0
 11
33.04361210154196
 21
639.256460621879
 31
0
  0
LINE
  8
1
 62
2
 10
142.446191223722
 20
681.256460621879
 30
0
 11
142.446191223722
 21
639.256460621879
 31
0
  0
LINE
  8
1
 62
2
 10
170.823579447275
 20
681.256460621879
 30
0
 11
170.823579447275
 21
639.256460621879
 31
0
  0
LINE
  8
1
 62
2
 10
3.043612101541951
 20
688.256460621879
 30
0
 11
3.043612101541951
 21
639.256460621879
 31
0
  0
LINE
  8
1
 62
2
 10
250.603546793008
 20
688.256460621879
 30
0
 11
250.603546793008
 21
639.256460621879
 31
0
  0
LINE
  8
1
 62
2
 10
3.043612101541951
 20
653.256460621879
 30
0
 11
250.603546793008
 21
653.256460621879
 31
0
  0
LINE
  8
1
 62
2
 10
3.043612101541951
 20
660.256460621879
 30
0
 11
250.603546793008
 21
660.256460621879
 31
0
  0
LINE
  8
1
 62
2
 10
3.043612101541951
 20
667.256460621879
 30
0
 11
250.603546793008
 21
667.256460621879
 31
0
  0
LINE
  8
1
 62
2
 10
3.043612101541951
 20
674.256460621879
 30
0
 11
250.603546793008
 21
674.256460621879
 31
0
  0
LINE
  8
1
 62
2
 10
3.043612101541951
 20
681.256460621879
 30
0
 11
250.603546793008
 21
681.256460621879
 31
0
  0
LINE
  8
1
 62
2
 10
3.043612101541951
 20
688.256460621879
 30
0
 11
250.603546793008
 21
688.256460621879
 31
0
  0
LINE
  8
1
 62
2
 10
3.043612101541951
 20
639.256460621879
 30
0
 11
250.603546793008
 21
639.256460621879
 31
0
  0
LINE
  8
1
 62
3
 10
37.03633569252682
 20
786.0326679560658
 30
0
 11
42.32783831465599
 21
786.0326679560658
 31
0
  0
LINE
  8
1
 62
2
 10
171.1820870035914
 20
786.0326679560658
 30
0
 11
171.1820870035914
 21
787.0326679560658
 31
0
  0
LINE
  8
1
 62
1
 10
153.1820870035914
 20
783.0326679560658
 30
0
 11
196.1820870035914
 21
783.0326679560658
 31
0
  0
LINE
  8
1
 62
3
 10
158.1820870035914
 20
786.0326679560658
 30
0
 11
158.1820870035914
 21
779.0326679560658
 31
0
  0
LINE
  8
1
 62
3
 10
158.1820870035914
 20
786.0326679560658
 30
0
 11
171.1820870035914
 21
786.0326679560658
 31
0
  0
LINE
  8
1
 62
3
 10
158.1820870035914
 20
779.0326679560658
 30
0
 11
187.1820870035914
 21
779.0326679560658
 31
0
  0
LINE
  8
1
 62
3
 10
187.1820870035914
 20
787.0326679560658
 30
0
 11
175.0550703497989
 21
787.0326679560658
 31
0
  0
LINE
  8
1
 62
3
 10
191.1820870035915
 20
802.4326679560658
 30
0
 11
190.1820870035915
 21
802.4326679560658
 31
0
  0
LINE
  8
1
 62
3
 10
191.1820870035915
 20
743.6326679560657
 30
0
 11
239.3820870035914
 21
742.5326679560659
 31
0
  0
LINE
  8
1
 62
3
 10
190.1820870035914
 20
753.0326679560657
 30
0
 11
191.1820870035914
 21
753.0326679560658
 31
0
  0
LINE
  8
1
 62
3
 10
190.1820870035915
 20
743.6326679560658
 30
0
 11
191.1820870035915
 21
743.6326679560657
 31
0
  0
LINE
  8
1
 62
3
 10
190.1820870035915
 20
802.4326679560658
 30
0
 11
190.1820870035914
 21
793.0314052975948
 31
0
  0
LINE
  8
1
 62
3
 10
190.1820870035915
 20
743.6326679560658
 30
0
 11
190.1820870035914
 21
753.0326679560657
 31
0
  0
LINE
  8
1
 62
3
 10
187.1820870035914
 20
770.5326679560658
 30
0
 11
191.1820870035914
 21
770.5326679560658
 31
0
  0
LINE
  8
1
 62
3
 10
187.1820870035914
 20
795.5326679560658
 30
0
 11
190.1820870035914
 21
795.5326679560658
 31
0
  0
LINE
  8
1
 62
3
 10
187.1820870035914
 20
795.5326679560658
 30
0
 11
187.1820870035914
 21
770.5326679560658
 31
0
  0
LINE
  8
1
 62
1
 10
39.68208700359141
 20
773.0326679560658
 30
0
 11
75.18208700359141
 21
773.0326679560658
 31
0
  0
LINE
  8
1
 62
1
 10
39.68208700359141
 20
783.0326679560658
 30
0
 11
24.68208700359141
 21
783.0326679560658
 31
0
  0
LINE
  8
1
 62
1
 10
54.68208700359141
 20
783.0326679560658
 30
0
 11
39.68208700359141
 21
783.0326679560658
 31
0
  0
LINE
  8
1
 62
1
 10
184.1820870035914
 20
773.0326679560658
 30
0
 11
245.1820870035915
 21
773.0326679560658
 31
0
  0
LINE
  8
1
 62
1
 10
4.182087003591398
 20
773.0326679560658
 30
0
 11
39.68208700359141
 21
773.0326679560658
 31
0
  0
LINE
  8
1
 62
1
 10
39.68208700359141
 20
737.5326679560659
 30
0
 11
39.68208700359141
 21
808.5326679560658
 31
0
  0
LINE
  8
1
 62
3
 10
191.1820870035914
 20
749.2839306145365
 30
0
 11
191.1820870035914
 21
796.781405297595
 31
0
  0
LINE
  8
1
 62
1
 10
197.1820870035914
 20
748.2839306145369
 30
0
 11
188.1820870035914
 21
748.2839306145369
 31
0
  0
LINE
  8
1
 62
1
 10
188.1820870035914
 20
797.7814052975948
 30
0
 11
197.1820870035914
 21
797.7814052975948
 31
0
  0
LINE
  8
1
 62
3
 10
240.1820870035915
 20
803.0326679560658
 30
0
 11
240.1820870035915
 21
743.0326679560658
 31
0
  0
LINE
  8
1
 62
3
 10
191.1820870035914
 20
793.0314052975948
 30
0
 11
190.1820870035914
 21
793.0314052975948
 31
0
  0
LINE
  8
1
 62
3
 10
239.3820870035914
 20
803.5326679560658
 30
0
 11
191.1820870035915
 21
802.4326679560658
 31
0
  0
LINE
  8
1
 62
3
 10
239.3820870035914
 20
743.0326679560658
 30
0
 11
240.1820870035915
 21
743.0326679560658
 31
0
  0
LINE
  8
1
 62
3
 10
239.3820870035914
 20
803.0326679560658
 30
0
 11
240.1820870035915
 21
803.0326679560658
 31
0
  0
LINE
  8
1
 62
3
 10
239.3820870035914
 20
742.5326679560659
 30
0
 11
239.3820870035914
 21
803.5326679560658
 31
0
  0
LINE
  8
1
 62
1
 10
236.3820870035914
 20
800.0326679560658
 30
0
 11
243.1820870035915
 21
800.0326679560658
 31
0
  0
LINE
  8
1
 62
1
 10
236.3820870035914
 20
746.0326679560658
 30
0
 11
243.1820870035915
 21
746.0326679560658
 31
0
  0
LINE
  8
1
 62
1
 10
7.932087003591398
 20
748.2826679560658
 30
0
 11
21.93208700359141
 21
748.2826679560658
 31
0
  0
LINE
  8
1
 62
1
 10
57.43208700359141
 20
748.2826679560658
 30
0
 11
71.43208700359141
 21
748.2826679560658
 31
0
  0
LINE
  8
1
 62
1
 10
57.43208700359141
 20
797.7826679560658
 30
0
 11
71.43208700359141
 21
797.7826679560658
 31
0
  0
LINE
  8
1
 62
1
 10
7.932087003591398
 20
797.7826679560658
 30
0
 11
21.93208700359141
 21
797.7826679560658
 31
0
  0
LINE
  8
1
 62
1
 10
64.43208700359141
 20
804.7826679560658
 30
0
 11
64.43208700359141
 21
790.7826679560658
 31
0
  0
LINE
  8
1
 62
1
 10
64.43208700359141
 20
755.2826679560658
 30
0
 11
64.43208700359141
 21
741.2826679560658
 31
0
  0
LINE
  8
1
 62
1
 10
14.9320870035914
 20
741.2826679560658
 30
0
 11
14.9320870035914
 21
755.2826679560658
 31
0
  0
LINE
  8
1
 62
1
 10
14.9320870035914
 20
790.7826679560658
 30
0
 11
14.9320870035914
 21
804.7826679560658
 31
0
  0
LINE
  8
1
 62
3
 10
14.6820870035914
 20
803.5326679560658
 30
0
 11
64.68208700359141
 21
803.5326679560658
 31
0
  0
LINE
  8
1
 62
3
 10
70.18208700359141
 20
798.0326679560658
 30
0
 11
70.18208700359141
 21
748.0326679560658
 31
0
  0
LINE
  8
1
 62
3
 10
64.68208700359141
 20
742.5326679560658
 30
0
 11
14.6820870035914
 21
742.5326679560658
 31
0
  0
LINE
  8
1
 62
3
 10
9.182087003591398
 20
748.0326679560658
 30
0
 11
9.182087003591398
 21
798.0326679560658
 31
0
  0
ARC
  8
1
 62
3
 10
171.1820870035915
 20
794.0326679560658
 30
0
 40
8
 50
270
 51
298.9550243718597
  0
ARC
  8
1
 62
3
 10
64.68208700359141
 20
748.0326679560658
 30
0
 40
5.5
 50
0
 51
270
  0
ARC
  8
1
 62
3
 10
64.68208700359141
 20
798.0326679560658
 30
0
 40
5.5
 50
90
 51
0
  0
ARC
  8
1
 62
3
 10
14.6820870035914
 20
798.0326679560658
 30
0
 40
5.500000000000002
 50
180
 51
90
  0
ARC
  8
1
 62
3
 10
14.6820870035914
 20
748.0326679560658
 30
0
 40
5.5
 50
270
 51
180
  0
ARC
  8
1
 62
2
 10
39.68208700359141
 20
773.0326679560658
 30
0
 40
35.00178566873403
 50
16.99999999999993
 51
58.46494812379879
  0
ARC
  8
1
 62
2
 10
39.68208700359141
 20
773.0326679560658
 30
0
 40
35.00178566873419
 50
197
 51
238.464948123799
  0
CIRCLE
  8
1
 62
3
 10
39.68208700359141
 20
783.0326679560658
 30
0
 40
12.5
  0
CIRCLE
  8
1
 62
3
 10
39.68208700359141
 20
783.0326679560658
 30
0
 40
4
  0
CIRCLE
  8
1
 62
3
 10
39.68208700359141
 20
783.0326679560658
 30
0
 40
9
  0
CIRCLE
  8
1
 62
3
 10
64.43208700359141
 20
748.2826679560658
 30
0
 40
2.25
  0
CIRCLE
  8
1
 62
3
 10
64.43208700359141
 20
797.7826679560658
 30
0
 40
2.25
  0
CIRCLE
  8
1
 62
3
 10
14.9320870035914
 20
748.2826679560658
 30
0
 40
2.250000000000009
  0
CIRCLE
  8
1
 62
3
 10
14.9320870035914
 20
797.7826679560658
 30
0
 40
2.250000000000009
  0
CIRCLE
  8
1
 62
4
  6
DIVIDE
 10
39.68208700359141
 20
773.0326679560658
 30
0
 40
35.00178566873409
  0
ARC
  8
1
 62
3
 10
64.68208700359141
 20
748.0326679560658
 30
0
 40
5.5
 50
270
 51
0
  0
ARC
  8
1
 62
3
 10
64.68208700359141
 20
798.0326679560658
 30
0
 40
5.5
 50
0
 51
90
  0
ARC
  8
1
 62
3
 10
14.6820870035914
 20
798.0326679560658
 30
0
 40
5.5
 50
90
 51
180
  0
ARC
  8
1
 62
3
 10
14.6820870035914
 20
748.0326679560658
 30
0
 40
5.500000000000002
 50
180
 51
270
  0
TEXT
  8
1
 62
2
 10
146.946191223722
 20
660.256460621879
 30
0
 40
5
  1
〃
 41
0.9
 72
1
 73
2
 11
151.446191223722
 21
662.756460621879
 31
0
  0
TEXT
  8
1
 62
2
 10
226.603546793008
 20
653.256460621879
 30
0
 40
5
  1
〃
 41
0.9
 72
1
 73
2
 11
231.103546793008
 21
655.756460621879
 31
0
  0
TEXT
  8
1
 62
2
 10
246.6346676411908
 20
668.256460621879
 30
0
 40
4
  1
黒
 41
0.8100000000000001
 73
2
 11
246.6346676411908
 21
670.256460621879
 31
0
  0
TEXT
  8
1
 62
2
 10
148.846191223722
 20
654.756460621879
 30
0
 40
4
  1
Ｓ
 41
0.9
 72
1
 73
2
 11
152.446191223722
 21
656.756460621879
 31
0
  0
TEXT
  8
1
 62
2
 10
226.603546793008
 20
660.256460621879
 30
0
 40
5
  1
〃
 41
0.9
 72
1
 73
2
 11
231.103546793008
 21
662.756460621879
 31
0
  0
TEXT
  8
1
 62
2
 10
35.04361210154196
 20
654.756460621879
 30
0
 40
4
  1
バネ座金　　　　　　　　２号　４
 41
0.9
 73
2
 11
35.04361210154196
 21
656.756460621879
 31
0
  0
TEXT
  8
1
 62
2
 10
35.04361210154196
 20
661.756460621879
 30
0
 40
4
  1
六角ナット　　　　　　　Ｍ４×０．７
 41
0.9
 73
2
 11
35.04361210154196
 21
663.756460621879
 31
0
  0
TEXT
  8
1
 62
2
 10
15.54361210154196
 20
654.756460621879
 30
0
 40
4
  1
座　金
 41
0.9
 73
2
 11
15.54361210154196
 21
656.756460621879
 31
0
  0
TEXT
  8
1
 62
2
 10
15.54361210154196
 20
661.756460621879
 30
0
 40
4
  1
ナット
 41
0.9
 73
2
 11
15.54361210154196
 21
663.756460621879
 31
0
  0
TEXT
  8
1
 62
2
 10
4.443612101541953
 20
654.756460621879
 30
0
 40
4
  1
４
 41
0.9
 72
1
 73
2
 11
8.043612101541953
 21
656.756460621879
 31
0
  0
TEXT
  8
1
 62
2
 10
4.443612101541953
 20
661.756460621879
 30
0
 40
4
  1
４
 41
0.9
 72
1
 73
2
 11
8.043612101541953
 21
663.756460621879
 31
0
  0
TEXT
  8
1
 62
2
 10
171.6850640282855
 20
668.756460621879
 30
0
 40
4
  1
Ｅｐ－Ｆｅ／Ｚｎ　８／ＣＭ　２
 41
0.9
 73
2
 11
171.6850640282855
 21
670.756460621879
 31
0
  0
TEXT
  8
1
 62
2
 10
134.94921794748
 20
668.61969306442
 30
0
 40
4
  1
ＳＷＲＭ１２
 41
0.9
 72
1
 73
2
 11
156.54921794748
 21
670.61969306442
 31
0
  0
TEXT
  8
1
 62
2
 10
35.04361210154196
 20
668.756460621879
 30
0
 40
4
  1
十字穴付ナベ　小ネジ　　Ｍ４×０．７×７０
 41
0.9
 73
2
 11
35.04361210154196
 21
670.756460621879
 31
0
  0
TEXT
  8
1
 62
2
 10
15.54361210154196
 20
668.756460621879
 30
0
 40
4
  1
取付ネジ
 41
0.9
 73
2
 11
15.54361210154196
 21
670.756460621879
 31
0
  0
TEXT
  8
1
 62
2
 10
4.443612101541953
 20
668.756460621879
 30
0
 40
4
  1
４
 41
0.9
 72
1
 73
2
 11
8.043612101541953
 21
670.756460621879
 31
0
  0
TEXT
  8
1
 62
2
 10
101.623579447275
 20
682.756460621879
 30
0
 40
4
  1
付　　属　　品
 41
0.9
 72
1
 73
2
 11
126.823579447275
 21
684.756460621879
 31
0
  0
TEXT
  8
1
 62
2
 10
198.332468800844
 20
675.410548514876
 30
0
 40
4
  1
備　　考
 41
0.9
 72
1
 73
2
 11
212.732468800844
 21
677.410548514876
 31
0
  0
TEXT
  8
1
 62
2
 10
142.14921794748
 20
675.61969306442
 30
0
 40
4
  1
坑　　質
 41
0.9
 72
1
 73
2
 11
156.54921794748
 21
677.61969306442
 31
0
  0
TEXT
  8
1
 62
2
 10
38.14361210154201
 20
675.756460621879
 30
0
 40
4
  1
呼　　　　　　　称
 41
0.9
 72
1
 73
2
 11
70.54361210154201
 21
677.756460621879
 31
0
  0
TEXT
  8
1
 62
2
 10
8.64361210154196
 20
675.756460621879
 30
0
 40
4
  1
品　　名
 41
0.9
 72
1
 73
2
 11
23.04361210154196
 21
677.756460621879
 31
0
  0
TEXT
  8
1
 62
2
 10
0.8436121015419529
 20
675.756460621879
 30
0
 40
4
  1
数量
 41
0.9
 72
1
 73
2
 11
8.043612101541953
 21
677.756460621879
 31
0
  0
TEXT
  8
1
 62
2
 10
35.04361210154196
 20
647.756460621879
 30
0
 40
4
  1
　　　　　　　　　　　　Ｈ６
 41
0.9
 73
2
 11
35.04361210154196
 21
649.756460621879
 31
0
  0
TEXT
  8
1
 62
2
 10
15.54361210154196
 20
647.756460621879
 30
0
 40
4
  1
パッキン
 41
0.9
 73
2
 11
15.54361210154196
 21
649.756460621879
 31
0
  0
TEXT
  8
1
 62
2
 10
4.443612101541953
 20
647.756460621879
 30
0
 40
4
  1
１
 41
0.9
 72
1
 73
2
 11
8.043612101541953
 21
649.756460621879
 31
0
  0
TEXT
  8
1
 62
2
 10
91.76446242536819
 20
622.2866096571411
 30
0
 40
4.5
  1
6H5EBN~6H50EBN
 41
0.9
  0
DIMENSION
  8
1
  6
CONTINUOUS
 62
2
  2
*D0
  3
DMST_1
 10
128.1820870035915
 20
795.5326679560658
 30
0
 11
124.1554203369248
 21
783.0326679560658
 31
0
 12
0
 22
0
 32
0
 70
0
  1
φ<>
 13
187.1820870035914
 23
770.5326679560658
 33
0
 14
187.1820870035914
 24
795.5326679560658
 34
0
 50
90
 53
0
  0
DIMENSION
  8
1
  6
CONTINUOUS
 62
2
  2
*D1
  3
DMST_1
 10
148.1820870035915
 20
787.0326679560658
 30
0
 11
144.5820870035915
 21
791.798539096167
 31
0
 12
0
 22
0
 32
0
 70
0
 13
158.1820870035914
 23
786.0326679560658
 33
0
 14
175.0550703497989
 24
787.0326679560658
 34
0
 50
90
 53
0
  0
DIMENSION
  8
1
  6
CONTINUOUS
 62
2
  2
*D2
  3
DMST_2
 10
138.1820870035914
 20
787.0326679560658
 30
0
 11
133.7554203369247
 21
783.0326679560658
 31
0
 12
0
 22
0
 32
0
 70
0
  1
φ<>
 13
158.1820870035914
 23
779.0326679560658
 33
0
 14
175.0550703497989
 24
787.0326679560658
 34
0
 50
90
 53
0
  0
DIMENSION
  8
1
  6
CONTINUOUS
 62
2
  2
*D3
  3
DMST_1
 10
171.1820870035914
 20
813.5326679560658
 30
0
 11
164.747279326785
 21
817.1326679560658
 31
0
 12
0
 22
0
 32
0
 70
0
 13
158.1820870035914
 23
786.0326679560658
 33
0
 14
171.1820870035914
 24
786.0326679560658
 34
0
 53
0
  0
DIMENSION
  8
1
  6
CONTINUOUS
 62
2
  2
*D4
  3
DMST_1
 10
158.1820870035914
 20
833.5326679560658
 30
0
 11
173.729427680124
 21
837.1326679560658
 31
0
 12
0
 22
0
 32
0
 70
0
 13
190.1820870035915
 23
802.4326679560658
 33
0
 14
158.1820870035914
 24
786.0326679560658
 34
0
 53
0
  0
DIMENSION
  8
1
  6
CONTINUOUS
 62
2
  2
*D5
  3
DMST_1
 10
190.1820870035915
 20
823.5326679560658
 30
0
 11
195.186782079768
 21
827.1326679560658
 31
0
 12
0
 22
0
 32
0
 70
0
 13
187.1820870035914
 23
795.5326679560658
 33
0
 14
190.1820870035915
 24
802.4326679560658
 34
0
 53
0
  0
DIMENSION
  8
1
  6
CONTINUOUS
 62
2
  2
*D6
  3
DMST_1
 10
190.1820870035915
 20
833.5326679560658
 30
0
 11
214.814439592621
 21
837.1326679560658
 31
0
 12
0
 22
0
 32
0
 70
0
 13
240.1820870035915
 23
803.0326679560658
 33
0
 14
190.1820870035915
 24
802.4326679560658
 34
0
 53
0
  0
DIMENSION
  8
1
  6
CONTINUOUS
 62
2
  2
*D7
  3
DMST_1
 10
24.73330450481095
 20
773.0326679560658
 30
0
 11
21.13330450481095
 21
777.9286502567668
 31
0
 12
0
 22
0
 32
0
 70
0
 13
39.68208700359141
 23
783.0326679560658
 33
0
 14
39.68208700359141
 24
773.0326679560658
 34
0
 50
90
 53
0
  0
DIMENSION
  8
1
  6
CONTINUOUS
 62
2
  2
*D8
  3
DMST_1
 10
95.18208700359142
 20
803.5326679560658
 30
0
 11
91.58208700359143
 21
773.0326679560658
 31
0
 12
0
 22
0
 32
0
 70
0
 13
64.68208700359141
 23
742.5326679560658
 33
0
 14
64.68208700359141
 24
803.5326679560658
 34
0
 50
90
 53
0
  0
DIMENSION
  8
1
  6
CONTINUOUS
 62
2
  2
*D9
  3
DMST_3
 10
85.18208700359141
 20
797.7826679560658
 30
0
 11
81.58208700359141
 21
773.0326679560658
 31
0
 12
0
 22
0
 32
0
 70
0
 13
71.43208700359141
 23
748.2826679560658
 33
0
 14
71.43208700359141
 24
797.7826679560658
 34
0
 50
90
 53
0
  0
DIMENSION
  8
1
  6
CONTINUOUS
 62
2
  2
*D10
  3
DMST_3
 10
64.43208700359141
 20
813.5326679560658
 30
0
 11
39.68208700359141
 21
817.1326679560658
 31
0
 12
0
 22
0
 32
0
 70
0
 13
14.9320870035914
 23
804.7826679560658
 33
0
 14
64.43208700359141
 24
804.7826679560658
 34
0
 53
0
  0
DIMENSION
  8
1
  6
CONTINUOUS
 62
2
  2
*D11
  3
DMST_1
 10
70.18208700359142
 20
823.5326679560658
 30
0
 11
39.68208700359141
 21
827.1326679560658
 31
0
 12
0
 22
0
 32
0
 70
0
 13
9.182087003591398
 23
798.0326679560658
 33
0
 14
70.18208700359141
 24
798.0326679560658
 34
0
 53
0
  0
DIMENSION
  8
1
  6
CONTINUOUS
 62
2
  2
*D12
  3
DMST_4
 10
72.57300671083083
 20
785.0039837071405
 30
0
 11
16.82654420732414
 21
768.1233672323648
 31
0
 12
0
 22
0
 32
0
 70
3
  1
70
 15
6.791167296352043
 25
761.061352204991
 35
0
 40
0
 53
0
  0
INSERT
  8
1
  2
*D13
 10
0
 20
0
 30
0
  0
ENDSEC
  0
EOF
