  0
SECTION
  2
HEADER
  9
$ACADVER
  1
AC1009
  9
$INSBASE
 10
0
 20
0
  9
$EXTMIN
 10
-22.5445710723268
 20
-1025.11678671229
  9
$EXTMAX
 10
327.9135660923974
 20
-820.9675574340839
  9
$LIMMIN
 10
-22.5445710723268
 20
-1025.11678671229
  9
$LIMMAX
 10
327.9135660923974
 20
-820.9675574340839
  9
$VIEWCTR
 10
10
 20
10
  9
$VIEWSIZE
 40
10
  9
$SNAPMODE
 70
0
  9
$SNAPUNIT
 10
1
 20
1
  9
$SNAPBASE
 10
0
 20
0
  9
$SNAPANG
 50
0
  9
$SNAPSTYLE
 70
0
  9
$SNAPISOPAIR
 70
0
  9
$GRIDMODE
 70
0
  9
$GRIDUNIT
 10
0
 20
0
  9
$ORTHOMODE
 70
0
  9
$REGENMODE
 70
1
  9
$FILLMODE
 70
1
  9
$QTEXTMODE
 70
0
  9
$DRAGMODE
 70
2
  9
$LTSCALE
 40
1
  9
$OSMODE
 70
0
  9
$ATTMODE
 70
1
  9
$TEXTSIZE
 40
3.5
  9
$TRACEWID
 40
0.5
  9
$TEXTSTYLE
  7
STANDARD
  9
$CLAYER
  8
0
  9
$CELTYPE
  6
BYLAYER
  9
$CECOLOR
 62
256
  9
$DIMSCALE
 40
1
  9
$DIMASZ
 40
0.18
  9
$DIMEXO
 40
0.0625
  9
$DIMDLI
 40
0.38
  9
$DIMRND
 40
0
  9
$DIMDLE
 40
0
  9
$DIMEXE
 40
0.18
  9
$DIMTP
 40
0
  9
$DIMTM
 40
0
  9
$DIMTXT
 40
0.18
  9
$DIMCEN
 40
0.09
  9
$DIMTSZ
 40
0
  9
$DIMTOL
 70
0
  9
$DIMLIM
 70
0
  9
$DIMTIH
 70
1
  9
$DIMTOH
 70
1
  9
$DIMSE1
 70
0
  9
$DIMSE2
 70
0
  9
$DIMTAD
 70
0
  9
$DIMZIN
 70
0
  9
$DIMBLK
  1

  9
$DIMASO
 70
1
  9
$DIMSHO
 70
1
  9
$DIMPOST
  1

  9
$DIMAPOST
  1

  9
$DIMALT
 70
0
  9
$DIMALTD
 70
2
  9
$DIMALTF
 40
25.4
  9
$DIMLFAC
 40
1
  9
$DIMTOFL
 70
0
  9
$DIMTVP
 40
0
  9
$DIMTIX
 70
0
  9
$DIMSOXD
 70
0
  9
$DIMSAH
 70
0
  9
$DIMBLK1
  1

  9
$DIMBLK2
  1

  9
$DIMSTYLE
  2
*UNNAMED
  9
$DIMCLRD
 70
0
  9
$DIMCLRE
 70
0
  9
$DIMCLRT
 70
0
  9
$DIMTFAC
 40
1
  9
$DIMGAP
 40
0.09
  9
$LUNITS
 70
2
  9
$LUPREC
 70
4
  9
$AXISMODE
 70
0
  9
$AXISUNIT
 10
0
 20
0
  9
$SKETCHINC
 40
0.1
  9
$FILLETRAD
 40
2
  9
$AUNITS
 70
0
  9
$AUPREC
 70
0
  9
$MENU
  1
ACAD
  9
$ELEVATION
 40
0
  9
$THICKNESS
 40
0
  9
$VIEWDIR
 10
0
 20
0
 30
1
  9
$LIMCHECK
 70
0
  9
$BLIPMODE
 70
1
  9
$CHAMFERA
 40
0
  9
$CHAMFERB
 40
0
  9
$FASTZOOM
 70
1
  9
$SKPOLY
 70
0
  9
$ANGBASE
 50
0
  9
$ANGDIR
 70
0
  9
$PDMODE
 70
0
  9
$PDSIZE
 40
0
  9
$PLINEWID
 40
0
  9
$COORDS
 70
2
  0
ENDSEC
  0
SECTION
  2
TABLES
  0
TABLE
  2
DIMSTYLE
 70
5
  0
DIMSTYLE
  2
DMST_1
 70
0
  3

  4

  5

  6

  7

 40
1
 41
3.2
 42
1
 43
7
 44
2
 45
0
 46
0
 47
0
 48
0
140
3.2
141
0
142
0
143
25.4
144
1
145
0
146
0.6
147
0.09
 71
1
 72
0
 73
0
 74
0
 75
0
 76
0
 77
1
 78
9
170
0
171
2
172
0
173
0
174
0
175
0
176
2
177
2
178
2
  0
DIMSTYLE
  2
DMST_2
 70
0
  3

  4

  5

  6

  7

 40
1
 41
3.2
 42
1
 43
7
 44
2
 45
0
 46
0
 47
0
 48
0
140
3.2
141
0
142
0
143
25.4
144
1
145
0
146
1
147
0.09
 71
0
 72
0
 73
0
 74
0
 75
0
 76
0
 77
1
 78
9
170
0
171
2
172
0
173
0
174
0
175
0
176
2
177
2
178
2
  0
DIMSTYLE
  2
DMST_3
 70
0
  3

  4

  5

  6

  7

 40
1
 41
3.2
 42
1
 43
7
 44
1.5
 45
0
 46
0
 47
0
 48
0
140
3.2
141
0
142
0
143
25.4
144
1
145
0
146
1
147
0.09
 71
0
 72
0
 73
0
 74
0
 75
0
 76
0
 77
1
 78
9
170
0
171
2
172
0
173
0
174
0
175
0
176
2
177
2
178
2
  0
DIMSTYLE
  2
DMST_4
 70
0
  3

  4

  5

  6

  7

 40
1
 41
3.2
 42
1
 43
7
 44
1.5
 45
0
 46
0
 47
0.3
 48
0.3
140
3.2
141
0
142
0
143
25.4
144
1
145
0
146
0.6
147
0.09
 71
1
 72
0
 73
0
 74
0
 75
0
 76
0
 77
1
 78
9
170
0
171
2
172
0
173
0
174
0
175
0
176
2
177
2
178
2
  0
DIMSTYLE
  2
DMST_5
 70
0
  3
)
  4

  5

  6

  7

 40
1
 41
3.2
 42
1
 43
7
 44
1.5
 45
0
 46
0
 47
0
 48
0
140
3.2
141
0
142
0
143
25.4
144
1
145
0
146
1
147
0.09
 71
0
 72
0
 73
0
 74
0
 75
0
 76
0
 77
1
 78
9
170
0
171
2
172
0
173
0
174
1
175
0
176
2
177
2
178
2
  0
ENDTAB
  0
TABLE
  2
LTYPE
 70
9
  0
LTYPE
  2
CONTINUOUS
 70
64
  3
Solid line
 72
65
 73
0
 40
0
  0
LTYPE
  2
BORDER
 70
64
  3
__ __ . __ __ .
 72
65
 73
6
 40
16.13951947469124
 49
4.611291278483213
 49
-2.305645639241606
 49
4.611291278483213
 49
-2.305645639241606
 49
0
 49
-2.305645639241606
  0
LTYPE
  2
CENTER
 70
64
  3
____ _ ____ _
 72
65
 73
4
 40
18.44516511393285
 49
11.52822819620803
 49
-2.305645639241606
 49
2.305645639241606
 49
-2.305645639241606
  0
LTYPE
  2
DASHDOT
 70
64
  3
__ . __ . __ .
 72
65
 73
4
 40
9.222582556966426
 49
4.611291278483213
 49
-2.305645639241606
 49
0
 49
-2.305645639241606
  0
LTYPE
  2
DASHED
 70
64
  3
__ __ __ __ __
 72
65
 73
2
 40
6.916936917724819
 49
4.611291278483213
 49
-2.305645639241606
  0
LTYPE
  2
DIVIDE
 70
64
  3
__ . . __ . . 
 72
65
 73
6
 40
11.52822819620803
 49
4.611291278483213
 49
-2.305645639241606
 49
0
 49
-2.305645639241606
 49
0
 49
-2.305645639241606
  0
LTYPE
  2
DOT
 70
64
  3
..............
 72
65
 73
4
 40
4.611291278483213
 49
0
 49
-2.305645639241606
 49
0
 49
-2.305645639241606
  0
LTYPE
  2
HIDDEN
 70
64
  3
_ _ _ _ _ _ _
 72
65
 73
2
 40
3.45846845886241
 49
2.305645639241606
 49
-1.152822819620803
  0
LTYPE
  2
PHANTOM
 70
64
  3
_____ _ _ _____ _ _ 
 72
65
 73
6
 40
23.05645639241607
 49
11.52822819620803
 49
-2.305645639241606
 49
2.305645639241606
 49
-2.305645639241606
 49
2.305645639241606
 49
-2.305645639241606
  0
ENDTAB
  0
TABLE
  2
LAYER
 70
3
  0
LAYER
  2
1
 70
0
 62
7
  6
CONTINUOUS
  0
LAYER
  2
0
 70
0
 62
7
  6
CONTINUOUS
  0
ENDTAB
  0
TABLE
  2
STYLE
 70
4
  0
STYLE
  2
STANDARD
 70
0
 40
0
 41
1
 50
0
 71
0
 42
3.5
  3
txt
  4

  0
STYLE
  2
SIMPLEX
 70
0
 40
0
 41
1
 50
0
 71
0
 42
3.5
  3
simplex
  4

  0
STYLE
  2
COMPLEX
 70
0
 40
0
 41
1
 50
0
 71
0
 42
3.5
  3
complex
  4

  0
STYLE
  2
ITALIC
 70
0
 40
0
 41
1
 50
0
 71
0
 42
3.5
  3
italic
  4

  0
ENDTAB
  0
TABLE
  2
VIEW
 70
0
  0
ENDTAB
  0
ENDSEC
  0
SECTION
  2
BLOCKS
  0
BLOCK
  8
0
  2
MOJINOMUKI
 70
0
 10
216.760341505759
 20
-846.9675574340839
 30
0
  0
LINE
  8
1
 62
2
 10
216.760341505759
 20
-845.4675574340839
 30
0
 11
216.760341505759
 21
-842.9675574340839
 31
0
  0
LINE
  8
1
 62
2
 10
214.260341505759
 20
-843.9675574340839
 30
0
 11
216.760341505759
 21
-845.4675574340839
 31
0
  0
LINE
  8
1
 62
2
 10
219.260341505759
 20
-843.9675574340839
 30
0
 11
214.260341505759
 21
-843.9675574340839
 31
0
  0
LINE
  8
1
 62
2
 10
213.760341505759
 20
-840.9675574340839
 30
0
 11
219.760341505759
 21
-840.9675574340839
 31
0
  0
LINE
  8
1
 62
2
 10
219.760341505759
 20
-846.9675574340839
 30
0
 11
213.760341505759
 21
-846.9675574340839
 31
0
  0
LINE
  8
1
 62
2
 10
219.760341505759
 20
-820.9675574340839
 30
0
 11
219.760341505759
 21
-846.9675574340839
 31
0
  0
LINE
  8
1
 62
2
 10
213.760341505759
 20
-820.9675574340839
 30
0
 11
219.760341505759
 21
-820.9675574340839
 31
0
  0
LINE
  8
1
 62
2
 10
213.760341505759
 20
-846.9675574340839
 30
0
 11
213.760341505759
 21
-820.9675574340839
 31
0
  0
TEXT
  8
1
 62
2
 10
218.760341505759
 20
-848.9208118719538
 30
0
 40
4
  1
òÂÄÜé╠î³é½
 50
90
 41
0.9
 72
1
 73
2
 11
216.760341505759
 21
-830.9208118719538
 31
0
  0
ENDBLK
  8
0
  0
BLOCK
  8
1
  2
*D0
 70
1
 10
0
 20
0
 30
0
  0
LINE
  8
1
 62
2
 10
223.109169700088
 20
-921.1329722216094
 30
0
 11
223.109169700088
 21
-867.1329722216094
 31
0
  0
LINE
  8
1
 62
2
 10
212.109169700088
 20
-867.1329722216094
 30
0
 11
225.109169700088
 21
-867.1329722216094
 31
0
  0
LINE
  8
1
 62
2
 10
212.109169700088
 20
-921.1329722216094
 30
0
 11
225.109169700088
 21
-921.1329722216094
 31
0
  0
SOLID
  8
1
 62
2
 10
223.109169700088
 20
-867.1329722216094
 30
0
 11
223.525169700088
 21
-870.3329722216095
 31
0
 12
222.693169700088
 22
-870.3329722216095
 32
0
 13
222.693169700088
 23
-870.3329722216095
 33
0
  0
SOLID
  8
1
 62
2
 10
223.109169700088
 20
-921.1329722216094
 30
0
 11
222.693169700088
 21
-917.9329722216094
 31
0
 12
223.525169700088
 22
-917.9329722216094
 32
0
 13
223.525169700088
 23
-917.9329722216094
 33
0
  0
TEXT
  8
1
 62
2
 10
220.309169700088
 20
-901.9347499993872
 30
0
 40
3.2
  1
54H7
 50
90
 41
0.9
  0
TEXT
  8
1
 62
2
 10
218.229169700088
 20
-889.4547499993872
 30
0
 40
1.92
  1
+0.03
 50
90
 41
0.9
  0
TEXT
  8
1
 62
2
 10
221.109169700088
 20
-887.9187499993872
 30
0
 40
1.92
  1
0
 50
90
 41
0.9
  0
TEXT
  8
1
 62
2
 10
220.309169700088
 20
-905.5791944438316
 30
0
 40
3.2
  1
âË
 50
90
 41
0.9
  0
ENDBLK
  8
0
  0
BLOCK
  8
1
  2
*D1
 70
1
 10
0
 20
0
 30
0
  0
LINE
  8
1
 62
2
 10
166.109169700088
 20
-854.1329722216096
 30
0
 11
172.509169700088
 21
-854.1329722216096
 31
0
  0
LINE
  8
1
 62
2
 10
163.109169700088
 20
-854.1329722216096
 30
0
 11
156.709169700088
 21
-854.1329722216096
 31
0
  0
LINE
  8
1
 62
2
 10
163.109169700088
 20
-854.1329722216096
 30
0
 11
166.109169700088
 21
-854.1329722216096
 31
0
  0
LINE
  8
1
 62
2
 10
166.109169700088
 20
-863.7329722216093
 30
0
 11
166.109169700088
 21
-852.1329722216096
 31
0
  0
LINE
  8
1
 62
2
 10
163.109169700088
 20
-873.6329722216094
 30
0
 11
163.109169700088
 21
-852.1329722216096
 31
0
  0
SOLID
  8
1
 62
2
 10
166.109169700088
 20
-854.1329722216096
 30
0
 11
169.309169700088
 21
-853.7169722216096
 31
0
 12
169.309169700088
 22
-854.5489722216097
 32
0
 13
169.309169700088
 23
-854.5489722216097
 33
0
  0
SOLID
  8
1
 62
2
 10
163.109169700088
 20
-854.1329722216096
 30
0
 11
159.909169700088
 21
-854.5489722216097
 31
0
 12
159.909169700088
 22
-853.7169722216096
 32
0
 13
159.909169700088
 23
-853.7169722216096
 33
0
  0
TEXT
  8
1
 62
2
 10
163.649169700088
 20
-852.1329722216096
 30
0
 40
3.2
  1
3
 41
0.9
  0
ENDBLK
  8
0
  0
BLOCK
  8
1
  2
*D2
 70
1
 10
0
 20
0
 30
0
  0
LINE
  8
1
 62
2
 10
166.109169700088
 20
-844.1329722216096
 30
0
 11
208.109169700088
 21
-844.1329722216096
 31
0
  0
LINE
  8
1
 62
2
 10
208.109169700088
 20
-863.6329722216094
 30
0
 11
208.109169700088
 21
-842.1329722216096
 31
0
  0
LINE
  8
1
 62
2
 10
166.109169700088
 20
-863.7329722216093
 30
0
 11
166.109169700088
 21
-842.1329722216096
 31
0
  0
SOLID
  8
1
 62
2
 10
166.109169700088
 20
-844.1329722216096
 30
0
 11
169.309169700088
 21
-843.7169722216096
 31
0
 12
169.309169700088
 22
-844.5489722216097
 32
0
 13
169.309169700088
 23
-844.5489722216097
 33
0
  0
SOLID
  8
1
 62
2
 10
208.109169700088
 20
-844.1329722216096
 30
0
 11
204.909169700088
 21
-844.5489722216097
 31
0
 12
204.909169700088
 22
-843.7169722216096
 32
0
 13
204.909169700088
 23
-843.7169722216096
 33
0
  0
TEXT
  8
1
 62
2
 10
185.1602787746
 20
-842.1329722216096
 30
0
 40
3.2
  1
42
 41
0.9
  0
ENDBLK
  8
0
  0
BLOCK
  8
1
  2
*D3
 70
1
 10
0
 20
0
 30
0
  0
LINE
  8
1
 62
2
 10
153.109169700088
 20
-894.1329722216094
 30
0
 11
153.109169700088
 21
-874.1329722216094
 31
0
  0
LINE
  8
1
 62
2
 10
153.109169700088
 20
-894.1329722216094
 30
0
 11
153.109169700088
 21
-903.7048883050982
 31
0
  0
LINE
  8
1
 62
2
 10
162.609169700088
 20
-894.1329722216094
 30
0
 11
151.109169700088
 21
-894.1329722216094
 31
0
  0
LINE
  8
1
 62
2
 10
162.609169700088
 20
-874.1329722216094
 30
0
 11
151.109169700088
 21
-874.1329722216094
 31
0
  0
SOLID
  8
1
 62
2
 10
153.109169700088
 20
-874.1329722216094
 30
0
 11
153.525169700088
 21
-877.3329722216095
 31
0
 12
152.693169700088
 22
-877.3329722216095
 32
0
 13
152.693169700088
 23
-877.3329722216095
 33
0
  0
SOLID
  8
1
 62
2
 10
153.109169700088
 20
-894.1329722216094
 30
0
 11
152.693169700088
 21
-890.9329722216094
 31
0
 12
153.525169700088
 22
-890.9329722216094
 32
0
 13
153.525169700088
 23
-890.9329722216094
 33
0
  0
TEXT
  8
1
 62
2
 10
151.109169700088
 20
-900.0604438606538
 30
0
 40
3.2
  1
20
 50
90
 41
0.9
  0
TEXT
  8
1
 62
2
 10
151.109169700088
 20
-903.7048883050982
 30
0
 40
3.2
  1
âË
 50
90
 41
0.9
  0
ENDBLK
  8
0
  0
BLOCK
  8
0
  2
G6G__1
 70
0
 10
-5.437422995346942
 20
-1113.795559506799
 30
0
  0
LINE
  8
1
 62
3
 10
193.385570020542
 20
-863.0084628836562
 30
0
 11
178.385570020542
 21
-863.4192869303816
 31
0
  0
LINE
  8
1
 62
1
 10
163.109169700088
 20
-918.8829722216094
 30
0
 11
170.109169700088
 21
-918.8829722216094
 31
0
  0
LINE
  8
1
 62
1
 10
211.109169700088
 20
-921.1329722216094
 30
0
 11
204.109169700088
 21
-921.1329722216094
 31
0
  0
LINE
  8
1
 62
1
 10
170.109169700088
 20
-869.3829722216094
 30
0
 11
163.109169700088
 21
-869.3829722216094
 31
0
  0
LINE
  8
1
 62
1
 10
204.109169700088
 20
-867.1329722216094
 30
0
 11
211.109169700088
 21
-867.1329722216094
 31
0
  0
LINE
  8
1
 62
1
 10
172.109169700088
 20
-884.1329722216094
 30
0
 11
163.109169700088
 21
-884.1329722216094
 31
0
  0
LINE
  8
1
 62
3
 10
166.109169700088
 20
-914.0329722216095
 30
0
 11
167.109169700088
 21
-914.0329722216095
 31
0
  0
LINE
  8
1
 62
3
 10
167.4762282428758
 20
-923.5329722216095
 30
0
 11
166.109169700088
 21
-923.5329722216095
 31
0
  0
LINE
  8
1
 62
3
 10
166.109169700088
 20
-923.5329722216095
 30
0
 11
166.109169700088
 21
-914.0329722216095
 31
0
  0
LINE
  8
1
 62
3
 10
208.109169700088
 20
-894.1329722216094
 30
0
 11
208.109169700088
 21
-923.6329722216094
 31
0
  0
LINE
  8
1
 62
3
 10
208.109169700088
 20
-923.6329722216094
 30
0
 11
207.109169700088
 21
-923.6329722216094
 31
0
  0
LINE
  8
1
 62
3
 10
207.109169700088
 20
-924.6329722216094
 30
0
 11
167.5908486784156
 21
-923.5506337841482
 31
0
  0
LINE
  8
1
 62
3
 10
208.109169700088
 20
-864.6329722216094
 30
0
 11
208.109169700088
 21
-894.1329722216094
 31
0
  0
LINE
  8
1
 62
3
 10
207.109169700088
 20
-864.6329722216094
 30
0
 11
208.109169700088
 21
-864.6329722216094
 31
0
  0
LINE
  8
1
 62
3
 10
167.5908486784156
 20
-864.7153106590708
 30
0
 11
207.109169700088
 21
-863.6329722216094
 31
0
  0
LINE
  8
1
 62
1
 10
213.109169700088
 20
-894.1329722216094
 30
0
 11
158.109169700088
 21
-894.1329722216094
 31
0
  0
LINE
  8
1
 62
3
 10
163.609169700088
 20
-874.1329722216094
 30
0
 11
166.109169700088
 21
-874.1329722216094
 31
0
  0
LINE
  8
1
 62
3
 10
166.109169700088
 20
-894.1329722216094
 30
0
 11
163.609169700088
 21
-894.1329722216094
 31
0
  0
LINE
  8
1
 62
3
 10
163.109169700088
 20
-893.6329722216094
 30
0
 11
163.109169700088
 21
-884.1329722216094
 31
0
  0
LINE
  8
1
 62
3
 10
163.109169700088
 20
-884.1329722216094
 30
0
 11
163.109169700088
 21
-874.6329722216094
 31
0
  0
LINE
  8
1
 62
3
 10
207.109169700088
 20
-863.6329722216094
 30
0
 11
207.109169700088
 21
-924.6329722216094
 31
0
  0
LINE
  8
1
 62
3
 10
167.109169700088
 20
-874.2329722216093
 30
0
 11
166.109169700088
 21
-874.2329722216093
 31
0
  0
LINE
  8
1
 62
3
 10
166.109169700088
 20
-864.7329722216093
 30
0
 11
167.4762282428758
 21
-864.7329722216095
 31
0
  0
LINE
  8
1
 62
3
 10
166.109169700088
 20
-874.2329722216093
 30
0
 11
166.109169700088
 21
-864.7329722216093
 31
0
  0
LINE
  8
1
 62
3
 10
167.109169700088
 20
-869.3829722216094
 30
0
 11
167.109169700088
 21
-918.8829722216094
 31
0
  0
ARC
  8
1
 62
3
 10
167.609169700088
 20
-923.0509695567264
 30
0
 40
0.50000000000012
 50
254.5805776899861
 51
267.9000954823252
  0
ARC
  8
1
 62
3
 10
166.109169700088
 20
-895.1329722216094
 30
0
 40
1
 50
0
 51
90
  0
ARC
  8
1
 62
3
 10
163.609169700088
 20
-874.6329722216094
 30
0
 40
0.5
 50
90
 51
180
  0
ARC
  8
1
 62
3
 10
163.609169700088
 20
-893.6329722216094
 30
0
 40
0.5
 50
180
 51
270
  0
ARC
  8
1
 62
3
 10
167.609169700088
 20
-865.2149748864924
 30
0
 40
0.4999999999999348
 50
92.09990451767577
 51
105.4194223100208
  0
LINE
  8
1
 62
2
 10
233.736154389503
 20
-854.1329722216096
 30
0
 11
210.820119490674
 21
-854.1329722216096
 31
0
  0
LINE
  8
1
 62
2
 10
210.820119490674
 20
-854.1329722216096
 30
0
 11
185.6043106398598
 21
-863.2215781148157
 31
0
  0
SOLID
  8
1
 62
2
 10
188.4718845493234
 20
-861.7401924640809
 30
0
 11
188.7575851573551
 21
-862.5328521970852
 31
0
 12
185.6043106398598
 22
-863.2215781148157
 32
0
 13
185.6043106398598
 23
-863.2215781148157
 33
0
  0
TEXT
  8
1
 62
2
 10
211.642219397359
 20
-853.167007014164
 30
0
 40
4
  1
âlü[âÇâvâîü[âg
 41
0.7200000000000001
 73
2
 11
211.642219397359
 21
-851.167007014164
 31
0
  0
DIMENSION
  8
1
  6
CONTINUOUS
 62
2
  2
*D0
  3
DMST_1
 10
223.109169700088
 20
-867.1329722216094
 30
0
 11
218.709169700088
 21
-894.1329722216094
 31
0
 12
0
 22
0
 32
0
 70
0
  1
54H7
 13
211.109169700088
 23
-921.1329722216094
 33
0
 14
211.109169700088
 24
-867.1329722216094
 34
0
 50
90
 53
0
  0
DIMENSION
  8
1
  6
CONTINUOUS
 62
2
  2
*D1
  3
DMST_2
 10
166.109169700088
 20
-854.1329722216096
 30
0
 11
164.609169700088
 21
-850.5329722216096
 31
0
 12
0
 22
0
 32
0
 70
0
 13
163.109169700088
 23
-874.6329722216094
 33
0
 14
166.109169700088
 24
-864.7329722216093
 34
0
 53
0
  0
DIMENSION
  8
1
  6
CONTINUOUS
 62
2
  2
*D2
  3
DMST_2
 10
208.109169700088
 20
-844.1329722216096
 30
0
 11
187.5602787746
 21
-840.5329722216096
 31
0
 12
0
 22
0
 32
0
 70
0
 13
166.109169700088
 23
-864.7329722216093
 33
0
 14
208.109169700088
 24
-864.6329722216094
 34
0
 53
0
  0
DIMENSION
  8
1
  6
CONTINUOUS
 62
2
  2
*D3
  3
DMST_2
 10
153.109169700088
 20
-894.1329722216094
 30
0
 11
149.509169700088
 21
-899.482666082876
 31
0
 12
0
 22
0
 32
0
 70
0
  1
âË<>
 13
163.609169700088
 23
-874.1329722216094
 33
0
 14
163.609169700088
 24
-894.1329722216094
 34
0
 50
90
 53
0
  0
INSERT
  8
0
  2
MOJINOMUKI
 10
216.760341505759
 20
-846.9675574340839
 30
0
  0
ENDBLK
  8
0
  0
BLOCK
  8
1
  2
*D4
 70
1
 10
0
 20
0
 30
0
  0
LINE
  8
1
 62
2
 10
303.2135660923975
 20
-844.1329722216096
 30
0
 11
316.2135660923975
 21
-844.1329722216096
 31
0
  0
LINE
  8
1
 62
2
 10
316.2135660923975
 20
-862.6329722216096
 30
0
 11
316.2135660923975
 21
-842.1329722216096
 31
0
  0
LINE
  8
1
 62
2
 10
303.2135660923975
 20
-890.2514722216097
 30
0
 11
303.2135660923975
 21
-842.1329722216096
 31
0
  0
SOLID
  8
1
 62
2
 10
316.2135660923975
 20
-844.1329722216096
 30
0
 11
313.0135660923975
 21
-844.5489722216097
 31
0
 12
313.0135660923975
 22
-843.7169722216096
 32
0
 13
313.0135660923975
 23
-843.7169722216096
 33
0
  0
SOLID
  8
1
 62
2
 10
303.2135660923975
 20
-844.1329722216096
 30
0
 11
306.4135660923975
 21
-843.7169722216096
 31
0
 12
306.4135660923975
 22
-844.5489722216097
 32
0
 13
306.4135660923975
 23
-844.5489722216097
 33
0
  0
TEXT
  8
1
 62
2
 10
307.7935660923975
 20
-842.1329722216096
 30
0
 40
3.2
  1
13
 41
0.9
  0
ENDBLK
  8
0
  0
BLOCK
  8
0
  2
B__2
 70
0
 10
-71.41792899532921
 20
-537.923589053047
 30
0
  0
POINT
  8
1
 62
4
  6
DIVIDE
 10
316.2135660923975
 20
-863.6329722216096
 30
0
  0
LINE
  8
1
 62
2
 10
259.2858428104891
 20
-978.8284538412724
 30
0
 11
302.7702128118815
 21
-978.8284538412724
 31
0
  0
LINE
  8
1
 62
2
 10
259.2858428104891
 20
-971.8284538412724
 30
0
 11
302.7702128118815
 21
-971.8284538412724
 31
0
  0
LINE
  8
1
 62
2
 10
259.2858428104891
 20
-964.8284538412727
 30
0
 11
302.7702128118815
 21
-964.8284538412727
 31
0
  0
LINE
  8
1
 62
2
 10
259.2858428104891
 20
-957.8284538412727
 30
0
 11
302.7702128118815
 21
-957.8284538412727
 31
0
  0
LINE
  8
1
 62
2
 10
259.2858428104891
 20
-950.8284538412727
 30
0
 11
302.7702128118815
 21
-950.8284538412727
 31
0
  0
LINE
  8
1
 62
2
 10
259.2858428104891
 20
-943.8284538412727
 30
0
 11
302.7702128118815
 21
-943.8284538412727
 31
0
  0
LINE
  8
1
 62
2
  6
CENTER
 10
301.2135660923975
 20
-896.8329722216097
 30
0
 11
313.7135660923975
 21
-896.8329722216097
 31
0
  0
LINE
  8
1
 62
1
 10
314.2135660923975
 20
-894.1329722216096
 30
0
 11
298.2135660923975
 21
-894.1329722216096
 31
0
  0
LINE
  8
1
 62
3
 10
314.2135660923975
 20
-890.7514722216097
 30
0
 11
303.7135660923975
 21
-890.7514722216097
 31
0
  0
LINE
  8
1
 62
3
 10
303.2135660923975
 20
-891.2514722216097
 30
0
 11
303.2135660923975
 21
-894.1329722216096
 31
0
  0
LINE
  8
1
 62
2
  6
CENTER
 10
313.7135660923975
 20
-891.4329722216096
 30
0
 11
301.2135660923975
 21
-891.4329722216096
 31
0
  0
LINE
  8
1
 62
3
 10
303.7135660923975
 20
-890.7514722216097
 30
0
 11
303.2135660923975
 21
-891.2514722216097
 31
0
  0
LINE
  8
1
 62
3
 10
303.2135660923975
 20
-894.1329722216096
 30
0
 11
303.2135660923975
 21
-897.0144722216096
 31
0
  0
LINE
  8
1
 62
3
 10
303.2135660923975
 20
-897.0144722216096
 30
0
 11
303.7135660923975
 21
-897.5144722216096
 31
0
  0
LINE
  8
1
 62
3
 10
303.7135660923975
 20
-897.5144722216096
 30
0
 11
314.2135660923975
 21
-897.5144722216096
 31
0
  0
LINE
  8
1
 62
2
 10
306.3157237464849
 20
-890.7514722216097
 30
0
 11
309.304164936729
 21
-897.5144722216096
 31
0
  0
LINE
  8
1
 62
2
 10
305.3157237464849
 20
-890.7514722216097
 30
0
 11
308.304164936729
 21
-897.5144722216096
 31
0
  0
LINE
  8
1
 62
2
 10
304.3157237464849
 20
-890.7514722216097
 30
0
 11
307.304164936729
 21
-897.5144722216096
 31
0
  0
LINE
  8
1
 62
2
 10
259.2858428104891
 20
-936.8284538412727
 30
0
 11
302.7702128118815
 21
-936.8284538412727
 31
0
  0
LINE
  8
1
 62
2
 10
302.7702128118815
 20
-936.8284538412727
 30
0
 11
308.1041011428354
 21
-897.5144722216096
 31
0
  0
SOLID
  8
1
 62
2
 10
308.0913489084696
 20
-900.7420597034538
 30
0
 11
307.2564223202828
 21
-900.6287818058088
 31
0
 12
308.1041011428354
 22
-897.5144722216096
 32
0
 13
308.1041011428354
 23
-897.5144722216096
 33
0
  0
TEXT
  8
1
 62
2
 10
261.4047986771251
 20
-935.9062541151625
 30
0
 40
4
  1
   âwâèâJâïÄdùl
 41
0.7200000000000001
  0
TEXT
  8
1
 62
2
 10
261.4047986771251
 20
-942.9062541151625
 30
0
 40
4
  1
âéâWâàü[âï : 0.5
 41
0.7200000000000001
  0
TEXT
  8
1
 62
2
 10
261.4047986771251
 20
-949.9062541151625
 30
0
 40
4
  1
êü@ù═ü@èp : 20%%d
 41
0.7200000000000001
  0
TEXT
  8
1
 62
2
 10
261.4047986771251
 20
-956.9062541151625
 30
0
 40
4
  1
Äòü@ü@ü@Éö : 10
 41
0.7200000000000001
  0
TEXT
  8
1
 62
2
 10
261.4047986771251
 20
-963.9062541151625
 30
0
 40
4
  1
èOü@ü@ü@îa : âË6.8
 41
0.7200000000000001
  0
TEXT
  8
1
 62
2
 10
261.4047986771251
 20
-970.9062541151625
 30
0
 40
4
  1
é╦éÂéÛò¹î³ : ëE
 41
0.7200000000000001
  0
TEXT
  8
1
 62
2
 10
261.4047986771251
 20
-977.9062541151625
 30
0
 40
4
  1
 èÜìçæèÄÞâsâjâIâôÄdùl
 41
0.7200000000000001
  0
DIMENSION
  8
1
  6
CONTINUOUS
 62
2
  2
*D4
  3
DMST_2
 10
316.2135660923975
 20
-844.1329722216096
 30
0
 11
309.7135660923975
 21
-840.5329722216096
 31
0
 12
0
 22
0
 32
0
 70
0
 13
303.2135660923975
 23
-891.2514722216097
 33
0
 14
316.2135660923975
 24
-863.6329722216096
 34
0
 53
0
  0
ENDBLK
  8
0
  0
BLOCK
  8
1
  2
*D5
 70
1
 10
0
 20
0
 30
0
  0
LINE
  8
1
 62
2
 10
114.109169700088
 20
-880.1329722216095
 30
0
 11
114.109169700088
 21
-873.7329722216095
 31
0
  0
LINE
  8
1
 62
2
 10
114.109169700088
 20
-888.1329722216096
 30
0
 11
114.109169700088
 21
-894.5329722216096
 31
0
  0
LINE
  8
1
 62
2
 10
114.109169700088
 20
-888.1329722216096
 30
0
 11
114.109169700088
 21
-880.1329722216095
 31
0
  0
LINE
  8
1
 62
2
 10
151.4943345072226
 20
-880.1329722216095
 30
0
 11
112.109169700088
 21
-880.1329722216095
 31
0
  0
LINE
  8
1
 62
2
 10
133.609169700088
 20
-888.1329722216096
 30
0
 11
112.109169700088
 21
-888.1329722216096
 31
0
  0
SOLID
  8
1
 62
2
 10
114.109169700088
 20
-880.1329722216095
 30
0
 11
113.693169700088
 21
-876.9329722216095
 31
0
 12
114.525169700088
 22
-876.9329722216095
 32
0
 13
114.525169700088
 23
-876.9329722216095
 33
0
  0
SOLID
  8
1
 62
2
 10
114.109169700088
 20
-888.1329722216096
 30
0
 11
114.525169700088
 21
-891.3329722216097
 31
0
 12
113.693169700088
 22
-891.3329722216097
 32
0
 13
113.693169700088
 23
-891.3329722216097
 33
0
  0
TEXT
  8
1
 62
2
 10
111.309169700088
 20
-887.1265556107109
 30
0
 40
3.2
  1
8
 50
90
 41
0.9
  0
TEXT
  8
1
 62
2
 10
109.229169700088
 20
-882.0705556107108
 30
0
 40
1.92
  1
0
 50
90
 41
0.9
  0
TEXT
  8
1
 62
2
 10
112.109169700088
 20
-883.6065556107109
 30
0
 40
1.92
  1
-0.02
 50
90
 41
0.9
  0
TEXT
  8
1
 62
2
 10
111.309169700088
 20
-890.7710000551552
 30
0
 40
3.2
  1
âË
 50
90
 41
0.9
  0
ENDBLK
  8
0
  0
BLOCK
  8
1
  2
*D6
 70
1
 10
0
 20
0
 30
0
  0
LINE
  8
1
 62
2
 10
124.109169700088
 20
-880.1329722216095
 30
0
 11
124.109169700088
 21
-873.7329722216095
 31
0
  0
LINE
  8
1
 62
2
 10
124.109169700088
 20
-881.1329722216096
 30
0
 11
124.109169700088
 21
-880.1329722216095
 31
0
  0
LINE
  8
1
 62
2
 10
124.109169700088
 20
-887.5329722216096
 30
0
 11
124.109169700088
 21
-881.1329722216096
 31
0
  0
LINE
  8
1
 62
2
 10
151.4943345072226
 20
-880.1329722216095
 30
0
 11
122.109169700088
 21
-880.1329722216095
 31
0
  0
LINE
  8
1
 62
2
 10
133.109169700088
 20
-881.1329722216096
 30
0
 11
122.109169700088
 21
-881.1329722216096
 31
0
  0
SOLID
  8
1
 62
2
 10
124.109169700088
 20
-880.1329722216095
 30
0
 11
123.693169700088
 21
-876.9329722216095
 31
0
 12
124.525169700088
 22
-876.9329722216095
 32
0
 13
124.525169700088
 23
-876.9329722216095
 33
0
  0
SOLID
  8
1
 62
2
 10
124.109169700088
 20
-881.1329722216096
 30
0
 11
124.525169700088
 21
-884.3329722216097
 31
0
 12
123.693169700088
 22
-884.3329722216097
 32
0
 13
123.693169700088
 23
-884.3329722216097
 33
0
  0
TEXT
  8
1
 62
2
 10
122.109169700088
 20
-877.255406230395
 30
0
 40
3.2
  1
1
 50
90
 41
0.9
  0
ENDBLK
  8
0
  0
BLOCK
  8
1
  2
*D7
 70
1
 10
0
 20
0
 30
0
  0
LINE
  8
1
 62
2
 10
134.109169700088
 20
-870.1329722216095
 30
0
 11
147.109169700088
 21
-870.1329722216095
 31
0
  0
LINE
  8
1
 62
2
 10
147.109169700088
 20
-880.1329722216096
 30
0
 11
147.109169700088
 21
-868.1329722216095
 31
0
  0
LINE
  8
1
 62
2
 10
134.109169700088
 20
-880.1329722216096
 30
0
 11
134.109169700088
 21
-868.1329722216095
 31
0
  0
SOLID
  8
1
 62
2
 10
134.109169700088
 20
-870.1329722216095
 30
0
 11
137.309169700088
 21
-869.7169722216095
 31
0
 12
137.309169700088
 22
-870.5489722216096
 32
0
 13
137.309169700088
 23
-870.5489722216096
 33
0
  0
SOLID
  8
1
 62
2
 10
147.109169700088
 20
-870.1329722216095
 30
0
 11
143.909169700088
 21
-870.5489722216096
 31
0
 12
143.909169700088
 22
-869.7169722216095
 32
0
 13
143.909169700088
 23
-869.7169722216095
 33
0
  0
TEXT
  8
1
 62
2
 10
138.67939171996
 20
-868.1329722216095
 30
0
 40
3.2
  1
13
 41
0.9
  0
ENDBLK
  8
0
  0
BLOCK
  8
1
  2
*D8
 70
1
 10
0
 20
0
 30
0
  0
LINE
  8
1
 62
2
 10
134.109169700088
 20
-844.1329722216096
 30
0
 11
166.109169700088
 21
-844.1329722216096
 31
0
  0
LINE
  8
1
 62
2
 10
166.109169700088
 20
-863.7329722216093
 30
0
 11
166.109169700088
 21
-842.1329722216096
 31
0
  0
LINE
  8
1
 62
2
 10
134.109169700088
 20
-880.1329722216096
 30
0
 11
134.109169700088
 21
-842.1329722216096
 31
0
  0
SOLID
  8
1
 62
2
 10
134.109169700088
 20
-844.1329722216096
 30
0
 11
137.309169700088
 21
-843.7169722216096
 31
0
 12
137.309169700088
 22
-844.5489722216097
 32
0
 13
137.309169700088
 23
-844.5489722216097
 33
0
  0
SOLID
  8
1
 62
2
 10
166.109169700088
 20
-844.1329722216096
 30
0
 11
162.909169700088
 21
-844.5489722216097
 31
0
 12
162.909169700088
 22
-843.7169722216096
 32
0
 13
162.909169700088
 23
-843.7169722216096
 33
0
  0
TEXT
  8
1
 62
2
 10
147.85256225516
 20
-842.1329722216096
 30
0
 40
3.2
  1
32
 41
0.9
  0
ENDBLK
  8
0
  0
BLOCK
  8
0
  2
G6G__3
 70
0
 10
-50.3925169568104
 20
-742.717136229126
 30
0
  0
POINT
  8
1
 62
4
  6
DIVIDE
 10
166.109169700088
 20
-864.7329722216093
 30
0
  0
LINE
  8
1
 62
1
 10
163.109169700088
 20
-884.1329722216096
 30
0
 11
129.109169700088
 21
-884.1329722216096
 31
0
  0
LINE
  8
1
 62
3
 10
163.109169700088
 20
-880.1329722216096
 30
0
 11
152.4943345072226
 21
-880.1329722216095
 31
0
  0
LINE
  8
1
 62
3
 10
134.109169700088
 20
-881.1329722216096
 30
0
 11
134.109169700088
 21
-884.1329722216096
 31
0
  0
LINE
  8
1
 62
3
 10
147.109169700088
 20
-881.1329722216096
 30
0
 11
134.109169700088
 21
-881.1329722216096
 31
0
  0
LINE
  8
1
 62
3
 10
134.109169700088
 20
-884.1329722216096
 30
0
 11
134.109169700088
 21
-887.6329722216096
 31
0
  0
LINE
  8
1
 62
3
 10
134.609169700088
 20
-888.1329722216096
 30
0
 11
163.109169700088
 21
-888.1329722216096
 31
0
  0
LINE
  8
1
 62
3
 10
134.109169700088
 20
-887.6329722216096
 30
0
 11
134.609169700088
 21
-888.1329722216096
 31
0
  0
ARC
  8
1
 62
3
 10
147.109169700088
 20
-866.1329722216096
 30
0
 40
15
 50
270
 51
291.0394697813177
  0
DIMENSION
  8
1
  6
CONTINUOUS
 62
2
  2
*D5
  3
DMST_1
 10
114.109169700088
 20
-880.1329722216095
 30
0
 11
109.709169700088
 21
-883.804777832933
 31
0
 12
0
 22
0
 32
0
 70
0
  1
âË<>
 13
134.609169700088
 23
-888.1329722216096
 33
0
 14
152.4943345072226
 24
-880.1329722216095
 34
0
 50
90
 53
0
  0
DIMENSION
  8
1
  6
CONTINUOUS
 62
2
  2
*D6
  3
DMST_2
 10
124.109169700088
 20
-880.1329722216095
 30
0
 11
120.509169700088
 21
-876.775406230395
 31
0
 12
0
 22
0
 32
0
 70
0
  1
1
 13
134.109169700088
 23
-881.1329722216096
 33
0
 14
152.4943345072226
 24
-880.1329722216095
 34
0
 50
90
 53
0
  0
DIMENSION
  8
1
  6
CONTINUOUS
 62
2
  2
*D7
  3
DMST_2
 10
134.109169700088
 20
-870.1329722216095
 30
0
 11
140.59939171996
 21
-866.5329722216095
 31
0
 12
0
 22
0
 32
0
 70
0
 13
147.109169700088
 23
-881.1329722216096
 33
0
 14
134.109169700088
 24
-881.1329722216096
 34
0
 53
0
  0
DIMENSION
  8
1
  6
CONTINUOUS
 62
2
  2
*D8
  3
DMST_2
 10
166.109169700088
 20
-844.1329722216096
 30
0
 11
150.25256225516
 21
-840.5329722216096
 31
0
 12
0
 22
0
 32
0
 70
0
 13
134.109169700088
 23
-881.1329722216096
 33
0
 14
166.109169700088
 24
-864.7329722216093
 34
0
 53
0
  0
INSERT
  8
0
  2
B__2
 10
-71.41792899532921
 20
-537.923589053047
 30
0
  0
ENDBLK
  8
0
  0
BLOCK
  8
1
  2
*D9
 70
1
 10
0
 20
0
 30
0
  0
LINE
  8
1
 62
2
 10
293.2135660923974
 20
-921.1329722216096
 30
0
 11
293.2135660923974
 21
-867.1329722216096
 31
0
  0
LINE
  8
1
 62
2
 10
313.9635660923973
 20
-921.1329722216096
 30
0
 11
291.2135660923974
 21
-921.1329722216096
 31
0
  0
LINE
  8
1
 62
2
 10
313.9635660923973
 20
-867.1329722216096
 30
0
 11
291.2135660923974
 21
-867.1329722216096
 31
0
  0
SOLID
  8
1
 62
2
 10
293.2135660923974
 20
-867.1329722216096
 30
0
 11
293.6295660923974
 21
-870.3329722216097
 31
0
 12
292.7975660923974
 22
-870.3329722216097
 32
0
 13
292.7975660923974
 23
-870.3329722216097
 33
0
  0
SOLID
  8
1
 62
2
 10
293.2135660923974
 20
-921.1329722216096
 30
0
 11
292.7975660923974
 21
-917.9329722216096
 31
0
 12
293.6295660923974
 22
-917.9329722216096
 32
0
 13
293.6295660923974
 23
-917.9329722216096
 33
0
  0
TEXT
  8
1
 62
2
 10
290.4135660923974
 20
-901.7747499993874
 30
0
 40
3.2
  1
54h7
 50
90
 41
0.9
  0
TEXT
  8
1
 62
2
 10
288.3335660923974
 20
-888.0787499993875
 30
0
 40
1.92
  1
0
 50
90
 41
0.9
  0
TEXT
  8
1
 62
2
 10
291.2135660923974
 20
-889.6147499993874
 30
0
 40
1.92
  1
-0.03
 50
90
 41
0.9
  0
TEXT
  8
1
 62
2
 10
290.4135660923974
 20
-905.4191944438319
 30
0
 40
3.2
  1
âË
 50
90
 41
0.9
  0
ENDBLK
  8
0
  0
BLOCK
  8
0
  2
B__4
 70
0
 10
-62.14034800347
 20
-606.98307286359
 30
0
  0
POINT
  8
1
 62
4
  6
DIVIDE
 10
314.9635660923973
 20
-867.1329722216096
 30
0
  0
POINT
  8
1
 62
4
  6
DIVIDE
 10
314.9635660923973
 20
-921.1329722216096
 30
0
  0
DIMENSION
  8
1
  6
CONTINUOUS
 62
2
  2
*D9
  3
DMST_1
 10
293.2135660923974
 20
-921.1329722216096
 30
0
 11
288.8135660923974
 21
-894.1329722216096
 31
0
 12
0
 22
0
 32
0
 70
0
  1
54h7
 13
314.9635660923973
 23
-867.1329722216096
 33
0
 14
314.9635660923973
 24
-921.1329722216096
 34
0
 50
90
 53
0
  0
ENDBLK
  8
0
  0
BLOCK
  8
0
  2
____M3_______
 70
0
 10
28.08579329232995
 20
-917.1329722216096
 30
0
  0
LINE
  8
1
 62
3
 10
27.35606010285748
 20
-915.8799800140591
 30
0
 11
27.9670994740101
 21
-916.4910193852118
 31
0
  0
LINE
  8
1
 62
3
 10
28.81552648180244
 20
-915.8799800140591
 30
0
 11
28.20448711064981
 21
-916.4910193852118
 31
0
  0
LINE
  8
1
 62
3
 10
26.83280108477943
 20
-917.8627054110822
 30
0
 11
27.44384045593205
 21
-917.2516660399295
 31
0
  0
LINE
  8
1
 62
3
 10
26.83280108477943
 20
-916.4032390321372
 30
0
 11
27.44384045593205
 21
-917.0142784032898
 31
0
  0
LINE
  8
1
 62
3
 10
28.20448711064981
 20
-917.7749250580076
 30
0
 11
28.21062206046972
 21
-917.7810600078275
 31
0
  0
LINE
  8
1
 62
3
 10
28.21062206046972
 20
-917.7810600078275
 30
0
 11
28.81552648180244
 21
-918.3859644291603
 31
0
  0
LINE
  8
1
 62
3
 10
27.35606010285748
 20
-918.3859644291603
 30
0
 11
27.9670994740101
 21
-917.7749250580076
 31
0
  0
LINE
  8
1
 62
3
 10
29.33878549988049
 20
-916.4032390321372
 30
0
 11
28.72774612872786
 21
-917.0142784032898
 31
0
  0
LINE
  8
1
 62
3
 10
29.33878549988047
 20
-917.8627054110822
 30
0
 11
28.72774612872786
 21
-917.2516660399295
 31
0
  0
LINE
  8
1
 62
3
 10
7.43606010285761
 20
-881.3799800140591
 30
0
 11
8.047099474010224
 21
-881.9910193852118
 31
0
  0
LINE
  8
1
 62
3
 10
8.895526481802563
 20
-881.3799800140591
 30
0
 11
8.284487110649934
 21
-881.9910193852118
 31
0
  0
LINE
  8
1
 62
3
 10
6.912801084779559
 20
-883.3627054110822
 30
0
 11
7.523840455932174
 21
-882.7516660399295
 31
0
  0
LINE
  8
1
 62
3
 10
6.912801084779559
 20
-881.9032390321372
 30
0
 11
7.523840455932174
 21
-882.5142784032898
 31
0
  0
LINE
  8
1
 62
3
 10
8.284487110649934
 20
-883.2749250580076
 30
0
 11
8.290622060469843
 21
-883.2810600078275
 31
0
  0
LINE
  8
1
 62
3
 10
8.290622060469843
 20
-883.2810600078275
 30
0
 11
8.895526481802563
 21
-883.8859644291603
 31
0
  0
LINE
  8
1
 62
3
 10
7.43606010285761
 20
-883.8859644291603
 30
0
 11
8.047099474010224
 21
-883.2749250580076
 31
0
  0
LINE
  8
1
 62
3
 10
9.418785499880613
 20
-881.9032390321372
 30
0
 11
8.807746128727985
 21
-882.5142784032898
 31
0
  0
LINE
  8
1
 62
3
 10
9.418785499880599
 20
-883.3627054110822
 30
0
 11
8.807746128727985
 21
-882.7516660399295
 31
0
  0
LINE
  8
1
 62
3
 10
48.12448711064968
 20
-881.9910193852118
 30
0
 11
48.73552648180228
 21
-881.3799800140591
 31
0
  0
LINE
  8
1
 62
3
 10
47.88709947400994
 20
-881.9910193852118
 30
0
 11
47.27606010285731
 21
-881.3799800140591
 31
0
  0
LINE
  8
1
 62
3
 10
48.64774612872773
 20
-882.7516660399295
 30
0
 11
49.25878549988033
 21
-883.3627054110822
 31
0
  0
LINE
  8
1
 62
3
 10
48.64774612872773
 20
-882.5142784032898
 30
0
 11
49.25878549988033
 21
-881.9032390321372
 31
0
  0
LINE
  8
1
 62
3
 10
47.88096452419003
 20
-883.2810600078275
 30
0
 11
47.88709947400994
 21
-883.2749250580076
 31
0
  0
LINE
  8
1
 62
3
 10
47.27606010285734
 20
-883.8859644291603
 30
0
 11
47.88096452419003
 21
-883.2810600078275
 31
0
  0
LINE
  8
1
 62
3
 10
48.12448711064965
 20
-883.2749250580076
 30
0
 11
48.73552648180228
 21
-883.8859644291603
 31
0
  0
LINE
  8
1
 62
3
 10
47.36384045593192
 20
-882.5142784032898
 30
0
 11
46.75280108477929
 21
-881.9032390321372
 31
0
  0
LINE
  8
1
 62
3
 10
47.36384045593192
 20
-882.7516660399295
 30
0
 11
46.75280108477929
 21
-883.3627054110822
 31
0
  0
ARC
  8
1
 62
3
 10
28.08579329232995
 20
-917.1329722216096
 30
0
 40
1.449999999999993
 50
30.21619828524877
 51
59.78380171474835
  0
ARC
  8
1
 62
3
 10
28.08579329232995
 20
-917.1329722216096
 30
0
 40
0.6349999999998894
 50
82.54155094369408
 51
97.45844905630521
  0
ARC
  8
1
 62
3
 10
28.08579329232995
 20
-917.1329722216096
 30
0
 40
1.449999999999984
 50
120.2161982852509
 51
149.7838017147508
  0
ARC
  8
1
 62
3
 10
28.08579329232995
 20
-917.1329722216096
 30
0
 40
0.6349999999999911
 50
172.541550943703
 51
187.4584490563071
  0
ARC
  8
1
 62
3
 10
28.08579329232995
 20
-917.1329722216096
 30
0
 40
1.450000000000031
 50
210.2161982852531
 51
239.7838017147513
  0
ARC
  8
1
 62
3
 10
28.08579329232995
 20
-917.1329722216096
 30
0
 40
0.635000000000003
 50
262.5415509436948
 51
277.4584490563062
  0
ARC
  8
1
 62
3
 10
28.08579329232995
 20
-917.1329722216096
 30
0
 40
1.450000000000092
 50
300.2161982852494
 51
329.7838017147469
  0
ARC
  8
1
 62
3
 10
28.08579329232995
 20
-917.1329722216096
 30
0
 40
0.6349999999999777
 50
352.5415509436925
 51
7.458449056297288
  0
ARC
  8
1
 62
3
 10
8.165793292330079
 20
-882.6329722216096
 30
0
 40
1.449999999999986
 50
30.21619828524891
 51
59.78380171474858
  0
ARC
  8
1
 62
3
 10
8.165793292330079
 20
-882.6329722216096
 30
0
 40
0.6349999999998894
 50
82.54155094369408
 51
97.45844905630459
  0
ARC
  8
1
 62
3
 10
8.165793292330079
 20
-882.6329722216096
 30
0
 40
1.449999999999984
 50
120.2161982852509
 51
149.7838017147508
  0
ARC
  8
1
 62
3
 10
8.165793292330079
 20
-882.6329722216096
 30
0
 40
0.6349999999999902
 50
172.541550943703
 51
187.4584490563071
  0
ARC
  8
1
 62
3
 10
8.165793292330079
 20
-882.6329722216096
 30
0
 40
1.450000000000031
 50
210.2161982852531
 51
239.7838017147513
  0
ARC
  8
1
 62
3
 10
8.165793292330079
 20
-882.6329722216096
 30
0
 40
0.6350000000000021
 50
262.5415509436954
 51
277.4584490563059
  0
ARC
  8
1
 62
3
 10
8.165793292330079
 20
-882.6329722216096
 30
0
 40
1.450000000000089
 50
300.2161982852492
 51
329.7838017147469
  0
ARC
  8
1
 62
3
 10
8.165793292330079
 20
-882.6329722216096
 30
0
 40
0.6349999999999917
 50
352.5415509436926
 51
7.458449056297122
  0
ARC
  8
1
 62
3
 10
48.00579329232983
 20
-882.6329722216096
 30
0
 40
1.450000000000008
 50
120.2161982852526
 51
149.7838017147511
  0
ARC
  8
1
 62
3
 10
48.00579329232983
 20
-882.6329722216096
 30
0
 40
0.6350000000000021
 50
82.54155094369543
 51
97.45844905630655
  0
ARC
  8
1
 62
3
 10
48.00579329232983
 20
-882.6329722216096
 30
0
 40
1.449999999999962
 50
30.21619828524948
 51
59.78380171474955
  0
ARC
  8
1
 62
3
 10
48.00579329232983
 20
-882.6329722216096
 30
0
 40
0.6350000000000128
 50
352.5415509436929
 51
7.458449056297288
  0
ARC
  8
1
 62
3
 10
48.00579329232983
 20
-882.6329722216096
 30
0
 40
1.450000000000075
 50
300.2161982852481
 51
329.7838017147466
  0
ARC
  8
1
 62
3
 10
48.00579329232983
 20
-882.6329722216096
 30
0
 40
0.6350000000000049
 50
262.5415509436935
 51
277.4584490563046
  0
ARC
  8
1
 62
3
 10
48.00579329232983
 20
-882.6329722216096
 30
0
 40
1.450000000000044
 50
210.2161982852528
 51
239.7838017147508
  0
ARC
  8
1
 62
3
 10
48.00579329232983
 20
-882.6329722216096
 30
0
 40
0.6349999999999911
 50
172.541550943703
 51
187.4584490563071
  0
CIRCLE
  8
1
 62
3
 10
28.08579329232995
 20
-917.1329722216096
 30
0
 40
2.60000000000003
  0
CIRCLE
  8
1
 62
3
 10
8.165793292330079
 20
-882.6329722216096
 30
0
 40
2.600000000000041
  0
CIRCLE
  8
1
 62
3
 10
48.00579329232983
 20
-882.6329722216096
 30
0
 40
2.600000000000044
  0
ARC
  8
1
 62
3
 10
27.9977407678615
 20
-916.4603780913603
 30
0
 40
0.04333333333333091
 50
225.0000000000299
 51
277.4584490563213
  0
ARC
  8
1
 62
3
 10
28.17384581679839
 20
-916.4603780913603
 30
0
 40
0.04333333333342769
 50
262.5415509436983
 51
314.9999999999901
  0
ARC
  8
1
 62
3
 10
27.41319916208063
 20
-917.2210247460781
 30
0
 40
0.04333333333334598
 50
314.9999999999901
 51
7.458449056333375
  0
ARC
  8
1
 62
3
 10
27.41319916208063
 20
-917.0449196971413
 30
0
 40
0.04333333333332691
 50
352.5415509436666
 51
45.00000000000997
  0
ARC
  8
1
 62
3
 10
28.17384581679839
 20
-917.8055663518591
 30
0
 40
0.04333333333334598
 50
45.00000000000997
 51
97.45844905627843
  0
ARC
  8
1
 62
3
 10
27.9977407678615
 20
-917.8055663518591
 30
0
 40
0.04333333333342769
 50
82.54155094369828
 51
134.9999999999701
  0
ARC
  8
1
 62
3
 10
28.75838742257928
 20
-917.0449196971413
 30
0
 40
0.04333333333334598
 50
134.99999999999
 51
187.4584490563267
  0
ARC
  8
1
 62
3
 10
28.75838742257928
 20
-917.2210247460781
 30
0
 40
0.04333333333336566
 50
172.5415509436733
 51
225.00000000001
  0
ARC
  8
1
 62
3
 10
8.077740767861627
 20
-881.9603780913603
 30
0
 40
0.04333333333333342
 50
225.0000000000265
 51
277.4584490563352
  0
ARC
  8
1
 62
3
 10
8.253845816798517
 20
-881.9603780913603
 30
0
 40
0.04333333333342723
 50
262.5415509437029
 51
314.9999999999868
  0
ARC
  8
1
 62
3
 10
7.493199162080757
 20
-882.7210247460781
 30
0
 40
0.04333333333334283
 50
314.9999999999859
 51
7.458449056332764
  0
ARC
  8
1
 62
3
 10
7.493199162080757
 20
-882.5449196971413
 30
0
 40
0.04333333333333043
 50
352.5415509436672
 51
45.00000000001411
  0
ARC
  8
1
 62
3
 10
8.253845816798531
 20
-883.3055663518591
 30
0
 40
0.04333333333333342
 50
45.00000000002657
 51
97.45844905629706
  0
ARC
  8
1
 62
3
 10
8.077740767861627
 20
-883.3055663518591
 30
0
 40
0.04333333333342907
 50
82.54155094368431
 51
134.9999999999734
  0
ARC
  8
1
 62
3
 10
8.838387422579416
 20
-882.5449196971413
 30
0
 40
0.04333333333335351
 50
135
 51
187.4584490563279
  0
ARC
  8
1
 62
3
 10
8.838387422579416
 20
-882.7210247460781
 30
0
 40
0.04333333333335862
 50
172.5415509436721
 51
225
  0
ARC
  8
1
 62
3
 10
48.09384581679825
 20
-881.9603780913603
 30
0
 40
0.04333333333331266
 50
262.5415509437021
 51
315
  0
ARC
  8
1
 62
3
 10
47.91774076786137
 20
-881.9603780913603
 30
0
 40
0.04333333333334849
 50
225.0000000000067
 51
277.4584490563157
  0
ARC
  8
1
 62
3
 10
48.67838742257914
 20
-882.7210247460781
 30
0
 40
0.04333333333331635
 50
172.5415509436648
 51
225.0000000000199
  0
ARC
  8
1
 62
3
 10
48.67838742257914
 20
-882.5449196971413
 30
0
 40
0.04333333333333844
 50
134.9999999999801
 51
187.4584490563291
  0
ARC
  8
1
 62
3
 10
47.91774076786137
 20
-883.3055663518591
 30
0
 40
0.04333333333342723
 50
82.54155094370294
 51
134.9999999999933
  0
ARC
  8
1
 62
3
 10
48.09384581679825
 20
-883.3055663518591
 30
0
 40
0.04333333333333342
 50
45.00000000002657
 51
97.45844905627843
  0
ARC
  8
1
 62
3
 10
47.33319916208049
 20
-882.5449196971413
 30
0
 40
0.04333333333334453
 50
352.5415509436697
 51
45
  0
ARC
  8
1
 62
3
 10
47.33319916208049
 20
-882.7210247460781
 30
0
 40
0.04333333333335351
 50
315
 51
7.458449056330325
  0
ENDBLK
  8
0
  0
BLOCK
  8
0
  2
G6G__5
 70
0
 10
32.8040845682709
 20
-909.839541482976
 30
0
  0
LINE
  8
1
 62
3
 10
25.44004198126535
 20
-881.1329722216096
 30
0
 11
30.73154460339452
 21
-881.1329722216096
 31
0
  0
LINE
  8
1
 62
1
 10
41.08579329232995
 20
-884.1329722216096
 30
0
 11
15.08579329232998
 21
-884.1329722216096
 31
0
  0
LINE
  8
1
 62
1
 10
34.08579329232995
 20
-917.1329722216096
 30
0
 11
22.08579329232998
 21
-917.1329722216096
 31
0
  0
LINE
  8
1
 62
1
 10
8.165793292330079
 20
-888.6329722216096
 30
0
 11
8.165793292330079
 21
-876.6329722216096
 31
0
  0
LINE
  8
1
 62
1
 10
14.16579329233008
 20
-882.6329722216096
 30
0
 11
2.165793292330079
 21
-882.6329722216096
 31
0
  0
LINE
  8
1
 62
1
 10
48.00579329232997
 20
-876.6329722216096
 30
0
 11
48.00579329232997
 21
-888.6329722216096
 31
0
  0
LINE
  8
1
 62
1
 10
54.00579329232997
 20
-882.6329722216096
 30
0
 11
42.00579329232997
 21
-882.6329722216096
 31
0
  0
LINE
  8
1
 62
3
 10
58.58579329232995
 20
-869.4829722216095
 30
0
 11
58.58579329232995
 21
-894.1329722216096
 31
0
  0
LINE
  8
1
 62
3
 10
28.08579329232995
 20
-863.6329722216096
 30
0
 11
52.73579329232996
 21
-863.6329722216096
 31
0
  0
LINE
  8
1
 62
3
 10
52.73579329232996
 20
-924.6329722216096
 30
0
 11
28.08579329232995
 21
-924.6329722216096
 31
0
  0
LINE
  8
1
 62
3
 10
58.58579329232995
 20
-894.1329722216096
 30
0
 11
58.58579329232995
 21
-918.7829722216095
 31
0
  0
LINE
  8
1
 62
3
 10
-2.414206707670019
 20
-918.7829722216095
 30
0
 11
-2.414206707670019
 21
-894.1329722216096
 31
0
  0
LINE
  8
1
 62
3
 10
28.08579329232995
 20
-924.6329722216096
 30
0
 11
3.435793292329947
 21
-924.6329722216096
 31
0
  0
LINE
  8
1
 62
3
 10
3.435793292329947
 20
-863.6329722216096
 30
0
 11
28.08579329232995
 21
-863.6329722216096
 31
0
  0
LINE
  8
1
 62
3
 10
-2.414206707670019
 20
-894.1329722216096
 30
0
 11
-2.414206707670019
 21
-869.4829722216095
 31
0
  0
ARC
  8
1
 62
3
 10
52.73579329232996
 20
-869.4829722216095
 30
0
 40
5.849999999999994
 50
0
 51
90
  0
ARC
  8
1
 62
3
 10
52.73579329232996
 20
-918.7829722216095
 30
0
 40
5.850000000000136
 50
270
 51
0
  0
ARC
  8
1
 62
3
 10
3.435793292329947
 20
-918.7829722216095
 30
0
 40
5.849999999999966
 50
180
 51
270
  0
ARC
  8
1
 62
3
 10
3.435793292329947
 20
-869.4829722216095
 30
0
 40
5.849999999999909
 50
90
 51
180
  0
CIRCLE
  8
1
 62
3
 10
28.08579329232995
 20
-884.1329722216096
 30
0
 40
4.000000000000004
  0
CIRCLE
  8
1
 62
3
 10
28.08579329232995
 20
-884.1329722216096
 30
0
 40
4.700000000000021
  0
CIRCLE
  8
1
 62
3
 10
48.00579329232983
 20
-882.6329722216096
 30
0
 40
3.30000000000004
  0
CIRCLE
  8
1
 62
3
 10
8.165793292330079
 20
-882.6329722216096
 30
0
 40
3.30000000000002
  0
CIRCLE
  8
1
 62
3
 10
28.08579329232995
 20
-917.1329722216096
 30
0
 40
3.300000000000029
  0
CIRCLE
  8
1
 62
3
 10
28.08579329232995
 20
-884.1329722216096
 30
0
 40
9.999999999999968
  0
CIRCLE
  8
1
 62
3
 10
52.73579329232996
 20
-869.4829722216095
 30
0
 40
4.75
  0
CIRCLE
  8
1
 62
3
 10
52.73579329232996
 20
-918.7829722216095
 30
0
 40
4.75
  0
CIRCLE
  8
1
 62
3
 10
3.435793292329947
 20
-918.7829722216095
 30
0
 40
4.75
  0
CIRCLE
  8
1
 62
3
 10
3.435793292329947
 20
-869.4829722216095
 30
0
 40
4.75
  0
INSERT
  8
0
  2
G6G__1
 10
-5.437422995346942
 20
-1113.795559506799
 30
0
  0
INSERT
  8
0
  2
G6G__3
 10
-50.3925169568104
 20
-742.717136229126
 30
0
  0
INSERT
  8
0
  2
B__4
 10
-62.14034800347
 20
-606.98307286359
 30
0
  0
INSERT
  8
0
  2
____M3_______
 10
28.08579329232995
 20
-917.1329722216096
 30
0
  0
ENDBLK
  8
0
  0
BLOCK
  8
1
  2
*D10
 70
1
 10
0
 20
0
 30
0
  0
LINE
  8
1
 62
2
 10
14.2945709616116
 20
-894.1329722216096
 30
0
 11
14.2945709616116
 21
-884.1329722216096
 31
0
  0
LINE
  8
1
 62
2
 10
62.58579329232998
 20
-894.1329722216096
 30
0
 11
12.7945709616116
 21
-894.1329722216096
 31
0
  0
LINE
  8
1
 62
2
 10
27.08579329232996
 20
-884.1329722216096
 30
0
 11
12.7945709616116
 21
-884.1329722216096
 31
0
  0
SOLID
  8
1
 62
2
 10
14.2945709616116
 20
-884.1329722216096
 30
0
 11
14.7105709616116
 21
-887.3329722216097
 31
0
 12
13.8785709616116
 22
-887.3329722216097
 32
0
 13
13.8785709616116
 23
-887.3329722216097
 33
0
  0
SOLID
  8
1
 62
2
 10
14.2945709616116
 20
-894.1329722216096
 30
0
 11
13.8785709616116
 21
-890.9329722216096
 31
0
 12
14.7105709616116
 22
-890.9329722216096
 32
0
 13
14.7105709616116
 23
-890.9329722216096
 33
0
  0
TEXT
  8
1
 62
2
 10
12.2945709616116
 20
-890.666683228532
 30
0
 40
3.2
  1
10
 50
90
 41
0.9
  0
ENDBLK
  8
0
  0
BLOCK
  8
1
  2
*D11
 70
1
 10
0
 20
0
 30
0
  0
LINE
  8
1
 62
2
 10
-2.414206707670019
 20
-844.1329722216096
 30
0
 11
58.58579329232992
 21
-844.1329722216096
 31
0
  0
LINE
  8
1
 62
2
 10
-2.414206707670019
 20
-893.1329722216096
 30
0
 11
-2.414206707670019
 21
-842.6329722216096
 31
0
  0
LINE
  8
1
 62
2
 10
58.58579329232992
 20
-893.1329722216096
 30
0
 11
58.58579329232992
 21
-842.6329722216096
 31
0
  0
SOLID
  8
1
 62
2
 10
58.58579329232992
 20
-844.1329722216096
 30
0
 11
55.38579329232992
 21
-844.5489722216097
 31
0
 12
55.38579329232992
 22
-843.7169722216096
 32
0
 13
55.38579329232992
 23
-843.7169722216096
 33
0
  0
SOLID
  8
1
 62
2
 10
-2.414206707670019
 20
-844.1329722216096
 30
0
 11
0.785793292329982
 21
-843.7169722216096
 31
0
 12
0.785793292329982
 22
-844.5489722216097
 32
0
 13
0.785793292329982
 23
-844.5489722216097
 33
0
  0
TEXT
  8
1
 62
2
 10
26.16579329232998
 20
-842.1329722216096
 30
0
 40
3.2
  1
61
 41
0.9
  0
ENDBLK
  8
0
  0
BLOCK
  8
1
  2
*D12
 70
1
 10
0
 20
0
 30
0
  0
LINE
  8
1
 62
2
 10
83.08579329232992
 20
-924.6329722216096
 30
0
 11
83.08579329232992
 21
-863.6329722216096
 31
0
  0
LINE
  8
1
 62
2
 10
29.08579329232992
 20
-924.6329722216096
 30
0
 11
84.58579329232992
 21
-924.6329722216096
 31
0
  0
LINE
  8
1
 62
2
 10
29.08579329232992
 20
-863.6329722216096
 30
0
 11
84.58579329232992
 21
-863.6329722216096
 31
0
  0
SOLID
  8
1
 62
2
 10
83.08579329232992
 20
-863.6329722216096
 30
0
 11
83.50179329232992
 21
-866.8329722216097
 31
0
 12
82.66979329232993
 22
-866.8329722216097
 32
0
 13
82.66979329232993
 23
-866.8329722216097
 33
0
  0
SOLID
  8
1
 62
2
 10
83.08579329232992
 20
-924.6329722216096
 30
0
 11
82.66979329232993
 21
-921.4329722216096
 31
0
 12
83.50179329232992
 22
-921.4329722216096
 32
0
 13
83.50179329232992
 23
-921.4329722216096
 33
0
  0
TEXT
  8
1
 62
2
 10
81.08579329232992
 20
-896.0529722216096
 30
0
 40
3.2
  1
61
 50
90
 41
0.9
  0
ENDBLK
  8
0
  0
BLOCK
  8
1
  2
*D13
 70
1
 10
0
 20
0
 30
0
  0
LINE
  8
1
 62
2
 10
3.335793292329981
 20
-854.1329722216096
 30
0
 11
52.83579329232998
 21
-854.1329722216096
 31
0
  0
LINE
  8
1
 62
2
 10
3.335793292329981
 20
-861.3829722216095
 30
0
 11
3.335793292329981
 21
-852.6329722216096
 31
0
  0
LINE
  8
1
 62
2
 10
52.83579329232998
 20
-861.3829722216096
 30
0
 11
52.83579329232998
 21
-852.6329722216096
 31
0
  0
SOLID
  8
1
 62
2
 10
52.83579329232998
 20
-854.1329722216096
 30
0
 11
49.63579329232998
 21
-854.5489722216097
 31
0
 12
49.63579329232998
 22
-853.7169722216096
 32
0
 13
49.63579329232998
 23
-853.7169722216096
 33
0
  0
SOLID
  8
1
 62
2
 10
3.335793292329981
 20
-854.1329722216096
 30
0
 11
6.535793292329982
 21
-853.7169722216096
 31
0
 12
6.535793292329982
 22
-854.5489722216097
 32
0
 13
6.535793292329982
 23
-854.5489722216097
 33
0
  0
TEXT
  8
1
 62
2
 10
20.02179329232998
 20
-852.1329722216096
 30
0
 40
3.2
  1
49.5
 41
0.9
  0
TEXT
  8
1
 62
2
 10
30.34179329232998
 20
-851.4929722216096
 30
0
 40
1.92
  1
%%p0.3
 41
0.9
  0
ENDBLK
  8
0
  0
BLOCK
  8
1
  2
*D14
 70
1
 10
0
 20
0
 30
0
  0
LINE
  8
1
 62
2
 10
73.08579329232995
 20
-918.8829722216096
 30
0
 11
73.08579329232995
 21
-869.3829722216096
 31
0
  0
LINE
  8
1
 62
2
 10
60.83579329232998
 20
-918.8829722216096
 30
0
 11
74.58579329232995
 21
-918.8829722216096
 31
0
  0
LINE
  8
1
 62
2
 10
60.83579329232999
 20
-869.3829722216096
 30
0
 11
74.58579329232995
 21
-869.3829722216096
 31
0
  0
SOLID
  8
1
 62
2
 10
73.08579329232995
 20
-869.3829722216096
 30
0
 11
73.50179329232995
 21
-872.5829722216097
 31
0
 12
72.66979329232996
 22
-872.5829722216097
 32
0
 13
72.66979329232996
 23
-872.5829722216097
 33
0
  0
SOLID
  8
1
 62
2
 10
73.08579329232995
 20
-918.8829722216096
 30
0
 11
72.66979329232996
 21
-915.6829722216096
 31
0
 12
73.50179329232995
 22
-915.6829722216096
 32
0
 13
73.50179329232995
 23
-915.6829722216096
 33
0
  0
TEXT
  8
1
 62
2
 10
71.08579329232995
 20
-902.1969722216096
 30
0
 40
3.2
  1
49.5
 50
90
 41
0.9
  0
TEXT
  8
1
 62
2
 10
70.44579329232995
 20
-891.8769722216097
 30
0
 40
1.92
  1
%%p0.3
 50
90
 41
0.9
  0
ENDBLK
  8
0
  0
BLOCK
  8
1
  2
*D15
 70
1
 10
0
 20
0
 30
0
  0
LINE
  8
1
 62
2
 10
314.2135660923974
 20
-853.6329722216096
 30
0
 11
307.8135660923974
 21
-853.6329722216096
 31
0
  0
LINE
  8
1
 62
2
 10
314.2135660923974
 20
-853.6329722216096
 30
0
 11
316.2135660923974
 21
-853.6329722216096
 31
0
  0
LINE
  8
1
 62
2
 10
322.6135660923974
 20
-853.6329722216096
 30
0
 11
316.2135660923974
 21
-853.6329722216096
 31
0
  0
LINE
  8
1
 62
2
 10
316.2135660923974
 20
-862.6329722216096
 30
0
 11
316.2135660923974
 21
-851.6329722216096
 31
0
  0
LINE
  8
1
 62
2
 10
314.2135660923974
 20
-866.8829722216096
 30
0
 11
314.2135660923974
 21
-851.6329722216096
 31
0
  0
SOLID
  8
1
 62
2
 10
314.2135660923974
 20
-853.6329722216096
 30
0
 11
311.0135660923974
 21
-854.0489722216097
 31
0
 12
311.0135660923974
 22
-853.2169722216096
 32
0
 13
311.0135660923974
 23
-853.2169722216096
 33
0
  0
SOLID
  8
1
 62
2
 10
316.2135660923974
 20
-853.6329722216096
 30
0
 11
319.4135660923974
 21
-853.2169722216096
 31
0
 12
319.4135660923974
 22
-854.0489722216097
 32
0
 13
319.4135660923974
 23
-854.0489722216097
 33
0
  0
TEXT
  8
1
 62
2
 10
311.054228403618
 20
-851.6329722216096
 30
0
 40
3.2
  1
2
 41
0.9
  0
ENDBLK
  8
0
  0
BLOCK
  8
1
  2
*D16
 70
1
 10
0
 20
0
 30
0
  0
LINE
  8
1
 62
2
 10
60.57306889061331
 20
-881.1108017342759
 30
0
 11
-4.401482305953344
 21
-907.1551427089433
 31
0
  0
SOLID
  8
1
 62
2
 10
-4.401482305953344
 20
-907.1551427089433
 30
0
 11
-1.585994906188321
 21
-905.5784097887047
 31
0
 12
-1.276439310603702
 22
-906.3506787400696
 32
0
 13
-1.276439310603702
 23
-906.3506787400696
 33
0
  0
SOLID
  8
1
 62
2
 10
60.57306889061331
 20
-881.1108017342759
 30
0
 11
57.75758149084828
 21
-882.6875346545146
 31
0
 12
57.44802589526366
 22
-881.9152657031497
 32
0
 13
57.44802589526366
 23
-881.9152657031497
 33
0
  0
TEXT
  8
1
 62
2
 10
5.347639435391129
 20
-901.0926237137228
 30
0
 40
3.2
  1
70
 50
21.84284335015355
 41
0.9
  0
TEXT
  8
1
 62
2
 10
0.628218065938924
 20
-902.9843523534065
 30
0
 40
3.2
  1
(âË
 50
21.84284335015355
 41
0.9
  0
TEXT
  8
1
 62
2
 10
11.2881698305058
 20
-898.7114268246103
 30
0
 40
3.2
  1
)
 50
21.84284335015355
 41
0.9
  0
ENDBLK
  8
0
  0
BLOCK
  8
1
  2
*D17
 70
1
 10
0
 20
0
 30
0
  0
LINE
  8
1
 62
2
 10
54.43506439731789
 20
-867.8003061378286
 30
0
 11
68.24579329232992
 21
-854.1329722216096
 31
0
  0
LINE
  8
1
 62
2
 10
68.24579329232992
 20
-854.1329722216096
 30
0
 11
92.72579329232993
 21
-854.1329722216096
 31
0
  0
SOLID
  8
1
 62
2
 10
54.43506439731789
 20
-867.8003061378286
 30
0
 11
56.41696592847713
 21
-865.2537158054844
 31
0
 12
57.00220067590195
 22
-865.845090720751
 32
0
 13
57.00220067590195
 23
-865.845090720751
 33
0
  0
TEXT
  8
1
 62
2
 10
82.53023773677437
 20
-852.1329722216096
 30
0
 40
3.2
  1
4.5
 41
0.9
  0
TEXT
  8
1
 62
2
 10
73.44579329232992
 20
-852.1329722216096
 30
0
 40
3.2
  1
4-âË
 41
0.9
  0
TEXT
  8
1
 62
2
 10
89.97023773677438
 20
-852.1329722216096
 30
0
 40
3.2
  1
îè
 41
0.9
  0
ENDBLK
  8
0
  0
ENDSEC
  0
SECTION
  2
ENTITIES
  0
POINT
  8
1
 62
4
  6
DIVIDE
 10
28.08579329232996
 20
-884.1329722216096
 30
0
  0
POINT
  8
1
 62
4
  6
DIVIDE
 10
-2.414206707670019
 20
-894.1329722216096
 30
0
  0
POINT
  8
1
 62
4
  6
DIVIDE
 10
58.58579329232992
 20
-894.1329722216096
 30
0
  0
POINT
  8
1
 62
4
  6
DIVIDE
 10
28.08579329232992
 20
-863.6329722216096
 30
0
  0
POINT
  8
1
 62
4
  6
DIVIDE
 10
28.08579329232992
 20
-924.6329722216096
 30
0
  0
LINE
  8
1
 62
3
 10
322.2135660923974
 20
-924.6329722216096
 30
0
 11
316.2135660923974
 21
-924.6329722216096
 31
0
  0
LINE
  8
1
 62
3
 10
316.2135660923974
 20
-867.1329722216096
 30
0
 11
314.9635660923974
 21
-867.1329722216096
 31
0
  0
LINE
  8
1
 62
3
 10
316.2135660923974
 20
-894.1329722216096
 30
0
 11
316.2135660923974
 21
-863.6329722216096
 31
0
  0
LINE
  8
1
 62
3
 10
314.2135660923974
 20
-867.8829722216096
 30
0
 11
314.2135660923974
 21
-894.1329722216096
 31
0
  0
LINE
  8
1
 62
3
 10
316.2135660923974
 20
-863.6329722216096
 30
0
 11
322.9135660923974
 21
-863.6329722216096
 31
0
  0
LINE
  8
1
 62
3
 10
314.9635660923974
 20
-867.1329722216096
 30
0
 11
314.2135660923974
 21
-867.8829722216096
 31
0
  0
LINE
  8
1
 62
3
 10
314.9635660923974
 20
-921.1329722216096
 30
0
 11
316.2135660923974
 21
-921.1329722216096
 31
0
  0
LINE
  8
1
 62
3
 10
316.2135660923974
 20
-924.6329722216096
 30
0
 11
316.2135660923974
 21
-894.1329722216096
 31
0
  0
LINE
  8
1
 62
3
 10
314.2135660923974
 20
-894.1329722216096
 30
0
 11
314.2135660923974
 21
-920.3829722216096
 31
0
  0
LINE
  8
1
 62
3
 10
314.2135660923974
 20
-920.3829722216096
 30
0
 11
314.9635660923974
 21
-921.1329722216096
 31
0
  0
LINE
  8
1
 62
1
 10
327.9135660923974
 20
-894.1329722216096
 30
0
 11
314.2135660923974
 21
-894.1329722216096
 31
0
  0
LINE
  8
1
 62
1
 10
63.58579329232998
 20
-894.1329722216096
 30
0
 11
-7.414206707670022
 21
-894.1329722216096
 31
0
  0
LINE
  8
1
 62
1
 10
28.08579329232992
 20
-929.6329722216096
 30
0
 11
28.08579329232998
 21
-858.6329722216096
 31
0
  0
LINE
  8
1
 62
1
 10
52.83579329232998
 20
-862.3829722216096
 30
0
 11
52.83579329232998
 21
-876.3829722216096
 31
0
  0
LINE
  8
1
 62
1
 10
59.83579329232999
 20
-869.3829722216096
 30
0
 11
45.83579329232998
 21
-869.3829722216096
 31
0
  0
LINE
  8
1
 62
1
 10
3.335793292329981
 20
-862.3829722216095
 30
0
 11
3.335793292329981
 21
-876.3829722216095
 31
0
  0
LINE
  8
1
 62
1
 10
-3.664206707670033
 20
-918.8829722216096
 30
0
 11
10.33579329232997
 21
-918.8829722216096
 31
0
  0
LINE
  8
1
 62
1
 10
52.83579329232998
 20
-925.8829722216096
 30
0
 11
52.83579329232998
 21
-911.8829722216096
 31
0
  0
LINE
  8
1
 62
1
 10
-3.664206707670019
 20
-869.3829722216095
 30
0
 11
10.33579329232998
 21
-869.3829722216096
 31
0
  0
LINE
  8
1
 62
1
 10
3.335793292329974
 20
-925.8829722216096
 30
0
 11
3.335793292329974
 21
-911.8829722216096
 31
0
  0
LINE
  8
1
 62
1
 10
59.83579329232998
 20
-918.8829722216096
 30
0
 11
45.83579329232998
 21
-918.8829722216096
 31
0
  0
ARC
  8
1
 62
2
 10
28.08579329232998
 20
-894.1329722216096
 30
0
 40
34.99999999999998
 50
17.96511639139872
 51
58.5992184902046
  0
ARC
  8
1
 62
2
 10
28.08579329232998
 20
-894.1329722216096
 30
0
 40
35.00000000000005
 50
197.9651163913987
 51
238.5992184902045
  0
CIRCLE
  8
1
 62
4
  6
DIVIDE
 10
28.08579329232998
 20
-894.1329722216096
 30
0
 40
35
  0
CIRCLE
  8
1
 62
3
 10
52.83579329232998
 20
-869.3829722216096
 30
0
 40
2.25
  0
CIRCLE
  8
1
 62
3
 10
3.335793292329981
 20
-869.3829722216095
 30
0
 40
2.25
  0
CIRCLE
  8
1
 62
3
 10
3.335793292329974
 20
-918.8829722216096
 30
0
 40
2.25
  0
CIRCLE
  8
1
 62
3
 10
52.83579329232998
 20
-918.8829722216096
 30
0
 40
2.25
  0
TEXT
  8
1
 62
2
 10
-22.5445710723268
 20
-1025.11678671229
 30
0
 40
8
  1
6H3~18FBN
 41
0.9
  0
DIMENSION
  8
1
  6
CONTINUOUS
 62
2
  2
*D10
  3
DMST_3
 10
14.2945709616116
 20
-884.1329722216096
 30
0
 11
10.6945709616116
 21
-888.746683228532
 31
0
 12
0
 22
0
 32
0
 70
0
 13
63.58579329232998
 23
-894.1329722216096
 33
0
 14
28.08579329232996
 24
-884.1329722216096
 34
0
 50
90
 53
0
  0
DIMENSION
  8
1
  6
CONTINUOUS
 62
2
  2
*D11
  3
DMST_3
 10
58.58579329232992
 20
-844.1329722216096
 30
0
 11
28.08579329232998
 21
-840.5329722216096
 31
0
 12
0
 22
0
 32
0
 70
1
 13
-2.414206707670019
 23
-894.1329722216096
 33
0
 14
58.58579329232992
 24
-894.1329722216096
 34
0
 53
0
  0
DIMENSION
  8
1
  6
CONTINUOUS
 62
2
  2
*D12
  3
DMST_3
 10
83.08579329232992
 20
-924.6329722216096
 30
0
 11
79.48579329232993
 21
-894.1329722216096
 31
0
 12
0
 22
0
 32
0
 70
1
 13
28.08579329232992
 23
-863.6329722216096
 33
0
 14
28.08579329232992
 24
-924.6329722216096
 34
0
 53
0
  0
DIMENSION
  8
1
  6
CONTINUOUS
 62
2
  2
*D13
  3
DMST_4
 10
3.335793292329981
 20
-854.1329722216096
 30
0
 11
28.08579329232998
 21
-850.5329722216096
 31
0
 12
0
 22
0
 32
0
 70
1
 13
52.83579329232998
 23
-862.3829722216096
 33
0
 14
3.335793292329981
 24
-862.3829722216095
 34
0
 53
0
  0
DIMENSION
  8
1
  6
CONTINUOUS
 62
2
  2
*D14
  3
DMST_4
 10
73.08579329232995
 20
-918.8829722216096
 30
0
 11
69.48579329232996
 21
-894.1329722216096
 31
0
 12
0
 22
0
 32
0
 70
1
 13
59.83579329232999
 23
-869.3829722216096
 33
0
 14
59.83579329232998
 24
-918.8829722216096
 34
0
 53
0
  0
DIMENSION
  8
1
  6
CONTINUOUS
 62
2
  2
*D15
  3
DMST_2
 10
314.2135660923974
 20
-853.6329722216096
 30
0
 11
312.014228403618
 21
-850.0329722216096
 31
0
 12
0
 22
0
 32
0
 70
0
 13
316.2135660923974
 23
-863.6329722216096
 33
0
 14
314.2135660923974
 24
-867.8829722216096
 34
0
 53
0
  0
DIMENSION
  8
1
  6
CONTINUOUS
 62
2
  2
*D16
  3
DMST_5
 10
60.5730688906133
 20
-881.1108017342759
 30
0
 11
5.585664615761047
 21
-899.273462106888
 31
0
 12
0
 22
0
 32
0
 70
3
  1
(âË<>
 15
-4.40148230595333
 25
-907.1551427089433
 35
0
 40
0
 53
0
  0
INSERT
  8
0
  2
G6G__5
 10
32.8040845682709
 20
-909.839541482976
 30
0
  0
INSERT
  8
1
  2
*D17
 10
0
 20
0
 30
0
  0
ENDSEC
  0
EOF
