  0
SECTION
  2
HEADER
  9
$ACADVER
  1
AC1009
  9
$INSBASE
 10
0
 20
0
  9
$EXTMIN
 10
-20.6568507546191
 20
-1024.31181628336
  9
$EXTMAX
 10
327.9135660923974
 20
-820.616096788046
  9
$LIMMIN
 10
-20.6568507546191
 20
-1024.31181628336
  9
$LIMMAX
 10
327.9135660923974
 20
-820.616096788046
  9
$VIEWCTR
 10
10
 20
10
  9
$VIEWSIZE
 40
10
  9
$SNAPMODE
 70
0
  9
$SNAPUNIT
 10
1
 20
1
  9
$SNAPBASE
 10
0
 20
0
  9
$SNAPANG
 50
0
  9
$SNAPSTYLE
 70
0
  9
$SNAPISOPAIR
 70
0
  9
$GRIDMODE
 70
0
  9
$GRIDUNIT
 10
0
 20
0
  9
$ORTHOMODE
 70
0
  9
$REGENMODE
 70
1
  9
$FILLMODE
 70
1
  9
$QTEXTMODE
 70
0
  9
$DRAGMODE
 70
2
  9
$LTSCALE
 40
1
  9
$OSMODE
 70
0
  9
$ATTMODE
 70
1
  9
$TEXTSIZE
 40
3.5
  9
$TRACEWID
 40
0.5
  9
$TEXTSTYLE
  7
STANDARD
  9
$CLAYER
  8
0
  9
$CELTYPE
  6
BYLAYER
  9
$CECOLOR
 62
256
  9
$DIMSCALE
 40
1
  9
$DIMASZ
 40
0.18
  9
$DIMEXO
 40
0.0625
  9
$DIMDLI
 40
0.38
  9
$DIMRND
 40
0
  9
$DIMDLE
 40
0
  9
$DIMEXE
 40
0.18
  9
$DIMTP
 40
0
  9
$DIMTM
 40
0
  9
$DIMTXT
 40
0.18
  9
$DIMCEN
 40
0.09
  9
$DIMTSZ
 40
0
  9
$DIMTOL
 70
0
  9
$DIMLIM
 70
0
  9
$DIMTIH
 70
1
  9
$DIMTOH
 70
1
  9
$DIMSE1
 70
0
  9
$DIMSE2
 70
0
  9
$DIMTAD
 70
0
  9
$DIMZIN
 70
0
  9
$DIMBLK
  1

  9
$DIMASO
 70
1
  9
$DIMSHO
 70
1
  9
$DIMPOST
  1

  9
$DIMAPOST
  1

  9
$DIMALT
 70
0
  9
$DIMALTD
 70
2
  9
$DIMALTF
 40
25.4
  9
$DIMLFAC
 40
1
  9
$DIMTOFL
 70
0
  9
$DIMTVP
 40
0
  9
$DIMTIX
 70
0
  9
$DIMSOXD
 70
0
  9
$DIMSAH
 70
0
  9
$DIMBLK1
  1

  9
$DIMBLK2
  1

  9
$DIMSTYLE
  2
*UNNAMED
  9
$DIMCLRD
 70
0
  9
$DIMCLRE
 70
0
  9
$DIMCLRT
 70
0
  9
$DIMTFAC
 40
1
  9
$DIMGAP
 40
0.09
  9
$LUNITS
 70
2
  9
$LUPREC
 70
4
  9
$AXISMODE
 70
0
  9
$AXISUNIT
 10
0
 20
0
  9
$SKETCHINC
 40
0.1
  9
$FILLETRAD
 40
2
  9
$AUNITS
 70
0
  9
$AUPREC
 70
0
  9
$MENU
  1
ACAD
  9
$ELEVATION
 40
0
  9
$THICKNESS
 40
0
  9
$VIEWDIR
 10
0
 20
0
 30
1
  9
$LIMCHECK
 70
0
  9
$BLIPMODE
 70
1
  9
$CHAMFERA
 40
0
  9
$CHAMFERB
 40
0
  9
$FASTZOOM
 70
1
  9
$SKPOLY
 70
0
  9
$ANGBASE
 50
0
  9
$ANGDIR
 70
0
  9
$PDMODE
 70
0
  9
$PDSIZE
 40
0
  9
$PLINEWID
 40
0
  9
$COORDS
 70
2
  0
ENDSEC
  0
SECTION
  2
TABLES
  0
TABLE
  2
DIMSTYLE
 70
6
  0
DIMSTYLE
  2
DMST_1
 70
0
  3

  4

  5

  6

  7

 40
1
 41
3.2
 42
1
 43
7
 44
2
 45
0
 46
0
 47
0
 48
0
140
3.2
141
0
142
0
143
25.4
144
1
145
0
146
1
147
0.09
 71
0
 72
0
 73
0
 74
0
 75
0
 76
0
 77
1
 78
9
170
0
171
2
172
0
173
0
174
0
175
0
176
2
177
2
178
2
  0
DIMSTYLE
  2
DMST_2
 70
0
  3

  4

  5

  6

  7

 40
1
 41
3.2
 42
1
 43
7
 44
2
 45
0
 46
0
 47
0
 48
0
140
3.2
141
0
142
0
143
25.4
144
1
145
0
146
0.6
147
0.09
 71
1
 72
0
 73
0
 74
0
 75
0
 76
0
 77
1
 78
9
170
0
171
2
172
0
173
0
174
0
175
0
176
2
177
2
178
2
  0
DIMSTYLE
  2
DMST_3
 70
0
  3

  4

  5

  6

  7

 40
1
 41
3.2
 42
1
 43
7
 44
2
 45
0
 46
0
 47
0
 48
0
140
3.2
141
0
142
0
143
25.4
144
1
145
0
146
1
147
0.09
 71
0
 72
0
 73
1
 74
1
 75
0
 76
0
 77
1
 78
9
170
0
171
2
172
0
173
0
174
0
175
0
176
2
177
2
178
2
  0
DIMSTYLE
  2
DMST_4
 70
0
  3

  4

  5

  6

  7

 40
1
 41
3.2
 42
1
 43
7
 44
1.5
 45
0
 46
0
 47
0.3
 48
0.3
140
3.2
141
0
142
0
143
25.4
144
1
145
0
146
0.6
147
0.09
 71
1
 72
0
 73
0
 74
0
 75
0
 76
0
 77
1
 78
9
170
0
171
2
172
0
173
0
174
0
175
0
176
2
177
2
178
2
  0
DIMSTYLE
  2
DMST_5
 70
0
  3

  4

  5

  6

  7

 40
1
 41
3.2
 42
1
 43
7
 44
1.5
 45
0
 46
0
 47
0
 48
0
140
3.2
141
0
142
0
143
25.4
144
1
145
0
146
1
147
0.09
 71
0
 72
0
 73
0
 74
0
 75
0
 76
0
 77
1
 78
9
170
0
171
2
172
0
173
0
174
0
175
0
176
2
177
2
178
2
  0
DIMSTYLE
  2
DMST_6
 70
0
  3
)
  4

  5

  6

  7

 40
1
 41
3.2
 42
1
 43
7
 44
1.5
 45
0
 46
0
 47
0
 48
0
140
3.2
141
0
142
0
143
25.4
144
1
145
0
146
1
147
0.09
 71
0
 72
0
 73
0
 74
0
 75
0
 76
0
 77
1
 78
9
170
0
171
2
172
0
173
0
174
1
175
0
176
2
177
2
178
2
  0
ENDTAB
  0
TABLE
  2
LTYPE
 70
9
  0
LTYPE
  2
CONTINUOUS
 70
64
  3
Solid line
 72
65
 73
0
 40
0
  0
LTYPE
  2
BORDER
 70
64
  3
__ __ . __ __ .
 72
65
 73
6
 40
16.05258498637576
 49
4.586452853250217
 49
-2.293226426625108
 49
4.586452853250217
 49
-2.293226426625108
 49
0
 49
-2.293226426625108
  0
LTYPE
  2
CENTER
 70
64
  3
____ _ ____ _
 72
65
 73
4
 40
18.34581141300087
 49
11.46613213312554
 49
-2.293226426625108
 49
2.293226426625108
 49
-2.293226426625108
  0
LTYPE
  2
DASHDOT
 70
64
  3
__ . __ . __ .
 72
65
 73
4
 40
9.172905706500433
 49
4.586452853250217
 49
-2.293226426625108
 49
0
 49
-2.293226426625108
  0
LTYPE
  2
DASHED
 70
64
  3
__ __ __ __ __
 72
65
 73
2
 40
6.879679279875325
 49
4.586452853250217
 49
-2.293226426625108
  0
LTYPE
  2
DIVIDE
 70
64
  3
__ . . __ . . 
 72
65
 73
6
 40
11.46613213312554
 49
4.586452853250217
 49
-2.293226426625108
 49
0
 49
-2.293226426625108
 49
0
 49
-2.293226426625108
  0
LTYPE
  2
DOT
 70
64
  3
..............
 72
65
 73
4
 40
4.586452853250217
 49
0
 49
-2.293226426625108
 49
0
 49
-2.293226426625108
  0
LTYPE
  2
HIDDEN
 70
64
  3
_ _ _ _ _ _ _
 72
65
 73
2
 40
3.439839639937663
 49
2.293226426625108
 49
-1.146613213312554
  0
LTYPE
  2
PHANTOM
 70
64
  3
_____ _ _ _____ _ _ 
 72
65
 73
6
 40
22.93226426625108
 49
11.46613213312554
 49
-2.293226426625108
 49
2.293226426625108
 49
-2.293226426625108
 49
2.293226426625108
 49
-2.293226426625108
  0
ENDTAB
  0
TABLE
  2
LAYER
 70
3
  0
LAYER
  2
1
 70
0
 62
7
  6
CONTINUOUS
  0
LAYER
  2
0
 70
0
 62
7
  6
CONTINUOUS
  0
ENDTAB
  0
TABLE
  2
STYLE
 70
4
  0
STYLE
  2
STANDARD
 70
0
 40
0
 41
1
 50
0
 71
0
 42
3.5
  3
txt
  4

  0
STYLE
  2
SIMPLEX
 70
0
 40
0
 41
1
 50
0
 71
0
 42
3.5
  3
simplex
  4

  0
STYLE
  2
COMPLEX
 70
0
 40
0
 41
1
 50
0
 71
0
 42
3.5
  3
complex
  4

  0
STYLE
  2
ITALIC
 70
0
 40
0
 41
1
 50
0
 71
0
 42
3.5
  3
italic
  4

  0
ENDTAB
  0
TABLE
  2
VIEW
 70
0
  0
ENDTAB
  0
ENDSEC
  0
SECTION
  2
BLOCKS
  0
BLOCK
  8
1
  2
*D0
 70
1
 10
0
 20
0
 30
0
  0
LINE
  8
1
 62
2
 10
303.2135660923975
 20
-844.1329722216096
 30
0
 11
316.2135660923975
 21
-844.1329722216096
 31
0
  0
LINE
  8
1
 62
2
 10
303.2135660923975
 20
-890.2514722216097
 30
0
 11
303.2135660923975
 21
-842.1329722216096
 31
0
  0
LINE
  8
1
 62
2
 10
316.2135660923975
 20
-862.6329722216096
 30
0
 11
316.2135660923975
 21
-842.1329722216096
 31
0
  0
SOLID
  8
1
 62
2
 10
316.2135660923975
 20
-844.1329722216096
 30
0
 11
313.0135660923975
 21
-844.5489722216097
 31
0
 12
313.0135660923975
 22
-843.7169722216096
 32
0
 13
313.0135660923975
 23
-843.7169722216096
 33
0
  0
SOLID
  8
1
 62
2
 10
303.2135660923975
 20
-844.1329722216096
 30
0
 11
306.4135660923975
 21
-843.7169722216096
 31
0
 12
306.4135660923975
 22
-844.5489722216097
 32
0
 13
306.4135660923975
 23
-844.5489722216097
 33
0
  0
TEXT
  8
1
 62
2
 10
307.7935660923975
 20
-842.1329722216097
 30
0
 40
3.2
  1
13
 41
0.9
  0
ENDBLK
  8
0
  0
BLOCK
  8
0
  2
G6G__1
 70
0
 10
379.955881875414
 20
-1149.27561920877
 30
0
  0
POINT
  8
1
 62
4
  6
DIVIDE
 10
316.2135660923975
 20
-863.6329722216096
 30
0
  0
LINE
  8
1
 62
2
 10
304.315723746485
 20
-890.7514722216097
 30
0
 11
307.3041649367291
 21
-897.5144722216096
 31
0
  0
LINE
  8
1
 62
2
 10
305.315723746485
 20
-890.7514722216097
 30
0
 11
308.3041649367291
 21
-897.5144722216096
 31
0
  0
LINE
  8
1
 62
2
 10
306.315723746485
 20
-890.7514722216097
 30
0
 11
309.3041649367291
 21
-897.5144722216096
 31
0
  0
LINE
  8
1
 62
3
 10
303.7135660923975
 20
-897.5144722216096
 30
0
 11
314.2135660923975
 21
-897.5144722216096
 31
0
  0
LINE
  8
1
 62
3
 10
303.2135660923975
 20
-897.0144722216096
 30
0
 11
303.7135660923975
 21
-897.5144722216096
 31
0
  0
LINE
  8
1
 62
3
 10
303.2135660923975
 20
-894.1329722216096
 30
0
 11
303.2135660923975
 21
-897.0144722216096
 31
0
  0
LINE
  8
1
 62
3
 10
303.7135660923975
 20
-890.7514722216097
 30
0
 11
303.2135660923975
 21
-891.2514722216097
 31
0
  0
LINE
  8
1
 62
2
  6
CENTER
 10
313.7135660923975
 20
-891.4329722216096
 30
0
 11
301.2135660923975
 21
-891.4329722216096
 31
0
  0
LINE
  8
1
 62
3
 10
303.2135660923975
 20
-891.2514722216097
 30
0
 11
303.2135660923975
 21
-894.1329722216096
 31
0
  0
LINE
  8
1
 62
3
 10
314.2135660923975
 20
-890.7514722216097
 30
0
 11
303.7135660923975
 21
-890.7514722216097
 31
0
  0
LINE
  8
1
 62
1
 10
314.2135660923975
 20
-894.1329722216096
 30
0
 11
298.2135660923975
 21
-894.1329722216096
 31
0
  0
LINE
  8
1
 62
2
  6
CENTER
 10
301.2135660923975
 20
-896.8329722216097
 30
0
 11
313.7135660923975
 21
-896.8329722216097
 31
0
  0
LINE
  8
1
 62
2
 10
259.2858428104892
 20
-943.8284538412727
 30
0
 11
302.7702128118815
 21
-943.8284538412727
 31
0
  0
LINE
  8
1
 62
2
 10
259.2858428104892
 20
-950.8284538412727
 30
0
 11
302.7702128118815
 21
-950.8284538412727
 31
0
  0
LINE
  8
1
 62
2
 10
259.2858428104892
 20
-957.8284538412727
 30
0
 11
302.7702128118815
 21
-957.8284538412727
 31
0
  0
LINE
  8
1
 62
2
 10
259.2858428104892
 20
-964.8284538412727
 30
0
 11
302.7702128118815
 21
-964.8284538412727
 31
0
  0
LINE
  8
1
 62
2
 10
259.2858428104892
 20
-971.8284538412724
 30
0
 11
302.7702128118815
 21
-971.8284538412724
 31
0
  0
LINE
  8
1
 62
2
 10
259.2858428104892
 20
-978.8284538412724
 30
0
 11
302.7702128118815
 21
-978.8284538412724
 31
0
  0
LINE
  8
1
 62
2
 10
259.2858428104892
 20
-936.8284538412727
 30
0
 11
302.7702128118815
 21
-936.8284538412727
 31
0
  0
LINE
  8
1
 62
2
 10
302.7702128118815
 20
-936.8284538412727
 30
0
 11
308.1041011428355
 21
-897.5144722216096
 31
0
  0
SOLID
  8
1
 62
2
 10
308.0913489084696
 20
-900.7420597034538
 30
0
 11
307.2564223202829
 21
-900.6287818058088
 31
0
 12
308.1041011428355
 22
-897.5144722216096
 32
0
 13
308.1041011428355
 23
-897.5144722216096
 33
0
  0
TEXT
  8
1
 62
2
 10
261.4047986771251
 20
-935.9062541151625
 30
0
 40
4
  1
   âwâèâJâïÄdùl
 41
0.7200000000000001
  0
TEXT
  8
1
 62
2
 10
261.4047986771251
 20
-942.9062541151625
 30
0
 40
4
  1
âéâWâàü[âï : 0.5
 41
0.7200000000000001
  0
TEXT
  8
1
 62
2
 10
261.4047986771251
 20
-949.9062541151625
 30
0
 40
4
  1
êü@ù═ü@èp : 20%%d
 41
0.7200000000000001
  0
TEXT
  8
1
 62
2
 10
261.4047986771251
 20
-956.9062541151625
 30
0
 40
4
  1
Äòü@ü@ü@Éö : 10
 41
0.7200000000000001
  0
TEXT
  8
1
 62
2
 10
261.4047986771251
 20
-963.9062541151625
 30
0
 40
4
  1
èOü@ü@ü@îa : âË6.8
 41
0.7200000000000001
  0
TEXT
  8
1
 62
2
 10
261.4047986771251
 20
-970.9062541151625
 30
0
 40
4
  1
é╦éÂéÛò¹î³ : ëE
 41
0.7200000000000001
  0
TEXT
  8
1
 62
2
 10
261.4047986771251
 20
-977.9062541151625
 30
0
 40
4
  1
 èÜìçæèÄÞâsâjâIâôÄdùl
 41
0.7200000000000001
  0
DIMENSION
  8
1
  6
CONTINUOUS
 62
2
  2
*D0
  3
DMST_1
 10
303.2135660923975
 20
-844.1329722216096
 30
0
 11
309.7135660923975
 21
-840.5329722216097
 31
0
 12
0
 22
0
 32
0
 70
0
 13
316.2135660923975
 23
-863.6329722216096
 33
0
 14
303.2135660923975
 24
-891.2514722216097
 34
0
 53
0
  0
ENDBLK
  8
0
  0
BLOCK
  8
1
  2
*D1
 70
1
 10
0
 20
0
 30
0
  0
LINE
  8
1
 62
2
 10
293.2135660923974
 20
-921.1329722216096
 30
0
 11
293.2135660923974
 21
-867.1329722216096
 31
0
  0
LINE
  8
1
 62
2
 10
313.9635660923973
 20
-921.1329722216096
 30
0
 11
291.2135660923974
 21
-921.1329722216096
 31
0
  0
LINE
  8
1
 62
2
 10
313.9635660923973
 20
-867.1329722216096
 30
0
 11
291.2135660923974
 21
-867.1329722216096
 31
0
  0
SOLID
  8
1
 62
2
 10
293.2135660923974
 20
-867.1329722216096
 30
0
 11
293.6295660923974
 21
-870.3329722216097
 31
0
 12
292.7975660923974
 22
-870.3329722216097
 32
0
 13
292.7975660923974
 23
-870.3329722216097
 33
0
  0
SOLID
  8
1
 62
2
 10
293.2135660923974
 20
-921.1329722216096
 30
0
 11
292.7975660923974
 21
-917.9329722216096
 31
0
 12
293.6295660923974
 22
-917.9329722216096
 32
0
 13
293.6295660923974
 23
-917.9329722216096
 33
0
  0
TEXT
  8
1
 62
2
 10
290.4135660923974
 20
-901.7747499993874
 30
0
 40
3.2
  1
54h7
 50
90
 41
0.9
  0
TEXT
  8
1
 62
2
 10
288.3335660923974
 20
-888.0787499993875
 30
0
 40
1.92
  1
0
 50
90
 41
0.9
  0
TEXT
  8
1
 62
2
 10
291.2135660923974
 20
-889.6147499993874
 30
0
 40
1.92
  1
-0.03
 50
90
 41
0.9
  0
TEXT
  8
1
 62
2
 10
290.4135660923974
 20
-905.4191944438319
 30
0
 40
3.2
  1
âË
 50
90
 41
0.9
  0
ENDBLK
  8
0
  0
BLOCK
  8
0
  2
B
 70
0
 10
388.937079141914
 20
-1022.75549750768
 30
0
  0
POINT
  8
1
 62
4
  6
DIVIDE
 10
314.9635660923973
 20
-921.1329722216096
 30
0
  0
POINT
  8
1
 62
4
  6
DIVIDE
 10
314.9635660923973
 20
-867.1329722216096
 30
0
  0
DIMENSION
  8
1
  6
CONTINUOUS
 62
2
  2
*D1
  3
DMST_2
 10
293.2135660923974
 20
-921.1329722216096
 30
0
 11
288.8135660923974
 21
-894.1329722216096
 31
0
 12
0
 22
0
 32
0
 70
0
  1
54h7
 13
314.9635660923973
 23
-867.1329722216096
 33
0
 14
314.9635660923973
 24
-921.1329722216096
 34
0
 50
90
 53
0
  0
ENDBLK
  8
0
  0
BLOCK
  8
1
  2
*D2
 70
1
 10
0
 20
0
 30
0
  0
LINE
  8
1
 62
2
 10
134.1091697000879
 20
-844.1329722216096
 30
0
 11
166.1091697000879
 21
-844.1329722216096
 31
0
  0
LINE
  8
1
 62
2
 10
134.1091697000879
 20
-880.1329722216096
 30
0
 11
134.1091697000879
 21
-842.1329722216096
 31
0
  0
LINE
  8
1
 62
2
 10
166.1091697000879
 20
-863.8829722216096
 30
0
 11
166.1091697000879
 21
-842.1329722216096
 31
0
  0
SOLID
  8
1
 62
2
 10
134.1091697000879
 20
-844.1329722216096
 30
0
 11
137.3091697000879
 21
-843.7169722216096
 31
0
 12
137.3091697000879
 22
-844.5489722216097
 32
0
 13
137.3091697000879
 23
-844.5489722216097
 33
0
  0
SOLID
  8
1
 62
2
 10
166.1091697000879
 20
-844.1329722216096
 30
0
 11
162.9091697000879
 21
-844.5489722216097
 31
0
 12
162.9091697000879
 22
-843.7169722216096
 32
0
 13
162.9091697000879
 23
-843.7169722216096
 33
0
  0
TEXT
  8
1
 62
2
 10
147.657460536363
 20
-842.1329722216097
 30
0
 40
3.2
  1
32
 41
0.9
  0
ENDBLK
  8
0
  0
BLOCK
  8
1
  2
*D3
 70
1
 10
0
 20
0
 30
0
  0
LINE
  8
1
 62
2
 10
134.1091697000881
 20
-870.1329722216093
 30
0
 11
147.1091697000881
 21
-870.1329722216093
 31
0
  0
LINE
  8
1
 62
2
 10
147.1091697000881
 20
-880.1329722216094
 30
0
 11
147.1091697000881
 21
-868.1329722216093
 31
0
  0
LINE
  8
1
 62
2
 10
134.1091697000881
 20
-880.1329722216094
 30
0
 11
134.1091697000881
 21
-868.1329722216093
 31
0
  0
SOLID
  8
1
 62
2
 10
134.1091697000881
 20
-870.1329722216093
 30
0
 11
137.3091697000881
 21
-869.7169722216092
 31
0
 12
137.3091697000881
 22
-870.5489722216093
 32
0
 13
137.3091697000881
 23
-870.5489722216093
 33
0
  0
SOLID
  8
1
 62
2
 10
147.1091697000881
 20
-870.1329722216093
 30
0
 11
143.9091697000881
 21
-870.5489722216093
 31
0
 12
143.9091697000881
 22
-869.7169722216092
 32
0
 13
143.9091697000881
 23
-869.7169722216092
 33
0
  0
TEXT
  8
1
 62
2
 10
138.6793917199601
 20
-868.1329722216093
 30
0
 40
3.2
  1
13
 41
0.9
  0
ENDBLK
  8
0
  0
BLOCK
  8
1
  2
*D4
 70
1
 10
0
 20
0
 30
0
  0
LINE
  8
1
 62
2
 10
124.109169700088
 20
-880.1329722216095
 30
0
 11
124.109169700088
 21
-873.7329722216095
 31
0
  0
LINE
  8
1
 62
2
 10
124.109169700088
 20
-881.1329722216096
 30
0
 11
124.109169700088
 21
-880.1329722216095
 31
0
  0
LINE
  8
1
 62
2
 10
124.109169700088
 20
-887.5329722216095
 30
0
 11
124.109169700088
 21
-881.1329722216096
 31
0
  0
LINE
  8
1
 62
2
 10
151.4943345072226
 20
-880.1329722216095
 30
0
 11
122.109169700088
 21
-880.1329722216095
 31
0
  0
LINE
  8
1
 62
2
 10
133.109169700088
 20
-881.1329722216096
 30
0
 11
122.109169700088
 21
-881.1329722216096
 31
0
  0
SOLID
  8
1
 62
2
 10
124.109169700088
 20
-880.1329722216095
 30
0
 11
123.693169700088
 21
-876.9329722216095
 31
0
 12
124.525169700088
 22
-876.9329722216095
 32
0
 13
124.525169700088
 23
-876.9329722216095
 33
0
  0
SOLID
  8
1
 62
2
 10
124.109169700088
 20
-881.1329722216096
 30
0
 11
124.525169700088
 21
-884.3329722216097
 31
0
 12
123.693169700088
 22
-884.3329722216097
 32
0
 13
123.693169700088
 23
-884.3329722216097
 33
0
  0
TEXT
  8
1
 62
2
 10
122.109169700088
 20
-877.255406230395
 30
0
 40
3.2
  1
1
 50
90
 41
0.9
  0
ENDBLK
  8
0
  0
BLOCK
  8
1
  2
*D5
 70
1
 10
0
 20
0
 30
0
  0
LINE
  8
1
 62
2
 10
114.109169700088
 20
-880.1329722216096
 30
0
 11
114.109169700088
 21
-873.7329722216097
 31
0
  0
LINE
  8
1
 62
2
 10
114.109169700088
 20
-888.1329722216096
 30
0
 11
114.109169700088
 21
-894.5329722216096
 31
0
  0
LINE
  8
1
 62
2
 10
114.109169700088
 20
-888.1329722216096
 30
0
 11
114.109169700088
 21
-880.1329722216096
 31
0
  0
LINE
  8
1
 62
2
 10
151.4943345072226
 20
-880.1329722216096
 30
0
 11
112.109169700088
 21
-880.1329722216096
 31
0
  0
LINE
  8
1
 62
2
 10
133.609169700088
 20
-888.1329722216096
 30
0
 11
112.109169700088
 21
-888.1329722216096
 31
0
  0
SOLID
  8
1
 62
2
 10
114.109169700088
 20
-880.1329722216096
 30
0
 11
113.693169700088
 21
-876.9329722216096
 31
0
 12
114.525169700088
 22
-876.9329722216096
 32
0
 13
114.525169700088
 23
-876.9329722216096
 33
0
  0
SOLID
  8
1
 62
2
 10
114.109169700088
 20
-888.1329722216096
 30
0
 11
114.525169700088
 21
-891.3329722216097
 31
0
 12
113.693169700088
 22
-891.3329722216097
 32
0
 13
113.693169700088
 23
-891.3329722216097
 33
0
  0
TEXT
  8
1
 62
2
 10
111.309169700088
 20
-887.1265556107109
 30
0
 40
3.2
  1
8
 50
90
 41
0.9
  0
TEXT
  8
1
 62
2
 10
109.229169700088
 20
-882.0705556107108
 30
0
 40
1.92
  1
0
 50
90
 41
0.9
  0
TEXT
  8
1
 62
2
 10
112.109169700088
 20
-883.6065556107109
 30
0
 40
1.92
  1
-0.02
 50
90
 41
0.9
  0
TEXT
  8
1
 62
2
 10
111.309169700088
 20
-890.7710000551552
 30
0
 40
3.2
  1
âË
 50
90
 41
0.9
  0
ENDBLK
  8
0
  0
BLOCK
  8
0
  2
G6G__2
 70
0
 10
401.198259975683
 20
-867.4349513910929
 30
0
  0
POINT
  8
1
 62
4
  6
DIVIDE
 10
166.1091697000879
 20
-864.8829722216096
 30
0
  0
LINE
  8
1
 62
3
 10
134.1091697000879
 20
-887.6329722216096
 30
0
 11
134.6091697000879
 21
-888.1329722216096
 31
0
  0
LINE
  8
1
 62
3
 10
134.6091697000879
 20
-888.1329722216096
 30
0
 11
161.1091697000879
 21
-888.1329722216096
 31
0
  0
LINE
  8
1
 62
3
 10
134.1091697000879
 20
-884.1329722216096
 30
0
 11
134.1091697000879
 21
-887.6329722216096
 31
0
  0
LINE
  8
1
 62
3
 10
147.1091697000879
 20
-881.1329722216096
 30
0
 11
134.1091697000879
 21
-881.1329722216096
 31
0
  0
LINE
  8
1
 62
3
 10
134.1091697000879
 20
-881.1329722216096
 30
0
 11
134.1091697000879
 21
-884.1329722216096
 31
0
  0
LINE
  8
1
 62
3
 10
161.1091697000879
 20
-880.1329722216096
 30
0
 11
152.4943345072227
 21
-880.1329722216095
 31
0
  0
LINE
  8
1
 62
1
 10
161.1091697000879
 20
-884.1329722216096
 30
0
 11
129.1091697000879
 21
-884.1329722216096
 31
0
  0
LINE
  8
1
 62
3
 10
25.44004198126538
 20
-881.1329722216096
 30
0
 11
30.73154460339452
 21
-881.1329722216096
 31
0
  0
ARC
  8
1
 62
3
 10
147.1091697000879
 20
-866.1329722216096
 30
0
 40
15
 50
270
 51
291.0394697813184
  0
CIRCLE
  8
1
 62
3
 10
28.08579329232992
 20
-884.1329722216096
 30
0
 40
3.999999999999996
  0
DIMENSION
  8
1
  6
CONTINUOUS
 62
2
  2
*D2
  3
DMST_1
 10
134.1091697000879
 20
-844.1329722216096
 30
0
 11
150.057460536363
 21
-840.5329722216097
 31
0
 12
0
 22
0
 32
0
 70
0
 13
166.1091697000879
 23
-864.8829722216096
 33
0
 14
134.1091697000879
 24
-881.1329722216096
 34
0
 53
0
  0
DIMENSION
  8
1
  6
CONTINUOUS
 62
2
  2
*D3
  3
DMST_1
 10
134.1091697000881
 20
-870.1329722216093
 30
0
 11
140.5993917199601
 21
-866.5329722216093
 31
0
 12
0
 22
0
 32
0
 70
0
 13
147.1091697000879
 23
-881.1329722216096
 33
0
 14
134.1091697000879
 24
-881.1329722216096
 34
0
 53
0
  0
DIMENSION
  8
1
  6
CONTINUOUS
 62
2
  2
*D4
  3
DMST_1
 10
124.109169700088
 20
-880.1329722216095
 30
0
 11
120.509169700088
 21
-876.775406230395
 31
0
 12
0
 22
0
 32
0
 70
0
  1
1
 13
134.1091697000879
 23
-881.1329722216096
 33
0
 14
152.4943345072227
 24
-880.1329722216095
 34
0
 50
90
 53
0
  0
DIMENSION
  8
1
  6
CONTINUOUS
 62
2
  2
*D5
  3
DMST_2
 10
114.109169700088
 20
-880.1329722216096
 30
0
 11
109.709169700088
 21
-883.804777832933
 31
0
 12
0
 22
0
 32
0
 70
0
  1
âË<>
 13
134.6091697000879
 23
-888.1329722216096
 33
0
 14
152.4943345072227
 24
-880.1329722216095
 34
0
 50
90
 53
0
  0
ENDBLK
  8
0
  0
BLOCK
  8
0
  2
MOJINOMUKI
 70
0
 10
215.3403585586309
 20
-846.616096788046
 30
0
  0
LINE
  8
1
 62
2
 10
212.3403585586309
 20
-846.616096788046
 30
0
 11
212.3403585586309
 21
-820.616096788046
 31
0
  0
LINE
  8
1
 62
2
 10
212.3403585586309
 20
-820.616096788046
 30
0
 11
218.3403585586309
 21
-820.616096788046
 31
0
  0
LINE
  8
1
 62
2
 10
218.3403585586309
 20
-820.616096788046
 30
0
 11
218.3403585586309
 21
-846.616096788046
 31
0
  0
LINE
  8
1
 62
2
 10
218.3403585586309
 20
-846.616096788046
 30
0
 11
212.3403585586309
 21
-846.616096788046
 31
0
  0
LINE
  8
1
 62
2
 10
212.3403585586309
 20
-840.616096788046
 30
0
 11
218.3403585586309
 21
-840.616096788046
 31
0
  0
LINE
  8
1
 62
2
 10
217.8403585586309
 20
-843.616096788046
 30
0
 11
212.8403585586309
 21
-843.616096788046
 31
0
  0
LINE
  8
1
 62
2
 10
212.8403585586309
 20
-843.616096788046
 30
0
 11
215.3403585586309
 21
-845.116096788046
 31
0
  0
LINE
  8
1
 62
2
 10
215.3403585586309
 20
-845.116096788046
 30
0
 11
215.3403585586309
 21
-842.616096788046
 31
0
  0
TEXT
  8
1
 62
2
 10
217.3403585586309
 20
-848.5693512259159
 30
0
 40
4
  1
òÂÄÜé╠î³é½
 50
90
 41
0.9
 72
1
 73
2
 11
215.3403585586309
 21
-830.5693512259159
 31
0
  0
ENDBLK
  8
0
  0
BLOCK
  8
0
  2
____M3_______
 70
0
 10
7.785793292330027
 20
-882.3329722216095
 30
0
  0
LINE
  8
1
 62
3
 10
7.056060102857487
 20
-881.0799800140589
 30
0
 11
7.667099474010115
 21
-881.6910193852116
 31
0
  0
LINE
  8
1
 62
3
 10
8.51552648180251
 20
-881.0799800140589
 30
0
 11
7.904487110649825
 21
-881.6910193852116
 31
0
  0
LINE
  8
1
 62
3
 10
6.532801084779521
 20
-883.0627054110819
 30
0
 11
7.143840455932093
 21
-882.4516660399293
 31
0
  0
LINE
  8
1
 62
3
 10
6.532801084779521
 20
-881.603239032137
 30
0
 11
7.143840455931979
 21
-882.2142784032897
 31
0
  0
LINE
  8
1
 62
3
 10
7.904487110649825
 20
-882.9749250580073
 30
0
 11
7.910622060469677
 21
-882.9810600078272
 31
0
  0
LINE
  8
1
 62
3
 10
7.910622060469677
 20
-882.9810600078272
 30
0
 11
8.51552648180251
 21
-883.58596442916
 31
0
  0
LINE
  8
1
 62
3
 10
7.056060102857487
 20
-883.58596442916
 30
0
 11
7.667099474010115
 21
-882.9749250580073
 31
0
  0
LINE
  8
1
 62
3
 10
9.038785499880476
 20
-881.603239032137
 30
0
 11
8.42774612872779
 21
-882.2142784032897
 31
0
  0
LINE
  8
1
 62
3
 10
9.038785499880476
 20
-883.0627054110819
 30
0
 11
8.42774612872779
 21
-882.4516660399293
 31
0
  0
LINE
  8
1
 62
3
 10
48.50448711064979
 20
-881.6910193852116
 30
0
 11
49.11552648180242
 21
-881.0799800140589
 31
0
  0
LINE
  8
1
 62
3
 10
48.26709947401008
 20
-881.6910193852116
 30
0
 11
47.65606010285751
 21
-881.0799800140589
 31
0
  0
LINE
  8
1
 62
3
 10
49.02774612872793
 20
-882.4516660399293
 30
0
 11
49.6387854998805
 21
-883.0627054110819
 31
0
  0
LINE
  8
1
 62
3
 10
49.02774612872793
 20
-882.2142784032897
 30
0
 11
49.6387854998805
 21
-881.603239032137
 31
0
  0
LINE
  8
1
 62
3
 10
48.26096452419011
 20
-882.9810600078272
 30
0
 11
48.26709947401008
 21
-882.9749250580073
 31
0
  0
LINE
  8
1
 62
3
 10
47.65606010285751
 20
-883.58596442916
 30
0
 11
48.26096452419011
 21
-882.9810600078272
 31
0
  0
LINE
  8
1
 62
3
 10
48.50448711064979
 20
-882.9749250580073
 30
0
 11
49.11552648180242
 21
-883.58596442916
 31
0
  0
LINE
  8
1
 62
3
 10
47.743840455932
 20
-882.2142784032897
 30
0
 11
47.13280108477937
 21
-881.603239032137
 31
0
  0
LINE
  8
1
 62
3
 10
47.743840455932
 20
-882.4516660399293
 30
0
 11
47.13280108477937
 21
-883.0627054110819
 31
0
  0
LINE
  8
1
 62
3
 10
28.20448711064978
 20
-916.9910193852118
 30
0
 11
28.81552648180252
 21
-916.3799800140591
 31
0
  0
LINE
  8
1
 62
3
 10
27.96709947401013
 20
-916.9910193852118
 30
0
 11
27.3560601028575
 21
-916.3799800140591
 31
0
  0
LINE
  8
1
 62
3
 10
28.72774612872792
 20
-917.7516660399294
 30
0
 11
29.33878549988049
 21
-918.3627054110821
 31
0
  0
LINE
  8
1
 62
3
 10
28.72774612872792
 20
-917.5142784032898
 30
0
 11
29.33878549988049
 21
-916.9032390321372
 31
0
  0
LINE
  8
1
 62
3
 10
27.96096452419022
 20
-918.2810600078274
 30
0
 11
27.96709947401013
 21
-918.2749250580075
 31
0
  0
LINE
  8
1
 62
3
 10
27.3560601028575
 20
-918.8859644291601
 30
0
 11
27.96096452419022
 21
-918.2810600078274
 31
0
  0
LINE
  8
1
 62
3
 10
28.20448711064978
 20
-918.2749250580075
 30
0
 11
28.81552648180252
 21
-918.8859644291601
 31
0
  0
LINE
  8
1
 62
3
 10
27.44384045593199
 20
-917.5142784032898
 30
0
 11
26.83280108477948
 21
-916.9032390321372
 31
0
  0
LINE
  8
1
 62
3
 10
27.44384045593199
 20
-917.7516660399294
 30
0
 11
26.83280108477948
 21
-918.3627054110821
 31
0
  0
ARC
  8
1
 62
3
 10
7.785793292330027
 20
-882.3329722216095
 30
0
 40
1.449999999999913
 50
30.2161982852506
 51
59.78380171474858
  0
ARC
  8
1
 62
3
 10
7.785793292330027
 20
-882.3329722216095
 30
0
 40
0.6350000000000058
 50
82.54155094369287
 51
97.45844905631222
  0
ARC
  8
1
 62
3
 10
7.785793292330027
 20
-882.3329722216095
 30
0
 40
1.450000000000019
 50
120.2161982852533
 51
149.7838017147505
  0
ARC
  8
1
 62
3
 10
7.785793292330027
 20
-882.3329722216095
 30
0
 40
0.6350000000001185
 50
172.5415509436942
 51
187.4584490563058
  0
ARC
  8
1
 62
3
 10
7.785793292330027
 20
-882.3329722216095
 30
0
 40
1.449999999999962
 50
210.2161982852495
 51
239.7838017147467
  0
ARC
  8
1
 62
3
 10
7.785793292330027
 20
-882.3329722216095
 30
0
 40
0.6349999999999005
 50
262.5415509436865
 51
277.4584490563084
  0
ARC
  8
1
 62
3
 10
7.785793292330027
 20
-882.3329722216095
 30
0
 40
1.44999999999999
 50
300.2161982852514
 51
329.7838017147494
  0
ARC
  8
1
 62
3
 10
7.785793292330027
 20
-882.3329722216095
 30
0
 40
0.6349999999999494
 50
352.5415509436922
 51
7.458449056307793
  0
ARC
  8
1
 62
3
 10
48.38579329232988
 20
-882.3329722216095
 30
0
 40
1.449999999999934
 50
120.2161982852475
 51
149.7838017147505
  0
ARC
  8
1
 62
3
 10
48.38579329232988
 20
-882.3329722216095
 30
0
 40
0.6350000000000141
 50
82.54155094368716
 51
97.45844905629697
  0
ARC
  8
1
 62
3
 10
48.38579329232988
 20
-882.3329722216095
 30
0
 40
1.45000000000006
 50
30.21619828524722
 51
59.78380171474664
  0
ARC
  8
1
 62
3
 10
48.38579329232988
 20
-882.3329722216095
 30
0
 40
0.6350000000000058
 50
352.5415509436929
 51
7.458449056307128
  0
ARC
  8
1
 62
3
 10
48.38579329232988
 20
-882.3329722216095
 30
0
 40
1.450000000000019
 50
300.2161982852534
 51
329.7838017147528
  0
ARC
  8
1
 62
3
 10
48.38579329232988
 20
-882.3329722216095
 30
0
 40
0.6349999999998782
 50
262.5415509437017
 51
277.4584490563142
  0
ARC
  8
1
 62
3
 10
48.38579329232988
 20
-882.3329722216095
 30
0
 40
1.449999999999962
 50
210.2161982852495
 51
239.7838017147525
  0
ARC
  8
1
 62
3
 10
48.38579329232988
 20
-882.3329722216095
 30
0
 40
0.6349999999998367
 50
172.5415509436909
 51
187.4584490563091
  0
ARC
  8
1
 62
3
 10
28.08579329232992
 20
-917.6329722216096
 30
0
 40
1.449999999999958
 50
120.2161982852492
 51
149.7838017147492
  0
ARC
  8
1
 62
3
 10
28.08579329232992
 20
-917.6329722216096
 30
0
 40
0.6350000000000058
 50
82.54155094369287
 51
97.45844905630172
  0
ARC
  8
1
 62
3
 10
28.08579329232992
 20
-917.6329722216096
 30
0
 40
1.450000000000017
 50
30.21619828524821
 51
59.78380171474458
  0
ARC
  8
1
 62
3
 10
28.08579329232992
 20
-917.6329722216096
 30
0
 40
0.6350000000000657
 50
352.5415509436936
 51
7.458449056306419
  0
ARC
  8
1
 62
3
 10
28.08579329232992
 20
-917.6329722216096
 30
0
 40
1.450000000000049
 50
300.2161982852554
 51
329.7838017147518
  0
ARC
  8
1
 62
3
 10
28.08579329232992
 20
-917.6329722216096
 30
0
 40
0.6349999999998852
 50
262.541550943697
 51
277.4584490563084
  0
ARC
  8
1
 62
3
 10
28.08579329232992
 20
-917.6329722216096
 30
0
 40
1.449999999999907
 50
210.2161982852507
 51
239.7838017147508
  0
ARC
  8
1
 62
3
 10
28.08579329232992
 20
-917.6329722216096
 30
0
 40
0.6349999999998897
 50
172.5415509436915
 51
187.4584490563085
  0
CIRCLE
  8
1
 62
3
 10
7.785793292330027
 20
-882.3329722216095
 30
0
 40
2.649999999999974
  0
CIRCLE
  8
1
 62
3
 10
48.38579329232988
 20
-882.3329722216095
 30
0
 40
2.649999999999977
  0
CIRCLE
  8
1
 62
3
 10
28.08579329232992
 20
-917.6329722216096
 30
0
 40
2.650000000000031
  0
ARC
  8
1
 62
3
 10
7.69774076786149
 20
-881.6603780913601
 30
0
 40
0.04333333333331395
 50
225.0000000000523
 51
277.458449056334
  0
ARC
  8
1
 62
3
 10
7.873845816798394
 20
-881.6603780913601
 30
0
 40
0.04333333333330159
 50
262.5415509438139
 51
315
  0
ARC
  8
1
 62
3
 10
7.113199162080718
 20
-882.4210247460778
 30
0
 40
0.04333333333331395
 50
314.9999999999477
 51
7.458449056205518
  0
ARC
  8
1
 62
3
 10
7.113199162080718
 20
-882.2449196971411
 30
0
 40
0.04333333333318975
 50
352.5415509437945
 51
45.00000000015861
  0
ARC
  8
1
 62
3
 10
7.873845816798394
 20
-883.0055663518588
 30
0
 40
0.04333333333335351
 50
45
 51
97.45844905616663
  0
ARC
  8
1
 62
3
 10
7.69774076786149
 20
-883.0055663518588
 30
0
 40
0.04333333333342895
 50
82.54155094368546
 51
134.9999999999477
  0
ARC
  8
1
 62
3
 10
8.458387422579278
 20
-882.2449196971411
 30
0
 40
0.04333333333339371
 50
135.0000000000531
 51
187.4584490561862
  0
ARC
  8
1
 62
3
 10
8.458387422579278
 20
-882.4210247460778
 30
0
 40
0.04333333333330159
 50
172.5415509438139
 51
224.9999999999469
  0
ARC
  8
1
 62
3
 10
48.47384581679842
 20
-881.6603780913601
 30
0
 40
0.04333333333331635
 50
262.5415509436648
 51
314.9999999999402
  0
ARC
  8
1
 62
3
 10
48.29774076786151
 20
-881.6603780913601
 30
0
 40
0.04333333333335351
 50
225
 51
277.4584490563352
  0
ARC
  8
1
 62
3
 10
49.0583874225793
 20
-882.4210247460778
 30
0
 40
0.04333333333341431
 50
172.5415509438334
 51
225.0000000000531
  0
ARC
  8
1
 62
3
 10
49.0583874225793
 20
-882.244919697141
 30
0
 40
0.04333333333323293
 50
135.0000000000531
 51
187.4584490563157
  0
ARC
  8
1
 62
3
 10
48.29774076786151
 20
-883.0055663518588
 30
0
 40
0.04333333333342907
 50
82.54155094368431
 51
135
  0
ARC
  8
1
 62
3
 10
48.47384581679842
 20
-883.0055663518588
 30
0
 40
0.04333333333330829
 50
45.00000000005979
 51
97.45844905631569
  0
ARC
  8
1
 62
3
 10
47.71319916208063
 20
-882.2449196971411
 30
0
 40
0.04333333333341431
 50
352.5415509438334
 51
45.00000000005314
  0
ARC
  8
1
 62
3
 10
47.71319916208063
 20
-882.4210247460778
 30
0
 40
0.04333333333331332
 50
314.9999999999469
 51
7.458449056166646
  0
ARC
  8
1
 62
3
 10
28.1738458167984
 20
-916.9603780913603
 30
0
 40
0.04333333333331635
 50
262.5415509436648
 51
314.9999999999502
  0
ARC
  8
1
 62
3
 10
27.99774076786161
 20
-916.9603780913603
 30
0
 40
0.04333333333338868
 50
224.9999999999535
 51
277.4584490561908
  0
ARC
  8
1
 62
3
 10
28.75838742257929
 20
-917.721024746078
 30
0
 40
0.04333333333330159
 50
172.5415509438139
 51
225.0000000000564
  0
ARC
  8
1
 62
3
 10
28.75838742257929
 20
-917.5449196971413
 30
0
 40
0.04333333333331081
 50
134.9999999999436
 51
187.4584490561862
  0
ARC
  8
1
 62
3
 10
27.99774076786161
 20
-918.3055663518589
 30
0
 40
0.04333333333341478
 50
82.5415509438287
 51
135.0000000000465
  0
ARC
  8
1
 62
3
 10
28.1738458167984
 20
-918.3055663518589
 30
0
 40
0.04333333333331583
 50
45.00000000004982
 51
97.45844905631569
  0
ARC
  8
1
 62
3
 10
27.41319916208062
 20
-917.5449196971413
 30
0
 40
0.04333333333341079
 50
352.5415509438327
 51
45.00000000005647
  0
ARC
  8
1
 62
3
 10
27.41319916208062
 20
-917.721024746078
 30
0
 40
0.04333333333331081
 50
314.9999999999436
 51
7.458449056167255
  0
ENDBLK
  8
0
  0
BLOCK
  8
1
  2
*D6
 70
1
 10
0
 20
0
 30
0
  0
LINE
  8
1
 62
2
 10
151.109169700088
 20
-893.1329722216096
 30
0
 11
151.109169700088
 21
-901.8190190415492
 31
0
  0
LINE
  8
1
 62
2
 10
151.109169700088
 20
-893.1329722216096
 30
0
 11
151.109169700088
 21
-875.1329722216096
 31
0
  0
LINE
  8
1
 62
2
 10
161.109169700088
 20
-875.1329722216096
 30
0
 11
149.109169700088
 21
-875.1329722216096
 31
0
  0
LINE
  8
1
 62
2
 10
161.109169700088
 20
-893.1329722216096
 30
0
 11
149.109169700088
 21
-893.1329722216096
 31
0
  0
SOLID
  8
1
 62
2
 10
151.109169700088
 20
-875.1329722216096
 30
0
 11
151.525169700088
 21
-878.3329722216097
 31
0
 12
150.693169700088
 22
-878.3329722216097
 32
0
 13
150.693169700088
 23
-878.3329722216097
 33
0
  0
SOLID
  8
1
 62
2
 10
151.109169700088
 20
-893.1329722216096
 30
0
 11
150.693169700088
 21
-889.9329722216096
 31
0
 12
151.525169700088
 22
-889.9329722216096
 32
0
 13
151.525169700088
 23
-889.9329722216096
 33
0
  0
TEXT
  8
1
 62
2
 10
149.109169700088
 20
-898.1745745971048
 30
0
 40
3.2
  1
18
 50
90
 41
0.9
  0
TEXT
  8
1
 62
2
 10
149.109169700088
 20
-901.8190190415493
 30
0
 40
3.2
  1
âË
 50
90
 41
0.9
  0
ENDBLK
  8
0
  0
BLOCK
  8
1
  2
*D7
 70
1
 10
0
 20
0
 30
0
  0
LINE
  8
1
 62
2
 10
166.1091697000879
 20
-844.1329722216096
 30
0
 11
208.1091697000879
 21
-844.1329722216096
 31
0
  0
LINE
  8
1
 62
2
 10
166.1091697000879
 20
-863.8829722216096
 30
0
 11
166.1091697000879
 21
-842.1329722216096
 31
0
  0
LINE
  8
1
 62
2
 10
208.1091697000879
 20
-863.6329722216096
 30
0
 11
208.1091697000879
 21
-842.1329722216096
 31
0
  0
SOLID
  8
1
 62
2
 10
208.1091697000879
 20
-844.1329722216096
 30
0
 11
204.9091697000879
 21
-844.5489722216097
 31
0
 12
204.9091697000879
 22
-843.7169722216096
 32
0
 13
204.9091697000879
 23
-843.7169722216096
 33
0
  0
SOLID
  8
1
 62
2
 10
166.1091697000879
 20
-844.1329722216096
 30
0
 11
169.3091697000879
 21
-843.7169722216096
 31
0
 12
169.3091697000879
 22
-844.5489722216097
 32
0
 13
169.3091697000879
 23
-844.5489722216097
 33
0
  0
TEXT
  8
1
 62
2
 10
184.362228366603
 20
-842.1329722216097
 30
0
 40
3.2
  1
42
 41
0.9
  0
ENDBLK
  8
0
  0
BLOCK
  8
1
  2
*D8
 70
1
 10
0
 20
0
 30
0
  0
LINE
  8
1
 62
2
 10
161.1091697000879
 20
-854.1329722216096
 30
0
 11
166.1091697000879
 21
-854.1329722216096
 31
0
  0
LINE
  8
1
 62
2
 10
161.1091697000879
 20
-854.1329722216096
 30
0
 11
154.7091697000879
 21
-854.1329722216096
 31
0
  0
LINE
  8
1
 62
2
 10
166.1091697000879
 20
-854.1329722216096
 30
0
 11
172.5091697000879
 21
-854.1329722216096
 31
0
  0
LINE
  8
1
 62
2
 10
161.1091697000879
 20
-875.1329722216096
 30
0
 11
161.1091697000879
 21
-852.1329722216096
 31
0
  0
LINE
  8
1
 62
2
 10
166.1091697000879
 20
-863.8829722216096
 30
0
 11
166.1091697000879
 21
-852.1329722216096
 31
0
  0
SOLID
  8
1
 62
2
 10
166.1091697000879
 20
-854.1329722216096
 30
0
 11
169.3091697000879
 21
-853.7169722216096
 31
0
 12
169.3091697000879
 22
-854.5489722216097
 32
0
 13
169.3091697000879
 23
-854.5489722216097
 33
0
  0
SOLID
  8
1
 62
2
 10
161.1091697000879
 20
-854.1329722216096
 30
0
 11
157.9091697000879
 21
-854.5489722216097
 31
0
 12
157.9091697000879
 22
-853.7169722216096
 32
0
 13
157.9091697000879
 23
-853.7169722216096
 33
0
  0
TEXT
  8
1
 62
2
 10
162.464570014838
 20
-852.1329722216097
 30
0
 40
3.2
  1
5
 41
0.9
  0
ENDBLK
  8
0
  0
BLOCK
  8
1
  2
*D9
 70
1
 10
0
 20
0
 30
0
  0
LINE
  8
1
 62
2
 10
223.1091697000879
 20
-921.1329722216096
 30
0
 11
223.1091697000879
 21
-867.1329722216096
 31
0
  0
LINE
  8
1
 62
2
 10
212.1091697000879
 20
-921.1329722216096
 30
0
 11
225.1091697000879
 21
-921.1329722216096
 31
0
  0
LINE
  8
1
 62
2
 10
212.1091697000879
 20
-867.1329722216096
 30
0
 11
225.1091697000879
 21
-867.1329722216096
 31
0
  0
SOLID
  8
1
 62
2
 10
223.1091697000879
 20
-867.1329722216096
 30
0
 11
223.5251697000879
 21
-870.3329722216097
 31
0
 12
222.6931697000879
 22
-870.3329722216097
 32
0
 13
222.6931697000879
 23
-870.3329722216097
 33
0
  0
SOLID
  8
1
 62
2
 10
223.1091697000879
 20
-921.1329722216096
 30
0
 11
222.6931697000879
 21
-917.9329722216096
 31
0
 12
223.5251697000879
 22
-917.9329722216096
 32
0
 13
223.5251697000879
 23
-917.9329722216096
 33
0
  0
TEXT
  8
1
 62
2
 10
220.3091697000879
 20
-901.9347499993875
 30
0
 40
3.2
  1
54H7
 50
90
 41
0.9
  0
TEXT
  8
1
 62
2
 10
218.2291697000879
 20
-889.4547499993874
 30
0
 40
1.92
  1
+0.03
 50
90
 41
0.9
  0
TEXT
  8
1
 62
2
 10
221.1091697000879
 20
-887.9187499993874
 30
0
 40
1.92
  1
0
 50
90
 41
0.9
  0
TEXT
  8
1
 62
2
 10
220.3091697000879
 20
-905.5791944438319
 30
0
 40
3.2
  1
âË
 50
90
 41
0.9
  0
ENDBLK
  8
0
  0
BLOCK
  8
0
  2
G6G__3
 70
0
 10
429.705758608445
 20
-1308.682176645591
 30
0
  0
LINE
  8
1
 62
3
 10
180.3603453105834
 20
-862.96725440453
 30
0
 11
195.3603453105834
 21
-862.7797544045297
 31
0
  0
LINE
  8
1
 62
1
 10
172.1091697000879
 20
-884.1329722216096
 30
0
 11
161.1091697000879
 21
-884.1329722216096
 31
0
  0
LINE
  8
1
 62
3
 10
167.1091697000879
 20
-924.1329722216096
 30
0
 11
167.1091697000879
 21
-864.1329722216096
 31
0
  0
LINE
  8
1
 62
3
 10
207.1091697000879
 20
-863.6329722216096
 30
0
 11
207.1091697000879
 21
-924.6329722216096
 31
0
  0
LINE
  8
1
 62
3
 10
166.1091697000879
 20
-864.8829722216096
 30
0
 11
166.1091697000879
 21
-873.8829722216096
 31
0
  0
LINE
  8
1
 62
3
 10
166.1091697000879
 20
-864.8829722216096
 30
0
 11
167.1091697000879
 21
-864.8829722216096
 31
0
  0
LINE
  8
1
 62
3
 10
166.1091697000879
 20
-923.3829722216096
 30
0
 11
167.1091697000879
 21
-923.3829722216096
 31
0
  0
LINE
  8
1
 62
1
 10
213.1091697000879
 20
-894.1329722216096
 30
0
 11
156.1091697000879
 21
-894.1329722216096
 31
0
  0
LINE
  8
1
 62
3
 10
208.1091697000879
 20
-894.1329722216096
 30
0
 11
208.1091697000879
 21
-923.6329722216096
 31
0
  0
LINE
  8
1
 62
3
 10
208.1091697000879
 20
-923.6329722216096
 30
0
 11
207.1091697000879
 21
-923.6329722216096
 31
0
  0
LINE
  8
1
 62
3
 10
166.1091697000879
 20
-914.3829722216096
 30
0
 11
166.1091697000879
 21
-923.3829722216096
 31
0
  0
LINE
  8
1
 62
3
 10
167.1091697000879
 20
-914.3829722216096
 30
0
 11
166.1091697000879
 21
-914.3829722216096
 31
0
  0
LINE
  8
1
 62
3
 10
167.1091697000879
 20
-924.1329722216096
 30
0
 11
207.1091697000879
 21
-924.6329722216096
 31
0
  0
LINE
  8
1
 62
3
 10
208.1091697000879
 20
-864.6329722216096
 30
0
 11
208.1091697000879
 21
-894.1329722216096
 31
0
  0
LINE
  8
1
 62
3
 10
207.1091697000879
 20
-864.6329722216096
 30
0
 11
208.1091697000879
 21
-864.6329722216096
 31
0
  0
LINE
  8
1
 62
3
 10
161.1091697000879
 20
-892.1329722216096
 30
0
 11
161.1091697000879
 21
-876.1329722216096
 31
0
  0
LINE
  8
1
 62
3
 10
166.1091697000879
 20
-893.1329722216096
 30
0
 11
162.1091697000879
 21
-893.1329722216096
 31
0
  0
LINE
  8
1
 62
3
 10
162.1091697000879
 20
-875.1329722216096
 30
0
 11
166.1091697000879
 21
-875.1329722216096
 31
0
  0
LINE
  8
1
 62
3
 10
166.1091697000879
 20
-873.8829722216096
 30
0
 11
167.1091697000879
 21
-873.8829722216096
 31
0
  0
LINE
  8
1
 62
3
 10
207.1091697000879
 20
-863.6329722216096
 30
0
 11
167.1091697000879
 21
-864.1329722216096
 31
0
  0
LINE
  8
1
 62
3
 10
-1.164206707670019
 20
-873.8829722216096
 30
0
 11
3.335793292329981
 21
-873.8829722216096
 31
0
  0
LINE
  8
1
 62
3
 10
48.33579329232992
 20
-864.8829722216096
 30
0
 11
48.33579329232992
 21
-869.3829722216096
 31
0
  0
LINE
  8
1
 62
3
 10
57.33579329232992
 20
-914.3829722216096
 30
0
 11
52.83579329232992
 21
-914.3829722216096
 31
0
  0
LINE
  8
1
 62
3
 10
7.835793292329981
 20
-869.3829722216096
 30
0
 11
7.835793292329981
 21
-864.8829722216096
 31
0
  0
LINE
  8
1
 62
3
 10
52.83579329232992
 20
-873.8829722216096
 30
0
 11
57.33579329232992
 21
-873.8829722216096
 31
0
  0
LINE
  8
1
 62
3
 10
48.33579329232992
 20
-918.8829722216096
 30
0
 11
48.33579329232992
 21
-923.3829722216096
 31
0
  0
LINE
  8
1
 62
3
 10
-1.164206707670019
 20
-869.3829722216096
 30
0
 11
-1.164206707670019
 21
-873.8829722216096
 31
0
  0
LINE
  8
1
 62
3
 10
52.83579329232992
 20
-864.8829722216096
 30
0
 11
48.33579329232992
 21
-864.8829722216096
 31
0
  0
LINE
  8
1
 62
3
 10
57.33579329232992
 20
-918.8829722216096
 30
0
 11
57.33579329232992
 21
-914.3829722216096
 31
0
  0
LINE
  8
1
 62
3
 10
7.835793292329981
 20
-864.8829722216096
 30
0
 11
3.335793292329981
 21
-864.8829722216096
 31
0
  0
LINE
  8
1
 62
3
 10
57.33579329232992
 20
-873.8829722216096
 30
0
 11
57.33579329232992
 21
-869.3829722216096
 31
0
  0
LINE
  8
1
 62
3
 10
48.33579329232992
 20
-923.3829722216096
 30
0
 11
52.83579329232992
 21
-923.3829722216096
 31
0
  0
LINE
  8
1
 62
3
 10
7.835793292329981
 20
-923.3829722216096
 30
0
 11
7.835793292329981
 21
-918.8829722216096
 31
0
  0
LINE
  8
1
 62
3
 10
3.335793292329981
 20
-923.3829722216096
 30
0
 11
7.835793292329981
 21
-923.3829722216096
 31
0
  0
LINE
  8
1
 62
3
 10
-1.164206707670019
 20
-914.3829722216096
 30
0
 11
-1.164206707670019
 21
-918.8829722216096
 31
0
  0
LINE
  8
1
 62
1
 10
34.08579329232992
 20
-917.6329722216096
 30
0
 11
22.08579329232998
 21
-917.6329722216096
 31
0
  0
LINE
  8
1
 62
1
 10
48.38579329232999
 20
-888.3329722216095
 30
0
 11
48.38579329232988
 21
-876.3329722216095
 31
0
  0
LINE
  8
1
 62
1
 10
54.38579329232999
 20
-882.3329722216095
 30
0
 11
42.38579329232999
 21
-882.3329722216095
 31
0
  0
LINE
  8
1
 62
1
 10
7.785793292330027
 20
-876.3329722216095
 30
0
 11
7.785793292330027
 21
-888.3329722216095
 31
0
  0
LINE
  8
1
 62
1
 10
13.78579329233003
 20
-882.3329722216095
 30
0
 11
1.785793292330027
 21
-882.3329722216095
 31
0
  0
LINE
  8
1
 62
1
 10
40.08579329232992
 20
-884.1329722216096
 30
0
 11
16.08579329232998
 21
-884.1329722216096
 31
0
  0
LINE
  8
1
 62
3
 10
28.08579329232992
 20
-924.6329722216096
 30
0
 11
53.08579329232992
 21
-924.6329722216096
 31
0
  0
LINE
  8
1
 62
3
 10
58.58579329232992
 20
-919.1329722216096
 30
0
 11
58.58579329232992
 21
-894.1329722216096
 31
0
  0
LINE
  8
1
 62
3
 10
3.335793292329981
 20
-914.3829722216096
 30
0
 11
-1.164206707670019
 21
-914.3829722216096
 31
0
  0
LINE
  8
1
 62
3
 10
-2.414206707670019
 20
-894.1329722216096
 30
0
 11
-2.414206707670019
 21
-919.1329722216096
 31
0
  0
LINE
  8
1
 62
3
 10
3.085793292329981
 20
-924.6329722216096
 30
0
 11
28.08579329232992
 21
-924.6329722216096
 31
0
  0
LINE
  8
1
 62
3
 10
28.08579329232992
 20
-863.6329722216096
 30
0
 11
3.085793292329981
 21
-863.6329722216096
 31
0
  0
LINE
  8
1
 62
3
 10
-2.414206707670019
 20
-869.1329722216096
 30
0
 11
-2.414206707670019
 21
-894.1329722216096
 31
0
  0
LINE
  8
1
 62
3
 10
58.58579329232992
 20
-894.1329722216096
 30
0
 11
58.58579329232992
 21
-869.1329722216096
 31
0
  0
LINE
  8
1
 62
3
 10
53.08579329232992
 20
-863.6329722216096
 30
0
 11
28.08579329232992
 21
-863.6329722216096
 31
0
  0
LINE
  8
1
 62
1
 10
204.1091697000879
 20
-867.1329722216096
 30
0
 11
211.1091697000879
 21
-867.1329722216096
 31
0
  0
LINE
  8
1
 62
1
 10
163.1091697000879
 20
-869.3829722216096
 30
0
 11
170.1091697000879
 21
-869.3829722216096
 31
0
  0
LINE
  8
1
 62
1
 10
211.1091697000879
 20
-921.1329722216096
 30
0
 11
204.1091697000879
 21
-921.1329722216096
 31
0
  0
LINE
  8
1
 62
1
 10
170.1091697000879
 20
-918.8829722216096
 30
0
 11
163.1091697000879
 21
-918.8829722216096
 31
0
  0
ARC
  8
1
 62
3
 10
52.83579329232992
 20
-918.8829722216096
 30
0
 40
4.5
 50
90
 51
180
  0
ARC
  8
1
 62
3
 10
3.335793292329981
 20
-918.8829722216096
 30
0
 40
4.5
 50
0
 51
90
  0
ARC
  8
1
 62
3
 10
3.335793292329981
 20
-869.3829722216096
 30
0
 40
4.5
 50
270
 51
0
  0
ARC
  8
1
 62
3
 10
52.83579329232992
 20
-869.3829722216096
 30
0
 40
4.5
 50
180
 51
270
  0
CIRCLE
  8
1
 62
3
 10
28.08579329232992
 20
-884.1329722216096
 30
0
 40
6.99999999999994
  0
CIRCLE
  8
1
 62
3
 10
28.08579329232992
 20
-884.1329722216096
 30
0
 40
8.99999999999994
  0
CIRCLE
  8
1
 62
3
 10
7.785793292330027
 20
-882.3329722216095
 30
0
 40
3.349999999999962
  0
CIRCLE
  8
1
 62
3
 10
48.38579329232999
 20
-882.3329722216095
 30
0
 40
3.35000000000008
  0
CIRCLE
  8
1
 62
3
 10
28.08579329232998
 20
-917.6329722216096
 30
0
 40
3.349999999999962
  0
ARC
  8
1
 62
3
 10
162.1091697000879
 20
-876.1329722216096
 30
0
 40
1
 50
90
 51
180
  0
ARC
  8
1
 62
3
 10
162.1091697000879
 20
-892.1329722216096
 30
0
 40
1
 50
180
 51
270
  0
ARC
  8
1
 62
3
 10
166.1091697000879
 20
-894.1329722216096
 30
0
 40
1
 50
0
 51
90
  0
ARC
  8
1
 62
3
 10
166.1091697000879
 20
-874.1329722216096
 30
0
 40
1
 50
270
 51
0
  0
ARC
  8
1
 62
3
 10
3.335793292329981
 20
-869.3829722216096
 30
0
 40
4.5
 50
90
 51
180
  0
ARC
  8
1
 62
3
 10
52.83579329232992
 20
-869.3829722216096
 30
0
 40
4.5
 50
0
 51
90
  0
ARC
  8
1
 62
3
 10
52.83579329232992
 20
-918.8829722216096
 30
0
 40
4.5
 50
270
 51
0
  0
ARC
  8
1
 62
3
 10
3.335793292329981
 20
-918.8829722216096
 30
0
 40
4.5
 50
180
 51
270
  0
ARC
  8
1
 62
3
 10
53.08579329232992
 20
-919.1329722216096
 30
0
 40
5.5
 50
270
 51
0
  0
ARC
  8
1
 62
3
 10
3.085793292329981
 20
-919.1329722216096
 30
0
 40
5.5
 50
180
 51
270
  0
ARC
  8
1
 62
3
 10
3.085793292329981
 20
-869.1329722216096
 30
0
 40
5.5
 50
90
 51
180
  0
ARC
  8
1
 62
3
 10
53.08579329232992
 20
-869.1329722216096
 30
0
 40
5.5
 50
0
 51
90
  0
LINE
  8
1
 62
2
 10
233.6171012874559
 20
-854.1329722216096
 30
0
 11
210.590254645882
 21
-854.1329722216096
 31
0
  0
LINE
  8
1
 62
2
 10
210.590254645882
 20
-854.1329722216096
 30
0
 11
187.676406935371
 21
-862.742666745668
 31
0
  0
SOLID
  8
1
 62
2
 10
190.5237483494933
 20
-861.2227554180362
 30
0
 11
190.8201095419923
 21
-862.0114913265231
 31
0
 12
187.676406935371
 22
-862.742666745668
 32
0
 13
187.676406935371
 23
-862.742666745668
 33
0
  0
TEXT
  8
1
 62
2
 10
211.198893764162
 20
-853.0722510568619
 30
0
 40
4
  1
âlü[âÇâvâîü[âg
 41
0.7200000000000001
 73
2
 11
211.198893764162
 21
-851.0722510568619
 31
0
  0
DIMENSION
  8
1
  6
CONTINUOUS
 62
2
  2
*D6
  3
DMST_1
 10
151.109169700088
 20
-893.1329722216096
 30
0
 11
147.509169700088
 21
-898.076796819327
 31
0
 12
0
 22
0
 32
0
 70
0
  1
âË<>
 13
162.1091697000879
 23
-875.1329722216096
 33
0
 14
162.1091697000879
 24
-893.1329722216096
 34
0
 50
90
 53
0
  0
DIMENSION
  8
1
  6
CONTINUOUS
 62
2
  2
*D7
  3
DMST_3
 10
166.1091697000879
 20
-844.1329722216096
 30
0
 11
186.762228366603
 21
-840.5329722216097
 31
0
 12
0
 22
0
 32
0
 70
0
 13
208.1091697000879
 23
-864.6329722216096
 33
0
 14
166.1091697000879
 24
-864.8829722216096
 34
0
 53
0
  0
DIMENSION
  8
1
  6
CONTINUOUS
 62
2
  2
*D8
  3
DMST_3
 10
161.1091697000879
 20
-854.1329722216096
 30
0
 11
163.424570014838
 21
-850.5329722216097
 31
0
 12
0
 22
0
 32
0
 70
0
 13
166.1091697000879
 23
-864.8829722216096
 33
0
 14
161.1091697000879
 24
-876.1329722216096
 34
0
 53
0
  0
DIMENSION
  8
1
  6
CONTINUOUS
 62
2
  2
*D9
  3
DMST_2
 10
223.1091697000879
 20
-921.1329722216096
 30
0
 11
218.7091697000879
 21
-894.1329722216096
 31
0
 12
0
 22
0
 32
0
 70
0
  1
54H7
 13
211.1091697000879
 23
-867.1329722216096
 33
0
 14
211.1091697000879
 24
-921.1329722216096
 34
0
 50
90
 53
0
  0
INSERT
  8
0
  2
G6G__1
 10
379.955881875414
 20
-1149.27561920877
 30
0
  0
INSERT
  8
0
  2
B
 10
388.937079141914
 20
-1022.75549750768
 30
0
  0
INSERT
  8
0
  2
G6G__2
 10
401.198259975683
 20
-867.4349513910929
 30
0
  0
INSERT
  8
0
  2
MOJINOMUKI
 10
215.3403585586309
 20
-846.616096788046
 30
0
  0
INSERT
  8
0
  2
____M3_______
 10
7.785793292330027
 20
-882.3329722216095
 30
0
  0
ENDBLK
  8
0
  0
BLOCK
  8
1
  2
*D10
 70
1
 10
0
 20
0
 30
0
  0
LINE
  8
1
 62
2
 10
73.08579329232995
 20
-918.8829722216096
 30
0
 11
73.08579329232995
 21
-869.3829722216096
 31
0
  0
LINE
  8
1
 62
2
 10
60.83579329232999
 20
-869.3829722216096
 30
0
 11
74.58579329232995
 21
-869.3829722216096
 31
0
  0
LINE
  8
1
 62
2
 10
60.83579329232998
 20
-918.8829722216096
 30
0
 11
74.58579329232995
 21
-918.8829722216096
 31
0
  0
SOLID
  8
1
 62
2
 10
73.08579329232995
 20
-869.3829722216096
 30
0
 11
73.50179329232995
 21
-872.5829722216097
 31
0
 12
72.66979329232996
 22
-872.5829722216097
 32
0
 13
72.66979329232996
 23
-872.5829722216097
 33
0
  0
SOLID
  8
1
 62
2
 10
73.08579329232995
 20
-918.8829722216096
 30
0
 11
72.66979329232996
 21
-915.6829722216096
 31
0
 12
73.50179329232995
 22
-915.6829722216096
 32
0
 13
73.50179329232995
 23
-915.6829722216096
 33
0
  0
TEXT
  8
1
 62
2
 10
71.08579329232995
 20
-902.1969722216096
 30
0
 40
3.2
  1
49.5
 50
90
 41
0.9
  0
TEXT
  8
1
 62
2
 10
70.44579329232995
 20
-891.8769722216097
 30
0
 40
1.92
  1
%%p0.3
 50
90
 41
0.9
  0
ENDBLK
  8
0
  0
BLOCK
  8
1
  2
*D11
 70
1
 10
0
 20
0
 30
0
  0
LINE
  8
1
 62
2
 10
3.335793292329981
 20
-854.1329722216096
 30
0
 11
52.83579329232998
 21
-854.1329722216096
 31
0
  0
LINE
  8
1
 62
2
 10
52.83579329232998
 20
-861.3829722216096
 30
0
 11
52.83579329232998
 21
-852.6329722216096
 31
0
  0
LINE
  8
1
 62
2
 10
3.335793292329981
 20
-861.3829722216095
 30
0
 11
3.335793292329981
 21
-852.6329722216096
 31
0
  0
SOLID
  8
1
 62
2
 10
52.83579329232998
 20
-854.1329722216096
 30
0
 11
49.63579329232998
 21
-854.5489722216097
 31
0
 12
49.63579329232998
 22
-853.7169722216096
 32
0
 13
49.63579329232998
 23
-853.7169722216096
 33
0
  0
SOLID
  8
1
 62
2
 10
3.335793292329981
 20
-854.1329722216096
 30
0
 11
6.535793292329982
 21
-853.7169722216096
 31
0
 12
6.535793292329982
 22
-854.5489722216097
 32
0
 13
6.535793292329982
 23
-854.5489722216097
 33
0
  0
TEXT
  8
1
 62
2
 10
20.02179329232998
 20
-852.1329722216096
 30
0
 40
3.2
  1
49.5
 41
0.9
  0
TEXT
  8
1
 62
2
 10
30.34179329232998
 20
-851.4929722216096
 30
0
 40
1.92
  1
%%p0.3
 41
0.9
  0
ENDBLK
  8
0
  0
BLOCK
  8
1
  2
*D12
 70
1
 10
0
 20
0
 30
0
  0
LINE
  8
1
 62
2
 10
83.08579329232992
 20
-924.6329722216096
 30
0
 11
83.08579329232992
 21
-863.6329722216096
 31
0
  0
LINE
  8
1
 62
2
 10
29.08579329232992
 20
-863.6329722216096
 30
0
 11
84.58579329232992
 21
-863.6329722216096
 31
0
  0
LINE
  8
1
 62
2
 10
29.08579329232992
 20
-924.6329722216096
 30
0
 11
84.58579329232992
 21
-924.6329722216096
 31
0
  0
SOLID
  8
1
 62
2
 10
83.08579329232992
 20
-863.6329722216096
 30
0
 11
83.50179329232992
 21
-866.8329722216097
 31
0
 12
82.66979329232993
 22
-866.8329722216097
 32
0
 13
82.66979329232993
 23
-866.8329722216097
 33
0
  0
SOLID
  8
1
 62
2
 10
83.08579329232992
 20
-924.6329722216096
 30
0
 11
82.66979329232993
 21
-921.4329722216096
 31
0
 12
83.50179329232992
 22
-921.4329722216096
 32
0
 13
83.50179329232992
 23
-921.4329722216096
 33
0
  0
TEXT
  8
1
 62
2
 10
81.08579329232992
 20
-896.0529722216096
 30
0
 40
3.2
  1
61
 50
90
 41
0.9
  0
ENDBLK
  8
0
  0
BLOCK
  8
1
  2
*D13
 70
1
 10
0
 20
0
 30
0
  0
LINE
  8
1
 62
2
 10
-2.414206707670019
 20
-844.1329722216096
 30
0
 11
58.58579329232992
 21
-844.1329722216096
 31
0
  0
LINE
  8
1
 62
2
 10
58.58579329232992
 20
-893.1329722216096
 30
0
 11
58.58579329232992
 21
-842.6329722216096
 31
0
  0
LINE
  8
1
 62
2
 10
-2.414206707670019
 20
-893.1329722216096
 30
0
 11
-2.414206707670019
 21
-842.6329722216096
 31
0
  0
SOLID
  8
1
 62
2
 10
58.58579329232992
 20
-844.1329722216096
 30
0
 11
55.38579329232992
 21
-844.5489722216097
 31
0
 12
55.38579329232992
 22
-843.7169722216096
 32
0
 13
55.38579329232992
 23
-843.7169722216096
 33
0
  0
SOLID
  8
1
 62
2
 10
-2.414206707670019
 20
-844.1329722216096
 30
0
 11
0.785793292329982
 21
-843.7169722216096
 31
0
 12
0.785793292329982
 22
-844.5489722216097
 32
0
 13
0.785793292329982
 23
-844.5489722216097
 33
0
  0
TEXT
  8
1
 62
2
 10
26.16579329232998
 20
-842.1329722216096
 30
0
 40
3.2
  1
61
 41
0.9
  0
ENDBLK
  8
0
  0
BLOCK
  8
1
  2
*D14
 70
1
 10
0
 20
0
 30
0
  0
LINE
  8
1
 62
2
 10
14.2945709616116
 20
-894.1329722216096
 30
0
 11
14.2945709616116
 21
-884.1329722216096
 31
0
  0
LINE
  8
1
 62
2
 10
27.08579329232996
 20
-884.1329722216096
 30
0
 11
12.7945709616116
 21
-884.1329722216096
 31
0
  0
LINE
  8
1
 62
2
 10
62.58579329232998
 20
-894.1329722216096
 30
0
 11
12.7945709616116
 21
-894.1329722216096
 31
0
  0
SOLID
  8
1
 62
2
 10
14.2945709616116
 20
-884.1329722216096
 30
0
 11
14.7105709616116
 21
-887.3329722216097
 31
0
 12
13.8785709616116
 22
-887.3329722216097
 32
0
 13
13.8785709616116
 23
-887.3329722216097
 33
0
  0
SOLID
  8
1
 62
2
 10
14.2945709616116
 20
-894.1329722216096
 30
0
 11
13.8785709616116
 21
-890.9329722216096
 31
0
 12
14.7105709616116
 22
-890.9329722216096
 32
0
 13
14.7105709616116
 23
-890.9329722216096
 33
0
  0
TEXT
  8
1
 62
2
 10
12.2945709616116
 20
-890.666683228532
 30
0
 40
3.2
  1
10
 50
90
 41
0.9
  0
ENDBLK
  8
0
  0
BLOCK
  8
1
  2
*D15
 70
1
 10
0
 20
0
 30
0
  0
LINE
  8
1
 62
2
 10
322.6135660923974
 20
-853.6329722216096
 30
0
 11
316.2135660923974
 21
-853.6329722216096
 31
0
  0
LINE
  8
1
 62
2
 10
314.2135660923974
 20
-853.6329722216096
 30
0
 11
316.2135660923974
 21
-853.6329722216096
 31
0
  0
LINE
  8
1
 62
2
 10
314.2135660923974
 20
-853.6329722216096
 30
0
 11
307.8135660923974
 21
-853.6329722216096
 31
0
  0
LINE
  8
1
 62
2
 10
314.2135660923974
 20
-866.8829722216096
 30
0
 11
314.2135660923974
 21
-851.6329722216096
 31
0
  0
LINE
  8
1
 62
2
 10
316.2135660923974
 20
-862.6329722216096
 30
0
 11
316.2135660923974
 21
-851.6329722216096
 31
0
  0
SOLID
  8
1
 62
2
 10
314.2135660923974
 20
-853.6329722216096
 30
0
 11
311.0135660923974
 21
-854.0489722216097
 31
0
 12
311.0135660923974
 22
-853.2169722216096
 32
0
 13
311.0135660923974
 23
-853.2169722216096
 33
0
  0
SOLID
  8
1
 62
2
 10
316.2135660923974
 20
-853.6329722216096
 30
0
 11
319.4135660923974
 21
-853.2169722216096
 31
0
 12
319.4135660923974
 22
-854.0489722216097
 32
0
 13
319.4135660923974
 23
-854.0489722216097
 33
0
  0
TEXT
  8
1
 62
2
 10
311.054228403618
 20
-851.6329722216096
 30
0
 40
3.2
  1
2
 41
0.9
  0
ENDBLK
  8
0
  0
BLOCK
  8
1
  2
*D16
 70
1
 10
0
 20
0
 30
0
  0
LINE
  8
1
 62
2
 10
68.24579329232992
 20
-854.1329722216096
 30
0
 11
92.72579329232993
 21
-854.1329722216096
 31
0
  0
LINE
  8
1
 62
2
 10
54.43506439731789
 20
-867.8003061378286
 30
0
 11
68.24579329232992
 21
-854.1329722216096
 31
0
  0
SOLID
  8
1
 62
2
 10
54.43506439731789
 20
-867.8003061378286
 30
0
 11
56.41696592847713
 21
-865.2537158054844
 31
0
 12
57.00220067590195
 22
-865.845090720751
 32
0
 13
57.00220067590195
 23
-865.845090720751
 33
0
  0
TEXT
  8
1
 62
2
 10
82.53023773677437
 20
-852.1329722216096
 30
0
 40
3.2
  1
4.5
 41
0.9
  0
TEXT
  8
1
 62
2
 10
73.44579329232992
 20
-852.1329722216096
 30
0
 40
3.2
  1
4-âË
 41
0.9
  0
TEXT
  8
1
 62
2
 10
89.97023773677438
 20
-852.1329722216096
 30
0
 40
3.2
  1
îè
 41
0.9
  0
ENDBLK
  8
0
  0
BLOCK
  8
1
  2
*D17
 70
1
 10
0
 20
0
 30
0
  0
LINE
  8
1
 62
2
 10
60.57306889061331
 20
-881.1108017342759
 30
0
 11
-4.401482305953344
 21
-907.1551427089433
 31
0
  0
SOLID
  8
1
 62
2
 10
-4.401482305953344
 20
-907.1551427089433
 30
0
 11
-1.585994906188321
 21
-905.5784097887047
 31
0
 12
-1.276439310603702
 22
-906.3506787400696
 32
0
 13
-1.276439310603702
 23
-906.3506787400696
 33
0
  0
SOLID
  8
1
 62
2
 10
60.57306889061331
 20
-881.1108017342759
 30
0
 11
57.75758149084828
 21
-882.6875346545146
 31
0
 12
57.44802589526366
 22
-881.9152657031497
 32
0
 13
57.44802589526366
 23
-881.9152657031497
 33
0
  0
TEXT
  8
1
 62
2
 10
5.347639435391129
 20
-901.0926237137228
 30
0
 40
3.2
  1
70
 50
21.84284335015355
 41
0.9
  0
TEXT
  8
1
 62
2
 10
0.628218065938924
 20
-902.9843523534065
 30
0
 40
3.2
  1
(âË
 50
21.84284335015355
 41
0.9
  0
TEXT
  8
1
 62
2
 10
11.2881698305058
 20
-898.7114268246103
 30
0
 40
3.2
  1
)
 50
21.84284335015355
 41
0.9
  0
ENDBLK
  8
0
  0
ENDSEC
  0
SECTION
  2
ENTITIES
  0
POINT
  8
1
 62
4
  6
DIVIDE
 10
28.08579329232992
 20
-924.6329722216096
 30
0
  0
POINT
  8
1
 62
4
  6
DIVIDE
 10
28.08579329232992
 20
-863.6329722216096
 30
0
  0
POINT
  8
1
 62
4
  6
DIVIDE
 10
58.58579329232992
 20
-894.1329722216096
 30
0
  0
POINT
  8
1
 62
4
  6
DIVIDE
 10
-2.414206707670019
 20
-894.1329722216096
 30
0
  0
POINT
  8
1
 62
4
  6
DIVIDE
 10
28.08579329232996
 20
-884.1329722216096
 30
0
  0
LINE
  8
1
 62
1
 10
59.83579329232998
 20
-918.8829722216096
 30
0
 11
45.83579329232998
 21
-918.8829722216096
 31
0
  0
LINE
  8
1
 62
1
 10
3.335793292329974
 20
-925.8829722216096
 30
0
 11
3.335793292329974
 21
-911.8829722216096
 31
0
  0
LINE
  8
1
 62
1
 10
-3.664206707670019
 20
-869.3829722216095
 30
0
 11
10.33579329232998
 21
-869.3829722216096
 31
0
  0
LINE
  8
1
 62
1
 10
52.83579329232998
 20
-925.8829722216096
 30
0
 11
52.83579329232998
 21
-911.8829722216096
 31
0
  0
LINE
  8
1
 62
1
 10
-3.664206707670033
 20
-918.8829722216096
 30
0
 11
10.33579329232997
 21
-918.8829722216096
 31
0
  0
LINE
  8
1
 62
1
 10
3.335793292329981
 20
-862.3829722216095
 30
0
 11
3.335793292329981
 21
-876.3829722216095
 31
0
  0
LINE
  8
1
 62
1
 10
59.83579329232999
 20
-869.3829722216096
 30
0
 11
45.83579329232998
 21
-869.3829722216096
 31
0
  0
LINE
  8
1
 62
1
 10
52.83579329232998
 20
-862.3829722216096
 30
0
 11
52.83579329232998
 21
-876.3829722216096
 31
0
  0
LINE
  8
1
 62
1
 10
28.08579329232992
 20
-929.6329722216096
 30
0
 11
28.08579329232998
 21
-858.6329722216096
 31
0
  0
LINE
  8
1
 62
1
 10
63.58579329232998
 20
-894.1329722216096
 30
0
 11
-7.414206707670022
 21
-894.1329722216096
 31
0
  0
LINE
  8
1
 62
1
 10
327.9135660923974
 20
-894.1329722216096
 30
0
 11
314.2135660923974
 21
-894.1329722216096
 31
0
  0
LINE
  8
1
 62
3
 10
314.2135660923974
 20
-920.3829722216096
 30
0
 11
314.9635660923974
 21
-921.1329722216096
 31
0
  0
LINE
  8
1
 62
3
 10
314.2135660923974
 20
-894.1329722216096
 30
0
 11
314.2135660923974
 21
-920.3829722216096
 31
0
  0
LINE
  8
1
 62
3
 10
316.2135660923974
 20
-924.6329722216096
 30
0
 11
316.2135660923974
 21
-894.1329722216096
 31
0
  0
LINE
  8
1
 62
3
 10
314.9635660923974
 20
-921.1329722216096
 30
0
 11
316.2135660923974
 21
-921.1329722216096
 31
0
  0
LINE
  8
1
 62
3
 10
314.9635660923974
 20
-867.1329722216096
 30
0
 11
314.2135660923974
 21
-867.8829722216096
 31
0
  0
LINE
  8
1
 62
3
 10
316.2135660923974
 20
-863.6329722216096
 30
0
 11
322.9135660923974
 21
-863.6329722216096
 31
0
  0
LINE
  8
1
 62
3
 10
314.2135660923974
 20
-867.8829722216096
 30
0
 11
314.2135660923974
 21
-894.1329722216096
 31
0
  0
LINE
  8
1
 62
3
 10
316.2135660923974
 20
-894.1329722216096
 30
0
 11
316.2135660923974
 21
-863.6329722216096
 31
0
  0
LINE
  8
1
 62
3
 10
316.2135660923974
 20
-867.1329722216096
 30
0
 11
314.9635660923974
 21
-867.1329722216096
 31
0
  0
LINE
  8
1
 62
3
 10
322.2135660923974
 20
-924.6329722216096
 30
0
 11
316.2135660923974
 21
-924.6329722216096
 31
0
  0
ARC
  8
1
 62
2
 10
28.08579329232998
 20
-894.1329722216096
 30
0
 40
35.00000000000005
 50
197.9651163913987
 51
238.5992184902045
  0
ARC
  8
1
 62
2
 10
28.08579329232998
 20
-894.1329722216096
 30
0
 40
34.99999999999998
 50
17.96511639139872
 51
58.5992184902046
  0
CIRCLE
  8
1
 62
3
 10
52.83579329232998
 20
-918.8829722216096
 30
0
 40
2.25
  0
CIRCLE
  8
1
 62
3
 10
3.335793292329974
 20
-918.8829722216096
 30
0
 40
2.25
  0
CIRCLE
  8
1
 62
3
 10
3.335793292329981
 20
-869.3829722216095
 30
0
 40
2.25
  0
CIRCLE
  8
1
 62
3
 10
52.83579329232998
 20
-869.3829722216096
 30
0
 40
2.25
  0
CIRCLE
  8
1
 62
4
  6
DIVIDE
 10
28.08579329232998
 20
-894.1329722216096
 30
0
 40
35
  0
TEXT
  8
1
 62
2
 10
-20.6568507546191
 20
-1024.31181628336
 30
0
 40
8
  1
6HFN
 41
0.9
  0
DIMENSION
  8
1
  6
CONTINUOUS
 62
2
  2
*D10
  3
DMST_4
 10
73.08579329232995
 20
-869.3829722216096
 30
0
 11
69.48579329232996
 21
-894.1329722216096
 31
0
 12
0
 22
0
 32
0
 70
1
 13
59.83579329232998
 23
-918.8829722216096
 33
0
 14
59.83579329232999
 24
-869.3829722216096
 34
0
 53
0
  0
DIMENSION
  8
1
  6
CONTINUOUS
 62
2
  2
*D11
  3
DMST_4
 10
52.83579329232998
 20
-854.1329722216096
 30
0
 11
28.08579329232998
 21
-850.5329722216096
 31
0
 12
0
 22
0
 32
0
 70
1
 13
3.335793292329981
 23
-862.3829722216095
 33
0
 14
52.83579329232998
 24
-862.3829722216096
 34
0
 53
0
  0
DIMENSION
  8
1
  6
CONTINUOUS
 62
2
  2
*D12
  3
DMST_5
 10
83.08579329232992
 20
-863.6329722216096
 30
0
 11
79.48579329232993
 21
-894.1329722216096
 31
0
 12
0
 22
0
 32
0
 70
1
 13
28.08579329232992
 23
-924.6329722216096
 33
0
 14
28.08579329232992
 24
-863.6329722216096
 34
0
 53
0
  0
DIMENSION
  8
1
  6
CONTINUOUS
 62
2
  2
*D13
  3
DMST_5
 10
58.58579329232992
 20
-844.1329722216096
 30
0
 11
28.08579329232998
 21
-840.5329722216096
 31
0
 12
0
 22
0
 32
0
 70
1
 13
-2.414206707670019
 23
-894.1329722216096
 33
0
 14
58.58579329232992
 24
-894.1329722216096
 34
0
 53
0
  0
DIMENSION
  8
1
  6
CONTINUOUS
 62
2
  2
*D14
  3
DMST_5
 10
14.2945709616116
 20
-884.1329722216096
 30
0
 11
10.6945709616116
 21
-888.746683228532
 31
0
 12
0
 22
0
 32
0
 70
0
 13
63.58579329232998
 23
-894.1329722216096
 33
0
 14
28.08579329232996
 24
-884.1329722216096
 34
0
 50
90
 53
0
  0
DIMENSION
  8
1
  6
CONTINUOUS
 62
2
  2
*D15
  3
DMST_1
 10
314.2135660923974
 20
-853.6329722216096
 30
0
 11
312.014228403618
 21
-850.0329722216096
 31
0
 12
0
 22
0
 32
0
 70
0
 13
316.2135660923974
 23
-863.6329722216096
 33
0
 14
314.2135660923974
 24
-867.8829722216096
 34
0
 53
0
  0
DIMENSION
  8
1
  6
CONTINUOUS
 62
2
  2
*D17
  3
DMST_6
 10
60.5730688906133
 20
-881.1108017342759
 30
0
 11
5.585664615761047
 21
-899.273462106888
 31
0
 12
0
 22
0
 32
0
 70
3
  1
(âË<>
 15
-4.40148230595333
 25
-907.1551427089433
 35
0
 40
0
 53
0
  0
INSERT
  8
0
  2
G6G__3
 10
429.705758608445
 20
-1308.682176645591
 30
0
  0
INSERT
  8
1
  2
*D16
 10
0
 20
0
 30
0
  0
ENDSEC
  0
EOF
