  0
SECTION
  2
HEADER
  9
$ACADVER
  1
AC1009
  9
$INSBASE
 10
0
 20
0
  9
$EXTMIN
 10
45.52448772276552
 20
61.38714890819719
  9
$EXTMAX
 10
410.4871217758669
 20
261.2671443193446
  9
$LIMMIN
 10
45.52448772276552
 20
61.38714890819719
  9
$LIMMAX
 10
410.4871217758669
 20
261.2671443193446
  9
$VIEWCTR
 10
10
 20
10
  9
$VIEWSIZE
 40
10
  9
$SNAPMODE
 70
0
  9
$SNAPUNIT
 10
1
 20
1
  9
$SNAPBASE
 10
0
 20
0
  9
$SNAPANG
 50
0
  9
$SNAPSTYLE
 70
0
  9
$SNAPISOPAIR
 70
0
  9
$GRIDMODE
 70
0
  9
$GRIDUNIT
 10
0
 20
0
  9
$ORTHOMODE
 70
0
  9
$REGENMODE
 70
1
  9
$FILLMODE
 70
1
  9
$QTEXTMODE
 70
0
  9
$DRAGMODE
 70
2
  9
$LTSCALE
 40
1
  9
$OSMODE
 70
0
  9
$ATTMODE
 70
1
  9
$TEXTSIZE
 40
3.5
  9
$TRACEWID
 40
0.5
  9
$TEXTSTYLE
  7
STANDARD
  9
$CLAYER
  8
0
  9
$CELTYPE
  6
BYLAYER
  9
$CECOLOR
 62
256
  9
$DIMSCALE
 40
1
  9
$DIMASZ
 40
0.18
  9
$DIMEXO
 40
0.0625
  9
$DIMDLI
 40
0.38
  9
$DIMRND
 40
0
  9
$DIMDLE
 40
0
  9
$DIMEXE
 40
0.18
  9
$DIMTP
 40
0
  9
$DIMTM
 40
0
  9
$DIMTXT
 40
0.18
  9
$DIMCEN
 40
0.09
  9
$DIMTSZ
 40
0
  9
$DIMTOL
 70
0
  9
$DIMLIM
 70
0
  9
$DIMTIH
 70
1
  9
$DIMTOH
 70
1
  9
$DIMSE1
 70
0
  9
$DIMSE2
 70
0
  9
$DIMTAD
 70
0
  9
$DIMZIN
 70
0
  9
$DIMBLK
  1

  9
$DIMASO
 70
1
  9
$DIMSHO
 70
1
  9
$DIMPOST
  1

  9
$DIMAPOST
  1

  9
$DIMALT
 70
0
  9
$DIMALTD
 70
2
  9
$DIMALTF
 40
25.4
  9
$DIMLFAC
 40
1
  9
$DIMTOFL
 70
0
  9
$DIMTVP
 40
0
  9
$DIMTIX
 70
0
  9
$DIMSOXD
 70
0
  9
$DIMSAH
 70
0
  9
$DIMBLK1
  1

  9
$DIMBLK2
  1

  9
$DIMSTYLE
  2
*UNNAMED
  9
$DIMCLRD
 70
0
  9
$DIMCLRE
 70
0
  9
$DIMCLRT
 70
0
  9
$DIMTFAC
 40
1
  9
$DIMGAP
 40
0.09
  9
$LUNITS
 70
2
  9
$LUPREC
 70
4
  9
$AXISMODE
 70
0
  9
$AXISUNIT
 10
0
 20
0
  9
$SKETCHINC
 40
0.1
  9
$FILLETRAD
 40
2
  9
$AUNITS
 70
0
  9
$AUPREC
 70
0
  9
$MENU
  1
ACAD
  9
$ELEVATION
 40
0
  9
$THICKNESS
 40
0
  9
$VIEWDIR
 10
0
 20
0
 30
1
  9
$LIMCHECK
 70
0
  9
$BLIPMODE
 70
1
  9
$CHAMFERA
 40
0
  9
$CHAMFERB
 40
0
  9
$FASTZOOM
 70
1
  9
$SKPOLY
 70
0
  9
$ANGBASE
 50
0
  9
$ANGDIR
 70
0
  9
$PDMODE
 70
0
  9
$PDSIZE
 40
0
  9
$PLINEWID
 40
0
  9
$COORDS
 70
2
  0
ENDSEC
  0
SECTION
  2
TABLES
  0
TABLE
  2
DIMSTYLE
 70
6
  0
DIMSTYLE
  2
DMST_1
 70
0
  3

  4

  5

  6

  7

 40
1
 41
3.2
 42
1
 43
7
 44
1.5
 45
0
 46
0
 47
0.3
 48
0.3
140
3.2
141
0
142
0
143
25.4
144
1
145
0
146
0.6
147
0.09
 71
1
 72
0
 73
0
 74
0
 75
0
 76
0
 77
1
 78
9
170
0
171
2
172
0
173
0
174
0
175
0
176
2
177
2
178
2
  0
DIMSTYLE
  2
DMST_2
 70
0
  3

  4

  5

  6

  7

 40
1
 41
3.2
 42
1
 43
7
 44
1
 45
0
 46
0
 47
0
 48
0
140
3.2
141
0
142
0
143
25.4
144
1
145
0
146
1
147
0.09
 71
0
 72
0
 73
0
 74
0
 75
0
 76
0
 77
1
 78
9
170
0
171
2
172
0
173
0
174
0
175
0
176
2
177
2
178
2
  0
DIMSTYLE
  2
DMST_3
 70
0
  3

  4

  5

  6

  7

 40
1
 41
3.2
 42
1
 43
7
 44
1
 45
0
 46
0
 47
0
 48
0
140
3.2
141
0
142
0
143
25.4
144
1
145
0
146
0.6
147
0.09
 71
1
 72
0
 73
0
 74
0
 75
0
 76
0
 77
1
 78
9
170
0
171
2
172
0
173
0
174
0
175
0
176
2
177
2
178
2
  0
DIMSTYLE
  2
DMST_4
 70
0
  3

  4

  5

  6

  7

 40
1
 41
3.2
 42
0
 43
7
 44
1
 45
0
 46
0
 47
0
 48
0
140
3.2
141
0
142
0
143
25.4
144
1
145
0
146
0.6
147
0.09
 71
1
 72
0
 73
0
 74
0
 75
0
 76
0
 77
1
 78
9
170
0
171
2
172
0
173
0
174
0
175
0
176
2
177
2
178
2
  0
DIMSTYLE
  2
DMST_5
 70
0
  3

  4

  5

  6

  7

 40
1
 41
3.2
 42
1
 43
7
 44
2
 45
0
 46
0
 47
0
 48
0
140
3.2
141
0
142
0
143
25.4
144
1
145
0
146
1
147
0.09
 71
0
 72
0
 73
0
 74
0
 75
0
 76
0
 77
1
 78
9
170
0
171
2
172
0
173
0
174
0
175
0
176
2
177
2
178
2
  0
DIMSTYLE
  2
DMST_6
 70
0
  3
)
  4

  5

  6

  7

 40
1
 41
3.2
 42
1
 43
7
 44
1
 45
0
 46
0
 47
0
 48
0
140
3.2
141
0
142
0
143
25.4
144
1
145
0
146
1
147
0.09
 71
0
 72
0
 73
0
 74
0
 75
0
 76
0
 77
1
 78
9
170
0
171
2
172
0
173
0
174
1
175
0
176
2
177
2
178
2
  0
ENDTAB
  0
TABLE
  2
LTYPE
 70
9
  0
LTYPE
  2
CONTINUOUS
 70
64
  3
Solid line
 72
65
 73
0
 40
0
  0
LTYPE
  2
BORDER
 70
64
  3
__ __ . __ __ .
 72
65
 73
6
 40
16.80748972612967
 49
4.802139921751334
 49
-2.401069960875667
 49
4.802139921751334
 49
-2.401069960875667
 49
0
 49
-2.401069960875667
  0
LTYPE
  2
CENTER
 70
64
  3
____ _ ____ _
 72
65
 73
4
 40
19.20855968700534
 49
12.00534980437834
 49
-2.401069960875667
 49
2.401069960875667
 49
-2.401069960875667
  0
LTYPE
  2
DASHDOT
 70
64
  3
__ . __ . __ .
 72
65
 73
4
 40
9.604279843502669
 49
4.802139921751334
 49
-2.401069960875667
 49
0
 49
-2.401069960875667
  0
LTYPE
  2
DASHED
 70
64
  3
__ __ __ __ __
 72
65
 73
2
 40
7.203209882627002
 49
4.802139921751334
 49
-2.401069960875667
  0
LTYPE
  2
DIVIDE
 70
64
  3
__ . . __ . . 
 72
65
 73
6
 40
12.00534980437834
 49
4.802139921751334
 49
-2.401069960875667
 49
0
 49
-2.401069960875667
 49
0
 49
-2.401069960875667
  0
LTYPE
  2
DOT
 70
64
  3
..............
 72
65
 73
4
 40
4.802139921751334
 49
0
 49
-2.401069960875667
 49
0
 49
-2.401069960875667
  0
LTYPE
  2
HIDDEN
 70
64
  3
_ _ _ _ _ _ _
 72
65
 73
2
 40
3.601604941313501
 49
2.401069960875667
 49
-1.200534980437834
  0
LTYPE
  2
PHANTOM
 70
64
  3
_____ _ _ _____ _ _ 
 72
65
 73
6
 40
24.01069960875667
 49
12.00534980437834
 49
-2.401069960875667
 49
2.401069960875667
 49
-2.401069960875667
 49
2.401069960875667
 49
-2.401069960875667
  0
ENDTAB
  0
TABLE
  2
LAYER
 70
5
  0
LAYER
  2
1
 70
0
 62
7
  6
CONTINUOUS
  0
LAYER
  2
2
 70
0
 62
7
  6
CONTINUOUS
  0
LAYER
  2
3
 70
0
 62
7
  6
CONTINUOUS
  0
LAYER
  2
0
 70
0
 62
7
  6
CONTINUOUS
  0
ENDTAB
  0
TABLE
  2
STYLE
 70
4
  0
STYLE
  2
STANDARD
 70
0
 40
0
 41
1
 50
0
 71
0
 42
3.5
  3
txt
  4

  0
STYLE
  2
SIMPLEX
 70
0
 40
0
 41
1
 50
0
 71
0
 42
3.5
  3
simplex
  4

  0
STYLE
  2
COMPLEX
 70
0
 40
0
 41
1
 50
0
 71
0
 42
3.5
  3
complex
  4

  0
STYLE
  2
ITALIC
 70
0
 40
0
 41
1
 50
0
 71
0
 42
3.5
  3
italic
  4

  0
ENDTAB
  0
TABLE
  2
VIEW
 70
0
  0
ENDTAB
  0
ENDSEC
  0
SECTION
  2
BLOCKS
  0
BLOCK
  8
0
  2
AS25012_8H15FB-6________
 70
0
 10
954.212758746654
 20
-455.7566832405382
 30
0
  0
LINE
  8
1
 62
2
 10
211.2985755559545
 20
103.3871489081976
 30
0
 11
45.52448772276552
 21
103.3871489081976
 31
0
  0
LINE
  8
1
 62
2
 10
45.52448772276552
 20
103.3871489081976
 30
0
 11
45.52448772276552
 21
61.38714890819719
 31
0
  0
LINE
  8
1
 62
2
 10
45.52448772276552
 20
61.38714890819719
 30
0
 11
211.2985755559545
 21
61.38714890819719
 31
0
  0
LINE
  8
1
 62
2
 10
211.2985755559545
 20
61.38714890819719
 30
0
 11
211.2985755559545
 21
103.3871489081976
 31
0
  0
LINE
  8
1
 62
2
 10
45.52448772276552
 20
68.38714890819719
 30
0
 11
211.2985755559545
 21
68.38714890819719
 31
0
  0
LINE
  8
1
 62
2
 10
45.52448772276552
 20
75.38714890819719
 30
0
 11
211.2985755559545
 21
75.38714890819719
 31
0
  0
LINE
  8
1
 62
2
 10
45.52448772276552
 20
82.38714890819719
 30
0
 11
211.2985755559545
 21
82.38714890819719
 31
0
  0
LINE
  8
1
 62
2
 10
45.52448772276552
 20
89.38714890819765
 30
0
 11
211.2985755559545
 21
89.38714890819765
 31
0
  0
LINE
  8
1
 62
2
 10
45.52448772276552
 20
96.38714890819765
 30
0
 11
211.2985755559545
 21
96.38714890819765
 31
0
  0
LINE
  8
1
 62
2
 10
56.95219116202856
 20
96.38714890819765
 30
0
 11
56.95219116202856
 21
61.38714890819719
 31
0
  0
LINE
  8
1
 62
2
 10
74.96245180970556
 20
96.38714890819765
 30
0
 11
74.96245180970556
 21
61.38714890819719
 31
0
  0
LINE
  8
1
 62
2
 10
171.6180978635686
 20
96.38714890819765
 30
0
 11
171.6180978635686
 21
61.38714890819719
 31
0
  0
LINE
  8
1
 62
2
 10
150.3646034156156
 20
61.38714890819719
 30
0
 11
150.3646034156156
 21
96.38714890819765
 31
0
  0
TEXT
  8
1
 62
2
 10
207.2985755559545
 20
83.21792811905945
 30
0
 40
4
  1
ìò
 41
0.8100000000000001
 73
2
 11
207.2985755559545
 21
85.21792811905945
 31
0
  0
TEXT
  8
1
 62
2
 10
157.3913506395921
 20
69.88714890819696
 30
0
 40
4
  1
ér
 41
0.9
 72
1
 73
2
 11
160.9913506395921
 21
71.88714890819696
 31
0
  0
TEXT
  8
1
 62
2
 10
155.4913506395921
 20
75.38714890819719
 30
0
 40
5
  1
üV
 41
0.9
 72
1
 73
2
 11
159.9913506395921
 21
77.88714890819719
 31
0
  0
TEXT
  8
1
 62
2
 10
143.7113506395921
 20
83.88714890819742
 30
0
 40
4
  1
érévéqéléPéQ
 41
0.7200000000000001
 72
1
 73
2
 11
160.9913506395921
 21
85.88714890819742
 31
0
  0
TEXT
  8
1
 62
2
 10
76.96245180970556
 20
69.88714890819696
 30
0
 40
4
  1
âoâlì└ïÓü@ü@ü@ü@ü@ü@ü@éQìåü@éS
 41
0.8100000000000001
 73
2
 11
76.96245180970556
 21
71.88714890819696
 31
0
  0
TEXT
  8
1
 62
2
 10
76.96245180970556
 20
76.88714890819719
 30
0
 40
4
  1
ÿZèpâiâbâgü@ü@ü@ü@ü@ü@éléSü~éOüDéV
 41
0.8100000000000001
 73
2
 11
76.96245180970556
 21
78.88714890819719
 31
0
  0
TEXT
  8
1
 62
2
 10
76.96245180970556
 20
83.88714890819742
 30
0
 40
4
  1
Å\ÄÜîèòtâiâxü@Å¼âlâWü@éléSü~éOüDéVü~éSéT
 41
0.8100000000000001
 73
2
 11
76.96245180970556
 21
85.88714890819742
 31
0
  0
TEXT
  8
1
 62
2
 10
55.15732148586706
 20
69.88714890819696
 30
0
 40
4
  1
ì└ü@ïÓ
 41
0.9
 72
1
 73
2
 11
65.95732148586706
 21
71.88714890819696
 31
0
  0
TEXT
  8
1
 62
2
 10
55.15732148586706
 20
76.88714890819719
 30
0
 40
4
  1
âiâbâg
 41
0.9
 72
1
 73
2
 11
65.95732148586706
 21
78.88714890819719
 31
0
  0
TEXT
  8
1
 62
2
 10
51.55732148586706
 20
83.88714890819742
 30
0
 40
4
  1
ÄµòtâlâW
 41
0.9
 72
1
 73
2
 11
65.95732148586706
 21
85.88714890819742
 31
0
  0
TEXT
  8
1
 62
2
 10
173.4583367097615
 20
90.88714890819765
 30
0
 40
4
  1
ö§ü@ü@ü@ìl
 41
0.9
 72
1
 73
2
 11
191.4583367097615
 21
92.88714890819765
 31
0
  0
TEXT
  8
1
 62
2
 10
146.5913506395921
 20
90.88714890819765
 30
0
 40
4
  1
ìBü@ü@Ä┐
 41
0.9
 72
1
 73
2
 11
160.9913506395921
 21
92.88714890819765
 31
0
  0
TEXT
  8
1
 62
2
 10
76.6635276126606
 20
90.88714890819765
 30
0
 40
4
  1
î─ü@ü@ü@ü@ü@ü@ü@ü@Å╠
 41
0.9
 72
1
 73
2
 11
112.6635276126606
 21
92.88714890819765
 31
0
  0
TEXT
  8
1
 62
2
 10
51.55732148586706
 20
90.88714890819765
 30
0
 40
4
  1
òiü@ü@û╝
 41
0.9
 72
1
 73
2
 11
65.95732148586706
 21
92.88714890819765
 31
0
  0
TEXT
  8
1
 62
2
 10
47.63833944239703
 20
69.88714890819651
 30
0
 40
4
  1
éS
 41
0.9
 72
1
 73
2
 11
51.23833944239703
 21
71.88714890819651
 31
0
  0
TEXT
  8
1
 62
2
 10
47.63833944239703
 20
76.88714890819696
 30
0
 40
4
  1
éS
 41
0.9
 72
1
 73
2
 11
51.23833944239703
 21
78.88714890819696
 31
0
  0
TEXT
  8
1
 62
2
 10
44.03833944239702
 20
90.88714890819765
 30
0
 40
4
  1
Éöù╩
 41
0.9
 72
1
 73
2
 11
51.23833944239703
 21
92.88714890819765
 31
0
  0
TEXT
  8
1
 62
2
 10
103.21153163936
 20
97.88714890819765
 30
0
 40
4
  1
òtü@ü@æ«ü@ü@òi
 41
0.9
 72
1
 73
2
 11
128.41153163936
 21
99.88714890819765
 31
0
  0
TEXT
  8
1
 62
2
 10
47.63833944239703
 20
83.88714890819742
 30
0
 40
4
  1
éS
 41
0.9
 72
1
 73
2
 11
51.23833944239703
 21
85.88714890819742
 31
0
  0
TEXT
  8
1
 62
2
 10
172.7227456766236
 20
83.71792811905945
 30
0
 40
4
  1
édéÉü|éeéàü^éyéÄü@éWü^ébélü@éQ
 41
0.4950000000000001
 73
2
 11
172.7227456766236
 21
85.71792811905945
 31
0
  0
TEXT
  8
1
 62
2
 10
185.9583367097615
 20
75.38714890819719
 30
0
 40
5
  1
üV
 41
0.9
 72
1
 73
2
 11
190.4583367097615
 21
77.88714890819719
 31
0
  0
TEXT
  8
1
 62
2
 10
185.9583367097615
 20
68.38714890819719
 30
0
 40
5
  1
üV
 41
0.9
 72
1
 73
2
 11
190.4583367097615
 21
70.88714890819719
 31
0
  0
ENDBLK
  8
0
  0
BLOCK
  8
0
  2
A
 70
0
 10
360.7510453639847
 20
-30.16032494272505
 30
0
  0
INSERT
  8
0
  2
AS25012_8H15FB-6________
 10
954.212758746654
 20
-455.7566832405382
 30
0
  0
ENDBLK
  8
0
  0
BLOCK
  8
0
  2
G6G
 70
0
 10
600.499146822836
 20
51.13186438479195
 30
0
  0
INSERT
  8
0
  2
A
 10
360.7510453639847
 20
-30.16032494272505
 30
0
  0
ENDBLK
  8
0
  0
BLOCK
  8
1
  2
*D0
 70
1
 10
0
 20
0
 30
0
  0
LINE
  8
1
 62
2
 10
161.3594165813737
 20
175.8171443193445
 30
0
 11
161.3594165813737
 21
225.3171443193446
 31
0
  0
LINE
  8
1
 62
2
 10
144.6068631582369
 20
225.3171443193446
 30
0
 11
162.8594165813737
 21
225.3171443193446
 31
0
  0
LINE
  8
1
 62
2
 10
144.6094165813737
 20
175.8171443193445
 30
0
 11
162.8594165813737
 21
175.8171443193445
 31
0
  0
SOLID
  8
1
 62
2
 10
161.3594165813737
 20
225.3171443193446
 30
0
 11
161.7754165813737
 21
222.1171443193446
 31
0
 12
160.9434165813737
 22
222.1171443193446
 32
0
 13
160.9434165813737
 23
222.1171443193446
 33
0
  0
SOLID
  8
1
 62
2
 10
161.3594165813737
 20
175.8171443193445
 30
0
 11
160.9434165813737
 21
179.0171443193445
 31
0
 12
161.7754165813737
 22
179.0171443193445
 32
0
 13
161.7754165813737
 23
179.0171443193445
 33
0
  0
TEXT
  8
1
 62
2
 10
159.3594165813737
 20
192.5031443193445
 30
0
 40
3.2
  1
49.5
 50
90
 41
0.9
  0
TEXT
  8
1
 62
2
 10
158.7194165813737
 20
202.8231443193445
 30
0
 40
1.92
  1
%%p0.3
 50
90
 41
0.9
  0
ENDBLK
  8
0
  0
BLOCK
  8
1
  2
*D1
 70
1
 10
0
 20
0
 30
0
  0
LINE
  8
1
 62
2
 10
86.10941658137369
 20
246.0671443193446
 30
0
 11
135.6094165813737
 21
246.0671443193446
 31
0
  0
LINE
  8
1
 62
2
 10
135.6094165813737
 20
234.3171439118465
 30
0
 11
135.6094165813737
 21
247.5671443193446
 31
0
  0
LINE
  8
1
 62
2
 10
86.10941658137369
 20
234.3146189379798
 30
0
 11
86.10941658137369
 21
247.5671443193446
 31
0
  0
SOLID
  8
1
 62
2
 10
86.10941658137369
 20
246.0671443193446
 30
0
 11
89.3094165813737
 21
246.4831443193446
 31
0
 12
89.3094165813737
 22
245.6511443193446
 32
0
 13
89.3094165813737
 23
245.6511443193446
 33
0
  0
SOLID
  8
1
 62
2
 10
135.6094165813737
 20
246.0671443193446
 30
0
 11
132.4094165813737
 21
245.6511443193446
 31
0
 12
132.4094165813737
 22
246.4831443193446
 32
0
 13
132.4094165813737
 23
246.4831443193446
 33
0
  0
TEXT
  8
1
 62
2
 10
102.7954165813737
 20
248.0671443193446
 30
0
 40
3.2
  1
49.5
 41
0.9
  0
TEXT
  8
1
 62
2
 10
113.1154165813737
 20
248.7071443193446
 30
0
 40
1.92
  1
%%p0.3
 41
0.9
  0
ENDBLK
  8
0
  0
BLOCK
  8
1
  2
*D2
 70
1
 10
0
 20
0
 30
0
  0
LINE
  8
1
 62
2
 10
236.8594165813737
 20
256.0671443193446
 30
0
 11
261.8594165813737
 21
256.0671443193446
 31
0
  0
LINE
  8
1
 62
2
 10
261.8594165813737
 20
231.5671443193446
 30
0
 11
261.8594165813737
 21
257.0671443193446
 31
0
  0
LINE
  8
1
 62
2
 10
236.8594165813737
 20
213.7671423193446
 30
0
 11
236.8594165813737
 21
257.0671443193446
 31
0
  0
SOLID
  8
1
 62
2
 10
236.8594165813737
 20
256.0671443193446
 30
0
 11
240.0594165813737
 21
256.4831443193446
 31
0
 12
240.0594165813737
 22
255.6511443193446
 32
0
 13
240.0594165813737
 23
255.6511443193446
 33
0
  0
SOLID
  8
1
 62
2
 10
261.8594165813737
 20
256.0671443193446
 30
0
 11
258.6594165813737
 21
255.6511443193446
 31
0
 12
258.6594165813737
 22
256.4831443193446
 32
0
 13
258.6594165813737
 23
256.4831443193446
 33
0
  0
TEXT
  8
1
 62
2
 10
246.7886408726162
 20
258.0671443193446
 30
0
 40
3.2
  1
25
 41
0.9
  0
ENDBLK
  8
0
  0
BLOCK
  8
1
  2
*D3
 70
1
 10
0
 20
0
 30
0
  0
LINE
  8
1
 62
2
 10
378.7277723643815
 20
246.0671443193446
 30
0
 11
385.1277723643815
 21
246.0671443193446
 31
0
  0
LINE
  8
1
 62
2
 10
376.7277723643815
 20
246.0671443193446
 30
0
 11
378.7277723643815
 21
246.0671443193446
 31
0
  0
LINE
  8
1
 62
2
 10
370.3277723643815
 20
246.0671443193446
 30
0
 11
376.7277723643815
 21
246.0671443193446
 31
0
  0
LINE
  8
1
 62
2
 10
378.7277723643815
 20
232.0671443193446
 30
0
 11
378.7277723643815
 21
247.0671443193446
 31
0
  0
LINE
  8
1
 62
2
 10
376.7277723643815
 20
228.5671443193446
 30
0
 11
376.7277723643815
 21
247.0671443193446
 31
0
  0
SOLID
  8
1
 62
2
 10
376.7277723643815
 20
246.0671443193446
 30
0
 11
373.5277723643815
 21
245.6511443193446
 31
0
 12
373.5277723643815
 22
246.4831443193446
 32
0
 13
373.5277723643815
 23
246.4831443193446
 33
0
  0
SOLID
  8
1
 62
2
 10
378.7277723643815
 20
246.0671443193446
 30
0
 11
381.9277723643815
 21
246.4831443193446
 31
0
 12
381.9277723643815
 22
245.6511443193446
 32
0
 13
381.9277723643815
 23
245.6511443193446
 33
0
  0
TEXT
  8
1
 62
2
 10
382.319184451923
 20
248.0671443193446
 30
0
 40
3.2
  1
2
 41
0.9
  0
ENDBLK
  8
0
  0
BLOCK
  8
1
  2
*D4
 70
1
 10
0
 20
0
 30
0
  0
LINE
  8
1
 62
2
 10
355.3509723643815
 20
173.5671443193445
 30
0
 11
355.3509723643815
 21
227.5671443193445
 31
0
  0
LINE
  8
1
 62
2
 10
375.7277723643815
 20
227.5671443193445
 30
0
 11
354.3509723643815
 21
227.5671443193445
 31
0
  0
LINE
  8
1
 62
2
 10
375.7277723643815
 20
173.5671443193445
 30
0
 11
354.3509723643815
 21
173.5671443193445
 31
0
  0
SOLID
  8
1
 62
2
 10
355.3509723643815
 20
227.5671443193445
 30
0
 11
355.7669723643815
 21
224.3671443193445
 31
0
 12
354.9349723643815
 22
224.3671443193445
 32
0
 13
354.9349723643815
 23
224.3671443193445
 33
0
  0
SOLID
  8
1
 62
2
 10
355.3509723643815
 20
173.5671443193445
 30
0
 11
354.9349723643815
 21
176.7671443193445
 31
0
 12
355.7669723643815
 22
176.7671443193445
 32
0
 13
355.7669723643815
 23
176.7671443193445
 33
0
  0
TEXT
  8
1
 62
2
 10
352.5509723643816
 20
192.9253665415667
 30
0
 40
3.2
  1
54h7
 50
90
 41
0.9
  0
TEXT
  8
1
 62
2
 10
350.4709723643815
 20
206.6213665415667
 30
0
 40
1.92
  1
0
 50
90
 41
0.9
  0
TEXT
  8
1
 62
2
 10
353.3509723643815
 20
205.0853665415667
 30
0
 40
1.92
  1
-0.03
 50
90
 41
0.9
  0
TEXT
  8
1
 62
2
 10
352.5509723643816
 20
189.2809220971223
 30
0
 40
3.2
  1
âË
 50
90
 41
0.9
  0
ENDBLK
  8
0
  0
BLOCK
  8
1
  2
*D5
 70
1
 10
0
 20
0
 30
0
  0
LINE
  8
1
 62
2
 10
308.8594165813737
 20
173.5671443193445
 30
0
 11
308.8594165813737
 21
227.5671443193445
 31
0
  0
LINE
  8
1
 62
2
 10
290.8416547151267
 20
227.5671443193445
 30
0
 11
309.8594165813737
 21
227.5671443193445
 31
0
  0
LINE
  8
1
 62
2
 10
290.8416547151267
 20
173.5671443193445
 30
0
 11
309.8594165813737
 21
173.5671443193445
 31
0
  0
SOLID
  8
1
 62
2
 10
308.8594165813737
 20
227.5671443193445
 30
0
 11
309.2754165813737
 21
224.3671443193445
 31
0
 12
308.4434165813737
 22
224.3671443193445
 32
0
 13
308.4434165813737
 23
224.3671443193445
 33
0
  0
SOLID
  8
1
 62
2
 10
308.8594165813737
 20
173.5671443193445
 30
0
 11
308.4434165813737
 21
176.7671443193445
 31
0
 12
309.2754165813737
 22
176.7671443193445
 32
0
 13
309.2754165813737
 23
176.7671443193445
 33
0
  0
TEXT
  8
1
 62
2
 10
306.0594165813737
 20
192.7653665415667
 30
0
 40
3.2
  1
54H7
 50
90
 41
0.9
  0
TEXT
  8
1
 62
2
 10
303.9794165813737
 20
205.2453665415667
 30
0
 40
1.92
  1
+0.03
 50
90
 41
0.9
  0
TEXT
  8
1
 62
2
 10
306.8594165813737
 20
206.7813665415667
 30
0
 40
1.92
  1
0
 50
90
 41
0.9
  0
TEXT
  8
1
 62
2
 10
306.0594165813737
 20
189.1209220971223
 30
0
 40
3.2
  1
âË
 50
90
 41
0.9
  0
ENDBLK
  8
0
  0
BLOCK
  8
1
  2
*D6
 70
1
 10
0
 20
0
 30
0
  0
LINE
  8
1
 62
2
 10
206.8594165813737
 20
201.5671443193446
 30
0
 11
206.8594165813737
 21
219.5671443193446
 31
0
  0
LINE
  8
1
 62
2
 10
255.8594165813737
 20
201.5671443193446
 30
0
 11
205.8594165813737
 21
201.5671443193446
 31
0
  0
LINE
  8
1
 62
2
 10
255.8594165813737
 20
219.5671443193446
 30
0
 11
205.8594165813737
 21
219.5671443193446
 31
0
  0
SOLID
  8
1
 62
2
 10
206.8594165813737
 20
219.5671443193446
 30
0
 11
207.2754165813737
 21
216.3671443193446
 31
0
 12
206.4434165813737
 22
216.3671443193446
 32
0
 13
206.4434165813737
 23
216.3671443193446
 33
0
  0
SOLID
  8
1
 62
2
 10
206.8594165813737
 20
201.5671443193446
 30
0
 11
206.4434165813737
 21
204.7671443193446
 31
0
 12
207.2754165813737
 22
204.7671443193446
 32
0
 13
207.2754165813737
 23
204.7671443193446
 33
0
  0
TEXT
  8
1
 62
2
 10
204.8594165813737
 20
209.9719324383218
 30
0
 40
3.2
  1
18
 50
90
 41
0.9
  0
TEXT
  8
1
 62
2
 10
204.8594165813737
 20
206.3274879938774
 30
0
 40
3.2
  1
âË
 50
90
 41
0.9
  0
ENDBLK
  8
0
  0
BLOCK
  8
1
  2
*D7
 70
1
 10
0
 20
0
 30
0
  0
LINE
  8
1
 62
2
 10
216.8594165813737
 20
213.5671423193446
 30
0
 11
216.8594165813737
 21
219.9671423193446
 31
0
  0
LINE
  8
1
 62
2
 10
216.8594165813737
 20
207.5671443193445
 30
0
 11
216.8594165813737
 21
201.1671443193445
 31
0
  0
LINE
  8
1
 62
2
 10
216.8594165813737
 20
207.5671443193445
 30
0
 11
216.8594165813737
 21
213.5671423193446
 31
0
  0
LINE
  8
1
 62
2
 10
252.692629094806
 20
213.5671423193446
 30
0
 11
215.8594165813737
 21
213.5671423193446
 31
0
  0
LINE
  8
1
 62
2
 10
235.8594165813737
 20
207.5671443193445
 30
0
 11
215.8594165813737
 21
207.5671443193445
 31
0
  0
SOLID
  8
1
 62
2
 10
216.8594165813737
 20
213.5671423193446
 30
0
 11
216.4434165813737
 21
216.7671423193446
 31
0
 12
217.2754165813737
 22
216.7671423193446
 32
0
 13
217.2754165813737
 23
216.7671423193446
 33
0
  0
SOLID
  8
1
 62
2
 10
216.8594165813737
 20
207.5671443193445
 30
0
 11
217.2754165813737
 21
204.3671443193445
 31
0
 12
216.4434165813737
 22
204.3671443193445
 32
0
 13
216.4434165813737
 23
204.3671443193445
 33
0
  0
TEXT
  8
1
 62
2
 10
214.0594165813737
 20
207.1233335929767
 30
0
 40
3.2
  1
6
 50
90
 41
0.9
  0
TEXT
  8
1
 62
2
 10
211.9794165813737
 20
212.1793335929767
 30
0
 40
1.92
  1
0
 50
90
 41
0.9
  0
TEXT
  8
1
 62
2
 10
214.8594165813737
 20
210.6433335929767
 30
0
 40
1.92
  1
-0.02
 50
90
 41
0.9
  0
TEXT
  8
1
 62
2
 10
214.0594165813737
 20
203.4788891485323
 30
0
 40
3.2
  1
âË
 50
90
 41
0.9
  0
ENDBLK
  8
0
  0
BLOCK
  8
1
  2
*D8
 70
1
 10
0
 20
0
 30
0
  0
LINE
  8
1
 62
2
 10
261.8594165813738
 20
246.0671443193446
 30
0
 11
268.2594165813737
 21
246.0671443193446
 31
0
  0
LINE
  8
1
 62
2
 10
256.8594165813738
 20
246.0671443193446
 30
0
 11
250.4594165813737
 21
246.0671443193446
 31
0
  0
LINE
  8
1
 62
2
 10
256.8594165813738
 20
246.0671443193446
 30
0
 11
261.8594165813738
 21
246.0671443193446
 31
0
  0
LINE
  8
1
 62
2
 10
261.8594165813738
 20
231.5671443193446
 30
0
 11
261.8594165813738
 21
247.0671443193446
 31
0
  0
LINE
  8
1
 62
2
 10
256.8594165813738
 20
220.5671443193446
 30
0
 11
256.8594165813738
 21
247.0671443193446
 31
0
  0
SOLID
  8
1
 62
2
 10
256.8594165813738
 20
246.0671443193446
 30
0
 11
253.6594165813738
 21
245.6511443193446
 31
0
 12
253.6594165813738
 22
246.4831443193446
 32
0
 13
253.6594165813738
 23
246.4831443193446
 33
0
  0
SOLID
  8
1
 62
2
 10
261.8594165813738
 20
246.0671443193446
 30
0
 11
265.0594165813737
 21
246.4831443193446
 31
0
 12
265.0594165813737
 22
245.6511443193446
 32
0
 13
265.0594165813737
 23
245.6511443193446
 33
0
  0
TEXT
  8
1
 62
2
 10
258.2146977472362
 20
248.0671443193446
 30
0
 40
3.2
  1
5
 41
0.9
  0
ENDBLK
  8
0
  0
BLOCK
  8
1
  2
*D9
 70
1
 10
0
 20
0
 30
0
  0
LINE
  8
1
 62
2
 10
97.85941658137369
 20
200.5671443193445
 30
0
 11
97.85941658137369
 21
210.5671443193445
 31
0
  0
LINE
  8
1
 62
2
 10
97.85941658137369
 20
210.5671443193445
 30
0
 11
96.85941658137369
 21
210.5671443193445
 31
0
  0
LINE
  8
1
 62
2
 10
97.85941658137369
 20
200.5671443193445
 30
0
 11
96.85941658137369
 21
200.5671443193445
 31
0
  0
SOLID
  8
1
 62
2
 10
97.85941658137369
 20
210.5671443193445
 30
0
 11
98.27541658137369
 21
207.3671443193445
 31
0
 12
97.4434165813737
 22
207.3671443193445
 32
0
 13
97.4434165813737
 23
207.3671443193445
 33
0
  0
SOLID
  8
1
 62
2
 10
97.85941658137369
 20
200.5671443193445
 30
0
 11
97.4434165813737
 21
203.7671443193445
 31
0
 12
98.27541658137369
 22
203.7671443193445
 32
0
 13
98.27541658137369
 23
203.7671443193445
 33
0
  0
TEXT
  8
1
 62
2
 10
95.90860063128989
 20
203.441989987734
 30
0
 40
3.2
  1
10
 50
90
 41
0.9
  0
ENDBLK
  8
0
  0
BLOCK
  8
1
  2
*D10
 70
1
 10
0
 20
0
 30
0
  0
LINE
  8
1
 62
2
 10
171.3594165813737
 20
170.0671443193445
 30
0
 11
171.3594165813737
 21
231.0671443193446
 31
0
  0
LINE
  8
1
 62
2
 10
136.6094165813737
 20
231.0671443193446
 30
0
 11
172.3594165813737
 21
231.0671443193446
 31
0
  0
LINE
  8
1
 62
2
 10
136.6094165813737
 20
170.0671443193445
 30
0
 11
172.3594165813737
 21
170.0671443193445
 31
0
  0
SOLID
  8
1
 62
2
 10
171.3594165813737
 20
231.0671443193446
 30
0
 11
171.7754165813737
 21
227.8671443193446
 31
0
 12
170.9434165813737
 22
227.8671443193446
 32
0
 13
170.9434165813737
 23
227.8671443193446
 33
0
  0
SOLID
  8
1
 62
2
 10
171.3594165813737
 20
170.0671443193445
 30
0
 11
170.9434165813737
 21
173.2671443193445
 31
0
 12
171.7754165813737
 22
173.2671443193445
 32
0
 13
171.7754165813737
 23
173.2671443193445
 33
0
  0
TEXT
  8
1
 62
2
 10
169.3594165813737
 20
198.6471443193445
 30
0
 40
3.2
  1
61
 50
90
 41
0.9
  0
ENDBLK
  8
0
  0
BLOCK
  8
1
  2
*D11
 70
1
 10
0
 20
0
 30
0
  0
LINE
  8
1
 62
2
 10
80.35940658137369
 20
256.0671443193446
 30
0
 11
141.3594165813737
 21
256.0671443193446
 31
0
  0
LINE
  8
1
 62
2
 10
141.3594165813737
 20
226.3171443193446
 30
0
 11
141.3594165813737
 21
257.0671443193446
 31
0
  0
LINE
  8
1
 62
2
 10
80.35940658137369
 20
226.3171443193446
 30
0
 11
80.35940658137369
 21
257.0671443193446
 31
0
  0
SOLID
  8
1
 62
2
 10
80.35940658137369
 20
256.0671443193446
 30
0
 11
83.55940658137369
 21
256.4831443193446
 31
0
 12
83.55940658137369
 22
255.6511443193446
 32
0
 13
83.55940658137369
 23
255.6511443193446
 33
0
  0
SOLID
  8
1
 62
2
 10
141.3594165813737
 20
256.0671443193446
 30
0
 11
138.1594165813737
 21
255.6511443193446
 31
0
 12
138.1594165813737
 22
256.4831443193446
 32
0
 13
138.1594165813737
 23
256.4831443193446
 33
0
  0
TEXT
  8
1
 62
2
 10
108.9394165813737
 20
258.0671443193446
 30
0
 40
3.2
  1
61
 41
0.9
  0
ENDBLK
  8
0
  0
BLOCK
  8
1
  2
*D12
 70
1
 10
0
 20
0
 30
0
  0
LINE
  8
1
 62
2
 10
226.8594165813737
 20
213.5671423193446
 30
0
 11
226.8594165813737
 21
226.7241644117395
 31
0
  0
LINE
  8
1
 62
2
 10
226.8594165813737
 20
212.7671443193445
 30
0
 11
226.8594165813737
 21
213.5671423193446
 31
0
  0
LINE
  8
1
 62
2
 10
226.8594165813737
 20
206.3671443193445
 30
0
 11
226.8594165813737
 21
212.7671443193445
 31
0
  0
LINE
  8
1
 62
2
 10
252.692629094806
 20
213.5671423193446
 30
0
 11
225.8594165813737
 21
213.5671423193446
 31
0
  0
LINE
  8
1
 62
2
 10
235.8594165813737
 20
212.7671443193445
 30
0
 11
225.8594165813737
 21
212.7671443193445
 31
0
  0
SOLID
  8
1
 62
2
 10
226.8594165813737
 20
213.5671423193446
 30
0
 11
226.4434165813737
 21
216.7671423193446
 31
0
 12
227.2754165813737
 22
216.7671423193446
 32
0
 13
227.2754165813737
 23
216.7671423193446
 33
0
  0
SOLID
  8
1
 62
2
 10
226.8594165813737
 20
212.7671443193445
 30
0
 11
227.2754165813737
 21
209.5671443193445
 31
0
 12
226.4434165813737
 22
209.5671443193445
 32
0
 13
226.4434165813737
 23
209.5671443193445
 33
0
  0
TEXT
  8
1
 62
2
 10
224.8594165813737
 20
220.8841644117395
 30
0
 40
3.2
  1
0.5
 50
90
 41
0.9
  0
ENDBLK
  8
0
  0
BLOCK
  8
1
  2
*D13
 70
1
 10
0
 20
0
 30
0
  0
LINE
  8
1
 62
2
 10
236.8594139480407
 20
228.5671408102111
 30
0
 11
248.8594139480407
 21
228.567142810211
 31
0
  0
LINE
  8
1
 62
2
 10
248.859416414707
 20
213.7671443193445
 30
0
 11
248.8594136147074
 21
230.567142810211
 31
0
  0
LINE
  8
1
 62
2
 10
236.859416414707
 20
213.7671423193446
 30
0
 11
236.8594136147074
 21
230.5671408102111
 31
0
  0
SOLID
  8
1
 62
2
 10
236.8594139480407
 20
228.5671408102111
 30
0
 11
240.0594138787074
 21
228.9831413435444
 31
0
 12
240.059414017374
 22
228.1511413435444
 32
0
 13
240.059414017374
 23
228.1511413435444
 33
0
  0
SOLID
  8
1
 62
2
 10
248.8594139480407
 20
228.567142810211
 30
0
 11
245.6594140173741
 21
228.1511422768777
 31
0
 12
245.6594138787074
 22
228.9831422768777
 32
0
 13
245.6594138787074
 23
228.9831422768777
 33
0
  0
TEXT
  8
1
 62
2
 10
240.3622566801401
 20
230.5671413940182
 30
0
 40
3.2
  1
12
 50
9.549296018589308e-006
 41
0.9
  0
ENDBLK
  8
0
  0
BLOCK
  8
1
  2
*D14
 70
1
 10
0
 20
0
 30
0
  0
LINE
  8
1
 62
2
 10
368.7277723643815
 20
256.0671443193446
 30
0
 11
378.7277723643815
 21
256.0671443193446
 31
0
  0
LINE
  8
1
 62
2
 10
378.7277723643815
 20
232.0671443193446
 30
0
 11
378.7277723643815
 21
257.0671443193446
 31
0
  0
LINE
  8
1
 62
2
 10
368.7277723643815
 20
204.0671443193445
 30
0
 11
368.7277723643815
 21
257.0671443193446
 31
0
  0
SOLID
  8
1
 62
2
 10
368.7277723643815
 20
256.0671443193446
 30
0
 11
371.9277723643815
 21
256.4831443193446
 31
0
 12
371.9277723643815
 22
255.6511443193446
 32
0
 13
371.9277723643815
 23
255.6511443193446
 33
0
  0
SOLID
  8
1
 62
2
 10
378.7277723643815
 20
256.0671443193446
 30
0
 11
375.5277723643815
 21
255.6511443193446
 31
0
 12
375.5277723643815
 22
256.4831443193446
 32
0
 13
375.5277723643815
 23
256.4831443193446
 33
0
  0
TEXT
  8
1
 62
2
 10
371.324873127497
 20
258.0671443193446
 30
0
 40
3.2
  1
10
 41
0.9
  0
ENDBLK
  8
0
  0
BLOCK
  8
1
  2
*D15
 70
1
 10
0
 20
0
 30
0
  0
LINE
  8
1
 62
2
 10
261.8594165813737
 20
256.0671443193446
 30
0
 11
288.8594165813737
 21
256.0671443193446
 31
0
  0
LINE
  8
1
 62
2
 10
288.8594165813737
 20
232.0671443193446
 30
0
 11
288.8594165813737
 21
257.0671443193446
 31
0
  0
LINE
  8
1
 62
2
 10
261.8594165813737
 20
231.5671443193446
 30
0
 11
261.8594165813737
 21
257.0671443193446
 31
0
  0
SOLID
  8
1
 62
2
 10
261.8594165813737
 20
256.0671443193446
 30
0
 11
265.0594165813737
 21
256.4831443193446
 31
0
 12
265.0594165813737
 22
255.6511443193446
 32
0
 13
265.0594165813737
 23
255.6511443193446
 33
0
  0
SOLID
  8
1
 62
2
 10
288.8594165813737
 20
256.0671443193446
 30
0
 11
285.6594165813737
 21
255.6511443193446
 31
0
 12
285.6594165813737
 22
256.4831443193446
 32
0
 13
285.6594165813737
 23
256.4831443193446
 33
0
  0
TEXT
  8
1
 62
2
 10
273.2480470440552
 20
258.0671443193446
 30
0
 40
3.2
  1
27
 41
0.9
  0
ENDBLK
  8
0
  0
BLOCK
  8
1
  2
*D16
 70
1
 10
0
 20
0
 30
0
  0
LINE
  8
1
 62
2
 10
151.3255970814712
 20
241.0671443193446
 30
0
 11
170.9994165813737
 21
241.0671443193446
 31
0
  0
LINE
  8
1
 62
2
 10
137.1986959425121
 20
226.9098436356813
 30
0
 11
151.3255970814712
 21
241.0671443193446
 31
0
  0
SOLID
  8
1
 62
2
 10
137.1986959425121
 20
226.9098436356813
 30
0
 11
138.7959377069735
 21
228.9890412563659
 31
0
 12
139.2744553682373
 22
228.5115511016417
 32
0
 13
139.2744553682373
 23
228.5115511016417
 33
0
  0
TEXT
  8
1
 62
2
 10
160.8038610258182
 20
243.085991775497
 30
0
 40
3.2
  1
4.5
 41
0.9
  0
TEXT
  8
1
 62
2
 10
151.7194165813737
 20
243.085991775497
 30
0
 40
3.2
  1
4-âË
 41
0.9
  0
TEXT
  8
1
 62
2
 10
168.2438610258182
 20
243.085991775497
 30
0
 40
3.2
  1
îè
 41
0.9
  0
ENDBLK
  8
0
  0
BLOCK
  8
1
  2
*D17
 70
1
 10
0
 20
0
 30
0
  0
LINE
  8
1
 62
2
 10
145.0354744521202
 20
208.1167846031851
 30
0
 11
76.68335871062725
 21
193.0175040355039
 31
0
  0
SOLID
  8
1
 62
2
 10
76.68335871062725
 20
193.0175040355039
 30
0
 11
79.71829399143613
 21
194.1139637207188
 31
0
 12
79.89775972618342
 22
193.3015500021913
 32
0
 13
79.89775972618342
 23
193.3015500021913
 33
0
  0
SOLID
  8
1
 62
2
 10
145.0354744521202
 20
208.1167846031851
 30
0
 11
142.0005391713113
 21
207.0203249179702
 31
0
 12
141.821073436564
 22
207.8327386364977
 32
0
 13
141.821073436564
 23
207.8327386364977
 33
0
  0
TEXT
  8
1
 62
2
 10
86.47069615600097
 20
195.8224682065357
 30
0
 40
3.2
  1
70
 50
12.45683318019927
 41
0.9
  0
TEXT
  8
1
 62
2
 10
81.50594565388873
 20
194.7257331608578
 30
0
 40
3.2
  1
(âË
 50
12.45683318019927
 41
0.9
  0
TEXT
  8
1
 62
2
 10
92.72003245236604
 20
197.202973858438
 30
0
 40
3.2
  1
)
 50
12.45683318019927
 41
0.9
  0
ENDBLK
  8
0
  0
ENDSEC
  0
SECTION
  2
ENTITIES
  0
LINE
  8
1
 62
2
 10
248.8594165813737
 20
212.7671443193445
 30
0
 11
248.8594165813737
 21
213.7671443193445
 31
0
  0
LINE
  8
2
 62
1
 10
105.8594165813737
 20
177.0671443193445
 30
0
 11
115.8594165813737
 21
177.0671443193445
 31
0
  0
LINE
  8
2
 62
1
 10
131.6302165813737
 20
218.0671443193445
 30
0
 11
131.6302165813737
 21
208.0671443193445
 31
0
  0
LINE
  8
2
 62
1
 10
136.6302165813737
 20
213.0671443193445
 30
0
 11
126.6302165813737
 21
213.0671443193445
 31
0
  0
LINE
  8
2
 62
1
 10
90.08859658137371
 20
218.0671443193445
 30
0
 11
90.08859658137371
 21
208.0671443193445
 31
0
  0
LINE
  8
2
 62
1
 10
85.08859658137371
 20
213.0671443193445
 30
0
 11
95.08859658137371
 21
213.0671443193445
 31
0
  0
LINE
  8
1
 62
3
 10
89.43704909077331
 20
214.1858873618003
 30
0
 11
89.98261995787385
 21
213.6403164946998
 31
0
  0
LINE
  8
1
 62
3
 10
90.74014407197413
 20
214.1858873618003
 30
0
 11
90.19457320487359
 21
213.6403164946998
 31
0
  0
LINE
  8
1
 62
3
 10
88.9698535389179
 20
212.4155968287441
 30
0
 11
89.51542440601844
 21
212.9611676958446
 31
0
  0
LINE
  8
1
 62
3
 10
88.9698535389179
 20
213.7186918099449
 30
0
 11
89.51542440601844
 21
213.1731209428443
 31
0
  0
LINE
  8
1
 62
3
 10
90.19457320487359
 20
212.4939721439892
 30
0
 11
90.20005083864135
 21
212.4884945102214
 31
0
  0
LINE
  8
1
 62
3
 10
90.20005083864135
 20
212.4884945102214
 30
0
 11
90.74014407197413
 21
211.9484012768887
 31
0
  0
LINE
  8
1
 62
3
 10
89.43704909077331
 20
211.9484012768887
 30
0
 11
89.98261995787385
 21
212.4939721439892
 31
0
  0
LINE
  8
1
 62
3
 10
91.20733962382954
 20
213.7186918099449
 30
0
 11
90.66176875672898
 21
213.1731209428444
 31
0
  0
LINE
  8
1
 62
3
 10
91.20733962382954
 20
212.4155968287441
 30
0
 11
90.66176875672898
 21
212.9611676958446
 31
0
  0
LINE
  8
1
 62
3
 10
110.2078690907733
 20
178.1858873618003
 30
0
 11
110.7534399578738
 21
177.6403164946998
 31
0
  0
LINE
  8
1
 62
3
 10
111.5109640719741
 20
178.1858873618003
 30
0
 11
110.9653932048736
 21
177.6403164946998
 31
0
  0
LINE
  8
1
 62
3
 10
109.7406735389179
 20
176.4155968287441
 30
0
 11
110.2862444060184
 21
176.9611676958446
 31
0
  0
LINE
  8
1
 62
3
 10
109.7406735389179
 20
177.7186918099449
 30
0
 11
110.2862444060184
 21
177.1731209428443
 31
0
  0
LINE
  8
1
 62
3
 10
110.9653932048736
 20
176.4939721439892
 30
0
 11
110.9708708386413
 21
176.4884945102214
 31
0
  0
LINE
  8
1
 62
3
 10
110.9708708386413
 20
176.4884945102214
 30
0
 11
111.5109640719741
 21
175.9484012768887
 31
0
  0
LINE
  8
1
 62
3
 10
110.2078690907733
 20
175.9484012768887
 30
0
 11
110.7534399578738
 21
176.4939721439892
 31
0
  0
LINE
  8
1
 62
3
 10
111.9781596238295
 20
177.7186918099449
 30
0
 11
111.432588756729
 21
177.1731209428444
 31
0
  0
LINE
  8
1
 62
3
 10
111.9781596238295
 20
176.4155968287441
 30
0
 11
111.432588756729
 21
176.9611676958446
 31
0
  0
LINE
  8
1
 62
3
 10
130.9786690907733
 20
214.1858873618003
 30
0
 11
131.5242399578738
 21
213.6403164946998
 31
0
  0
LINE
  8
1
 62
3
 10
132.2817640719741
 20
214.1858873618003
 30
0
 11
131.7361932048736
 21
213.6403164946998
 31
0
  0
LINE
  8
1
 62
3
 10
130.5114735389179
 20
212.4155968287441
 30
0
 11
131.0570444060184
 21
212.9611676958446
 31
0
  0
LINE
  8
1
 62
3
 10
130.5114735389179
 20
213.7186918099449
 30
0
 11
131.0570444060184
 21
213.1731209428443
 31
0
  0
LINE
  8
1
 62
3
 10
131.7361932048736
 20
212.4939721439892
 30
0
 11
131.7416708386413
 21
212.4884945102214
 31
0
  0
LINE
  8
1
 62
3
 10
131.7416708386413
 20
212.4884945102214
 30
0
 11
132.2817640719741
 21
211.9484012768887
 31
0
  0
LINE
  8
1
 62
3
 10
130.9786690907733
 20
211.9484012768887
 30
0
 11
131.5242399578738
 21
212.4939721439892
 31
0
  0
LINE
  8
1
 62
3
 10
132.7489596238295
 20
213.7186918099449
 30
0
 11
132.203388756729
 21
213.1731209428444
 31
0
  0
LINE
  8
1
 62
3
 10
132.7489596238295
 20
212.4155968287441
 30
0
 11
132.203388756729
 21
212.9611676958446
 31
0
  0
LINE
  8
2
 62
1
 10
239.8594165813737
 20
210.5671443193445
 30
0
 11
238.9594165813737
 21
210.5671443193445
 31
0
  0
LINE
  8
2
 62
1
 10
238.9594165813737
 20
210.5671443193445
 30
0
 11
231.8594165813737
 21
210.5671443193445
 31
0
  0
LINE
  8
1
 62
3
 10
253.692629094806
 20
213.5671423193446
 30
0
 11
256.8594165813737
 21
213.5671424873444
 31
0
  0
LINE
  8
1
 62
1
 10
286.8999020438907
 20
173.5671443193445
 30
0
 11
290.8416547151268
 21
173.5671443193445
 31
0
  0
LINE
  8
1
 62
1
 10
286.8999020438907
 20
227.5671443193446
 30
0
 11
290.8416547151268
 21
227.5671443193446
 31
0
  0
LINE
  8
2
 62
1
 10
98.85941658137369
 20
200.5671443193445
 30
0
 11
146.3594165813737
 21
200.5671443193445
 31
0
  0
LINE
  8
2
 62
1
 10
98.85941658137369
 20
210.5671443193445
 30
0
 11
121.9434265813737
 21
210.5671443193445
 31
0
  0
LINE
  8
1
 62
3
 10
236.8594165813737
 20
207.5671443193445
 30
0
 11
256.8594165813737
 21
207.5671443193445
 31
0
  0
LINE
  8
1
 62
3
 10
236.8594165813737
 20
212.7671423193446
 30
0
 11
236.8594165813737
 21
207.5671443193445
 31
0
  0
LINE
  8
1
 62
3
 10
368.7277723643815
 20
198.0671443193445
 30
0
 11
376.7277723643815
 21
198.0671443193445
 31
0
  0
LINE
  8
1
 62
3
 10
368.7277723643815
 20
203.0671443193445
 30
0
 11
376.7277723643815
 21
203.0671443193445
 31
0
  0
LINE
  8
1
 62
3
 10
376.7277723643815
 20
173.5671443193445
 30
0
 11
378.7277723643815
 21
173.5671443193445
 31
0
  0
LINE
  8
1
 62
3
 10
376.7277723643815
 20
227.5671443193446
 30
0
 11
378.7277723643815
 21
227.5671443193446
 31
0
  0
LINE
  8
1
 62
3
 10
376.7277723643815
 20
173.5671443193445
 30
0
 11
376.7277723643815
 21
227.5671443193446
 31
0
  0
LINE
  8
1
 62
3
 10
368.7277723643815
 20
198.0671443193445
 30
0
 11
368.7277723643815
 21
203.0671443193445
 31
0
  0
LINE
  8
1
 62
3
 10
378.7277723643815
 20
170.0671443193445
 30
0
 11
378.7277723643815
 21
231.0671443193446
 31
0
  0
LINE
  8
1
 62
3
 10
378.7277723643815
 20
170.0671443193445
 30
0
 11
388.7277723643815
 21
170.0671443193445
 31
0
  0
LINE
  8
1
 62
3
 10
378.7277723643815
 20
231.0671443193446
 30
0
 11
388.7277723643815
 21
231.0671443193446
 31
0
  0
LINE
  8
1
 62
3
 10
262.5594165813738
 20
220.0671443193446
 30
0
 11
261.8594165813737
 21
220.0671443193446
 31
0
  0
LINE
  8
1
 62
3
 10
261.8594165813737
 20
230.5671443193446
 30
0
 11
261.8594165813737
 21
220.0671443193446
 31
0
  0
LINE
  8
1
 62
3
 10
288.8594165813737
 20
231.0671443193446
 30
0
 11
288.8594165813737
 21
200.5671443193445
 31
0
  0
LINE
  8
1
 62
3
 10
261.8594165813737
 20
230.5671443193446
 30
0
 11
288.8594165813737
 21
231.0671443193446
 31
0
  0
LINE
  8
1
 62
3
 10
86.10941658137369
 20
170.0671443193445
 30
0
 11
110.8594165813737
 21
170.0671443193445
 31
0
  0
LINE
  8
1
 62
3
 10
86.10941658137369
 20
231.0671443193446
 30
0
 11
110.8594165813737
 21
231.0671443193446
 31
0
  0
LINE
  8
1
 62
3
 10
80.35940658137369
 20
225.3171443193446
 30
0
 11
80.35940658137369
 21
175.8171443193445
 31
0
  0
LINE
  8
1
 62
3
 10
135.6094165813737
 20
170.0671443193445
 30
0
 11
110.8594165813737
 21
170.0671443193445
 31
0
  0
LINE
  8
1
 62
3
 10
135.6094165813737
 20
231.0671443193446
 30
0
 11
110.8594165813737
 21
231.0671443193446
 31
0
  0
LINE
  8
1
 62
3
 10
141.3594165813737
 20
225.3171443193446
 30
0
 11
141.3594165813737
 21
175.8171443193445
 31
0
  0
LINE
  8
1
 62
3
 10
262.5594165813738
 20
222.6555443193446
 30
0
 11
262.5594165813738
 21
200.5671443193445
 31
0
  0
LINE
  8
1
 62
3
 10
262.5594165813738
 20
181.0671443193445
 30
0
 11
261.8594165813737
 21
181.0671443193445
 31
0
  0
LINE
  8
1
 62
3
 10
261.8594165813737
 20
170.5671443193445
 30
0
 11
261.8594165813737
 21
181.0671443193445
 31
0
  0
LINE
  8
1
 62
3
 10
288.8594165813737
 20
170.0671443193445
 30
0
 11
288.8594165813737
 21
200.5671443193445
 31
0
  0
LINE
  8
1
 62
3
 10
261.8594165813737
 20
170.5671443193445
 30
0
 11
288.8594165813737
 21
170.0671443193445
 31
0
  0
LINE
  8
1
 62
3
 10
262.5594165813738
 20
178.4787443193446
 30
0
 11
262.5594165813738
 21
200.5671443193445
 31
0
  0
LINE
  8
1
 62
3
 10
256.8594165813737
 20
201.5671443193445
 30
0
 11
256.8594165813737
 21
219.5671443193446
 31
0
  0
LINE
  8
1
 62
3
 10
267.0088165813737
 20
231.6626443193445
 30
0
 11
283.1872165813737
 21
231.9622443193446
 31
0
  0
LINE
  8
1
 62
3
 10
256.8594165813737
 20
219.5671443193446
 30
0
 11
262.5594165813738
 21
219.5671443193446
 31
0
  0
LINE
  8
1
 62
3
 10
256.8594165813737
 20
201.5671443193445
 30
0
 11
262.5594165813738
 21
201.5671443193445
 31
0
  0
LINE
  8
2
 62
1
 10
364.4063723643816
 20
200.5671443193445
 30
0
 11
390.3509723643815
 21
200.5671443193445
 31
0
  0
LINE
  8
2
 62
1
  6
CENTER
 10
367.2621723643815
 20
198.5671443193445
 30
0
 11
376.6964723643815
 21
198.5671443193445
 31
0
  0
LINE
  8
2
 62
1
  6
CENTER
 10
367.2621723643815
 20
202.5671443193445
 30
0
 11
376.7277723643815
 21
202.5671443193445
 31
0
  0
LINE
  8
2
 62
1
 10
86.10941658137369
 20
183.8171443193445
 30
0
 11
86.10941658137369
 21
167.8171443193445
 31
0
  0
LINE
  8
2
 62
1
 10
86.10941658137369
 20
233.3146189379798
 30
0
 11
86.10941658137369
 21
217.3146189379798
 31
0
  0
LINE
  8
2
 62
1
 10
78.10941658137369
 20
175.8171443193445
 30
0
 11
94.10941658137369
 21
175.8171443193445
 31
0
  0
LINE
  8
2
 62
1
 10
78.10941697997065
 20
225.3171443193446
 30
0
 11
94.10941618277674
 21
225.3171443193446
 31
0
  0
LINE
  8
2
 62
1
 10
135.6094165813737
 20
183.8171443193445
 30
0
 11
135.6094165813737
 21
167.8171443193445
 31
0
  0
LINE
  8
2
 62
1
 10
135.6094165813737
 20
233.3171439118465
 30
0
 11
135.6094165813737
 21
217.3171447268427
 31
0
  0
LINE
  8
2
 62
1
 10
143.6094165813737
 20
175.8171443193445
 30
0
 11
127.6094165813737
 21
175.8171443193445
 31
0
  0
LINE
  8
2
 62
1
 10
143.6068631582369
 20
225.3171443193446
 30
0
 11
127.6068631582369
 21
225.3171443193446
 31
0
  0
LINE
  8
2
 62
1
 10
110.8594165813737
 20
236.0671443193446
 30
0
 11
110.8594165813737
 21
165.0671443193445
 31
0
  0
LINE
  8
2
 62
1
 10
75.35940658137369
 20
200.5671443193445
 30
0
 11
98.85941658137369
 21
200.5671443193445
 31
0
  0
LINE
  8
2
 62
1
 10
96.72354658137371
 20
210.5671443193445
 30
0
 11
98.85941658137369
 21
210.5671443193445
 31
0
  0
LINE
  8
2
 62
1
 10
258.8594165813737
 20
225.3171443193446
 30
0
 11
268.9589165813737
 21
225.3171443193446
 31
0
  0
LINE
  8
2
 62
1
 10
257.5594165813738
 20
200.5671443193445
 30
0
 11
293.8594165813737
 21
200.5671443193445
 31
0
  0
LINE
  8
2
 62
1
 10
258.8594165813737
 20
175.8171443193445
 30
0
 11
268.9589165813737
 21
175.8171443193445
 31
0
  0
LINE
  8
2
 62
1
 10
267.5497165813738
 20
210.5671443193445
 30
0
 11
239.8594165813737
 21
210.5671443193445
 31
0
  0
LINE
  8
1
 62
3
 10
248.8594165813737
 20
212.7671443193445
 30
0
 11
236.8594165813737
 21
212.7671443193445
 31
0
  0
LINE
  8
1
 62
3
 10
108.8751030980753
 20
212.8171443193445
 30
0
 11
112.8437300646722
 21
212.8171443193445
 31
0
  0
LINE
  8
1
 62
2
 10
359.7265788499499
 20
116.0848008640729
 30
0
 11
410.4871217758668
 21
116.0848008640729
 31
0
  0
LINE
  8
1
 62
2
 10
410.4871217758669
 20
123.0848008640729
 30
0
 11
359.7265788499499
 21
123.0848008640729
 31
0
  0
LINE
  8
1
 62
2
 10
359.7265788499499
 20
130.0848008640729
 30
0
 11
410.4871217758669
 21
130.0848008640729
 31
0
  0
LINE
  8
1
 62
2
 10
410.4871217758669
 20
137.0848008640729
 30
0
 11
359.7265788499499
 21
137.0848008640729
 31
0
  0
LINE
  8
1
 62
2
 10
359.7265788499499
 20
144.0848008640729
 30
0
 11
410.4871217758669
 21
144.0848008640729
 31
0
  0
LINE
  8
1
 62
2
 10
363.1068503129084
 20
106.0848008640729
 30
0
 11
407.1068503129084
 21
106.0848008640729
 31
0
  0
LINE
  8
1
 62
3
 10
134.3594165813737
 20
232.0671443193446
 30
0
 11
87.35941658137369
 21
232.0671443193446
 31
0
  0
ARC
  8
1
 62
3
 10
248.8594165813737
 20
227.7671443193445
 30
0
 40
15
 50
270
 51
288.7968825451637
  0
ARC
  8
1
 62
3
 10
90.08859658137371
 20
213.0671443193445
 30
0
 40
1.29464285714285
 50
30.21619828524941
 51
59.78380171474888
  0
ARC
  8
1
 62
3
 10
90.08859658137371
 20
213.0671443193445
 30
0
 40
0.5669642857143086
 50
82.54155094369187
 51
97.45844905630527
  0
ARC
  8
1
 62
3
 10
90.08859658137371
 20
213.0671443193445
 30
0
 40
1.294642857142826
 50
120.21619828525
 51
149.78380171475
  0
ARC
  8
1
 62
3
 10
90.08859658137371
 20
213.0671443193445
 30
0
 40
0.5669642857142805
 50
172.5415509436915
 51
187.4584490563057
  0
ARC
  8
1
 62
3
 10
90.08859658137371
 20
213.0671443193445
 30
0
 40
1.294642857142826
 50
210.21619828525
 51
239.78380171475
  0
ARC
  8
1
 62
3
 10
90.08859658137371
 20
213.0671443193445
 30
0
 40
0.5669642857143049
 50
262.5415509436947
 51
277.4584490563082
  0
ARC
  8
1
 62
3
 10
90.08859658137371
 20
213.0671443193445
 30
0
 40
1.29464285714284
 50
300.2161982852511
 51
329.7838017147506
  0
ARC
  8
1
 62
3
 10
90.08859658137371
 20
213.0671443193445
 30
0
 40
0.5669642857142767
 50
352.5415509436944
 51
7.458449056308509
  0
ARC
  8
1
 62
3
 10
110.8594165813737
 20
177.0671443193445
 30
0
 40
1.294642857142826
 50
30.21619828525003
 51
59.78380171474942
  0
ARC
  8
1
 62
3
 10
110.8594165813737
 20
177.0671443193445
 30
0
 40
0.5669642857143086
 50
82.54155094369187
 51
97.45844905630671
  0
ARC
  8
1
 62
3
 10
110.8594165813737
 20
177.0671443193445
 30
0
 40
1.294642857142826
 50
120.21619828525
 51
149.7838017147496
  0
ARC
  8
1
 62
3
 10
110.8594165813737
 20
177.0671443193445
 30
0
 40
0.5669642857143086
 50
172.5415509436919
 51
187.4584490563053
  0
ARC
  8
1
 62
3
 10
110.8594165813737
 20
177.0671443193445
 30
0
 40
1.294642857142813
 50
210.2161982852503
 51
239.78380171475
  0
ARC
  8
1
 62
3
 10
110.8594165813737
 20
177.0671443193445
 30
0
 40
0.5669642857143068
 50
262.5415509436933
 51
277.4584490563082
  0
ARC
  8
1
 62
3
 10
110.8594165813737
 20
177.0671443193445
 30
0
 40
1.294642857142833
 50
300.2161982852506
 51
329.78380171475
  0
ARC
  8
1
 62
3
 10
110.8594165813737
 20
177.0671443193445
 30
0
 40
0.566964285714319
 50
352.5415509436949
 51
7.458449056307948
  0
ARC
  8
1
 62
3
 10
131.6302165813737
 20
213.0671443193445
 30
0
 40
1.294642857142826
 50
30.21619828525003
 51
59.78380171474998
  0
ARC
  8
1
 62
3
 10
131.6302165813737
 20
213.0671443193445
 30
0
 40
0.5669642857143086
 50
82.54155094369187
 51
97.45844905630813
  0
ARC
  8
1
 62
3
 10
131.6302165813737
 20
213.0671443193445
 30
0
 40
1.294642857142826
 50
120.21619828525
 51
149.78380171475
  0
ARC
  8
1
 62
3
 10
131.6302165813737
 20
213.0671443193445
 30
0
 40
0.5669642857143086
 50
172.5415509436919
 51
187.4584490563053
  0
ARC
  8
1
 62
3
 10
131.6302165813737
 20
213.0671443193445
 30
0
 40
1.294642857142826
 50
210.21619828525
 51
239.78380171475
  0
ARC
  8
1
 62
3
 10
131.6302165813737
 20
213.0671443193445
 30
0
 40
0.5669642857143086
 50
262.5415509436919
 51
277.4584490563082
  0
ARC
  8
1
 62
3
 10
131.6302165813737
 20
213.0671443193445
 30
0
 40
1.294642857142826
 50
300.21619828525
 51
329.78380171475
  0
ARC
  8
1
 62
3
 10
131.6302165813737
 20
213.0671443193445
 30
0
 40
0.5669642857143049
 50
352.5415509436947
 51
7.458449056308134
  0
ARC
  8
3
 62
2
 10
110.8594165813737
 20
200.5671443193445
 30
0
 40
34.99997997538905
 50
9.999987132139397
 51
59.99995101595371
  0
ARC
  8
3
 62
2
 10
110.8594165813737
 20
200.5671443193445
 30
0
 40
35.00000023764869
 50
190.0001375373911
 51
240.0000967497635
  0
CIRCLE
  8
1
 62
3
 10
90.08859658137371
 20
213.0671443193445
 30
0
 40
2.5
  0
CIRCLE
  8
1
 62
3
 10
110.8594165813737
 20
177.0671443193445
 30
0
 40
2.5
  0
CIRCLE
  8
1
 62
3
 10
131.6302165813737
 20
213.0671443193445
 30
0
 40
2.5
  0
CIRCLE
  8
1
 62
3
 10
110.8594165813737
 20
210.5671443193445
 30
0
 40
3
  0
CIRCLE
  8
1
 62
4
  6
DIVIDE
 10
110.8594165813737
 20
200.5671443193445
 30
0
 40
35
  0
CIRCLE
  8
1
 62
3
 10
86.10941658137369
 20
175.8171443193445
 30
0
 40
2.25
  0
CIRCLE
  8
1
 62
3
 10
86.10941658137369
 20
225.3171443193446
 30
0
 40
2.25
  0
CIRCLE
  8
1
 62
3
 10
86.10941658137369
 20
175.8171443193445
 30
0
 40
5.75
  0
CIRCLE
  8
1
 62
3
 10
86.10941658137369
 20
225.3171443193446
 30
0
 40
5.75
  0
CIRCLE
  8
1
 62
3
 10
135.6094165813737
 20
175.8171443193445
 30
0
 40
2.25
  0
CIRCLE
  8
1
 62
3
 10
135.6094165813737
 20
225.3171443193446
 30
0
 40
2.25
  0
CIRCLE
  8
1
 62
3
 10
135.6094165813737
 20
175.8171443193445
 30
0
 40
5.75
  0
CIRCLE
  8
1
 62
3
 10
135.6094165813737
 20
225.3171443193446
 30
0
 40
5.75
  0
CIRCLE
  8
1
 62
3
 10
90.08859658137371
 20
213.0671443193445
 30
0
 40
3.25
  0
CIRCLE
  8
1
 62
3
 10
131.6302165813737
 20
213.0671443193445
 30
0
 40
3.25
  0
CIRCLE
  8
1
 62
3
 10
110.8594165813737
 20
210.5671443193445
 30
0
 40
9
  0
CIRCLE
  8
1
 62
3
 10
110.8594165813737
 20
210.5671443193445
 30
0
 40
6
  0
CIRCLE
  8
1
 62
3
 10
110.8594165813737
 20
177.0671443193445
 30
0
 40
3.25
  0
ARC
  8
1
 62
3
 10
90.00997825595547
 20
213.6676747927814
 30
0
 40
0.03869047619047698
 50
225
 51
277.4584490562776
  0
ARC
  8
1
 62
3
 10
90.16721490679197
 20
213.6676747927814
 30
0
 40
0.03869047619047641
 50
262.5415509437224
 51
315
  0
ARC
  8
1
 62
3
 10
89.48806610793682
 20
212.9885259939263
 30
0
 40
0.03869047619051717
 50
314.9999999999404
 51
7.458449056235912
  0
ARC
  8
1
 62
3
 10
89.48806610793682
 20
213.1457626447628
 30
0
 40
0.03869047619048378
 50
352.5415509436389
 51
44.9999999998512
  0
ARC
  8
1
 62
3
 10
90.16721490679197
 20
212.4666138459076
 30
0
 40
0.03869047619045688
 50
44.99999999997024
 51
97.4584490562831
  0
ARC
  8
1
 62
3
 10
90.00997825595547
 20
212.4666138459076
 30
0
 40
0.03869047619044823
 50
82.5415509437169
 51
135.0000000000298
  0
ARC
  8
1
 62
3
 10
90.68912705481063
 20
213.1457626447628
 30
0
 40
0.03869047619047698
 50
135.0000000000595
 51
187.4584490563557
  0
ARC
  8
1
 62
3
 10
90.68912705481063
 20
212.9885259939263
 30
0
 40
0.03869047619050091
 50
172.5415509437696
 51
225.0000000000298
  0
ARC
  8
1
 62
3
 10
110.7807982559555
 20
177.6676747927814
 30
0
 40
0.03869047619053728
 50
224.9999999999107
 51
277.4584490561942
  0
ARC
  8
1
 62
3
 10
110.938034906792
 20
177.6676747927814
 30
0
 40
0.03869047619048194
 50
262.5415509436597
 51
314.9999999999852
  0
ARC
  8
1
 62
3
 10
110.2588861079368
 20
176.9885259939263
 30
0
 40
0.03869047619049708
 50
314.9999999999107
 51
7.458449056241375
  0
ARC
  8
1
 62
3
 10
110.2588861079368
 20
177.1457626447628
 30
0
 40
0.0386904761904556
 50
352.5415509436334
 51
44.99999999988096
  0
ARC
  8
1
 62
3
 10
110.938034906792
 20
176.4666138459076
 30
0
 40
0.03869047619044683
 50
44.99999999998512
 51
97.45844905634571
  0
ARC
  8
1
 62
3
 10
110.7807982559555
 20
176.4666138459076
 30
0
 40
0.03869047619044085
 50
82.54155094380035
 51
135.0000000001191
  0
ARC
  8
1
 62
3
 10
111.4599470548106
 20
177.1457626447628
 30
0
 40
0.03869047619043679
 50
135
 51
187.4584490563666
  0
ARC
  8
1
 62
3
 10
111.4599470548106
 20
176.9885259939263
 30
0
 40
0.03869047619044454
 50
172.5415509437586
 51
225.0000000000893
  0
ARC
  8
1
 62
3
 10
131.5515982559555
 20
213.6676747927814
 30
0
 40
0.03869047619053728
 50
224.9999999999107
 51
277.4584490561942
  0
ARC
  8
1
 62
3
 10
131.708834906792
 20
213.6676747927814
 30
0
 40
0.0386904761904801
 50
262.5415509436807
 51
314.9999999999702
  0
ARC
  8
1
 62
3
 10
131.0296861079368
 20
212.9885259939263
 30
0
 40
0.03869047619049708
 50
314.9999999999107
 51
7.458449056241375
  0
ARC
  8
1
 62
3
 10
131.0296861079368
 20
213.1457626447628
 30
0
 40
0.0386904761904556
 50
352.5415509436334
 51
44.99999999988096
  0
ARC
  8
1
 62
3
 10
131.708834906792
 20
212.4666138459076
 30
0
 40
0.03869047619043679
 50
45
 51
97.45844905632485
  0
ARC
  8
1
 62
3
 10
131.5515982559555
 20
212.4666138459076
 30
0
 40
0.03869047619044085
 50
82.54155094380035
 51
135.0000000001191
  0
ARC
  8
1
 62
3
 10
132.2307470548106
 20
213.1457626447628
 30
0
 40
0.03869047619043679
 50
135
 51
187.4584490563666
  0
ARC
  8
1
 62
3
 10
132.2307470548106
 20
212.9885259939263
 30
0
 40
0.03869047619044454
 50
172.5415509437586
 51
225.0000000000893
  0
LINE
  8
1
 62
2
 10
410.4871217758669
 20
151.0848008640729
 30
0
 11
359.7265788499499
 21
151.0848008640729
 31
0
  0
LINE
  8
1
 62
2
 10
359.7265788499499
 20
151.0848008640729
 30
0
 11
372.3646334691566
 21
197.9441692984147
 31
0
  0
SOLID
  8
1
 62
2
 10
371.8981297364215
 20
194.4449271056212
 30
0
 11
371.0083549427263
 21
194.6849009425983
 31
0
 12
372.3646334691566
 22
197.9441692984147
 32
0
 13
372.3646334691566
 23
197.9441692984147
 33
0
  0
TEXT
  8
1
 62
2
 10
242.3299029393599
 20
138.5871490049306
 30
0
 40
4.5
  1
6DG3~1800
 41
0.9
  0
TEXT
  8
1
 62
2
 10
362.1837875621874
 20
152.1871621780338
 30
0
 40
4
  1
âsü@âjü@âIü@âôü@Ädü@ùl
 41
0.9
  0
TEXT
  8
1
 62
2
 10
362.1837875621874
 20
145.1871621780338
 30
0
 40
4
  1
âéâWâàü|âïü@üFü@éOüDéS
 41
0.9
  0
TEXT
  8
1
 62
2
 10
362.1837875621874
 20
138.1871621780338
 30
0
 40
4
  1
ê%%dü@ù═ü@èpü@üFü@éQéO%%d
 41
0.9
  0
TEXT
  8
1
 62
2
 10
362.1837875621874
 20
131.1871621780338
 30
0
 40
4
  1
Äòü@ü@ü@Éöü@üFü@éPéO
 41
0.9
  0
TEXT
  8
1
 62
2
 10
362.1837875621874
 20
124.1871621780338
 30
0
 40
4
  1
èOü@ü@ü@îaü@üFü@âËéT
 41
0.9
  0
TEXT
  8
1
 62
2
 10
362.1837875621874
 20
117.1871621780338
 30
0
 40
4
  1
ô]ü@ê╩ü@ù╩ü@üFü{éOüDéP
 41
0.9
  0
TEXT
  8
1
 62
2
 10
349.1068503129084
 20
107.3348008640729
 30
0
 40
4
  1
èÜìçæèÄÞâsâjâIâôÄdùl
 41
0.9
 72
1
 11
385.1068503129084
 21
107.3348008640729
 31
0
  0
DIMENSION
  8
1
  6
CONTINUOUS
 62
2
  2
*D0
  3
DMST_1
 10
161.3594165813737
 20
175.8171443193445
 30
0
 11
157.7594165813737
 21
200.5671443193445
 31
0
 12
0
 22
0
 32
0
 70
0
 13
143.6068631582369
 23
225.3171443193446
 33
0
 14
143.6094165813737
 24
175.8171443193445
 34
0
 50
90
 53
0
  0
DIMENSION
  8
1
  6
CONTINUOUS
 62
2
  2
*D1
  3
DMST_1
 10
135.6094165813737
 20
246.0671443193446
 30
0
 11
110.8594165813737
 21
249.6671443193446
 31
0
 12
0
 22
0
 32
0
 70
0
 13
86.10941658137369
 23
233.3146189379798
 33
0
 14
135.6094165813737
 24
233.3171439118465
 34
0
 53
0
  0
DIMENSION
  8
1
  6
CONTINUOUS
 62
2
  2
*D2
  3
DMST_2
 10
236.8594165813737
 20
256.0671443193446
 30
0
 11
249.1886408726162
 21
259.6671443193446
 31
0
 12
0
 22
0
 32
0
 70
0
 13
261.8594165813737
 23
230.5671443193446
 33
0
 14
236.8594165813737
 24
212.7671423193446
 34
0
 53
0
  0
DIMENSION
  8
1
  6
CONTINUOUS
 62
2
  2
*D3
  3
DMST_2
 10
378.7277723643815
 20
246.0671443193446
 30
0
 11
383.279184451923
 21
249.6671443193446
 31
0
 12
0
 22
0
 32
0
 70
0
 13
376.7277723643815
 23
227.5671443193446
 33
0
 14
378.7277723643815
 24
231.0671443193446
 34
0
 53
0
  0
DIMENSION
  8
1
  6
CONTINUOUS
 62
2
  2
*D4
  3
DMST_3
 10
355.3509723643815
 20
227.5671443193445
 30
0
 11
350.9509723643815
 21
200.5671443193445
 31
0
 12
0
 22
0
 32
0
 70
0
  1
54h7
 13
376.7277723643815
 23
173.5671443193445
 33
0
 14
376.7277723643815
 24
227.5671443193446
 34
0
 50
90
 53
0
  0
DIMENSION
  8
1
  6
CONTINUOUS
 62
2
  2
*D5
  3
DMST_4
 10
308.8594165813737
 20
227.5671443193445
 30
0
 11
304.4594165813737
 21
200.5671443193445
 31
0
 12
0
 22
0
 32
0
 70
0
  1
54H7
 13
290.8416547151268
 23
173.5671443193445
 33
0
 14
290.8416547151268
 24
227.5671443193446
 34
0
 50
90
 53
0
  0
DIMENSION
  8
1
  6
CONTINUOUS
 62
2
  2
*D6
  3
DMST_2
 10
206.8594165813737
 20
201.5671443193446
 30
0
 11
203.2594165813737
 21
210.0697102160996
 31
0
 12
0
 22
0
 32
0
 70
0
  1
âË<>
 13
256.8594165813737
 23
219.5671443193446
 33
0
 14
256.8594165813737
 24
201.5671443193445
 34
0
 50
90
 53
0
  0
DIMENSION
  8
1
  6
CONTINUOUS
 62
2
  2
*D7
  3
DMST_3
 10
216.8594165813737
 20
207.5671443193445
 30
0
 11
212.4594165813737
 21
210.4451113707545
 31
0
 12
0
 22
0
 32
0
 70
0
  1
âË<>
 13
253.692629094806
 23
213.5671423193446
 33
0
 14
236.8594165813737
 24
207.5671443193445
 34
0
 50
90
 53
0
  0
DIMENSION
  8
1
  6
CONTINUOUS
 62
2
  2
*D8
  3
DMST_2
 10
256.8594165813738
 20
246.0671443193446
 30
0
 11
259.1746977472362
 21
249.6671443193446
 31
0
 12
0
 22
0
 32
0
 70
0
 13
261.8594165813737
 23
230.5671443193446
 33
0
 14
256.8594165813737
 24
219.5671443193446
 34
0
 53
0
  0
DIMENSION
  8
1
  6
CONTINUOUS
 62
2
  2
*D9
  3
DMST_2
 10
97.85941658137369
 20
200.5671443193445
 30
0
 11
94.30860063128989
 21
205.361989987734
 31
0
 12
0
 22
0
 32
0
 70
0
 13
98.85941658137369
 23
210.5671443193445
 33
0
 14
98.85941658137369
 24
200.5671443193445
 34
0
 50
90
 53
0
  0
DIMENSION
  8
1
  6
CONTINUOUS
 62
2
  2
*D10
  3
DMST_2
 10
171.3594165813737
 20
170.0671443193445
 30
0
 11
167.7594165813737
 21
200.5671443193445
 31
0
 12
0
 22
0
 32
0
 70
0
 13
135.6094165813737
 23
231.0671443193446
 33
0
 14
135.6094165813737
 24
170.0671443193445
 34
0
 50
90
 53
0
  0
DIMENSION
  8
1
  6
CONTINUOUS
 62
2
  2
*D11
  3
DMST_2
 10
141.3594165813737
 20
256.0671443193446
 30
0
 11
110.8594165813737
 21
259.6671443193446
 31
0
 12
0
 22
0
 32
0
 70
0
 13
80.35940658137369
 23
225.3171443193446
 33
0
 14
141.3594165813737
 24
225.3171443193446
 34
0
 53
0
  0
DIMENSION
  8
1
  6
CONTINUOUS
 62
2
  2
*D12
  3
DMST_2
 10
226.8594165813737
 20
213.5671423193446
 30
0
 11
223.2594165813737
 21
223.8041644117395
 31
0
 12
0
 22
0
 32
0
 70
0
  1
0.5
 13
236.8594165813737
 23
212.7671443193445
 33
0
 14
253.692629094806
 24
213.5671423193446
 34
0
 50
90
 53
0
  0
DIMENSION
  8
1
  6
CONTINUOUS
 62
2
  2
*D13
  3
DMST_5
 10
236.8594139480407
 20
228.5671408102111
 30
0
 11
242.2822564134734
 21
232.1671417140182
 31
0
 12
0
 22
0
 32
0
 70
1
 13
248.8594165813737
 23
212.7671443193445
 33
0
 14
236.8594165813737
 24
212.7671423193446
 34
0
 53
0
  0
DIMENSION
  8
1
  6
CONTINUOUS
 62
2
  2
*D14
  3
DMST_2
 10
368.7277723643815
 20
256.0671443193446
 30
0
 11
373.244873127497
 21
259.6671443193446
 31
0
 12
0
 22
0
 32
0
 70
0
 13
378.7277723643815
 23
231.0671443193446
 33
0
 14
368.7277723643815
 24
203.0671443193445
 34
0
 53
0
  0
DIMENSION
  8
1
  6
CONTINUOUS
 62
2
  2
*D15
  3
DMST_2
 10
288.8594165813737
 20
256.0671443193446
 30
0
 11
275.6480470440552
 21
259.6671443193446
 31
0
 12
0
 22
0
 32
0
 70
0
 13
261.8594165813737
 23
230.5671443193446
 33
0
 14
288.8594165813737
 24
231.0671443193446
 34
0
 53
0
  0
DIMENSION
  8
1
  6
CONTINUOUS
 62
2
  2
*D17
  3
DMST_6
 10
145.0354744521202
 20
208.1167846031851
 30
0
 11
87.0022127512655
 21
197.5784565456855
 31
0
 12
0
 22
0
 32
0
 70
3
  1
(âË<>
 15
76.68335871062723
 25
193.0175040355039
 35
0
 40
0
 53
0
  0
INSERT
  8
0
  2
G6G
 10
600.499146822836
 20
51.13186438479195
 30
0
  0
INSERT
  8
1
  2
*D16
 10
0
 20
0
 30
0
  0
ENDSEC
  0
EOF
