  0
SECTION
  2
HEADER
  9
$ACADVER
  1
AC1009
  9
$INSBASE
 10
0
 20
0
  9
$EXTMIN
 10
1123.66258993338
 20
-241.752643729655
  9
$EXTMAX
 10
1378.423828686766
 20
-83.47676920769507
  9
$LIMMIN
 10
1123.66258993338
 20
-241.752643729655
  9
$LIMMAX
 10
1378.423828686766
 20
-83.47676920769507
  9
$VIEWCTR
 10
10
 20
10
  9
$VIEWSIZE
 40
10
  9
$SNAPMODE
 70
0
  9
$SNAPUNIT
 10
1
 20
1
  9
$SNAPBASE
 10
0
 20
0
  9
$SNAPANG
 50
0
  9
$SNAPSTYLE
 70
0
  9
$SNAPISOPAIR
 70
0
  9
$GRIDMODE
 70
0
  9
$GRIDUNIT
 10
0
 20
0
  9
$ORTHOMODE
 70
0
  9
$REGENMODE
 70
1
  9
$FILLMODE
 70
1
  9
$QTEXTMODE
 70
0
  9
$DRAGMODE
 70
2
  9
$LTSCALE
 40
1
  9
$OSMODE
 70
0
  9
$ATTMODE
 70
1
  9
$TEXTSIZE
 40
3.5
  9
$TRACEWID
 40
0.5
  9
$TEXTSTYLE
  7
STANDARD
  9
$CLAYER
  8
0
  9
$CELTYPE
  6
BYLAYER
  9
$CECOLOR
 62
256
  9
$DIMSCALE
 40
1
  9
$DIMASZ
 40
0.18
  9
$DIMEXO
 40
0.0625
  9
$DIMDLI
 40
0.38
  9
$DIMRND
 40
0
  9
$DIMDLE
 40
0
  9
$DIMEXE
 40
0.18
  9
$DIMTP
 40
0
  9
$DIMTM
 40
0
  9
$DIMTXT
 40
0.18
  9
$DIMCEN
 40
0.09
  9
$DIMTSZ
 40
0
  9
$DIMTOL
 70
0
  9
$DIMLIM
 70
0
  9
$DIMTIH
 70
1
  9
$DIMTOH
 70
1
  9
$DIMSE1
 70
0
  9
$DIMSE2
 70
0
  9
$DIMTAD
 70
0
  9
$DIMZIN
 70
0
  9
$DIMBLK
  1

  9
$DIMASO
 70
1
  9
$DIMSHO
 70
1
  9
$DIMPOST
  1

  9
$DIMAPOST
  1

  9
$DIMALT
 70
0
  9
$DIMALTD
 70
2
  9
$DIMALTF
 40
25.4
  9
$DIMLFAC
 40
1
  9
$DIMTOFL
 70
0
  9
$DIMTVP
 40
0
  9
$DIMTIX
 70
0
  9
$DIMSOXD
 70
0
  9
$DIMSAH
 70
0
  9
$DIMBLK1
  1

  9
$DIMBLK2
  1

  9
$DIMSTYLE
  2
*UNNAMED
  9
$DIMCLRD
 70
0
  9
$DIMCLRE
 70
0
  9
$DIMCLRT
 70
0
  9
$DIMTFAC
 40
1
  9
$DIMGAP
 40
0.09
  9
$LUNITS
 70
2
  9
$LUPREC
 70
4
  9
$AXISMODE
 70
0
  9
$AXISUNIT
 10
0
 20
0
  9
$SKETCHINC
 40
0.1
  9
$FILLETRAD
 40
2
  9
$AUNITS
 70
0
  9
$AUPREC
 70
0
  9
$MENU
  1
ACAD
  9
$ELEVATION
 40
0
  9
$THICKNESS
 40
0
  9
$VIEWDIR
 10
0
 20
0
 30
1
  9
$LIMCHECK
 70
0
  9
$BLIPMODE
 70
1
  9
$CHAMFERA
 40
0
  9
$CHAMFERB
 40
0
  9
$FASTZOOM
 70
1
  9
$SKPOLY
 70
0
  9
$ANGBASE
 50
0
  9
$ANGDIR
 70
0
  9
$PDMODE
 70
0
  9
$PDSIZE
 40
0
  9
$PLINEWID
 40
0
  9
$COORDS
 70
2
  0
ENDSEC
  0
SECTION
  2
TABLES
  0
TABLE
  2
DIMSTYLE
 70
10
  0
DIMSTYLE
  2
DMST_1
 70
0
  3

  4

  5

  6

  7

 40
1
 41
3.2
 42
1
 43
7
 44
2
 45
0
 46
0
 47
0
 48
0
140
3.2
141
0
142
0
143
25.4
144
1
145
0
146
1
147
0.09
 71
0
 72
0
 73
0
 74
0
 75
0
 76
0
 77
1
 78
9
170
0
171
2
172
0
173
0
174
0
175
0
176
2
177
2
178
2
  0
DIMSTYLE
  2
DMST_2
 70
0
  3

  4

  5

  6

  7

 40
1
 41
3.2
 42
1
 43
7
 44
2
 45
0
 46
0
 47
0
 48
0
140
3.2
141
0
142
0
143
25.4
144
1
145
0
146
0.6
147
0.09
 71
1
 72
0
 73
0
 74
0
 75
0
 76
0
 77
1
 78
9
170
0
171
2
172
0
173
0
174
0
175
0
176
2
177
2
178
2
  0
DIMSTYLE
  2
DMST_3
 70
0
  3

  4

  5

  6

  7

 40
1
 41
3.2
 42
1
 43
7
 44
1.5
 45
0
 46
0
 47
0
 48
0
140
3.2
141
0
142
0
143
25.4
144
1
145
0
146
1
147
0.09
 71
0
 72
0
 73
1
 74
1
 75
0
 76
0
 77
1
 78
9
170
0
171
2
172
0
173
0
174
0
175
0
176
2
177
2
178
2
  0
DIMSTYLE
  2
DMST_4
 70
0
  3

  4

  5

  6

  7

 40
1
 41
3.2
 42
1
 43
7
 44
2
 45
0
 46
0
 47
0.3
 48
0.3
140
3.2
141
0
142
0
143
25.4
144
1
145
0
146
0.6
147
0.09
 71
1
 72
0
 73
0
 74
0
 75
0
 76
0
 77
1
 78
9
170
0
171
2
172
0
173
0
174
0
175
0
176
2
177
2
178
2
  0
DIMSTYLE
  2
DMST_5
 70
0
  3

  4

  5

  6

  7
DOT
 40
1
 41
3.2
 42
1
 43
7
 44
1.5
 45
0
 46
0
 47
0
 48
0
140
3.2
141
0
142
0
143
25.4
144
1
145
0
146
1
147
0.09
 71
0
 72
0
 73
0
 74
0
 75
0
 76
0
 77
1
 78
9
170
0
171
2
172
0
173
1
174
0
175
0
176
2
177
2
178
2
  0
DIMSTYLE
  2
DMST_6
 70
0
  3

  4

  5

  6
DOT
  7

 40
1
 41
1.6
 42
1
 43
7
 44
1.5
 45
0
 46
0
 47
0
 48
0
140
3.2
141
0
142
0
143
25.4
144
1
145
0
146
1
147
0.09
 71
0
 72
0
 73
0
 74
0
 75
0
 76
0
 77
1
 78
9
170
0
171
2
172
0
173
1
174
0
175
0
176
2
177
2
178
2
  0
DIMSTYLE
  2
DMST_7
 70
0
  3

  4

  5

  6

  7

 40
1
 41
0
 42
1
 43
7
 44
1.5
 45
0
 46
0
 47
0
 48
0
140
3.2
141
0
142
0
143
25.4
144
1
145
0
146
1
147
0.09
 71
0
 72
0
 73
0
 74
0
 75
0
 76
0
 77
1
 78
9
170
0
171
2
172
1
173
0
174
0
175
0
176
2
177
2
178
2
  0
DIMSTYLE
  2
DMST_8
 70
0
  3

  4

  5

  6

  7

 40
1
 41
0
 42
1
 43
7
 44
1.5
 45
0
 46
0
 47
0
 48
0
140
3.2
141
0
142
0
143
25.4
144
1
145
0
146
0.6
147
0.09
 71
1
 72
0
 73
0
 74
0
 75
0
 76
0
 77
1
 78
9
170
0
171
2
172
1
173
0
174
0
175
0
176
2
177
2
178
2
  0
DIMSTYLE
  2
DMST_9
 70
0
  3
)
  4

  5

  6

  7

 40
1
 41
3.2
 42
1
 43
7
 44
2
 45
0
 46
0
 47
0
 48
0
140
3.2
141
0
142
0
143
25.4
144
1
145
0
146
1
147
0.09
 71
0
 72
0
 73
0
 74
0
 75
0
 76
0
 77
1
 78
9
170
0
171
2
172
0
173
0
174
1
175
0
176
2
177
2
178
2
  0
DIMSTYLE
  2
DMST_10
 70
0
  3
îè
  4

  5

  6

  7

 40
1
 41
3.2
 42
1
 43
7
 44
1.5
 45
0
 46
0
 47
0
 48
0
140
3.2
141
0
142
0
143
25.4
144
1
145
0
146
1
147
0.09
 71
0
 72
0
 73
1
 74
1
 75
0
 76
0
 77
1
 78
9
170
0
171
2
172
1
173
0
174
0
175
0
176
2
177
2
178
2
  0
ENDTAB
  0
TABLE
  2
LTYPE
 70
9
  0
LTYPE
  2
CONTINUOUS
 70
64
  3
Solid line
 72
65
 73
0
 40
0
  0
LTYPE
  2
BORDER
 70
64
  3
__ __ . __ __ .
 72
65
 73
6
 40
11.73242546890593
 49
3.352121562544551
 49
-1.676060781272276
 49
3.352121562544551
 49
-1.676060781272276
 49
0
 49
-1.676060781272276
  0
LTYPE
  2
CENTER
 70
64
  3
____ _ ____ _
 72
65
 73
4
 40
13.40848625017821
 49
8.380303906361378
 49
-1.676060781272276
 49
1.676060781272276
 49
-1.676060781272276
  0
LTYPE
  2
DASHDOT
 70
64
  3
__ . __ . __ .
 72
65
 73
4
 40
6.704243125089103
 49
3.352121562544551
 49
-1.676060781272276
 49
0
 49
-1.676060781272276
  0
LTYPE
  2
DASHED
 70
64
  3
__ __ __ __ __
 72
65
 73
2
 40
5.028182343816827
 49
3.352121562544551
 49
-1.676060781272276
  0
LTYPE
  2
DIVIDE
 70
64
  3
__ . . __ . . 
 72
65
 73
6
 40
8.380303906361378
 49
3.352121562544551
 49
-1.676060781272276
 49
0
 49
-1.676060781272276
 49
0
 49
-1.676060781272276
  0
LTYPE
  2
DOT
 70
64
  3
..............
 72
65
 73
4
 40
3.352121562544551
 49
0
 49
-1.676060781272276
 49
0
 49
-1.676060781272276
  0
LTYPE
  2
HIDDEN
 70
64
  3
_ _ _ _ _ _ _
 72
65
 73
2
 40
2.514091171908413
 49
1.676060781272276
 49
-0.8380303906361378
  0
LTYPE
  2
PHANTOM
 70
64
  3
_____ _ _ _____ _ _ 
 72
65
 73
6
 40
16.76060781272276
 49
8.380303906361378
 49
-1.676060781272276
 49
1.676060781272276
 49
-1.676060781272276
 49
1.676060781272276
 49
-1.676060781272276
  0
ENDTAB
  0
TABLE
  2
LAYER
 70
3
  0
LAYER
  2
1
 70
0
 62
7
  6
CONTINUOUS
  0
LAYER
  2
0
 70
0
 62
7
  6
CONTINUOUS
  0
ENDTAB
  0
TABLE
  2
STYLE
 70
4
  0
STYLE
  2
STANDARD
 70
0
 40
0
 41
1
 50
0
 71
0
 42
3.5
  3
txt
  4

  0
STYLE
  2
SIMPLEX
 70
0
 40
0
 41
1
 50
0
 71
0
 42
3.5
  3
simplex
  4

  0
STYLE
  2
COMPLEX
 70
0
 40
0
 41
1
 50
0
 71
0
 42
3.5
  3
complex
  4

  0
STYLE
  2
ITALIC
 70
0
 40
0
 41
1
 50
0
 71
0
 42
3.5
  3
italic
  4

  0
ENDTAB
  0
TABLE
  2
VIEW
 70
0
  0
ENDTAB
  0
ENDSEC
  0
SECTION
  2
BLOCKS
  0
BLOCK
  8
0
  2
____M3_________1
 70
0
 10
1200.6132032829
 20
-166.1767692076951
 30
0
  0
LINE
  8
1
 62
3
 10
1201.86619549045
 20
-166.9065023971677
 30
0
 11
1201.255156119298
 21
-166.295463026015
 31
0
  0
LINE
  8
1
 62
3
 10
1201.86619549045
 20
-165.4470360182226
 30
0
 11
1201.255156119298
 21
-166.0580753893752
 31
0
  0
LINE
  8
1
 62
3
 10
1199.883470093427
 20
-167.4297614152456
 30
0
 11
1200.49450946458
 21
-166.818722044093
 31
0
  0
LINE
  8
1
 62
3
 10
1200.73803205104
 20
-166.824856993913
 30
0
 11
1201.342936472372
 21
-167.4297614152456
 31
0
  0
LINE
  8
1
 62
3
 10
1200.73189710122
 20
-166.818722044093
 30
0
 11
1200.73803205104
 21
-166.824856993913
 31
0
  0
LINE
  8
1
 62
3
 10
1199.360211075349
 20
-165.4470360182226
 30
0
 11
1199.971250446502
 21
-166.0580753893753
 31
0
  0
LINE
  8
1
 62
3
 10
1199.360211075349
 20
-166.9065023971677
 30
0
 11
1199.971250446502
 21
-166.295463026015
 31
0
  0
LINE
  8
1
 62
3
 10
1201.342936472372
 20
-164.9237770001446
 30
0
 11
1200.73189710122
 21
-165.5348163712971
 31
0
  0
LINE
  8
1
 62
3
 10
1199.883470093427
 20
-164.9237770001446
 30
0
 11
1200.49450946458
 21
-165.5348163712971
 31
0
  0
LINE
  8
1
 62
3
 10
1145.36021107535
 20
-130.4470360182226
 30
0
 11
1145.971250446502
 21
-131.0580753893751
 31
0
  0
LINE
  8
1
 62
3
 10
1145.36021107535
 20
-131.9065023971677
 30
0
 11
1145.971250446502
 21
-131.2954630260149
 31
0
  0
LINE
  8
1
 62
3
 10
1147.342936472373
 20
-129.9237770001446
 30
0
 11
1146.73189710122
 21
-130.5348163712974
 31
0
  0
LINE
  8
1
 62
3
 10
1146.48837451476
 20
-130.5286814214772
 30
0
 11
1145.883470093428
 21
-129.9237770001446
 31
0
  0
LINE
  8
1
 62
3
 10
1146.49450946458
 20
-130.5348163712974
 30
0
 11
1146.48837451476
 21
-130.5286814214772
 31
0
  0
LINE
  8
1
 62
3
 10
1147.866195490451
 20
-131.9065023971677
 30
0
 11
1147.255156119298
 21
-131.2954630260149
 31
0
  0
LINE
  8
1
 62
3
 10
1147.866195490451
 20
-130.4470360182226
 30
0
 11
1147.255156119298
 21
-131.0580753893751
 31
0
  0
LINE
  8
1
 62
3
 10
1145.883470093428
 20
-132.4297614152456
 30
0
 11
1146.49450946458
 21
-131.8187220440929
 31
0
  0
LINE
  8
1
 62
3
 10
1147.342936472373
 20
-132.4297614152456
 30
0
 11
1146.73189710122
 21
-131.8187220440929
 31
0
  0
ARC
  8
1
 62
3
 10
1200.6132032829
 20
-166.1767692076951
 30
0
 40
0.6349999999998968
 50
352.5415509436891
 51
7.458449056308459
  0
ARC
  8
1
 62
3
 10
1200.6132032829
 20
-166.1767692076951
 30
0
 40
1.449999999999733
 50
300.216198285234
 51
329.7838017147347
  0
ARC
  8
1
 62
3
 10
1200.6132032829
 20
-166.1767692076951
 30
0
 40
0.6350000000002635
 50
262.5415509436339
 51
277.4584490562644
  0
ARC
  8
1
 62
3
 10
1200.6132032829
 20
-166.1767692076951
 30
0
 40
1.450000000000455
 50
210.2161982852472
 51
239.7838017147272
  0
ARC
  8
1
 62
3
 10
1200.6132032829
 20
-166.1767692076951
 30
0
 40
0.6349999999998931
 50
172.5415509436915
 51
187.458449056311
  0
ARC
  8
1
 62
3
 10
1200.6132032829
 20
-166.1767692076951
 30
0
 40
1.450000000000281
 50
120.2161982852734
 51
149.7838017147576
  0
ARC
  8
1
 62
3
 10
1200.6132032829
 20
-166.1767692076951
 30
0
 40
0.6349999999998904
 50
82.5415509437329
 51
97.45844905636882
  0
ARC
  8
1
 62
3
 10
1200.6132032829
 20
-166.1767692076951
 30
0
 40
1.449999999999598
 50
30.21619828526046
 51
59.78380171476548
  0
ARC
  8
1
 62
3
 10
1146.6132032829
 20
-131.1767692076951
 30
0
 40
0.6349999999999041
 50
172.5415509436839
 51
187.458449056311
  0
ARC
  8
1
 62
3
 10
1146.6132032829
 20
-131.1767692076951
 30
0
 40
1.449999999999709
 50
120.2161982852345
 51
149.7838017147395
  0
ARC
  8
1
 62
3
 10
1146.6132032829
 20
-131.1767692076951
 30
0
 40
0.6350000000000379
 50
82.54155094363119
 51
97.45844905626711
  0
ARC
  8
1
 62
3
 10
1146.6132032829
 20
-131.1767692076951
 30
0
 40
1.450000000000383
 50
30.21619828524237
 51
59.78380171473442
  0
ARC
  8
1
 62
3
 10
1146.6132032829
 20
-131.1767692076951
 30
0
 40
0.6349999999998968
 50
352.5415509436891
 51
7.458449056316088
  0
ARC
  8
1
 62
3
 10
1146.6132032829
 20
-131.1767692076951
 30
0
 40
1.450000000000191
 50
300.216198285265
 51
329.7838017147528
  0
ARC
  8
1
 62
3
 10
1146.6132032829
 20
-131.1767692076951
 30
0
 40
0.6350000000000312
 50
262.5415509437346
 51
277.4584490563672
  0
ARC
  8
1
 62
3
 10
1146.6132032829
 20
-131.1767692076951
 30
0
 40
1.449999999999669
 50
210.2161982852653
 51
239.783801714766
  0
CIRCLE
  8
1
 62
3
 10
1200.6132032829
 20
-166.1767692076951
 30
0
 40
2.799999999999955
  0
CIRCLE
  8
1
 62
3
 10
1146.6132032829
 20
-131.1767692076951
 30
0
 40
2.799999999999955
  0
ARC
  8
1
 62
3
 10
1201.285797413149
 20
-166.2648217321635
 30
0
 40
0.04333333333319255
 50
172.5415509437571
 51
225.0000000002658
  0
ARC
  8
1
 62
3
 10
1201.285797413149
 20
-166.0887166832265
 30
0
 40
0.04333333333309225
 50
134.9999999999203
 51
187.4584490565038
  0
ARC
  8
1
 62
3
 10
1200.525150758431
 20
-166.8493633379444
 30
0
 40
0.0433333333331325
 50
82.54155094378459
 51
134.9999999996014
  0
ARC
  8
1
 62
3
 10
1200.701255807368
 20
-166.8493633379444
 30
0
 40
0.04333333333381575
 50
44.99999999933569
 51
97.45844905621541
  0
ARC
  8
1
 62
3
 10
1199.94060915265
 20
-166.0887166832265
 30
0
 40
0.04333333333412018
 50
352.5415509436523
 51
44.99999999936226
  0
ARC
  8
1
 62
3
 10
1199.94060915265
 20
-166.2648217321635
 30
0
 40
0.04333333333371527
 50
315.000000000372
 51
7.458449056086834
  0
ARC
  8
1
 62
3
 10
1200.701255807368
 20
-165.5041750774458
 30
0
 40
0.04333333333332977
 50
262.5415509438188
 51
315.0000000007706
  0
ARC
  8
1
 62
3
 10
1200.525150758431
 20
-165.5041750774458
 30
0
 40
0.04333333333293147
 50
225.0000000002923
 51
277.4584490561813
  0
ARC
  8
1
 62
3
 10
1145.940609152651
 20
-131.0887166832265
 30
0
 40
0.04333333333320731
 50
352.541550943608
 51
45.00000000039859
  0
ARC
  8
1
 62
3
 10
1145.940609152651
 20
-131.2648217321635
 30
0
 40
0.04333333333299177
 50
314.999999999628
 51
7.458449056242931
  0
ARC
  8
1
 62
3
 10
1146.701255807369
 20
-130.5041750774458
 30
0
 40
0.04333333333332977
 50
262.5415509438188
 51
314.9999999994154
  0
ARC
  8
1
 62
3
 10
1146.525150758431
 20
-130.5041750774458
 30
0
 40
0.04333333333315254
 50
225.0000000005846
 51
277.4584490576718
  0
ARC
  8
1
 62
3
 10
1147.285797413149
 20
-131.2648217321635
 30
0
 40
0.04333333333319255
 50
172.5415509437571
 51
225.0000000001594
  0
ARC
  8
1
 62
3
 10
1147.285797413149
 20
-131.0887166832265
 30
0
 40
0.04333333333317264
 50
134.999999999814
 51
187.458449056392
  0
ARC
  8
1
 62
3
 10
1146.525150758432
 20
-131.8493633379443
 30
0
 40
0.04333333333316201
 50
82.5415509434865
 51
135.0000000004517
  0
ARC
  8
1
 62
3
 10
1146.701255807369
 20
-131.8493633379443
 30
0
 40
0.04333333333301186
 50
45.00000000039859
 51
97.45844905621541
  0
ENDBLK
  8
0
  0
BLOCK
  8
0
  2
____M3__2
 70
0
 10
1313.064408866804
 20
-166.1767692076951
 30
0
  0
LINE
  8
1
 62
3
 10
1316.425110948842
 20
-168.9767692076951
 30
0
 11
1317.923828686766
 21
-168.9767692076951
 31
0
  0
LINE
  8
1
 62
3
 10
1317.923828686766
 20
-168.9767692076951
 30
0
 11
1317.923828686766
 21
-163.3767692076952
 31
0
  0
LINE
  8
1
 62
3
 10
1317.923828686766
 20
-163.3767692076952
 30
0
 11
1316.425110948842
 21
-163.3767692076952
 31
0
  0
LINE
  8
1
 62
3
 10
1315.537536410901
 20
-166.5392692076951
 30
0
 11
1315.712536410901
 21
-166.5392692076951
 31
0
  0
LINE
  8
1
 62
3
 10
1315.712536410901
 20
-166.5392692076951
 30
0
 11
1315.712536410901
 21
-165.8142692076952
 31
0
  0
LINE
  8
1
 62
3
 10
1315.712536410901
 20
-165.8142692076952
 30
0
 11
1315.537536410901
 21
-165.8142692076952
 31
0
  0
ARC
  8
1
 62
3
 10
1320.323828686766
 20
-166.1767692076951
 30
0
 40
4.800000000000498
 50
184.3311487307885
 51
215.6853347126492
  0
ARC
  8
1
 62
3
 10
1320.323828686766
 20
-166.1767692076951
 30
0
 40
4.80000000000029
 50
144.3146652873519
 51
175.6688512692129
  0
ENDBLK
  8
0
  0
BLOCK
  8
1
  2
*D0
 70
1
 10
0
 20
0
 30
0
  0
LINE
  8
1
 62
2
 10
1304.423828686766
 20
-88.67676920769506
 30
0
 11
1314.423828686766
 21
-88.67676920769506
 31
0
  0
LINE
  8
1
 62
2
 10
1304.423828686766
 20
-145.6767692076951
 30
0
 11
1304.423828686766
 21
-86.67676920769506
 31
0
  0
LINE
  8
1
 62
2
 10
1314.423828686766
 20
-117.1767692076951
 30
0
 11
1314.423828686766
 21
-86.67676920769506
 31
0
  0
SOLID
  8
1
 62
2
 10
1304.423828686766
 20
-88.67676920769506
 30
0
 11
1307.623828686766
 21
-88.26076920769506
 31
0
 12
1307.623828686766
 22
-89.09276920769506
 32
0
 13
1307.623828686766
 23
-89.09276920769506
 33
0
  0
SOLID
  8
1
 62
2
 10
1314.423828686766
 20
-88.67676920769506
 30
0
 11
1311.223828686766
 21
-89.09276920769506
 31
0
 12
1311.223828686766
 22
-88.26076920769506
 32
0
 13
1311.223828686766
 23
-88.26076920769506
 33
0
  0
TEXT
  8
1
 62
2
 10
1307.43110014604
 20
-86.67676920769506
 30
0
 40
3.2
  1
10
 41
0.9
  0
ENDBLK
  8
0
  0
BLOCK
  8
1
  2
*D1
 70
1
 10
0
 20
0
 30
0
  0
LINE
  8
1
 62
2
 10
1291.423828686766
 20
-175.6767692076951
 30
0
 11
1291.423828686766
 21
-121.6767692076951
 31
0
  0
LINE
  8
1
 62
2
 10
1312.173828686766
 20
-175.6767692076951
 30
0
 11
1289.423828686766
 21
-175.6767692076951
 31
0
  0
LINE
  8
1
 62
2
 10
1312.173828686766
 20
-121.6767692076951
 30
0
 11
1289.423828686766
 21
-121.6767692076951
 31
0
  0
SOLID
  8
1
 62
2
 10
1291.423828686766
 20
-121.6767692076951
 30
0
 11
1291.839828686766
 21
-124.8767692076951
 31
0
 12
1291.007828686766
 22
-124.8767692076951
 32
0
 13
1291.007828686766
 23
-124.8767692076951
 33
0
  0
SOLID
  8
1
 62
2
 10
1291.423828686766
 20
-175.6767692076951
 30
0
 11
1291.007828686766
 21
-172.4767692076951
 31
0
 12
1291.839828686766
 22
-172.4767692076951
 32
0
 13
1291.839828686766
 23
-172.4767692076951
 33
0
  0
TEXT
  8
1
 62
2
 10
1288.570495353432
 20
-156.1172397959304
 30
0
 40
3.2
  1
54h7
 50
90
 41
0.9
  0
TEXT
  8
1
 62
2
 10
1286.490495353432
 20
-143.9572397959304
 30
0
 40
1.92
  1
 0
 50
90
 41
0.9
  0
TEXT
  8
1
 62
2
 10
1289.370495353432
 20
-143.9572397959304
 30
0
 40
1.92
  1
-0.03
 50
90
 41
0.9
  0
TEXT
  8
1
 62
2
 10
1288.570495353432
 20
-160.1642986194598
 30
0
 40
3.2
  1
âË
 50
90
 41
0.9
  0
ENDBLK
  8
0
  0
BLOCK
  8
0
  2
AS27328-01_DB__3
 70
0
 10
987.3091274028848
 20
-102.3425315927346
 30
0
  0
POINT
  8
1
 62
4
  6
DIVIDE
 10
1314.423828686766
 20
-118.1767692076951
 30
0
  0
POINT
  8
1
 62
4
  6
DIVIDE
 10
1313.173828686766
 20
-121.6767692076951
 30
0
  0
POINT
  8
1
 62
4
  6
DIVIDE
 10
1313.173828686766
 20
-175.6767692076951
 30
0
  0
LINE
  8
1
 62
1
 10
1321.923828686766
 20
-166.1767692076951
 30
0
 11
1310.423828686766
 21
-166.1767692076951
 31
0
  0
LINE
  8
1
 62
3
 10
1317.923828686766
 20
-169.4267692076951
 30
0
 11
1314.423828686766
 21
-169.4267692076951
 31
0
  0
LINE
  8
1
 62
3
 10
1314.423828686766
 20
-162.9267692076951
 30
0
 11
1317.923828686766
 21
-162.9267692076951
 31
0
  0
LINE
  8
1
 62
1
 10
1200.6132032829
 20
-172.1767692076951
 30
0
 11
1200.6132032829
 21
-160.1767692076951
 31
0
  0
LINE
  8
1
 62
1
 10
1194.6132032829
 20
-166.1767692076951
 30
0
 11
1206.6132032829
 21
-166.1767692076951
 31
0
  0
LINE
  8
1
 62
3
 10
1203.1132032829
 20
-162.9267692076951
 30
0
 11
1200.6132032829
 21
-162.9267692076951
 31
0
  0
LINE
  8
1
 62
3
 10
1203.1132032829
 20
-169.4267692076951
 30
0
 11
1200.6132032829
 21
-169.4267692076951
 31
0
  0
LINE
  8
1
 62
1
 10
1146.6132032829
 20
-125.1767692076951
 30
0
 11
1146.6132032829
 21
-137.1767692076951
 31
0
  0
LINE
  8
1
 62
1
 10
1152.6132032829
 20
-131.1767692076951
 30
0
 11
1140.6132032829
 21
-131.1767692076951
 31
0
  0
LINE
  8
1
 62
3
 10
1144.1132032829
 20
-134.4267692076951
 30
0
 11
1146.6132032829
 21
-134.4267692076951
 31
0
  0
LINE
  8
1
 62
3
 10
1144.1132032829
 20
-127.9267692076951
 30
0
 11
1146.6132032829
 21
-127.9267692076951
 31
0
  0
LINE
  8
1
 62
2
 10
1304.918956537631
 20
-224.1767692076952
 30
0
 11
1251.084588250596
 21
-224.1767692076952
 31
0
  0
LINE
  8
1
 62
2
 10
1304.918956537631
 20
-217.1767692076952
 30
0
 11
1251.084588250596
 21
-217.1767692076952
 31
0
  0
LINE
  8
1
 62
2
 10
1304.918956537631
 20
-210.1767692076952
 30
0
 11
1251.084588250596
 21
-210.1767692076952
 31
0
  0
LINE
  8
1
 62
2
 10
1304.918956537631
 20
-203.1767692076952
 30
0
 11
1251.084588250596
 21
-203.1767692076952
 31
0
  0
LINE
  8
1
 62
2
 10
1304.918956537631
 20
-196.1767692076952
 30
0
 11
1251.084588250596
 21
-196.1767692076952
 31
0
  0
LINE
  8
1
 62
2
 10
1307.105570962509
 20
-146.1767692076951
 30
0
 11
1309.631343597266
 21
-151.1767692076951
 31
0
  0
LINE
  8
1
 62
2
 10
1306.105570962509
 20
-146.1767692076951
 30
0
 11
1308.631343597266
 21
-151.1767692076951
 31
0
  0
LINE
  8
1
 62
2
 10
1305.105570962509
 20
-146.1767692076951
 30
0
 11
1307.631343597266
 21
-151.1767692076951
 31
0
  0
LINE
  8
1
 62
2
  6
CENTER
 10
1303.423828686766
 20
-150.5767692076952
 30
0
 11
1310.923828686766
 21
-150.5767692076952
 31
0
  0
LINE
  8
1
 62
2
  6
CENTER
 10
1310.923828686766
 20
-146.776769207695
 30
0
 11
1303.423828686766
 21
-146.776769207695
 31
0
  0
LINE
  8
1
 62
3
 10
1304.423828686766
 20
-150.6767692076951
 30
0
 11
1304.923828686766
 21
-151.1767692076951
 31
0
  0
LINE
  8
1
 62
3
 10
1304.423828686766
 20
-148.6767692076951
 30
0
 11
1304.423828686766
 21
-150.6767692076951
 31
0
  0
LINE
  8
1
 62
3
 10
1304.923828686766
 20
-151.1767692076951
 30
0
 11
1312.423828686766
 21
-151.1767692076951
 31
0
  0
LINE
  8
1
 62
3
 10
1304.923828686766
 20
-146.1767692076951
 30
0
 11
1304.423828686766
 21
-146.6767692076951
 31
0
  0
LINE
  8
1
 62
3
 10
1304.423828686766
 20
-146.6767692076951
 30
0
 11
1304.423828686766
 21
-148.6767692076951
 31
0
  0
LINE
  8
1
 62
3
 10
1312.423828686766
 20
-146.1767692076951
 30
0
 11
1304.923828686766
 21
-146.1767692076951
 31
0
  0
LINE
  8
1
 62
1
 10
1299.423828686766
 20
-148.6767692076951
 30
0
 11
1312.423828686766
 21
-148.6767692076951
 31
0
  0
LINE
  8
1
 62
3
 10
1317.923828686766
 20
-161.926769207695
 30
0
 11
1317.923828686766
 21
-170.426769207695
 31
0
  0
CIRCLE
  8
1
 62
2
  6
CENTER
 10
1173.6132032829
 20
-148.6767692076951
 30
0
 40
1.900000000000091
  0
CIRCLE
  8
1
 62
3
 10
1173.6132032829
 20
-148.6767692076951
 30
0
 40
2.5
  0
CIRCLE
  8
1
 62
3
 10
1173.6132032829
 20
-148.6767692076951
 30
0
 40
3.200000000000301
  0
ARC
  8
1
 62
3
 10
1200.6132032829
 20
-166.1767692076951
 30
0
 40
3.25
 50
90
 51
270
  0
ARC
  8
1
 62
3
 10
1203.1132032829
 20
-161.9267692076951
 30
0
 40
1
 50
270
 51
0
  0
ARC
  8
1
 62
3
 10
1203.1132032829
 20
-170.4267692076951
 30
0
 40
1
 50
0
 51
90
  0
ARC
  8
1
 62
3
 10
1146.6132032829
 20
-131.1767692076951
 30
0
 40
3.25
 50
270
 51
90
  0
ARC
  8
1
 62
3
 10
1144.1132032829
 20
-135.4267692076951
 30
0
 40
1
 50
90
 51
180
  0
ARC
  8
1
 62
3
 10
1144.1132032829
 20
-126.9267692076951
 30
0
 40
1
 50
180
 51
270
  0
LINE
  8
1
 62
2
 10
1251.084588250596
 20
-189.1767692076952
 30
0
 11
1304.918956537631
 21
-189.1767692076952
 31
0
  0
LINE
  8
1
 62
2
 10
1304.918956537631
 20
-189.1767692076952
 30
0
 11
1307.161624029443
 21
-151.1767692076951
 31
0
  0
SOLID
  8
1
 62
2
 10
1307.393652077818
 20
-154.3960310108428
 30
0
 11
1306.552539647967
 21
-154.3463906028589
 31
0
 12
1307.161624029443
 22
-151.1767692076951
 32
0
 13
1307.161624029443
 23
-151.1767692076951
 33
0
  0
TEXT
  8
1
 62
2
 10
1253.787456557031
 20
-187.3319537666248
 30
0
 40
4
  1
âéâWâàü[âïü@üFü@0.4
 41
0.9
  0
TEXT
  8
1
 62
2
 10
1253.787456557031
 20
-194.3319537666248
 30
0
 40
4
  1
Äòü@ü@ü@Éöü@üFü@9
 41
0.9
  0
TEXT
  8
1
 62
2
 10
1253.787456557031
 20
-201.3319537666248
 30
0
 40
4
  1
êü@ù═ü@èpü@üFü@20%%d
 41
0.9
  0
TEXT
  8
1
 62
2
 10
1253.787456557031
 20
-208.3319537666248
 30
0
 40
4
  1
èOü@ü@ü@îaü@üFü@âË5
 41
0.9
  0
TEXT
  8
1
 62
2
 10
1253.787456557031
 20
-215.3319537666248
 30
0
 40
4
  1
é╦éÂéÛò¹î³ü@üFü@ëE
 41
0.9
  0
TEXT
  8
1
 62
2
 10
1253.787456557031
 20
-222.3319537666248
 30
0
 40
4
  1
ü@ü@ü@âwâèâJâïÄdùl
 41
0.9
  0
DIMENSION
  8
1
  6
CONTINUOUS
 62
2
  2
*D0
  3
DMST_1
 10
1304.423828686766
 20
-88.67676920769506
 30
0
 11
1309.35110014604
 21
-85.07676920769507
 31
0
 12
0
 22
0
 32
0
 70
0
 13
1314.423828686766
 23
-118.1767692076951
 33
0
 14
1304.423828686766
 24
-146.6767692076951
 34
0
 53
0
  0
DIMENSION
  8
1
  6
CONTINUOUS
 62
2
  2
*D1
  3
DMST_2
 10
1291.423828686766
 20
-121.6767692076951
 30
0
 11
1286.997162020099
 21
-148.6767692076951
 31
0
 12
0
 22
0
 32
0
 70
0
  1
54h7
 13
1313.173828686766
 23
-175.6767692076951
 33
0
 14
1313.173828686766
 24
-121.6767692076951
 34
0
 50
90
 53
0
  0
INSERT
  8
0
  2
____M3_________1
 10
1200.6132032829
 20
-166.1767692076951
 30
0
  0
INSERT
  8
0
  2
____M3__2
 10
1313.064408866804
 20
-166.1767692076951
 30
0
  0
ENDBLK
  8
0
  0
BLOCK
  8
1
  2
*D2
 70
1
 10
0
 20
0
 30
0
  0
LINE
  8
1
 62
2
 10
1376.423828686766
 20
-178.476769207695
 30
0
 11
1376.423828686766
 21
-118.8767692076952
 31
0
  0
LINE
  8
1
 62
2
 10
1359.423828686766
 20
-118.8767692076952
 30
0
 11
1378.423828686766
 21
-118.8767692076952
 31
0
  0
LINE
  8
1
 62
2
 10
1359.423828686766
 20
-178.476769207695
 30
0
 11
1378.423828686766
 21
-178.476769207695
 31
0
  0
SOLID
  8
1
 62
2
 10
1376.423828686766
 20
-118.8767692076952
 30
0
 11
1376.839828686766
 21
-122.0767692076952
 31
0
 12
1376.007828686766
 22
-122.0767692076952
 32
0
 13
1376.007828686766
 23
-122.0767692076952
 33
0
  0
SOLID
  8
1
 62
2
 10
1376.423828686766
 20
-178.476769207695
 30
0
 11
1376.007828686766
 21
-175.2767692076951
 31
0
 12
1376.839828686766
 22
-175.2767692076951
 32
0
 13
1376.839828686766
 23
-175.2767692076951
 33
0
  0
TEXT
  8
1
 62
2
 10
1374.423828686766
 20
-151.2145469854729
 30
0
 40
3.2
  1
59.6
 50
90
 41
0.9
  0
TEXT
  8
1
 62
2
 10
1374.423828686766
 20
-154.8589914299173
 30
0
 40
3.2
  1
âË
 50
90
 41
0.9
  0
ENDBLK
  8
0
  0
BLOCK
  8
0
  2
BB
 70
0
 10
1185.393131309442
 20
-9.488211748119625
 30
0
  0
POINT
  8
1
 62
4
  6
DIVIDE
 10
1358.423828686766
 20
-118.8767692076952
 30
0
  0
POINT
  8
1
 62
4
  6
DIVIDE
 10
1358.423828686766
 20
-178.4767692076951
 30
0
  0
DIMENSION
  8
1
  6
CONTINUOUS
 62
2
  2
*D2
  3
DMST_1
 10
1376.423828686766
 20
-118.8767692076952
 30
0
 11
1372.823828686766
 21
-148.6767692076951
 31
0
 12
0
 22
0
 32
0
 70
0
  1
âË<>
 13
1358.423828686766
 23
-178.4767692076951
 33
0
 14
1358.423828686766
 24
-118.8767692076952
 34
0
 50
90
 53
0
  0
ENDBLK
  8
0
  0
BLOCK
  8
1
  2
*D3
 70
1
 10
0
 20
0
 30
0
  0
LINE
  8
1
 62
2
 10
1314.423828686766
 20
-88.67676920769509
 30
0
 11
1361.423828686766
 21
-88.67676920769509
 31
0
  0
LINE
  8
1
 62
2
 10
1314.423828686766
 20
-117.1767692076951
 30
0
 11
1314.423828686766
 21
-87.17676920769509
 31
0
  0
LINE
  8
1
 62
2
 10
1361.423828686766
 20
-120.6767692076951
 30
0
 11
1361.423828686766
 21
-87.17676920769509
 31
0
  0
SOLID
  8
1
 62
2
 10
1361.423828686766
 20
-88.67676920769509
 30
0
 11
1358.223828686766
 21
-89.09276920769508
 31
0
 12
1358.223828686766
 22
-88.26076920769509
 32
0
 13
1358.223828686766
 23
-88.26076920769509
 33
0
  0
SOLID
  8
1
 62
2
 10
1314.423828686766
 20
-88.67676920769509
 30
0
 11
1317.623828686766
 21
-88.26076920769509
 31
0
 12
1317.623828686766
 22
-89.09276920769508
 32
0
 13
1317.623828686766
 23
-89.09276920769508
 33
0
  0
TEXT
  8
1
 62
2
 10
1334.8376781102
 20
-86.67676920769509
 30
0
 40
3.2
  1
47
 41
0.9
  0
ENDBLK
  8
0
  0
BLOCK
  8
0
  2
AS27328-01_DB__4
 70
0
 10
987.3091274028849
 20
-56.37414420568928
 30
0
  0
POINT
  8
1
 62
4
  6
DIVIDE
 10
1314.423828686766
 20
-118.1767692076951
 30
0
  0
LINE
  8
1
 62
3
 10
1322.363612687459
 20
-123.2037034594358
 30
0
 11
1322.363612687459
 21
-118.2061598743724
 31
0
  0
LINE
  8
1
 62
3
 10
1352.160169754068
 20
-123.6581967483237
 30
0
 11
1322.363612687459
 21
-123.2037034594358
 31
0
  0
LINE
  8
1
 62
3
 10
1327.923819303117
 20
-179.0631329862354
 30
0
 11
1353.423828686766
 21
-178.6767692076951
 31
0
  0
LINE
  8
1
 62
3
 10
1353.423828686766
 20
-118.6767692076951
 30
0
 11
1353.423828686766
 21
-148.6767692076951
 31
0
  0
LINE
  8
1
 62
3
 10
1358.423828686766
 20
-148.6767692076951
 30
0
 11
1358.423828686766
 21
-118.8767692076952
 31
0
  0
LINE
  8
1
 62
3
 10
1361.423828686766
 20
-148.6767692076951
 30
0
 11
1361.423828686766
 21
-121.6767692076951
 31
0
  0
LINE
  8
1
 62
3
 10
1353.423828686766
 20
-118.6767692076951
 30
0
 11
1320.923828686766
 21
-118.184344965271
 31
0
  0
LINE
  8
1
 62
3
 10
1358.423828686766
 20
-118.8767692076952
 30
0
 11
1353.423828686766
 21
-118.876769207695
 31
0
  0
LINE
  8
1
 62
3
 10
1361.423828686766
 20
-121.6767692076951
 30
0
 11
1358.423828686766
 21
-118.8767692076952
 31
0
  0
LINE
  8
1
 62
3
 10
1353.423828686766
 20
-148.6767692076951
 30
0
 11
1353.423828686766
 21
-178.6767692076951
 31
0
  0
LINE
  8
1
 62
3
 10
1358.423828686766
 20
-178.4767692076952
 30
0
 11
1358.423828686766
 21
-148.6767692076951
 31
0
  0
LINE
  8
1
 62
3
 10
1361.423828686766
 20
-175.6767692076951
 30
0
 11
1361.423828686766
 21
-148.6767692076951
 31
0
  0
LINE
  8
1
 62
3
 10
1353.423828686766
 20
-178.4767692076952
 30
0
 11
1358.423828686766
 21
-178.4767692076952
 31
0
  0
LINE
  8
1
 62
3
 10
1358.423828686766
 20
-178.4767692076952
 30
0
 11
1361.423828686766
 21
-175.6767692076951
 31
0
  0
LINE
  8
1
 62
1
 10
1366.423828686766
 20
-148.6767692076951
 30
0
 11
1312.423828686766
 21
-148.6767692076951
 31
0
  0
LINE
  8
1
 62
3
 10
1352.160169754068
 20
-118.65762286023
 30
0
 11
1352.160169754068
 21
-123.6581967483237
 31
0
  0
LINE
  8
1
 62
2
 10
1337.4128908138
 20
-103.676052724911
 30
0
 11
1343.238585342454
 21
-118.522447338842
 31
0
  0
SOLID
  8
1
 62
2
 10
1341.677507193224
 20
-115.6974661735182
 30
0
 11
1342.461858568898
 21
-115.3896883165613
 31
0
 12
1343.238585342454
 22
-118.522447338842
 32
0
 13
1343.238585342454
 23
-118.522447338842
 33
0
  0
DIMENSION
  8
1
  6
CONTINUOUS
 62
2
  2
*D3
  3
DMST_3
 10
1314.423828686766
 20
-88.67676920769509
 30
0
 11
1337.2376781102
 21
-85.07676920769509
 31
0
 12
0
 22
0
 32
0
 70
0
 13
1361.423828686766
 23
-121.6767692076951
 33
0
 14
1314.423828686766
 24
-118.1767692076951
 34
0
 53
0
  0
INSERT
  8
0
  2
AS27328-01_DB__3
 10
987.3091274028848
 20
-102.3425315927346
 30
0
  0
INSERT
  8
0
  2
BB
 10
1185.393131309442
 20
-9.488211748119625
 30
0
  0
ENDBLK
  8
0
  0
BLOCK
  8
0
  2
D
 70
0
 10
1295.245981079573
 20
-65.28806487632438
 30
0
  0
LINE
  8
1
 62
40
  6
DASHED
 10
1191.855757984616
 20
-173.1197477077654
 30
0
 11
1192.28570084231
 21
-174.1577215858573
 31
0
  0
LINE
  8
1
 62
40
  6
DASHED
 10
1177.997564996946
 20
-178.8599991932417
 30
0
 11
1178.128775433086
 21
-179.1767692076952
 31
0
  0
LINE
  8
1
 62
1
 10
1182.988947375844
 20
-171.3118177542212
 30
0
 11
1186.43309826713
 21
-179.6267335468228
 31
0
  0
LINE
  8
1
 62
3
 10
1178.128775433086
 20
-179.1767692076952
 30
0
 11
1178.427507854641
 21
-179.8979730713337
 31
0
  0
ARC
  8
1
 62
40
  6
DASHED
 10
1172.273811269622
 20
-145.4431908439053
 30
0
 40
35.00000000000001
 50
285.460056156346
 51
304.8736251161877
  0
ARC
  8
1
 62
40
  6
DASHED
 10
1173.6132032829
 20
-148.6767692076948
 30
0
 40
30.50000000000037
 50
274.4999999999991
 51
310.4999999999986
  0
ARC
  8
1
 62
3
 10
1172.273811269622
 20
-145.4431908439053
 30
0
 40
34.99999999999983
 50
280.1263748838107
 51
285.460056156346
  0
ENDBLK
  8
0
  0
BLOCK
  8
0
  2
MOJINOMUKI
 70
0
 10
1331.210862575933
 20
-116.1505400526252
 30
0
  0
LINE
  8
1
 62
2
 10
1331.210862575933
 20
-114.6505400526252
 30
0
 11
1331.210862575933
 21
-112.1505400526252
 31
0
  0
LINE
  8
1
 62
2
 10
1328.710862575933
 20
-113.1505400526252
 30
0
 11
1331.210862575933
 21
-114.6505400526252
 31
0
  0
LINE
  8
1
 62
2
 10
1333.710862575933
 20
-113.1505400526252
 30
0
 11
1328.710862575933
 21
-113.1505400526252
 31
0
  0
LINE
  8
1
 62
2
 10
1328.210862575933
 20
-110.1505400526252
 30
0
 11
1334.210862575933
 21
-110.1505400526252
 31
0
  0
LINE
  8
1
 62
2
 10
1334.210862575933
 20
-116.1505400526252
 30
0
 11
1328.210862575933
 21
-116.1505400526252
 31
0
  0
LINE
  8
1
 62
2
 10
1334.210862575933
 20
-90.15054005262522
 30
0
 11
1334.210862575933
 21
-116.1505400526252
 31
0
  0
LINE
  8
1
 62
2
 10
1328.210862575933
 20
-90.15054005262522
 30
0
 11
1334.210862575933
 21
-90.15054005262522
 31
0
  0
LINE
  8
1
 62
2
 10
1328.210862575933
 20
-116.1505400526252
 30
0
 11
1328.210862575933
 21
-90.15054005262522
 31
0
  0
TEXT
  8
1
 62
2
 10
1333.210862575933
 20
-118.103794490495
 30
0
 40
4
  1
òÂÄÜé╠î³é½
 50
90
 41
0.9
 72
1
 73
2
 11
1331.210862575933
 21
-100.103794490495
 31
0
  0
ENDBLK
  8
0
  0
BLOCK
  8
0
  2
AE25585_L_______5
 70
0
 10
689.4502638891142
 20
-322.4627092182217
 30
0
  0
LINE
  8
1
 62
3
 10
1182.371752858232
 20
-179.1767692076952
 30
0
 11
1189.783192214076
 21
-197.0695666172785
 31
0
  0
LINE
  8
1
 62
3
 10
1184.309234896755
 20
-179.1767692076952
 30
0
 11
1191.054253144906
 21
-195.4606837408338
 31
0
  0
LINE
  8
1
 62
40
  6
DASHED
 10
1186.246716935279
 20
-179.1767692076952
 30
0
 11
1185.6677314024
 21
-177.7789744818
 31
0
  0
LINE
  8
1
 62
40
  6
DASHED
 10
1188.184198973802
 20
-179.1767692076952
 30
0
 11
1187.303947782497
 21
-177.0516548433517
 31
0
  0
LINE
  8
1
 62
3
 10
1190.121681012326
 20
-179.1767692076952
 30
0
 11
1196.398169666856
 21
-194.3295532415445
 31
0
  0
LINE
  8
1
 62
40
  6
DASHED
 10
1182.289992390478
 20
-178.9793819775773
 30
0
 11
1182.371752858232
 21
-179.1767692076952
 31
0
  0
LINE
  8
1
 62
3
 10
1193.090680940466
 20
-195.6995599294115
 30
0
 11
1186.246716935279
 21
-179.1767692076952
 31
0
  0
LINE
  8
1
 62
40
  6
DASHED
 10
1183.996459056107
 20
-178.4216615312187
 30
0
 11
1184.309234896755
 21
-179.1767692076952
 31
0
  0
LINE
  8
1
 62
3
 10
1195.127108736026
 20
-195.9384361179893
 30
0
 11
1188.184198973802
 21
-179.1767692076952
 31
0
  0
LINE
  8
1
 62
40
  6
DASHED
 10
1188.904969843259
 20
-176.2393686018432
 30
0
 11
1190.121681012326
 21
-179.1767692076952
 31
0
  0
LINE
  8
1
 62
3
 10
1196.704316412748
 20
-195.0686568675535
 30
0
 11
1206.097216626646
 21
-217.7451239539626
 31
0
  0
LINE
  8
1
 62
3
 10
1206.097216626646
 20
-217.7451239539626
 30
0
 11
1199.482239173866
 21
-220.4851373296966
 31
0
  0
LINE
  8
1
 62
3
 10
1199.482239173866
 20
-220.4851373296966
 30
0
 11
1190.089338959968
 21
-197.8086702432876
 31
0
  0
LINE
  8
1
 62
3
 10
1204.443472263451
 20
-218.4301272978963
 30
0
 11
1195.433255481918
 21
-196.6775397439983
 31
0
  0
LINE
  8
1
 62
3
 10
1193.396827686358
 20
-196.4386635554205
 30
0
 11
1202.789727900255
 21
-219.11513064183
 31
0
  0
LINE
  8
1
 62
3
 10
1201.13598353706
 20
-219.8001339857636
 30
0
 11
1191.360399890798
 21
-196.1997873668428
 31
0
  0
LINE
  8
1
 62
2
 10
1205.732284211304
 20
-217.8962839097469
 30
0
 11
1209.559118534955
 21
-227.1350792348597
 31
0
  0
LINE
  8
1
 62
2
 10
1205.270344445049
 20
-218.0876256259294
 30
0
 11
1209.097178768699
 21
-227.3264209510423
 31
0
  0
LINE
  8
1
 62
2
 10
1204.808404678793
 20
-218.2789673421119
 30
0
 11
1208.635239002444
 21
-227.5177626672248
 31
0
  0
LINE
  8
1
 62
2
 10
1204.078539848109
 20
-218.5812872536806
 30
0
 11
1207.90537417176
 21
-227.8200825787934
 31
0
  0
LINE
  8
1
 62
2
 10
1202.424795484914
 20
-219.2662905976143
 30
0
 11
1206.251629808565
 21
-228.5050859227271
 31
0
  0
LINE
  8
1
 62
2
 10
1200.771051121718
 20
-219.951293941548
 30
0
 11
1204.597885445369
 21
-229.1900892666608
 31
0
  0
LINE
  8
1
 62
2
 10
1203.616600081853
 20
-218.7726289698631
 30
0
 11
1207.443434405504
 21
-228.011424294976
 31
0
  0
LINE
  8
1
 62
2
 10
1201.962855718658
 20
-219.4576323137968
 30
0
 11
1205.789690042309
 21
-228.6964276389097
 31
0
  0
LINE
  8
1
 62
2
 10
1200.309111355463
 20
-220.1426356577306
 30
0
 11
1204.135945679114
 21
-229.3814309828434
 31
0
  0
LINE
  8
1
 62
2
 10
1203.154660315598
 20
-218.9639706860457
 30
0
 11
1206.981494639248
 21
-228.2027660111585
 31
0
  0
LINE
  8
1
 62
2
 10
1201.500915952402
 20
-219.6489740299794
 30
0
 11
1205.327750276053
 21
-228.8877693550922
 31
0
  0
LINE
  8
1
 62
2
 10
1199.847171589207
 20
-220.3339773739131
 30
0
 11
1203.674005912858
 21
-229.572772699026
 31
0
  0
LINE
  8
1
 62
3
 10
1318.423828686766
 20
-179.897973071334
 30
0
 11
1317.423828686766
 21
-179.897973071334
 31
0
  0
LINE
  8
1
 62
3
 10
1320.133828686766
 20
-189.5338994897311
 30
0
 11
1320.133828686766
 21
-179.1767692076951
 31
0
  0
LINE
  8
1
 62
3
 10
1321.923828686766
 20
-190.5338994897311
 30
0
 11
1321.923828686766
 21
-175.5338994897311
 31
0
  0
LINE
  8
1
 62
3
 10
1323.713828686766
 20
-191.5338994897311
 30
0
 11
1323.713828686766
 21
-175.5511609690652
 31
0
  0
LINE
  8
1
 62
3
 10
1325.423828686766
 20
-190.5338994897311
 30
0
 11
1325.423828686766
 21
-176.5338994897311
 31
0
  0
LINE
  8
1
 62
3
 10
1327.923828686766
 20
-179.0613187431122
 30
0
 11
1327.923828686766
 21
-175.1966924480871
 31
0
  0
LINE
  8
1
 62
3
 10
1318.423828686766
 20
-190.5338994897311
 30
0
 11
1318.423828686766
 21
-179.1767692076951
 31
0
  0
LINE
  8
1
 62
3
 10
1320.423828686766
 20
-173.2338420533461
 30
0
 11
1324.423828686766
 21
-173.2338420533461
 31
0
  0
LINE
  8
1
 62
3
 10
1320.423828686766
 20
-174.1577215858583
 30
0
 11
1324.423828686766
 21
-174.1577215858583
 31
0
  0
LINE
  8
1
 62
3
 10
1320.423828686766
 20
-175.5338994897311
 30
0
 11
1324.423828686766
 21
-175.5338994897311
 31
0
  0
LINE
  8
1
 62
3
 10
1317.423828686766
 20
-179.1767692076951
 30
0
 11
1317.423828686766
 21
-179.897973071334
 31
0
  0
POLYLINE
  8
1
 62
2
 66
1
  0
VERTEX
  8
1
 10
1189.783192214076
 20
-197.0695666172785
 30
0
 42
-0.0460188840492864
  0
VERTEX
  8
1
 10
1189.972904995879
 20
-196.4269866317674
 30
0
 42
-0.06415384271148206
  0
VERTEX
  8
1
 10
1190.237394104788
 20
-195.9649326692994
 30
0
 42
-0.07874745920645355
  0
VERTEX
  8
1
 10
1190.566689363855
 20
-195.6593345934688
 30
0
 42
-0.07668653664755003
  0
VERTEX
  8
1
 10
1190.950820596133
 20
-195.4861222678698
 30
0
 42
-0.05897114391036209
  0
VERTEX
  8
1
 10
1191.379817624674
 20
-195.4212255560966
 30
0
 42
-0.0388162673995677
  0
VERTEX
  8
1
 10
1191.843710272532
 20
-195.4405743217436
 30
0
 42
-0.02267374163822538
  0
VERTEX
  8
1
 10
1192.332528362758
 20
-195.520098428405
 30
0
 42
-0.01034295987018207
  0
VERTEX
  8
1
 10
1192.836301718406
 20
-195.635727739675
 30
0
  0
VERTEX
  8
1
 10
1193.345060162527
 20
-195.7633921191479
 30
0
 42
0.01019297938003386
  0
VERTEX
  8
1
 10
1193.848833518174
 20
-195.8790214304179
 30
0
 42
0.02205532009423485
  0
VERTEX
  8
1
 10
1194.3376516084
 20
-195.9585455370792
 30
0
 42
0.03746841435952124
  0
VERTEX
  8
1
 10
1194.801544256258
 20
-195.9778943027263
 30
0
 42
0.05730357270051838
  0
VERTEX
  8
1
 10
1195.230541284799
 20
-195.9129975909532
 30
0
 42
0.07705023782061575
  0
VERTEX
  8
1
 10
1195.614672517077
 20
-195.7397852653542
 30
0
 42
0.08360783423950267
  0
VERTEX
  8
1
 10
1195.943967776144
 20
-195.4341871895235
 30
0
 42
0.07118976466014221
  0
VERTEX
  8
1
 10
1196.208456885053
 20
-194.9721332270556
 30
0
 42
0.05191891973655452
  0
VERTEX
  8
1
 10
1196.398169666856
 20
-194.3295532415445
 30
0
  0
SEQEND
  8
1
  0
POLYLINE
  8
1
 62
2
 66
1
  0
VERTEX
  8
1
 10
1190.089338959968
 20
-197.8086702432876
 30
0
 42
-0.04601888404929839
  0
VERTEX
  8
1
 10
1190.279051741771
 20
-197.1660902577765
 30
0
 42
-0.06415384271075072
  0
VERTEX
  8
1
 10
1190.54354085068
 20
-196.7040362953085
 30
0
 42
-0.07874745920684066
  0
VERTEX
  8
1
 10
1190.872836109747
 20
-196.3984382194779
 30
0
 42
-0.07668653664841231
  0
VERTEX
  8
1
 10
1191.256967342025
 20
-196.2252258938789
 30
0
 42
-0.05897114391056815
  0
VERTEX
  8
1
 10
1191.685964370566
 20
-196.1603291821057
 30
0
 42
-0.03881626739948349
  0
VERTEX
  8
1
 10
1192.149857018424
 20
-196.1796779477527
 30
0
 42
-0.02267374163803657
  0
VERTEX
  8
1
 10
1192.63867510865
 20
-196.2592020544141
 30
0
 42
-0.01034295987028047
  0
VERTEX
  8
1
 10
1193.142448464298
 20
-196.3748313656841
 30
0
  0
VERTEX
  8
1
 10
1193.651206908419
 20
-196.502495745157
 30
0
 42
0.01019297938008694
  0
VERTEX
  8
1
 10
1194.154980264066
 20
-196.618125056427
 30
0
 42
0.02205532009441973
  0
VERTEX
  8
1
 10
1194.643798354292
 20
-196.6976491630883
 30
0
 42
0.0374684143594805
  0
VERTEX
  8
1
 10
1195.10769100215
 20
-196.7169979287353
 30
0
 42
0.05730357270059987
  0
VERTEX
  8
1
 10
1195.536688030691
 20
-196.6521012169622
 30
0
 42
0.07705023782068053
  0
VERTEX
  8
1
 10
1195.920819262969
 20
-196.4788888913632
 30
0
 42
0.0836078342401371
  0
VERTEX
  8
1
 10
1196.250114522036
 20
-196.1732908155326
 30
0
 42
0.07118976465967629
  0
VERTEX
  8
1
 10
1196.514603630945
 20
-195.7112368530646
 30
0
 42
0.05191891973585896
  0
VERTEX
  8
1
 10
1196.704316412748
 20
-195.0686568675535
 30
0
  0
SEQEND
  8
1
  0
POLYLINE
  8
1
 62
3
 66
1
  0
VERTEX
  8
1
 10
1325.423828707563
 20
-179.8630922339585
 30
0
 42
0.002715273652968733
  0
VERTEX
  8
1
 10
1325.562053466299
 20
-179.8524848533408
 30
0
 42
0.002319133530901852
  0
VERTEX
  8
1
 10
1325.67631934733
 20
-179.8425581329515
 30
0
 42
0.002348196082635924
  0
VERTEX
  8
1
 10
1325.787088490737
 20
-179.8318937338554
 30
0
 42
0.002459524567976531
  0
VERTEX
  8
1
 10
1325.897749752395
 20
-179.8201644381447
 30
0
 42
0.002569470569125701
  0
VERTEX
  8
1
 10
1326.008287553314
 20
-179.8073229329672
 30
0
 42
0.002675255770381225
  0
VERTEX
  8
1
 10
1326.118686314504
 20
-179.7933219054691
 30
0
 42
0.002679657846305649
  0
VERTEX
  8
1
 10
1326.224014915513
 20
-179.778818040982
 30
0
 42
0.001343293057418186
  0
VERTEX
  8
1
 10
1326.274163888707
 20
-179.7714992495973
 30
0
 42
0.001397058620056342
  0
VERTEX
  8
1
 10
1326.32427203007
 20
-179.7639055368266
 30
0
 42
0.001447112366578279
  0
VERTEX
  8
1
 10
1326.37433576332
 20
-179.7560270280687
 30
0
 42
0.001498256609879931
  0
VERTEX
  8
1
 10
1326.424351512173
 20
-179.7478538487224
 30
0
 42
0.00154919957247487
  0
VERTEX
  8
1
 10
1326.47431570035
 20
-179.7393761241855
 30
0
 42
0.001600256638867616
  0
VERTEX
  8
1
 10
1326.52422475157
 20
-179.7305839798571
 30
0
 42
0.00165137777608435
  0
VERTEX
  8
1
 10
1326.57407508955
 20
-179.7214675411349
 30
0
 42
0.003456013541839698
  0
VERTEX
  8
1
 10
1326.673585320669
 20
-179.702222282103
 30
0
 42
0.001598349818044759
  0
VERTEX
  8
1
 10
1326.717052811337
 20
-179.6933570774942
 30
0
 42
0.00168023020966691
  0
VERTEX
  8
1
 10
1326.760461748997
 20
-179.6842069372166
 30
0
 42
0.001762266552548465
  0
VERTEX
  8
1
 10
1326.803806791114
 20
-179.6747581178371
 30
0
 42
0.001844387548642449
  0
VERTEX
  8
1
 10
1326.847082595152
 20
-179.6649968759219
 30
0
 42
0.001926583299108592
  0
VERTEX
  8
1
 10
1326.890283818576
 20
-179.6549094680383
 30
0
 42
0.002008815851044044
  0
VERTEX
  8
1
 10
1326.933405118846
 20
-179.6444821507528
 30
0
 42
0.002091049171455612
  0
VERTEX
  8
1
 10
1326.976441153429
 20
-179.6337011806327
 30
0
 42
0.002173233648848727
  0
VERTEX
  8
1
 10
1327.019386579786
 20
-179.6225528142437
 30
0
 42
0.002255331121806498
  0
VERTEX
  8
1
 10
1327.062236055383
 20
-179.6110233081532
 30
0
 42
0.002337233738953602
  0
VERTEX
  8
1
 10
1327.104984237682
 20
-179.5990989189285
 30
0
 42
0.002076402945122562
  0
VERTEX
  8
1
 10
1327.140537754654
 20
-179.5888437020874
 30
0
 42
0.002264556701470592
  0
VERTEX
  8
1
 10
1327.176003425236
 20
-179.578279461432
 30
0
 42
0.002453458519162773
  0
VERTEX
  8
1
 10
1327.211367510097
 20
-179.5673811500323
 30
0
 42
0.002643040460496633
  0
VERTEX
  8
1
 10
1327.246616269905
 20
-179.5561237209576
 30
0
 42
0.002833252081115672
  0
VERTEX
  8
1
 10
1327.281735965327
 20
-179.5444821272781
 30
0
 42
0.003023978421403637
  0
VERTEX
  8
1
 10
1327.316712857032
 20
-179.5324313220649
 30
0
 42
0.003215065214513378
  0
VERTEX
  8
1
 10
1327.351533205685
 20
-179.519946258387
 30
0
 42
0.003406285054467957
  0
VERTEX
  8
1
 10
1327.386183271954
 20
-179.5070018893148
 30
0
 42
0.003597417450997222
  0
VERTEX
  8
1
 10
1327.420649316507
 20
-179.4935731679184
 30
0
 42
0.003787968059326111
  0
VERTEX
  8
1
 10
1327.454917600011
 20
-179.4796350472679
 30
0
 42
0.003183256486286926
  0
VERTEX
  8
1
 10
1327.481620211533
 20
-179.4683387096499
 30
0
 42
0.003465048598380846
  0
VERTEX
  8
1
 10
1327.508172676371
 20
-179.4566872862964
 30
0
 42
0.003748343136100217
  0
VERTEX
  8
1
 10
1327.534554709069
 20
-179.444653841403
 30
0
 42
0.004032727819174044
  0
VERTEX
  8
1
 10
1327.560746024168
 20
-179.4322114391643
 30
0
 42
0.004317832007306581
  0
VERTEX
  8
1
 10
1327.586726336211
 20
-179.4193331437756
 30
0
 42
0.004603063989477115
  0
VERTEX
  8
1
 10
1327.612475359737
 20
-179.4059920194319
 30
0
 42
0.004887704503621391
  0
VERTEX
  8
1
 10
1327.637972809289
 20
-179.3921611303286
 30
0
 42
0.00517075899285997
  0
VERTEX
  8
1
 10
1327.663198399409
 20
-179.3778135406601
 30
0
 42
0.005451377508746807
  0
VERTEX
  8
1
 10
1327.688131844638
 20
-179.3629223146219
 30
0
 42
0.005727350639870677
  0
VERTEX
  8
1
 10
1327.712752859517
 20
-179.3474605164091
 30
0
 42
0.004799770861755885
  0
VERTEX
  8
1
 10
1327.730514818132
 20
-179.3357841112898
 30
0
 42
0.005840891777224537
  0
VERTEX
  8
1
 10
1327.748028215426
 20
-179.3237298303281
 30
0
 42
0.006896934395509456
  0
VERTEX
  8
1
 10
1327.765221956697
 20
-179.3112385012768
 30
0
 42
0.007965899584914043
  0
VERTEX
  8
1
 10
1327.782024947247
 20
-179.298250951887
 30
0
 42
0.009043197093462067
  0
VERTEX
  8
1
 10
1327.79836609238
 20
-179.2847080099121
 30
0
 42
0.01011919191431839
  0
VERTEX
  8
1
 10
1327.814174297395
 20
-179.2705505031045
 30
0
 42
0.01117998754683021
  0
VERTEX
  8
1
 10
1327.829378467594
 20
-179.2557192592163
 30
0
 42
0.01220543025672758
  0
VERTEX
  8
1
 10
1327.843907508279
 20
-179.2401551059993
 30
0
 42
0.01316728500083221
  0
VERTEX
  8
1
 10
1327.857690324749
 20
-179.2237988712062
 30
0
 42
0.02489627938623898
  0
VERTEX
  8
1
 10
1327.879566795201
 20
-179.1934499710169
 30
0
 42
0.01150370682383233
  0
VERTEX
  8
1
 10
1327.887914602485
 20
-179.1798705789064
 30
0
 42
0.01231472943657199
  0
VERTEX
  8
1
 10
1327.895610957391
 20
-179.165901870762
 30
0
 42
0.01325094415388602
  0
VERTEX
  8
1
 10
1327.902567573155
 20
-179.1515925110875
 30
0
 42
0.01433195144446822
  0
VERTEX
  8
1
 10
1327.908696163007
 20
-179.1369911643883
 30
0
 42
0.01555203858423836
  0
VERTEX
  8
1
 10
1327.913908440182
 20
-179.1221464951677
 30
0
 42
0.01689822173636037
  0
VERTEX
  8
1
 10
1327.918116117912
 20
-179.1071071679295
 30
0
 42
0.01835651113655125
  0
VERTEX
  8
1
 10
1327.92123090943
 20
-179.0919218471788
 30
0
 42
0.04124356529717835
  0
VERTEX
  8
1
 10
1327.923828686766
 20
-179.0613078831561
 30
0
  0
SEQEND
  8
1
  0
POLYLINE
  8
1
 62
2
 66
1
  0
VERTEX
  8
1
 10
1318.423828686766
 20
-190.5338994897311
 30
0
 42
-0.04949790379196044
  0
VERTEX
  8
1
 10
1318.855971638746
 20
-189.9899858202015
 30
0
 42
-0.07066861230471089
  0
VERTEX
  8
1
 10
1319.290257409935
 20
-189.6636376184838
 30
0
 42
-0.08619913602458444
  0
VERTEX
  8
1
 10
1319.726379883301
 20
-189.5237741034619
 30
0
 42
-0.07963123316841288
  0
VERTEX
  8
1
 10
1320.164032941816
 20
-189.53931449402
 30
0
 42
-0.05697792184724593
  0
VERTEX
  8
1
 10
1320.60291046845
 20
-189.6791780090419
 30
0
 42
-0.03491728347355483
  0
VERTEX
  8
1
 10
1321.042706346173
 20
-189.9122838674118
 30
0
 42
-0.01836036335597318
  0
VERTEX
  8
1
 10
1321.483114457954
 20
-190.2075512880136
 30
0
 42
-0.005676070181685446
  0
VERTEX
  8
1
 10
1321.923828686766
 20
-190.5338994897314
 30
0
 42
0.005627781551002684
  0
VERTEX
  8
1
 10
1322.364542915577
 20
-190.8602476914492
 30
0
 42
0.01791010537401378
  0
VERTEX
  8
1
 10
1322.804951027359
 20
-191.1555151120509
 30
0
 42
0.03364343883443174
  0
VERTEX
  8
1
 10
1323.244746905082
 20
-191.3886209704208
 30
0
 42
0.05492069234170235
  0
VERTEX
  8
1
 10
1323.683624431715
 20
-191.5284844854427
 30
0
 42
0.0790629054698388
  0
VERTEX
  8
1
 10
1324.12127749023
 20
-191.5440248760006
 30
0
 42
0.09103019074962868
  0
VERTEX
  8
1
 10
1324.557399963596
 20
-191.4041613609787
 30
0
 42
0.07883279189343285
  0
VERTEX
  8
1
 10
1324.991685734785
 20
-191.0778131592608
 30
0
 42
0.05636466808132406
  0
VERTEX
  8
1
 10
1325.423828686766
 20
-190.5338994897311
 30
0
  0
SEQEND
  8
1
  0
POLYLINE
  8
1
 62
3
 66
1
  0
VERTEX
  8
1
 10
1324.423828686766
 20
-174.1577215858583
 30
0
 42
-0.02643727130378897
  0
VERTEX
  8
1
 10
1325.066973640863
 20
-174.1906855902577
 30
0
 42
-0.01516773912895517
  0
VERTEX
  8
1
 10
1325.56003057383
 20
-174.2636383827473
 30
0
 42
-0.02142026164498855
  0
VERTEX
  8
1
 10
1325.954633288214
 20
-174.3550379825168
 30
0
 42
-0.02120298871490517
  0
VERTEX
  8
1
 10
1326.363005515494
 20
-174.4861884162464
 30
0
 42
-0.02063217024487292
  0
VERTEX
  8
1
 10
1326.701317760008
 20
-174.6297926294953
 30
0
 42
-0.02166366517190666
  0
VERTEX
  8
1
 10
1326.979508197421
 20
-174.7791817821615
 30
0
 42
-0.0199519425059935
  0
VERTEX
  8
1
 10
1327.200338699335
 20
-174.9252288867851
 30
0
 42
-0.03037350730226957
  0
VERTEX
  8
1
 10
1327.405611466355
 20
-175.092493507333
 30
0
 42
-0.03018099759928254
  0
VERTEX
  8
1
 10
1327.592545390828
 20
-175.2867939682249
 30
0
 42
-0.03467140607788935
  0
VERTEX
  8
1
 10
1327.730453281886
 20
-175.4770617364071
 30
0
 42
-0.02601796399529402
  0
VERTEX
  8
1
 10
1327.818421988124
 20
-175.6423682397439
 30
0
 42
-0.05657142788475004
  0
VERTEX
  8
1
 10
1327.888725147392
 20
-175.8435955717339
 30
0
 42
-0.06217481156532217
  0
VERTEX
  8
1
 10
1327.923828686766
 20
-176.1205719805994
 30
0
  0
SEQEND
  8
1
  0
POLYLINE
  8
1
 62
3
 66
1
  0
VERTEX
  8
1
 10
1324.423828686766
 20
-173.2338420533461
 30
0
 42
-0.02643796000665385
  0
VERTEX
  8
1
 10
1325.066974535282
 20
-173.2668063195211
 30
0
 42
-0.01516739818366289
  0
VERTEX
  8
1
 10
1325.560028745627
 20
-173.3397583151678
 30
0
 42
-0.0214210318995395
  0
VERTEX
  8
1
 10
1325.954642479049
 20
-173.431161139934
 30
0
 42
-0.01393865596389245
  0
VERTEX
  8
1
 10
1326.299494553878
 20
-173.5391534826886
 30
0
 42
-0.009568683930503502
  0
VERTEX
  8
1
 10
1326.500090640487
 20
-173.6161823420469
 30
0
 42
-0.01936403282007022
  0
VERTEX
  8
1
 10
1326.714449111881
 20
-173.7122584164439
 30
0
 42
-0.02171943671666789
  0
VERTEX
  8
1
 10
1326.979503412532
 20
-173.8552982001741
 30
0
 42
-0.023194513715742
  0
VERTEX
  8
1
 10
1327.215133214601
 20
-174.0122362217302
 30
0
 42
-0.02708387849863198
  0
VERTEX
  8
1
 10
1327.419119056146
 20
-174.181048476079
 30
0
 42
-0.03031404512804646
  0
VERTEX
  8
1
 10
1327.592543342237
 20
-174.3629121872608
 30
0
 42
-0.03467155658300197
  0
VERTEX
  8
1
 10
1327.730453760505
 20
-174.5531827292087
 30
0
 42
-0.02601766142167818
  0
VERTEX
  8
1
 10
1327.818421914728
 20
-174.7184886266763
 30
0
 42
-0.05657164410796062
  0
VERTEX
  8
1
 10
1327.888725178706
 20
-174.9197160735927
 30
0
 42
-0.06217457116461347
  0
VERTEX
  8
1
 10
1327.923828686766
 20
-175.1966924480871
 30
0
  0
SEQEND
  8
1
  0
ARC
  8
1
 62
3
 10
1324.423828686766
 20
-176.5338994897311
 30
0
 40
1
 50
0
 51
90
  0
LINE
  8
1
 62
2
 10
1207.5344627204
 20
-196.1767692076953
 30
0
 11
1203.301745821509
 21
-210.9962604229831
 31
0
  0
SOLID
  8
1
 62
2
 10
1203.775491414001
 20
-207.8036049943417
 30
0
 11
1204.58566895377
 21
-208.0350064718866
 31
0
 12
1203.301745821509
 22
-210.9962604229831
 32
0
 13
1203.301745821509
 23
-210.9962604229831
 33
0
  0
ENDBLK
  8
0
  0
BLOCK
  8
0
  2
AE25585_L_______6
 70
0
 10
1153.360665619751
 20
-93.6605772042293
 30
0
  0
INSERT
  8
0
  2
AE25585_L_______5
 10
689.4502638891142
 20
-322.4627092182217
 30
0
  0
ENDBLK
  8
0
  0
BLOCK
  8
0
  2
____M3_________7
 70
0
 10
1200.6132032829
 20
-131.1767692076951
 30
0
  0
LINE
  8
1
 62
3
 10
1201.866195490451
 20
-131.9065023971676
 30
0
 11
1201.255156119298
 21
-131.2954630260149
 31
0
  0
LINE
  8
1
 62
3
 10
1201.866195490451
 20
-130.4470360182226
 30
0
 11
1201.255156119298
 21
-131.0580753893752
 31
0
  0
LINE
  8
1
 62
3
 10
1199.883470093428
 20
-132.4297614152456
 30
0
 11
1200.49450946458
 21
-131.818722044093
 31
0
  0
LINE
  8
1
 62
3
 10
1200.73803205104
 20
-131.8248569939129
 30
0
 11
1201.342936472372
 21
-132.4297614152456
 31
0
  0
LINE
  8
1
 62
3
 10
1200.73189710122
 20
-131.818722044093
 30
0
 11
1200.73803205104
 21
-131.8248569939129
 31
0
  0
LINE
  8
1
 62
3
 10
1199.36021107535
 20
-130.4470360182226
 30
0
 11
1199.971250446502
 21
-131.0580753893752
 31
0
  0
LINE
  8
1
 62
3
 10
1199.36021107535
 20
-131.9065023971676
 30
0
 11
1199.971250446502
 21
-131.2954630260149
 31
0
  0
LINE
  8
1
 62
3
 10
1201.342936472372
 20
-129.9237770001446
 30
0
 11
1200.73189710122
 21
-130.5348163712972
 31
0
  0
LINE
  8
1
 62
3
 10
1199.883470093428
 20
-129.9237770001446
 30
0
 11
1200.49450946458
 21
-130.5348163712972
 31
0
  0
LINE
  8
1
 62
3
 10
1145.36021107535
 20
-165.4470360182226
 30
0
 11
1145.971250446502
 21
-166.0580753893753
 31
0
  0
LINE
  8
1
 62
3
 10
1145.36021107535
 20
-166.9065023971676
 30
0
 11
1145.971250446502
 21
-166.295463026015
 31
0
  0
LINE
  8
1
 62
3
 10
1147.342936472372
 20
-164.9237770001446
 30
0
 11
1146.73189710122
 21
-165.5348163712972
 31
0
  0
LINE
  8
1
 62
3
 10
1146.48837451476
 20
-165.5286814214773
 30
0
 11
1145.883470093428
 21
-164.9237770001446
 31
0
  0
LINE
  8
1
 62
3
 10
1146.49450946458
 20
-165.5348163712972
 30
0
 11
1146.48837451476
 21
-165.5286814214773
 31
0
  0
LINE
  8
1
 62
3
 10
1147.866195490451
 20
-166.9065023971676
 30
0
 11
1147.255156119298
 21
-166.295463026015
 31
0
  0
LINE
  8
1
 62
3
 10
1147.866195490451
 20
-165.4470360182226
 30
0
 11
1147.255156119298
 21
-166.0580753893753
 31
0
  0
LINE
  8
1
 62
3
 10
1145.883470093428
 20
-167.4297614152457
 30
0
 11
1146.49450946458
 21
-166.818722044093
 31
0
  0
LINE
  8
1
 62
3
 10
1147.342936472372
 20
-167.4297614152457
 30
0
 11
1146.73189710122
 21
-166.818722044093
 31
0
  0
ARC
  8
1
 62
3
 10
1200.6132032829
 20
-131.1767692076951
 30
0
 40
0.634999999999882
 50
352.5415509436992
 51
7.458449056308459
  0
ARC
  8
1
 62
3
 10
1200.6132032829
 20
-131.1767692076951
 30
0
 40
1.449999999999733
 50
300.216198285234
 51
329.7838017147566
  0
ARC
  8
1
 62
3
 10
1200.6132032829
 20
-131.1767692076951
 30
0
 40
0.6349999999999185
 50
262.5415509437332
 51
277.4584490562668
  0
ARC
  8
1
 62
3
 10
1200.6132032829
 20
-131.1767692076951
 30
0
 40
1.449999999999612
 50
210.2161982852614
 51
239.783801714766
  0
ARC
  8
1
 62
3
 10
1200.6132032829
 20
-131.1767692076951
 30
0
 40
0.6349999999998931
 50
172.5415509436915
 51
187.4584490563009
  0
ARC
  8
1
 62
3
 10
1200.6132032829
 20
-131.1767692076951
 30
0
 40
1.449999999999709
 50
120.2161982852345
 51
149.7838017147395
  0
ARC
  8
1
 62
3
 10
1200.6132032829
 20
-131.1767692076951
 30
0
 40
0.6350000000000031
 50
82.54155094373424
 51
97.45844905626578
  0
ARC
  8
1
 62
3
 10
1200.6132032829
 20
-131.1767692076951
 30
0
 40
1.450000000000383
 50
30.21619828524237
 51
59.78380171476548
  0
ARC
  8
1
 62
3
 10
1146.6132032829
 20
-166.1767692076951
 30
0
 40
0.6349999999998782
 50
172.5415509437017
 51
187.458449056311
  0
ARC
  8
1
 62
3
 10
1146.6132032829
 20
-166.1767692076951
 30
0
 40
1.449999999999709
 50
120.2161982852345
 51
149.7838017147395
  0
ARC
  8
1
 62
3
 10
1146.6132032829
 20
-166.1767692076951
 30
0
 40
0.6349999999998904
 50
82.5415509437329
 51
97.45844905626711
  0
ARC
  8
1
 62
3
 10
1146.6132032829
 20
-166.1767692076951
 30
0
 40
1.450000000000383
 50
30.21619828524237
 51
59.78380171476548
  0
ARC
  8
1
 62
3
 10
1146.6132032829
 20
-166.1767692076951
 30
0
 40
0.6349999999998968
 50
352.5415509436891
 51
7.458449056298288
  0
ARC
  8
1
 62
3
 10
1146.6132032829
 20
-166.1767692076951
 30
0
 40
1.449999999999831
 50
300.2161982852317
 51
329.7838017147566
  0
ARC
  8
1
 62
3
 10
1146.6132032829
 20
-166.1767692076951
 30
0
 40
0.6350000000000312
 50
262.5415509437346
 51
277.4584490562654
  0
ARC
  8
1
 62
3
 10
1146.6132032829
 20
-166.1767692076951
 30
0
 40
1.449999999999612
 50
210.2161982852614
 51
239.7838017147683
  0
CIRCLE
  8
1
 62
3
 10
1200.6132032829
 20
-131.1767692076951
 30
0
 40
2.799999999999955
  0
CIRCLE
  8
1
 62
3
 10
1146.6132032829
 20
-166.1767692076951
 30
0
 40
2.799999999999955
  0
ARC
  8
1
 62
3
 10
1201.285797413149
 20
-131.2648217321635
 30
0
 40
0.04333333333320731
 50
172.5415509436081
 51
225.0000000001594
  0
ARC
  8
1
 62
3
 10
1201.285797413149
 20
-131.0887166832266
 30
0
 40
0.04333333333317264
 50
134.999999999814
 51
187.4584490563547
  0
ARC
  8
1
 62
3
 10
1200.525150758432
 20
-131.8493633379444
 30
0
 40
0.04333333333335929
 50
82.54155094352063
 51
135.0000000004517
  0
ARC
  8
1
 62
3
 10
1200.701255807368
 20
-131.8493633379444
 30
0
 40
0.04333333333381575
 50
44.99999999933569
 51
97.45844905618128
  0
ARC
  8
1
 62
3
 10
1199.940609152651
 20
-131.0887166832266
 30
0
 40
0.04333333333320362
 50
352.5415509436452
 51
45.00000000039859
  0
ARC
  8
1
 62
3
 10
1199.940609152651
 20
-131.2648217321635
 30
0
 40
0.04333333333299177
 50
314.999999999628
 51
7.458449056391976
  0
ARC
  8
1
 62
3
 10
1200.701255807368
 20
-130.5041750774458
 30
0
 40
0.04333333333321705
 50
262.5415509437992
 51
315.0000000006643
  0
ARC
  8
1
 62
3
 10
1200.525150758432
 20
-130.5041750774458
 30
0
 40
0.04333333333365497
 50
224.9999999995483
 51
277.4584490564989
  0
ARC
  8
1
 62
3
 10
1145.940609152651
 20
-166.0887166832267
 30
0
 40
0.04333333333320731
 50
352.541550943608
 51
45.00000000039859
  0
ARC
  8
1
 62
3
 10
1145.940609152651
 20
-166.2648217321636
 30
0
 40
0.04333333333301186
 50
314.9999999996014
 51
7.458449056354717
  0
ARC
  8
1
 62
3
 10
1146.701255807368
 20
-165.5041750774458
 30
0
 40
0.04333333333332977
 50
262.5415509438188
 51
315.0000000006643
  0
ARC
  8
1
 62
3
 10
1146.525150758432
 20
-165.5041750774458
 30
0
 40
0.04333333333365497
 50
224.9999999995483
 51
277.4584490564794
  0
ARC
  8
1
 62
3
 10
1147.285797413149
 20
-166.2648217321636
 30
0
 40
0.04333333333320362
 50
172.5415509436453
 51
225.000000000186
  0
ARC
  8
1
 62
3
 10
1147.285797413149
 20
-166.0887166832267
 30
0
 40
0.04333333333317264
 50
134.999999999814
 51
187.458449056392
  0
ARC
  8
1
 62
3
 10
1146.525150758432
 20
-166.8493633379444
 30
0
 40
0.04333333333324656
 50
82.54155094350111
 51
135.0000000004517
  0
ARC
  8
1
 62
3
 10
1146.701255807368
 20
-166.8493633379445
 30
0
 40
0.04333333333389613
 50
44.99999999944197
 51
97.45844905618128
  0
ENDBLK
  8
0
  0
BLOCK
  8
0
  2
____M3__8
 70
0
 10
1317.923828686766
 20
-131.1767692076937
 30
0
  0
LINE
  8
1
 62
3
 10
1316.425110948843
 20
-133.9767692076937
 30
0
 11
1317.923828686766
 21
-133.9767692076937
 31
0
  0
LINE
  8
1
 62
3
 10
1317.923828686766
 20
-133.9767692076937
 30
0
 11
1317.923828686766
 21
-128.3767692076937
 31
0
  0
LINE
  8
1
 62
3
 10
1317.923828686766
 20
-128.3767692076937
 30
0
 11
1316.425110948843
 21
-128.3767692076937
 31
0
  0
LINE
  8
1
 62
3
 10
1315.537536410902
 20
-131.5392692076937
 30
0
 11
1315.712536410902
 21
-131.5392692076937
 31
0
  0
LINE
  8
1
 62
3
 10
1315.712536410902
 20
-131.5392692076937
 30
0
 11
1315.712536410902
 21
-130.8142692076937
 31
0
  0
LINE
  8
1
 62
3
 10
1315.712536410902
 20
-130.8142692076937
 30
0
 11
1315.537536410902
 21
-130.8142692076937
 31
0
  0
LINE
  8
1
 62
1
 10
1321.923828686766
 20
-131.1767692076951
 30
0
 11
1310.423828686766
 21
-131.1767692076951
 31
0
  0
ARC
  8
1
 62
3
 10
1320.323828686766
 20
-131.1767692076937
 30
0
 40
4.799999999999601
 50
144.3146652873448
 51
175.668851269211
  0
ARC
  8
1
 62
3
 10
1320.323828686766
 20
-131.1767692076937
 30
0
 40
4.799999999999591
 50
184.3311487307893
 51
215.6853347126555
  0
ENDBLK
  8
0
  0
BLOCK
  8
1
  2
*D4
 70
1
 10
0
 20
0
 30
0
  0
LINE
  8
1
 62
2
 10
1228.6132032829
 20
-179.1767692076952
 30
0
 11
1228.6132032829
 21
-118.1767692076951
 31
0
  0
LINE
  8
1
 62
2
 10
1199.6132032829
 20
-179.1767692076952
 30
0
 11
1230.6132032829
 21
-179.1767692076952
 31
0
  0
LINE
  8
1
 62
2
 10
1199.6132032829
 20
-118.1767692076951
 30
0
 11
1230.6132032829
 21
-118.1767692076951
 31
0
  0
SOLID
  8
1
 62
2
 10
1228.6132032829
 20
-118.1767692076951
 30
0
 11
1229.0292032829
 21
-121.3767692076951
 31
0
 12
1228.1972032829
 22
-121.3767692076951
 32
0
 13
1228.1972032829
 23
-121.3767692076951
 33
0
  0
SOLID
  8
1
 62
2
 10
1228.6132032829
 20
-179.1767692076952
 30
0
 11
1228.1972032829
 21
-175.9767692076952
 31
0
 12
1229.0292032829
 22
-175.9767692076952
 32
0
 13
1229.0292032829
 23
-175.9767692076952
 33
0
  0
TEXT
  8
1
 62
2
 10
1226.6132032829
 20
-150.5967692076951
 30
0
 40
3.2
  1
61
 50
90
 41
0.9
  0
ENDBLK
  8
0
  0
BLOCK
  8
1
  2
*D5
 70
1
 10
0
 20
0
 30
0
  0
LINE
  8
1
 62
2
 10
1218.6132032829
 20
-173.4267692076952
 30
0
 11
1218.6132032829
 21
-123.9267692076951
 31
0
  0
LINE
  8
1
 62
2
 10
1205.3632032829
 20
-173.4267692076952
 30
0
 11
1220.6132032829
 21
-173.4267692076952
 31
0
  0
LINE
  8
1
 62
2
 10
1205.3632032829
 20
-123.9267692076951
 30
0
 11
1220.6132032829
 21
-123.9267692076951
 31
0
  0
SOLID
  8
1
 62
2
 10
1218.6132032829
 20
-123.9267692076951
 30
0
 11
1219.0292032829
 21
-127.1267692076951
 31
0
 12
1218.1972032829
 22
-127.1267692076951
 32
0
 13
1218.1972032829
 23
-127.1267692076951
 33
0
  0
SOLID
  8
1
 62
2
 10
1218.6132032829
 20
-173.4267692076952
 30
0
 11
1218.1972032829
 21
-170.2267692076952
 31
0
 12
1219.0292032829
 22
-170.2267692076952
 32
0
 13
1219.0292032829
 23
-170.2267692076952
 33
0
  0
TEXT
  8
1
 62
2
 10
1216.6132032829
 20
-156.7407692076951
 30
0
 40
3.2
  1
49.5
 50
90
 41
0.9
  0
TEXT
  8
1
 62
2
 10
1215.9732032829
 20
-146.4207692076951
 30
0
 40
1.92
  1
%%p0.3
 50
90
 41
0.9
  0
ENDBLK
  8
0
  0
BLOCK
  8
1
  2
*D6
 70
1
 10
0
 20
0
 30
0
  0
LINE
  8
1
 62
2
 10
1143.1132032829
 20
-93.67676920769509
 30
0
 11
1204.1132032829
 21
-93.67676920769509
 31
0
  0
LINE
  8
1
 62
2
 10
1143.1132032829
 20
-122.6767692076951
 30
0
 11
1143.1132032829
 21
-91.67676920769509
 31
0
  0
LINE
  8
1
 62
2
 10
1204.1132032829
 20
-122.6767692076951
 30
0
 11
1204.1132032829
 21
-91.67676920769509
 31
0
  0
SOLID
  8
1
 62
2
 10
1143.1132032829
 20
-93.67676920769509
 30
0
 11
1146.3132032829
 21
-93.26076920769509
 31
0
 12
1146.3132032829
 22
-94.09276920769508
 32
0
 13
1146.3132032829
 23
-94.09276920769508
 33
0
  0
SOLID
  8
1
 62
2
 10
1204.1132032829
 20
-93.67676920769509
 30
0
 11
1200.9132032829
 21
-94.09276920769508
 31
0
 12
1200.9132032829
 22
-93.26076920769509
 32
0
 13
1200.9132032829
 23
-93.26076920769509
 33
0
  0
TEXT
  8
1
 62
2
 10
1171.6932032829
 20
-91.67676920769509
 30
0
 40
3.2
  1
61
 41
0.9
  0
ENDBLK
  8
0
  0
BLOCK
  8
1
  2
*D7
 70
1
 10
0
 20
0
 30
0
  0
LINE
  8
1
 62
2
 10
1148.8632032829
 20
-103.6767692076951
 30
0
 11
1198.3632032829
 21
-103.6767692076951
 31
0
  0
LINE
  8
1
 62
2
 10
1148.8632032829
 20
-116.9267692076951
 30
0
 11
1148.8632032829
 21
-101.6767692076951
 31
0
  0
LINE
  8
1
 62
2
 10
1198.3632032829
 20
-116.9267692076951
 30
0
 11
1198.3632032829
 21
-101.6767692076951
 31
0
  0
SOLID
  8
1
 62
2
 10
1148.8632032829
 20
-103.6767692076951
 30
0
 11
1152.0632032829
 21
-103.2607692076951
 31
0
 12
1152.0632032829
 22
-104.0927692076951
 32
0
 13
1152.0632032829
 23
-104.0927692076951
 33
0
  0
SOLID
  8
1
 62
2
 10
1198.3632032829
 20
-103.6767692076951
 30
0
 11
1195.1632032829
 21
-104.0927692076951
 31
0
 12
1195.1632032829
 22
-103.2607692076951
 32
0
 13
1195.1632032829
 23
-103.2607692076951
 33
0
  0
TEXT
  8
1
 62
2
 10
1165.5492032829
 20
-101.6767692076951
 30
0
 40
3.2
  1
49.5
 41
0.9
  0
TEXT
  8
1
 62
2
 10
1175.8692032829
 20
-101.0367692076951
 30
0
 40
1.92
  1
%%p0.3
 41
0.9
  0
ENDBLK
  8
0
  0
BLOCK
  8
1
  2
*D8
 70
1
 10
0
 20
0
 30
0
  0
LINE
  8
1
 62
2
 10
1312.423828686766
 20
-103.6767692076951
 30
0
 11
1314.423828686766
 21
-103.6767692076951
 31
0
  0
LINE
  8
1
 62
2
 10
1312.423828686766
 20
-103.6767692076951
 30
0
 11
1306.023828686766
 21
-103.6767692076951
 31
0
  0
LINE
  8
1
 62
2
 10
1312.423828686766
 20
-120.8767692076949
 30
0
 11
1312.423828686766
 21
-102.1767692076951
 31
0
  0
LINE
  8
1
 62
2
 10
1314.423828686766
 20
-117.1767692076951
 30
0
 11
1314.423828686766
 21
-102.1767692076951
 31
0
  0
SOLID
  8
1
 62
2
 10
1312.423828686766
 20
-103.6767692076951
 30
0
 11
1309.223828686766
 21
-104.0927692076951
 31
0
 12
1309.223828686766
 22
-103.2607692076951
 32
0
 13
1309.223828686766
 23
-103.2607692076951
 33
0
  0
CIRCLE
  8
1
 62
2
 10
1314.423828686766
 20
-103.6767692076951
 30
0
 40
0.8
  0
TEXT
  8
1
 62
2
 10
1310.2196745284
 20
-101.6767692076951
 30
0
 40
3.2
  1
2
 41
0.9
  0
ENDBLK
  8
0
  0
BLOCK
  8
1
  2
*D9
 70
1
 10
0
 20
0
 30
0
  0
LINE
  8
1
 62
2
 10
1314.423828686766
 20
-103.6767692076951
 30
0
 11
1320.423828686766
 21
-103.6767692076951
 31
0
  0
LINE
  8
1
 62
2
 10
1320.423828686766
 20
-103.6767692076951
 30
0
 11
1326.823828686766
 21
-103.6767692076951
 31
0
  0
LINE
  8
1
 62
2
 10
1314.423828686766
 20
-117.1767692076951
 30
0
 11
1314.423828686766
 21
-102.1767692076951
 31
0
  0
LINE
  8
1
 62
2
 10
1320.423828686766
 20
-117.1767692076951
 30
0
 11
1320.423828686766
 21
-102.1767692076951
 31
0
  0
CIRCLE
  8
1
 62
2
 10
1314.423828686766
 20
-103.6767692076951
 30
0
 40
0.8
  0
SOLID
  8
1
 62
2
 10
1320.423828686766
 20
-103.6767692076951
 30
0
 11
1323.623828686766
 21
-103.2607692076951
 31
0
 12
1323.623828686766
 22
-104.0927692076951
 32
0
 13
1323.623828686766
 23
-104.0927692076951
 33
0
  0
TEXT
  8
1
 62
2
 10
1316.463828686766
 20
-101.6767692076951
 30
0
 40
3.2
  1
6
 41
0.9
  0
ENDBLK
  8
0
  0
BLOCK
  8
1
  2
*D10
 70
1
 10
0
 20
0
 30
0
  0
LINE
  8
1
 62
2
 10
1337.42216303224
 20
-103.6767692076951
 30
0
 11
1360.760682605134
 21
-103.6752238935427
 31
0
  0
TEXT
  8
1
 62
2
 10
1335.725256116302
 20
-101.6768815606635
 30
0
 40
3.2
  1
âlü|âÇâvâîü|âg
 50
0.003793727299281771
 41
0.9
  0
ENDBLK
  8
0
  0
BLOCK
  8
1
  2
*D11
 70
1
 10
0
 20
0
 30
0
  0
LINE
  8
1
 62
2
 10
1207.5344627204
 20
-196.1767692076953
 30
0
 11
1244.572311622056
 21
-196.1767692076954
 31
0
  0
TEXT
  8
1
 62
2
 10
1230.876311622056
 20
-193.3767692076953
 30
0
 40
3.2
  1
300
 50
359.9999999999999
 41
0.9
  0
TEXT
  8
1
 62
2
 10
1240.156311622056
 20
-191.2967692076953
 30
0
 40
1.92
  1
+40
 50
359.9999999999999
 41
0.9
  0
TEXT
  8
1
 62
2
 10
1240.156311622056
 20
-194.1767692076953
 30
0
 40
1.92
  1
 0
 50
359.9999999999999
 41
0.9
  0
TEXT
  8
1
 62
2
 10
1207.817488092644
 20
-193.3767692076953
 30
0
 40
3.2
  1
âèü|âhÉ³ÆÀé%%d
 50
359.9999999999999
 41
0.9
  0
ENDBLK
  8
0
  0
BLOCK
  8
1
  2
*D12
 70
1
 10
0
 20
0
 30
0
  0
LINE
  8
1
 62
2
 10
1139.769610710063
 20
-157.5992824054364
 30
0
 11
1207.456795855736
 21
-139.7542560099537
 31
0
  0
SOLID
  8
1
 62
2
 10
1207.456795855736
 20
-139.7542560099537
 30
0
 11
1204.46857497737
 21
-140.9722839168986
 31
0
 12
1204.256474092212
 22
-140.1677733734529
 32
0
 13
1204.256474092212
 23
-140.1677733734529
 33
0
  0
SOLID
  8
1
 62
2
 10
1139.769610710063
 20
-157.5992824054364
 30
0
 11
1142.75783158843
 21
-156.3812544984915
 31
0
 12
1142.969932473587
 22
-157.1857650419372
 32
0
 13
1142.969932473587
 23
-157.1857650419372
 33
0
  0
TEXT
  8
1
 62
2
 10
1187.386434397431
 20
-142.9772609187978
 30
0
 40
3.2
  1
70
 50
14.76937505844027
 41
0.9
  0
TEXT
  8
1
 62
2
 10
1182.469981076374
 20
-144.2734329947617
 30
0
 40
3.2
  1
(âË
 50
14.76937505844027
 41
0.9
  0
TEXT
  8
1
 62
2
 10
1193.574977039321
 20
-141.3457156483536
 30
0
 40
3.2
  1
)
 50
14.76937505844027
 41
0.9
  0
ENDBLK
  8
0
  0
BLOCK
  8
1
  2
*D13
 70
1
 10
0
 20
0
 30
0
  0
LINE
  8
1
 62
2
 10
1194.093854778217
 20
-129.5370422265029
 30
0
 11
1213.7732032829
 21
-103.6767692076951
 31
0
  0
LINE
  8
1
 62
2
 10
1213.7732032829
 20
-103.6767692076951
 30
0
 11
1238.2532032829
 21
-103.6767692076951
 31
0
  0
SOLID
  8
1
 62
2
 10
1199.725761316309
 20
-122.1362565421181
 30
0
 11
1201.332575733212
 21
-119.3378277991206
 31
0
 12
1201.994667527772
 22
-119.841671480808
 32
0
 13
1201.994667527772
 23
-119.841671480808
 33
0
  0
SOLID
  8
1
 62
2
 10
1197.000645249491
 20
-125.7172818732721
 30
0
 11
1195.393830832588
 21
-128.5157106162696
 31
0
 12
1194.731739038028
 22
-128.0118669345823
 32
0
 13
1194.731739038028
 23
-128.0118669345823
 33
0
  0
TEXT
  8
1
 62
2
 10
1228.057647727344
 20
-101.6767692076951
 30
0
 40
3.2
  1
4.5
 41
0.9
  0
TEXT
  8
1
 62
2
 10
1218.9732032829
 20
-101.6767692076951
 30
0
 40
3.2
  1
4-âË
 41
0.9
  0
TEXT
  8
1
 62
2
 10
1235.497647727344
 20
-101.6767692076951
 30
0
 40
3.2
  1
îè
 41
0.9
  0
ENDBLK
  8
0
  0
BLOCK
  8
1
  2
*D14
 70
1
 10
0
 20
0
 30
0
  0
LINE
  8
1
 62
2
 10
1186.815781699496
 20
-180.5506130793341
 30
0
 11
1195.922556363496
 21
-202.536311982638
 31
0
  0
LINE
  8
1
 62
2
 10
1173.6132032829
 20
-185.1767692076952
 30
0
 11
1173.6132032829
 21
-206.973918218608
 31
0
  0
LINE
  8
1
 62
2
 10
1195.922556363496
 20
-202.536311982638
 30
0
 11
1196.687923228226
 21
-204.3840710476605
 31
0
  0
LINE
  8
1
 62
2
 10
1173.6132032829
 20
-206.973918218608
 30
0
 11
1173.6132032829
 21
-208.973918218608
 31
0
  0
ARC
  8
1
 62
2
 10
1173.6132032829
 20
-148.6767692076976
 30
0
 40
58.29714901091043
 50
270
 51
292.500000000001
  0
SOLID
  8
1
 62
2
 10
1173.6132032829
 20
-206.973918218608
 30
0
 11
1176.800582206752
 21
-206.4702600053437
 31
0
 12
1176.823414075984
 22
-207.3019466685453
 32
0
 13
1176.823414075984
 23
-207.3019466685453
 33
0
  0
SOLID
  8
1
 62
2
 10
1195.922556363496
 20
-202.536311982638
 30
0
 11
1193.082239369854
 21
-204.0678652385293
 31
0
 12
1192.785060559601
 22
-203.2907495748495
 32
0
 13
1192.785060559601
 23
-203.2907495748495
 33
0
  0
TEXT
  8
1
 62
2
 10
1177.31888795064
 20
-205.118855597014
 30
0
 40
3.2
  1
22.5%%d
 50
9.723234822141361
 41
0.9
  0
ENDBLK
  8
0
  0
ENDSEC
  0
SECTION
  2
ENTITIES
  0
LINE
  8
1
 62
3
 10
1146.6132032829
 20
-162.9267692076951
 30
0
 11
1144.1132032829
 21
-162.9267692076951
 31
0
  0
LINE
  8
1
 62
3
 10
1146.6132032829
 20
-169.4267692076952
 30
0
 11
1144.1132032829
 21
-169.4267692076952
 31
0
  0
LINE
  8
1
 62
3
 10
1204.1132032829
 20
-173.6767692076952
 30
0
 11
1204.1132032829
 21
-123.6767692076951
 31
0
  0
LINE
  8
1
 62
3
 10
1198.6132032829
 20
-118.1767692076951
 30
0
 11
1148.6132032829
 21
-118.1767692076951
 31
0
  0
LINE
  8
1
 62
3
 10
1143.1132032829
 20
-123.6767692076951
 30
0
 11
1143.1132032829
 21
-173.6767692076952
 31
0
  0
LINE
  8
1
 62
3
 10
1148.6132032829
 20
-179.1767692076952
 30
0
 11
1198.6132032829
 21
-179.1767692076952
 31
0
  0
LINE
  8
1
 62
1
 10
1209.1132032829
 20
-148.6767692076951
 30
0
 11
1138.1132032829
 21
-148.6767692076951
 31
0
  0
LINE
  8
1
 62
1
 10
1173.6132032829
 20
-113.1767692076951
 30
0
 11
1173.6132032829
 21
-184.1767692076952
 31
0
  0
LINE
  8
1
 62
1
 10
1154.8632032829
 20
-123.9267692076951
 30
0
 11
1142.8632032829
 21
-123.9267692076951
 31
0
  0
LINE
  8
1
 62
1
 10
1148.8632032829
 20
-117.9267692076951
 30
0
 11
1148.8632032829
 21
-129.9267692076951
 31
0
  0
LINE
  8
1
 62
1
 10
1142.8632032829
 20
-173.4267692076951
 30
0
 11
1154.8632032829
 21
-173.4267692076951
 31
0
  0
LINE
  8
1
 62
1
 10
1148.8632032829
 20
-167.4267692076952
 30
0
 11
1148.8632032829
 21
-179.4267692076952
 31
0
  0
LINE
  8
1
 62
1
 10
1204.3632032829
 20
-123.9267692076951
 30
0
 11
1192.3632032829
 21
-123.9267692076951
 31
0
  0
LINE
  8
1
 62
1
 10
1198.3632032829
 20
-129.9267692076951
 30
0
 11
1198.3632032829
 21
-117.9267692076951
 31
0
  0
LINE
  8
1
 62
1
 10
1198.3632032829
 20
-179.4267692076952
 30
0
 11
1198.3632032829
 21
-167.4267692076952
 31
0
  0
LINE
  8
1
 62
1
 10
1192.3632032829
 20
-173.4267692076952
 30
0
 11
1204.3632032829
 21
-173.4267692076952
 31
0
  0
LINE
  8
1
 62
1
 10
1206.6132032829
 20
-131.1767692076951
 30
0
 11
1194.6132032829
 21
-131.1767692076951
 31
0
  0
LINE
  8
1
 62
1
 10
1200.6132032829
 20
-125.1767692076951
 30
0
 11
1200.6132032829
 21
-137.1767692076951
 31
0
  0
LINE
  8
1
 62
3
 10
1200.6132032829
 20
-134.4267692076951
 30
0
 11
1203.1132032829
 21
-134.4267692076951
 31
0
  0
LINE
  8
1
 62
3
 10
1200.6132032829
 20
-127.9267692076951
 30
0
 11
1203.1132032829
 21
-127.9267692076951
 31
0
  0
LINE
  8
1
 62
1
 10
1146.6132032829
 20
-172.1767692076951
 30
0
 11
1146.6132032829
 21
-160.1767692076951
 31
0
  0
LINE
  8
1
 62
1
 10
1140.6132032829
 20
-166.1767692076951
 30
0
 11
1152.6132032829
 21
-166.1767692076951
 31
0
  0
LINE
  8
1
 62
3
 10
1320.423828686766
 20
-179.1767692076951
 30
0
 11
1314.423828686766
 21
-179.1767692076951
 31
0
  0
LINE
  8
1
 62
3
 10
1312.423828686766
 20
-175.4767692076953
 30
0
 11
1312.623828686765
 21
-175.6767692076951
 31
0
  0
LINE
  8
1
 62
3
 10
1312.623828686765
 20
-175.6767692076951
 30
0
 11
1314.423828686766
 21
-175.6767692076951
 31
0
  0
LINE
  8
1
 62
3
 10
1312.423828686766
 20
-148.6767692076951
 30
0
 11
1312.423828686766
 21
-175.4767692076953
 31
0
  0
LINE
  8
1
 62
3
 10
1314.423828686766
 20
-179.1767692076951
 30
0
 11
1314.423828686766
 21
-148.6767692076951
 31
0
  0
LINE
  8
1
 62
40
 10
1320.423828686766
 20
-149.6767692076951
 30
0
 11
1320.423828686765
 21
-169.3163839030854
 31
0
  0
LINE
  8
1
 62
40
 10
1320.923828686766
 20
-148.6767692076951
 30
0
 11
1320.923828686766
 21
-167.6767692076965
 31
0
  0
LINE
  8
1
 62
40
 10
1320.423828686765
 20
-169.3163839030854
 30
0
 11
1320.423828686766
 21
-179.1767692076951
 31
0
  0
LINE
  8
1
 62
40
 10
1320.923828686766
 20
-167.6767692076965
 30
0
 11
1320.923828686766
 21
-173.2338420533461
 31
0
  0
LINE
  8
1
 62
3
 10
1330.592547100468
 20
-165.5723962956931
 30
0
 11
1335.814800200369
 21
-160.3856011554622
 31
0
  0
LINE
  8
1
 62
3
 10
1320.923828686766
 20
-160.6112219359711
 30
0
 11
1335.814800200369
 21
-160.3856011554622
 31
0
  0
LINE
  8
1
 62
3
 10
1320.923828686766
 20
-169.6691934501191
 30
0
 11
1335.814800200369
 21
-169.4435726696101
 31
0
  0
LINE
  8
1
 62
3
 10
1317.923828686766
 20
-135.4267692076937
 30
0
 11
1317.923828686766
 21
-126.9267692076937
 31
0
  0
LINE
  8
1
 62
3
 10
1320.423828686765
 20
-127.6843449652711
 30
0
 11
1320.923828686766
 21
-127.6843449652711
 31
0
  0
LINE
  8
1
 62
3
 10
1320.923828686766
 20
-136.7423164794191
 30
0
 11
1320.423828686765
 21
-136.7423164794191
 31
0
  0
LINE
  8
1
 62
3
 10
1314.423828686766
 20
-118.1767692076951
 30
0
 11
1320.923828686766
 21
-118.1767692076951
 31
0
  0
LINE
  8
1
 62
3
 10
1312.623828686765
 20
-121.6767692076951
 30
0
 11
1312.423828686766
 21
-121.8767692076949
 31
0
  0
LINE
  8
1
 62
3
 10
1314.423828686766
 20
-121.6767692076951
 30
0
 11
1312.623828686765
 21
-121.6767692076951
 31
0
  0
LINE
  8
1
 62
3
 10
1312.423828686766
 20
-121.8767692076949
 30
0
 11
1312.423828686766
 21
-148.6767692076951
 31
0
  0
LINE
  8
1
 62
3
 10
1314.423828686766
 20
-148.6767692076951
 30
0
 11
1314.423828686766
 21
-118.1767692076951
 31
0
  0
LINE
  8
1
 62
40
 10
1320.423828686765
 20
-128.0371545123048
 30
0
 11
1320.423828686766
 21
-147.6767692076951
 31
0
  0
LINE
  8
1
 62
40
 10
1320.923828686766
 20
-129.6767692076937
 30
0
 11
1320.923828686766
 21
-148.6767692076951
 31
0
  0
LINE
  8
1
 62
40
 10
1320.423828686766
 20
-118.1767692076951
 30
0
 11
1320.423828686765
 21
-128.0371545123048
 31
0
  0
LINE
  8
1
 62
40
 10
1320.923828686766
 20
-118.1767692076951
 30
0
 11
1320.923828686766
 21
-129.6767692076937
 31
0
  0
LINE
  8
1
 62
3
 10
1335.814800200369
 20
-136.967937259928
 30
0
 11
1330.592547100468
 21
-131.7811421196971
 31
0
  0
LINE
  8
1
 62
3
 10
1335.814800200369
 20
-136.967937259928
 30
0
 11
1320.923828686766
 21
-136.7423164794191
 31
0
  0
LINE
  8
1
 62
3
 10
1335.814800200369
 20
-127.90996574578
 30
0
 11
1320.923828686766
 21
-127.6843449652711
 31
0
  0
LINE
  8
1
 62
3
 10
1317.923828686766
 20
-127.9267692076937
 30
0
 11
1314.423828686766
 21
-127.9267692076937
 31
0
  0
LINE
  8
1
 62
3
 10
1314.423828686766
 20
-134.4267692076937
 30
0
 11
1317.923828686766
 21
-134.4267692076937
 31
0
  0
LINE
  8
1
 62
3
 10
1320.923828686766
 20
-169.6691934501191
 30
0
 11
1320.423828686765
 21
-169.6691934501191
 31
0
  0
LINE
  8
1
 62
3
 10
1320.423828686765
 20
-160.6112219359711
 30
0
 11
1320.923828686766
 21
-160.6112219359711
 31
0
  0
ARC
  8
1
 62
2
 10
1173.6132032829
 20
-148.6767692076951
 30
0
 40
34.99999999999965
 50
190.7472594935958
 51
233.2834852779838
  0
ARC
  8
1
 62
2
 10
1173.6132032829
 20
-148.6767692076951
 30
0
 40
34.99999999999962
 50
10.74725949359555
 51
53.28348527798361
  0
ARC
  8
1
 62
3
 10
1200.6132032829
 20
-131.1767692076951
 30
0
 40
3.249999999999986
 50
90
 51
270
  0
ARC
  8
1
 62
3
 10
1146.6132032829
 20
-166.1767692076951
 30
0
 40
3.250000000000114
 50
270
 51
90
  0
ARC
  8
1
 62
3
 10
1333.302285316123
 20
-178.7512573543563
 30
0
 40
9.640836334790519
 50
74.89363780799334
 51
99.58504363219697
  0
ARC
  8
1
 62
3
 10
1332.188321565303
 20
-167.179079791073
 30
0
 40
2.26449287853728
 50
134.8048252314536
 51
238.6507681754614
  0
ARC
  8
1
 62
3
 10
1333.302285316123
 20
-118.6022810610339
 30
0
 40
9.64083633479046
 50
260.414956367803
 51
285.1063621920068
  0
ARC
  8
1
 62
3
 10
1332.188321565303
 20
-130.1744586243171
 30
0
 40
2.264492878536848
 50
121.3492318245397
 51
225.1951747685479
  0
CIRCLE
  8
1
 62
4
  6
DIVIDE
 10
1173.6132032829
 20
-148.6767692076951
 30
0
 40
35
  0
CIRCLE
  8
1
 62
3
 10
1173.6132032829
 20
-148.6767692076951
 30
0
 40
27
  0
CIRCLE
  8
1
 62
3
 10
1173.6132032829
 20
-148.6767692076951
 30
0
 40
24
  0
CIRCLE
  8
1
 62
3
 10
1148.8632032829
 20
-123.9267692076951
 30
0
 40
2.25
  0
CIRCLE
  8
1
 62
3
 10
1148.8632032829
 20
-173.4267692076951
 30
0
 40
2.25
  0
CIRCLE
  8
1
 62
3
 10
1198.3632032829
 20
-173.4267692076952
 30
0
 40
2.25
  0
CIRCLE
  8
1
 62
3
 10
1198.3632032829
 20
-123.9267692076951
 30
0
 40
2.25
  0
CIRCLE
  8
1
 62
4
  6
DIVIDE
 10
1337.42216303224
 20
-103.6767692076951
 30
0
 40
1
  0
CIRCLE
  8
1
 62
4
  6
DIVIDE
 10
1207.5344627204
 20
-196.1767692076953
 30
0
 40
1
  0
ARC
  8
1
 62
3
 10
1144.1132032829
 20
-161.9267692076952
 30
0
 40
1
 50
180
 51
270
  0
ARC
  8
1
 62
3
 10
1144.1132032829
 20
-170.4267692076952
 30
0
 40
1
 50
90
 51
180
  0
ARC
  8
1
 62
3
 10
1203.1132032829
 20
-135.4267692076951
 30
0
 40
1
 50
0
 51
90
  0
ARC
  8
1
 62
3
 10
1203.1132032829
 20
-126.9267692076951
 30
0
 40
1
 50
270
 51
0
  0
ARC
  8
1
 62
3
 10
1148.6132032829
 20
-123.6767692076951
 30
0
 40
5.5
 50
90
 51
180
  0
ARC
  8
1
 62
3
 10
1198.6132032829
 20
-123.6767692076951
 30
0
 40
5.5
 50
0
 51
90
  0
ARC
  8
1
 62
3
 10
1198.6132032829
 20
-173.6767692076952
 30
0
 40
5.5
 50
270
 51
0
  0
ARC
  8
1
 62
3
 10
1148.6132032829
 20
-173.6767692076951
 30
0
 40
5.5
 50
180
 51
270
  0
ARC
  8
1
 62
3
 10
1331.530465199893
 20
-168.2589720275304
 30
0
 40
0.9999999999995562
 50
238.6507681754773
 51
279.5850436322336
  0
ARC
  8
1
 62
3
 10
1331.530465199893
 20
-129.0945663878598
 30
0
 40
1.000000000000327
 50
80.41495636776632
 51
121.3492318245227
  0
TEXT
  8
1
 62
2
 10
1123.66258993338
 20
-241.752643729655
 30
0
 40
8
  1
IH6P2N
 41
0.9
  0
DIMENSION
  8
1
  6
CONTINUOUS
 62
2
  2
*D4
  3
DMST_1
 10
1228.6132032829
 20
-118.1767692076951
 30
0
 11
1225.0132032829
 21
-148.6767692076951
 31
0
 12
0
 22
0
 32
0
 70
0
 13
1198.6132032829
 23
-179.1767692076952
 33
0
 14
1198.6132032829
 24
-118.1767692076951
 34
0
 50
90
 53
0
  0
DIMENSION
  8
1
  6
CONTINUOUS
 62
2
  2
*D5
  3
DMST_4
 10
1218.6132032829
 20
-123.9267692076951
 30
0
 11
1215.0132032829
 21
-148.6767692076951
 31
0
 12
0
 22
0
 32
0
 70
0
 13
1204.3632032829
 23
-173.4267692076952
 33
0
 14
1204.3632032829
 24
-123.9267692076951
 34
0
 50
90
 53
0
  0
DIMENSION
  8
1
  6
CONTINUOUS
 62
2
  2
*D6
  3
DMST_1
 10
1143.1132032829
 20
-93.67676920769509
 30
0
 11
1173.6132032829
 21
-90.07676920769509
 31
0
 12
0
 22
0
 32
0
 70
0
 13
1204.1132032829
 23
-123.6767692076951
 33
0
 14
1143.1132032829
 24
-123.6767692076951
 34
0
 53
0
  0
DIMENSION
  8
1
  6
CONTINUOUS
 62
2
  2
*D7
  3
DMST_4
 10
1148.8632032829
 20
-103.6767692076951
 30
0
 11
1173.6132032829
 21
-100.0767692076951
 31
0
 12
0
 22
0
 32
0
 70
0
 13
1198.3632032829
 23
-117.9267692076951
 33
0
 14
1148.8632032829
 24
-117.9267692076951
 34
0
 53
0
  0
DIMENSION
  8
1
  6
CONTINUOUS
 62
2
  2
*D8
  3
DMST_5
 10
1312.423828686766
 20
-103.6767692076951
 30
0
 11
1311.1796745284
 21
-100.0767692076951
 31
0
 12
0
 22
0
 32
0
 70
0
 13
1314.423828686766
 23
-118.1767692076951
 33
0
 14
1312.423828686766
 24
-121.8767692076949
 34
0
 53
0
  0
DIMENSION
  8
1
  6
CONTINUOUS
 62
2
  2
*D9
  3
DMST_6
 10
1314.423828686766
 20
-103.6767692076951
 30
0
 11
1317.423828686766
 21
-100.0767692076951
 31
0
 12
0
 22
0
 32
0
 70
0
 13
1320.423828686766
 23
-118.1767692076951
 33
0
 14
1314.423828686766
 24
-118.1767692076951
 34
0
 53
0
  0
DIMENSION
  8
1
  6
CONTINUOUS
 62
2
  2
*D10
  3
DMST_7
 10
1337.42216303224
 20
-103.6767692076951
 30
0
 11
1348.242793675472
 21
-100.0227193995861
 31
0
 12
0
 22
0
 32
0
 70
4
  1
âlü|âÇâvâîü|âg
 15
1338.422163030048
 25
-103.6767029946629
 35
0
 40
0
 53
0
  0
DIMENSION
  8
1
  6
CONTINUOUS
 62
2
  2
*D11
  3
DMST_8
 10
1207.5344627204
 20
-196.1767692076953
 30
0
 11
1226.19489985735
 21
-191.7767692076953
 31
0
 12
0
 22
0
 32
0
 70
4
  1
300
 15
1208.5344627204
 25
-196.1767692076953
 35
0
 40
0
 53
0
  0
DIMENSION
  8
1
  6
CONTINUOUS
 62
2
  2
*D12
  3
DMST_9
 10
1139.769610710064
 20
-157.5992824054364
 30
0
 11
1187.846663089307
 21
-141.2012557134435
 31
0
 12
0
 22
0
 32
0
 70
3
  1
(âË<>
 15
1207.456795855736
 25
-139.7542560099537
 35
0
 40
0
 53
0
  0
DIMENSION
  8
1
  6
CONTINUOUS
 62
2
  2
*D13
  3
DMST_10
 10
1197.000645249491
 20
-125.7172818732721
 30
0
 11
1228.6132032829
 21
-100.0767692076951
 31
0
 12
0
 22
0
 32
0
 70
3
  1
4-âË<>
 15
1199.725761316309
 25
-122.1362565421182
 35
0
 40
0
 53
0
  0
DIMENSION
  8
1
  6
CONTINUOUS
 62
2
  2
*D14
  3
DMST_1
 10
1173.6132032829
 20
-113.1767692076951
 30
0
 11
1182.850955128508
 21
-202.5881970385454
 31
0
 12
0
 22
0
 32
0
 70
2
 13
1182.988947375844
 23
-171.3118177542212
 33
0
 14
1186.43309826713
 24
-179.6267335468228
 34
0
 15
1173.6132032829
 25
-184.1767692076952
 35
0
 16
1184.986412856061
 26
-205.8537548470722
 36
0
 53
0
  0
INSERT
  8
0
  2
AS27328-01_DB__4
 10
987.3091274028849
 20
-56.37414420568928
 30
0
  0
INSERT
  8
0
  2
D
 10
1295.245981079573
 20
-65.28806487632438
 30
0
  0
INSERT
  8
0
  2
MOJINOMUKI
 10
1331.210862575933
 20
-116.1505400526252
 30
0
  0
INSERT
  8
0
  2
AE25585_L_______6
 10
1153.360665619751
 20
-93.6605772042293
 30
0
  0
INSERT
  8
0
  2
____M3_________7
 10
1200.6132032829
 20
-131.1767692076951
 30
0
  0
INSERT
  8
0
  2
____M3__8
 10
1317.923828686766
 20
-131.1767692076937
 30
0
  0
ENDSEC
  0
EOF
