  0
SECTION
  2
HEADER
  9
$ACADVER
  1
AC1009
  9
$INSBASE
 10
0
 20
0
  9
$EXTMIN
 10
-194.5
 20
-146
  9
$EXTMAX
 10
194.5
 20
146
  9
$LIMMIN
 10
-194.5
 20
-146
  9
$LIMMAX
 10
194.5
 20
146
  9
$VIEWCTR
 10
10
 20
10
  9
$VIEWSIZE
 40
10
  9
$SNAPMODE
 70
0
  9
$SNAPUNIT
 10
1
 20
1
  9
$SNAPBASE
 10
0
 20
0
  9
$SNAPANG
 50
0
  9
$SNAPSTYLE
 70
0
  9
$SNAPISOPAIR
 70
0
  9
$GRIDMODE
 70
0
  9
$GRIDUNIT
 10
0
 20
0
  9
$ORTHOMODE
 70
0
  9
$REGENMODE
 70
1
  9
$FILLMODE
 70
1
  9
$QTEXTMODE
 70
0
  9
$DRAGMODE
 70
2
  9
$LTSCALE
 40
1
  9
$OSMODE
 70
0
  9
$ATTMODE
 70
1
  9
$TEXTSIZE
 40
3.5
  9
$TRACEWID
 40
0.5
  9
$TEXTSTYLE
  7
STANDARD
  9
$CLAYER
  8
0
  9
$CELTYPE
  6
BYLAYER
  9
$CECOLOR
 62
256
  9
$DIMSCALE
 40
1
  9
$DIMASZ
 40
0.18
  9
$DIMEXO
 40
0.0625
  9
$DIMDLI
 40
0.38
  9
$DIMRND
 40
0
  9
$DIMDLE
 40
0
  9
$DIMEXE
 40
0.18
  9
$DIMTP
 40
0
  9
$DIMTM
 40
0
  9
$DIMTXT
 40
0.18
  9
$DIMCEN
 40
0.09
  9
$DIMTSZ
 40
0
  9
$DIMTOL
 70
0
  9
$DIMLIM
 70
0
  9
$DIMTIH
 70
1
  9
$DIMTOH
 70
1
  9
$DIMSE1
 70
0
  9
$DIMSE2
 70
0
  9
$DIMTAD
 70
0
  9
$DIMZIN
 70
0
  9
$DIMBLK
  1

  9
$DIMASO
 70
1
  9
$DIMSHO
 70
1
  9
$DIMPOST
  1

  9
$DIMAPOST
  1

  9
$DIMALT
 70
0
  9
$DIMALTD
 70
2
  9
$DIMALTF
 40
25.4
  9
$DIMLFAC
 40
1
  9
$DIMTOFL
 70
0
  9
$DIMTVP
 40
0
  9
$DIMTIX
 70
0
  9
$DIMSOXD
 70
0
  9
$DIMSAH
 70
0
  9
$DIMBLK1
  1

  9
$DIMBLK2
  1

  9
$DIMSTYLE
  2
*UNNAMED
  9
$DIMCLRD
 70
0
  9
$DIMCLRE
 70
0
  9
$DIMCLRT
 70
0
  9
$DIMTFAC
 40
1
  9
$DIMGAP
 40
0.09
  9
$LUNITS
 70
2
  9
$LUPREC
 70
4
  9
$AXISMODE
 70
0
  9
$AXISUNIT
 10
0
 20
0
  9
$SKETCHINC
 40
0.1
  9
$FILLETRAD
 40
2
  9
$AUNITS
 70
0
  9
$AUPREC
 70
0
  9
$MENU
  1
ACAD
  9
$ELEVATION
 40
0
  9
$THICKNESS
 40
0
  9
$VIEWDIR
 10
0
 20
0
 30
1
  9
$LIMCHECK
 70
0
  9
$BLIPMODE
 70
1
  9
$CHAMFERA
 40
0
  9
$CHAMFERB
 40
0
  9
$FASTZOOM
 70
1
  9
$SKPOLY
 70
0
  9
$ANGBASE
 50
0
  9
$ANGDIR
 70
0
  9
$PDMODE
 70
0
  9
$PDSIZE
 40
0
  9
$PLINEWID
 40
0
  9
$COORDS
 70
2
  0
ENDSEC
  0
SECTION
  2
TABLES
  0
TABLE
  2
DIMSTYLE
 70
9
  0
DIMSTYLE
  2
DMST_1
 70
0
  3

  4

  5

  6

  7

 40
1
 41
3.2
 42
1
 43
7
 44
1
 45
0
 46
0
 47
0
 48
0
140
3.2
141
0
142
0
143
25.4
144
1
145
0
146
1
147
0.09
 71
0
 72
0
 73
0
 74
0
 75
0
 76
0
 77
1
 78
9
170
0
171
2
172
0
173
0
174
0
175
0
176
2
177
2
178
2
  0
DIMSTYLE
  2
DMST_2
 70
0
  3

  4

  5

  6

  7

 40
1
 41
3.2
 42
1
 43
7
 44
1
 45
0
 46
0
 47
0
 48
0.02
140
3.2
141
0
142
0
143
25.4
144
1
145
0
146
0.6
147
0.09
 71
1
 72
0
 73
0
 74
0
 75
0
 76
0
 77
1
 78
9
170
0
171
2
172
0
173
0
174
0
175
0
176
2
177
2
178
2
  0
DIMSTYLE
  2
DMST_3
 70
0
  3

  4

  5

  6

  7

 40
1
 41
3.2
 42
1
 43
7
 44
1
 45
0
 46
0
 47
0.3
 48
0.3
140
3.2
141
0
142
0
143
25.4
144
1
145
0
146
0.6
147
0.09
 71
1
 72
0
 73
0
 74
0
 75
0
 76
0
 77
1
 78
9
170
0
171
2
172
0
173
0
174
0
175
0
176
2
177
2
178
2
  0
DIMSTYLE
  2
DMST_4
 70
0
  3

  4

  5

  6

  7

 40
1
 41
3.2
 42
1
 43
7
 44
1
 45
0
 46
0
 47
0.3
 48
0.3
140
3.2
141
0
142
0
143
25.4
144
1
145
0
146
0.5
147
0.09
 71
1
 72
0
 73
0
 74
0
 75
0
 76
0
 77
1
 78
9
170
0
171
2
172
0
173
0
174
0
175
0
176
2
177
2
178
2
  0
DIMSTYLE
  2
DMST_5
 70
0
  3

  4

  5

  6

  7

 40
1
 41
3.2
 42
1
 43
7
 44
1
 45
0
 46
0
 47
0.5
 48
0.5
140
3.2
141
0
142
0
143
25.4
144
1
145
0
146
0.6
147
0.09
 71
1
 72
0
 73
0
 74
0
 75
0
 76
0
 77
1
 78
9
170
0
171
2
172
0
173
0
174
0
175
0
176
2
177
2
178
2
  0
DIMSTYLE
  2
DMST_6
 70
0
  3
)
  4

  5

  6

  7

 40
1
 41
3
 42
1
 43
7
 44
1
 45
0
 46
0
 47
0
 48
0
140
3.2
141
0
142
0
143
25.4
144
1
145
0
146
1
147
0.09
 71
0
 72
0
 73
0
 74
0
 75
0
 76
0
 77
1
 78
9
170
0
171
2
172
0
173
0
174
0
175
0
176
2
177
2
178
2
  0
DIMSTYLE
  2
DMST_7
 70
0
  3

  4

  5

  6

  7

 40
1
 41
3
 42
1
 43
7
 44
1
 45
0
 46
0
 47
0
 48
0
140
3.2
141
0
142
0
143
25.4
144
1
145
0
146
1
147
0.09
 71
0
 72
0
 73
0
 74
0
 75
0
 76
0
 77
1
 78
9
170
0
171
2
172
0
173
0
174
0
175
0
176
2
177
2
178
2
  0
DIMSTYLE
  2
DMST_8
 70
0
  3

  4

  5

  6

  7

 40
1
 41
3
 42
1
 43
7
 44
1
 45
0
 46
0
 47
30
 48
30
140
3.2
141
0
142
0
143
25.4
144
1
145
0
146
0.6
147
0.09
 71
1
 72
0
 73
0
 74
0
 75
0
 76
0
 77
1
 78
9
170
0
171
2
172
0
173
0
174
0
175
0
176
2
177
2
178
2
  0
DIMSTYLE
  2
DMST_9
 70
0
  3
MAX
  4

  5

  6

  7

 40
1
 41
3
 42
1
 43
7
 44
1
 45
0
 46
0
 47
0
 48
0
140
3.2
141
0
142
0
143
25.4
144
1
145
0
146
1
147
0.09
 71
0
 72
0
 73
0
 74
0
 75
0
 76
0
 77
1
 78
9
170
0
171
2
172
0
173
0
174
0
175
0
176
2
177
2
178
2
  0
ENDTAB
  0
TABLE
  2
LTYPE
 70
9
  0
LTYPE
  2
CONTINUOUS
 70
64
  3
Solid line
 72
65
 73
0
 40
0
  0
LTYPE
  2
BORDER
 70
64
  3
__ __ . __ __ .
 72
65
 73
6
 40
17.91447368421053
 49
5.118421052631579
 49
-2.559210526315789
 49
5.118421052631579
 49
-2.559210526315789
 49
0
 49
-2.559210526315789
  0
LTYPE
  2
CENTER
 70
64
  3
____ _ ____ _
 72
65
 73
4
 40
20.47368421052632
 49
12.79605263157895
 49
-2.559210526315789
 49
2.559210526315789
 49
-2.559210526315789
  0
LTYPE
  2
DASHDOT
 70
64
  3
__ . __ . __ .
 72
65
 73
4
 40
10.23684210526316
 49
5.118421052631579
 49
-2.559210526315789
 49
0
 49
-2.559210526315789
  0
LTYPE
  2
DASHED
 70
64
  3
__ __ __ __ __
 72
65
 73
2
 40
7.677631578947368
 49
5.118421052631579
 49
-2.559210526315789
  0
LTYPE
  2
DIVIDE
 70
64
  3
__ . . __ . . 
 72
65
 73
6
 40
12.79605263157895
 49
5.118421052631579
 49
-2.559210526315789
 49
0
 49
-2.559210526315789
 49
0
 49
-2.559210526315789
  0
LTYPE
  2
DOT
 70
64
  3
..............
 72
65
 73
4
 40
5.118421052631579
 49
0
 49
-2.559210526315789
 49
0
 49
-2.559210526315789
  0
LTYPE
  2
HIDDEN
 70
64
  3
_ _ _ _ _ _ _
 72
65
 73
2
 40
3.838815789473684
 49
2.559210526315789
 49
-1.279605263157895
  0
LTYPE
  2
PHANTOM
 70
64
  3
_____ _ _ _____ _ _ 
 72
65
 73
6
 40
25.59210526315789
 49
12.79605263157895
 49
-2.559210526315789
 49
2.559210526315789
 49
-2.559210526315789
 49
2.559210526315789
 49
-2.559210526315789
  0
ENDTAB
  0
TABLE
  2
LAYER
 70
3
  0
LAYER
  2
1
 70
0
 62
7
  6
CONTINUOUS
  0
LAYER
  2
0
 70
0
 62
7
  6
CONTINUOUS
  0
ENDTAB
  0
TABLE
  2
STYLE
 70
4
  0
STYLE
  2
STANDARD
 70
0
 40
0
 41
1
 50
0
 71
0
 42
3.5
  3
txt
  4

  0
STYLE
  2
SIMPLEX
 70
0
 40
0
 41
1
 50
0
 71
0
 42
3.5
  3
simplex
  4

  0
STYLE
  2
COMPLEX
 70
0
 40
0
 41
1
 50
0
 71
0
 42
3.5
  3
complex
  4

  0
STYLE
  2
ITALIC
 70
0
 40
0
 41
1
 50
0
 71
0
 42
3.5
  3
italic
  4

  0
ENDTAB
  0
TABLE
  2
VIEW
 70
0
  0
ENDTAB
  0
ENDSEC
  0
SECTION
  2
BLOCKS
  0
BLOCK
  8
0
  2
___R___O_______R
 70
0
 10
0.5
 20
-3.75
 30
0
  0
LINE
  8
1
 62
4
  6
PHANTOM
 10
-194.5
 20
-146
 30
0
 11
194.5
 21
-146
 31
0
  0
LINE
  8
1
 62
4
  6
PHANTOM
 10
194.5
 20
146
 30
0
 11
-194.5
 21
146
 31
0
  0
LINE
  8
1
 62
4
  6
PHANTOM
 10
194.5
 20
146
 30
0
 11
194.5
 21
129
 31
0
  0
LINE
  8
1
 62
4
  6
PHANTOM
 10
-194.5
 20
-146
 30
0
 11
-194.5
 21
146
 31
0
  0
LINE
  8
1
 62
4
  6
PHANTOM
 10
194.5
 20
-136.5
 30
0
 11
194.5
 21
-146
 31
0
  0
TEXT
  8
1
 62
4
 10
178.746911898274
 20
-142.6071298819256
 30
0
 40
5
  1
A3
 41
0.9
 72
1
 73
2
 11
183.246911898274
 21
-140.1071298819256
 31
0
  0
ENDBLK
  8
0
  0
BLOCK
  8
1
  2
*D0
 70
1
 10
0
 20
0
 30
0
  0
LINE
  8
1
 62
2
 10
22.00000000000001
 20
52.4743656104027
 30
0
 11
66
 21
52.4743656104027
 31
0
  0
LINE
  8
1
 62
2
 10
22.00000000000001
 20
30.5
 30
0
 11
22.00000000000001
 21
53.4743656104027
 31
0
  0
LINE
  8
1
 62
2
 10
66
 20
31
 30
0
 11
66
 21
53.4743656104027
 31
0
  0
SOLID
  8
1
 62
2
 10
22.00000000000001
 20
52.4743656104027
 30
0
 11
25.20000000000001
 21
52.8903656104027
 31
0
 12
25.20000000000001
 22
52.0583656104027
 32
0
 13
25.20000000000001
 23
52.0583656104027
 33
0
  0
SOLID
  8
1
 62
2
 10
66
 20
52.4743656104027
 30
0
 11
62.8
 21
52.0583656104027
 31
0
 12
62.8
 22
52.8903656104027
 32
0
 13
62.8
 23
52.8903656104027
 33
0
  0
TEXT
  8
1
 62
2
 10
41.6
 20
53.4743656104027
 30
0
 40
3.2
  1
44
 41
0.9
  0
ENDBLK
  8
0
  0
BLOCK
  8
1
  2
*D1
 70
1
 10
0
 20
0
 30
0
  0
LINE
  8
1
 62
2
 10
28.4
 20
52.4743656104027
 30
0
 11
22.00000000000001
 21
52.4743656104027
 31
0
  0
LINE
  8
1
 62
2
 10
17.00000000000002
 20
52.4743656104027
 30
0
 11
22.00000000000001
 21
52.4743656104027
 31
0
  0
LINE
  8
1
 62
2
 10
17.00000000000002
 20
52.4743656104027
 30
0
 11
9.276850706280099
 21
52.4743656104027
 31
0
  0
LINE
  8
1
 62
2
 10
17.00000000000002
 20
19.99981600930903
 30
0
 11
17.00000000000002
 21
53.4743656104027
 31
0
  0
LINE
  8
1
 62
2
 10
22.00000000000001
 20
30.5
 30
0
 11
22.00000000000001
 21
53.4743656104027
 31
0
  0
SOLID
  8
1
 62
2
 10
17.00000000000002
 20
52.4743656104027
 30
0
 11
13.80000000000002
 21
52.0583656104027
 31
0
 12
13.80000000000002
 22
52.8903656104027
 32
0
 13
13.80000000000002
 23
52.8903656104027
 33
0
  0
SOLID
  8
1
 62
2
 10
22.00000000000001
 20
52.4743656104027
 30
0
 11
25.20000000000001
 21
52.8903656104027
 31
0
 12
25.20000000000001
 22
52.0583656104027
 32
0
 13
25.20000000000001
 23
52.0583656104027
 33
0
  0
TEXT
  8
1
 62
2
 10
9.276850706280101
 20
53.4743656104027
 30
0
 40
3.2
  1
5
 41
0.9
  0
ENDBLK
  8
0
  0
BLOCK
  8
1
  2
*D2
 70
1
 10
0
 20
0
 30
0
  0
LINE
  8
1
 62
2
 10
-10
 20
52.4743656104027
 30
0
 11
3
 21
52.4743656104027
 31
0
  0
LINE
  8
1
 62
2
 10
-10
 20
14
 30
0
 11
-10
 21
53.4743656104027
 31
0
  0
LINE
  8
1
 62
2
 10
3
 20
14
 30
0
 11
3
 21
53.4743656104027
 31
0
  0
SOLID
  8
1
 62
2
 10
-10
 20
52.4743656104027
 30
0
 11
-6.799999999999999
 21
52.8903656104027
 31
0
 12
-6.799999999999999
 22
52.0583656104027
 32
0
 13
-6.799999999999999
 23
52.0583656104027
 33
0
  0
SOLID
  8
1
 62
2
 10
3
 20
52.4743656104027
 30
0
 11
-0.2000000000000006
 21
52.0583656104027
 31
0
 12
-0.2000000000000006
 22
52.8903656104027
 32
0
 13
-0.2000000000000006
 23
52.8903656104027
 33
0
  0
TEXT
  8
1
 62
2
 10
-5.42
 20
53.4743656104027
 30
0
 40
3.2
  1
13
 41
0.9
  0
ENDBLK
  8
0
  0
BLOCK
  8
1
  2
*D3
 70
1
 10
0
 20
0
 30
0
  0
LINE
  8
1
 62
2
 10
-9.999999999999996
 20
64.47958669616961
 30
0
 11
22
 21
64.47958669616961
 31
0
  0
LINE
  8
1
 62
2
 10
-9.999999999999996
 20
14
 30
0
 11
-9.999999999999996
 21
65.47958669616961
 31
0
  0
LINE
  8
1
 62
2
 10
22
 20
30.5
 30
0
 11
22
 21
65.47958669616961
 31
0
  0
SOLID
  8
1
 62
2
 10
-9.999999999999996
 20
64.47958669616961
 30
0
 11
-6.799999999999995
 21
64.8955866961696
 31
0
 12
-6.799999999999995
 22
64.06358669616961
 32
0
 13
-6.799999999999995
 23
64.06358669616961
 33
0
  0
SOLID
  8
1
 62
2
 10
22
 20
64.47958669616961
 30
0
 11
18.8
 21
64.06358669616961
 31
0
 12
18.8
 22
64.8955866961696
 32
0
 13
18.8
 23
64.8955866961696
 33
0
  0
TEXT
  8
1
 62
2
 10
3.600000000000003
 20
65.47958669616961
 30
0
 40
3.2
  1
32
 41
0.9
  0
ENDBLK
  8
0
  0
BLOCK
  8
1
  2
*D4
 70
1
 10
0
 20
0
 30
0
  0
LINE
  8
1
 62
2
 10
-43.9611928062272
 20
18.99981600930903
 30
0
 11
-43.9611928062272
 21
32.35308191949012
 31
0
  0
LINE
  8
1
 62
2
 10
-43.9611928062272
 20
1.000183990691031
 30
0
 11
-43.9611928062272
 21
18.99981600930903
 31
0
  0
LINE
  8
1
 62
2
 10
16.00000000000002
 20
18.99981600930903
 30
0
 11
-44.9611928062272
 21
18.99981600930903
 31
0
  0
LINE
  8
1
 62
2
 10
16.00000000000002
 20
1.000183990691031
 30
0
 11
-44.9611928062272
 21
1.000183990691031
 31
0
  0
SOLID
  8
1
 62
2
 10
-43.9611928062272
 20
18.99981600930903
 30
0
 11
-43.5451928062272
 21
15.79981600930903
 31
0
 12
-44.3771928062272
 22
15.79981600930903
 32
0
 13
-44.3771928062272
 23
15.79981600930903
 33
0
  0
SOLID
  8
1
 62
2
 10
-43.9611928062272
 20
1.000183990691031
 30
0
 11
-44.3771928062272
 21
4.200183990691032
 31
0
 12
-43.5451928062272
 22
4.200183990691032
 32
0
 13
-43.5451928062272
 23
4.200183990691032
 33
0
  0
TEXT
  8
1
 62
2
 10
-44.9611928062272
 20
28.51308191949012
 30
0
 40
3.2
  1
18
 50
90
 41
0.9
  0
TEXT
  8
1
 62
2
 10
-44.9611928062272
 20
24.86863747504568
 30
0
 40
3.2
  1
âË
 50
90
 41
0.9
  0
ENDBLK
  8
0
  0
BLOCK
  8
1
  2
*D5
 70
1
 10
0
 20
0
 30
0
  0
LINE
  8
1
 62
2
 10
-32.02407963547871
 20
14.00024539811398
 30
0
 11
-32.02407963547871
 21
38.14718495889362
 31
0
  0
LINE
  8
1
 62
2
 10
-32.02407963547871
 20
6
 30
0
 11
-32.02407963547871
 21
14.00024539811398
 31
0
  0
LINE
  8
1
 62
2
 10
-32.02407963547871
 20
-0.3999999999999986
 30
0
 11
-32.02407963547871
 21
6
 31
0
  0
LINE
  8
1
 62
2
 10
7.385802733759157
 20
14.00024539811398
 30
0
 11
-33.02407963547871
 21
14.00024539811398
 31
0
  0
LINE
  8
1
 62
2
 10
-11.00000000000001
 20
6
 30
0
 11
-33.02407963547871
 21
6
 31
0
  0
SOLID
  8
1
 62
2
 10
-32.02407963547871
 20
14.00024539811398
 30
0
 11
-32.44007963547872
 21
17.20024539811398
 31
0
 12
-31.60807963547872
 22
17.20024539811398
 32
0
 13
-31.60807963547872
 23
17.20024539811398
 33
0
  0
SOLID
  8
1
 62
2
 10
-32.02407963547871
 20
6
 30
0
 11
-31.60807963547871
 21
2.799999999999999
 31
0
 12
-32.44007963547871
 22
2.799999999999999
 32
0
 13
-32.44007963547871
 23
2.799999999999999
 33
0
  0
TEXT
  8
1
 62
2
 10
-33.82407963547871
 20
27.85918495889362
 30
0
 40
3.2
  1
8
 50
90
 41
0.9
  0
TEXT
  8
1
 62
2
 10
-35.90407963547871
 20
31.37918495889362
 30
0
 40
1.92
  1
 0
 50
90
 41
0.9
  0
TEXT
  8
1
 62
2
 10
-33.02407963547871
 20
31.37918495889362
 30
0
 40
1.92
  1
-0.02
 50
90
 41
0.9
  0
TEXT
  8
1
 62
2
 10
-33.82407963547871
 20
24.21474051444918
 30
0
 40
3.2
  1
âË
 50
90
 41
0.9
  0
ENDBLK
  8
0
  0
BLOCK
  8
1
  2
*D6
 70
1
 10
0
 20
0
 30
0
  0
LINE
  8
1
 62
2
 10
-19.9735644384611
 20
13
 30
0
 11
-19.9735644384611
 21
34.5082617235369
 31
0
  0
LINE
  8
1
 62
2
 10
-19.9735644384611
 20
6
 30
0
 11
-19.9735644384611
 21
13
 31
0
  0
LINE
  8
1
 62
2
 10
-19.9735644384611
 20
-0.4000000000000021
 30
0
 11
-19.9735644384611
 21
6
 31
0
  0
LINE
  8
1
 62
2
 10
-11
 20
13
 30
0
 11
-20.9735644384611
 21
13
 31
0
  0
LINE
  8
1
 62
2
 10
-11
 20
6
 30
0
 11
-20.9735644384611
 21
6
 31
0
  0
SOLID
  8
1
 62
2
 10
-19.9735644384611
 20
13
 30
0
 11
-20.3895644384611
 21
16.2
 31
0
 12
-19.5575644384611
 22
16.2
 32
0
 13
-19.5575644384611
 23
16.2
 33
0
  0
SOLID
  8
1
 62
2
 10
-19.9735644384611
 20
6
 30
0
 11
-19.5575644384611
 21
2.799999999999999
 31
0
 12
-20.3895644384611
 22
2.799999999999999
 32
0
 13
-20.3895644384611
 23
2.799999999999999
 33
0
  0
TEXT
  8
1
 62
2
 10
-20.9735644384611
 20
26.1402617235369
 30
0
 40
3.2
  1
7
 50
90
 41
0.9
  0
TEXT
  8
1
 62
2
 10
-21.6135644384611
 20
29.6602617235369
 30
0
 40
1.92
  1
%%p0.3
 50
90
 41
0.9
  0
ENDBLK
  8
0
  0
BLOCK
  8
1
  2
*D7
 70
1
 10
0
 20
0
 30
0
  0
LINE
  8
1
 62
2
 10
-56.9880333195256
 20
-24.75
 30
0
 11
-56.9880333195256
 21
24.75
 31
0
  0
LINE
  8
1
 62
2
 10
-77.99999999999987
 20
24.75
 30
0
 11
-55.9880333195256
 21
24.75
 31
0
  0
LINE
  8
1
 62
2
 10
-77.99999999999987
 20
-24.75
 30
0
 11
-55.9880333195256
 21
-24.75
 31
0
  0
SOLID
  8
1
 62
2
 10
-56.9880333195256
 20
-24.75
 30
0
 11
-57.4040333195256
 21
-21.55
 31
0
 12
-56.5720333195256
 22
-21.55
 32
0
 13
-56.5720333195256
 23
-21.55
 33
0
  0
SOLID
  8
1
 62
2
 10
-56.9880333195256
 20
24.75
 30
0
 11
-56.5720333195256
 21
21.55
 31
0
 12
-57.4040333195256
 22
21.55
 32
0
 13
-57.4040333195256
 23
21.55
 33
0
  0
TEXT
  8
1
 62
2
 10
-57.9880333195256
 20
-7.18
 30
0
 40
3.2
  1
49.5
 50
90
 41
0.9
  0
TEXT
  8
1
 62
2
 10
-58.7880333195256
 20
3.140000000000001
 30
0
 40
1.6
  1
%%p0.3
 50
90
 41
0.9
  0
ENDBLK
  8
0
  0
BLOCK
  8
1
  2
*D8
 70
1
 10
0
 20
0
 30
0
  0
LINE
  8
1
 62
2
 10
-134.2499999999999
 20
40.4412251103172
 30
0
 11
-84.74999999999989
 21
40.4412251103172
 31
0
  0
LINE
  8
1
 62
2
 10
-84.74999999999989
 20
31.5
 30
0
 11
-84.74999999999989
 21
41.4412251103172
 31
0
  0
LINE
  8
1
 62
2
 10
-134.2499999999999
 20
31.5
 30
0
 11
-134.2499999999999
 21
41.4412251103172
 31
0
  0
SOLID
  8
1
 62
2
 10
-134.2499999999999
 20
40.4412251103172
 30
0
 11
-131.0499999999999
 21
40.8572251103172
 31
0
 12
-131.0499999999999
 22
40.0252251103172
 32
0
 13
-131.0499999999999
 23
40.0252251103172
 33
0
  0
SOLID
  8
1
 62
2
 10
-84.74999999999989
 20
40.4412251103172
 30
0
 11
-87.94999999999989
 21
40.0252251103172
 31
0
 12
-87.94999999999989
 22
40.8572251103172
 32
0
 13
-87.94999999999989
 23
40.8572251103172
 33
0
  0
TEXT
  8
1
 62
2
 10
-116.6799999999999
 20
41.4412251103172
 30
0
 40
3.2
  1
49.5
 41
0.9
  0
TEXT
  8
1
 62
2
 10
-106.3599999999999
 20
42.2412251103172
 30
0
 40
1.6
  1
%%p0.3
 41
0.9
  0
ENDBLK
  8
0
  0
BLOCK
  8
1
  2
*D9
 70
1
 10
0
 20
0
 30
0
  0
LINE
  8
1
 62
2
 10
-68.97455857919491
 20
0
 30
0
 11
-68.97455857919491
 21
-17.2370059486526
 31
0
  0
LINE
  8
1
 62
2
 10
-68.97455857919491
 20
0
 30
0
 11
-68.97455857919491
 21
10
 31
0
  0
LINE
  8
1
 62
2
 10
-99.5
 20
10
 30
0
 11
-67.97455857919491
 21
10
 31
0
  0
LINE
  8
1
 62
2
 10
-77.99999999999987
 20
0
 30
0
 11
-67.97455857919491
 21
0
 31
0
  0
SOLID
  8
1
 62
2
 10
-68.97455857919491
 20
10
 30
0
 11
-68.55855857919491
 21
6.799999999999999
 31
0
 12
-69.3905585791949
 22
6.799999999999999
 32
0
 13
-69.3905585791949
 23
6.799999999999999
 33
0
  0
SOLID
  8
1
 62
2
 10
-68.97455857919491
 20
0
 30
0
 11
-69.3905585791949
 21
3.200000000000001
 31
0
 12
-68.55855857919491
 22
3.200000000000001
 32
0
 13
-68.55855857919491
 23
3.200000000000001
 33
0
  0
TEXT
  8
1
 62
2
 10
-69.97455857919491
 20
-17.2370059486526
 30
0
 40
3.2
  1
10
 50
90
 41
0.9
  0
TEXT
  8
1
 62
2
 10
-70.61455857919491
 20
-11.7970059486526
 30
0
 40
1.92
  1
%%p0.5
 50
90
 41
0.9
  0
ENDBLK
  8
0
  0
BLOCK
  8
1
  2
*D10
 70
1
 10
0
 20
0
 30
0
  0
LINE
  8
1
 62
2
 10
-140
 20
52.6734284650388
 30
0
 11
-79
 21
52.6734284650388
 31
0
  0
LINE
  8
1
 62
2
 10
-140
 20
26.5
 30
0
 11
-140
 21
53.6734284650388
 31
0
  0
LINE
  8
1
 62
2
 10
-79
 20
26.5
 30
0
 11
-79
 21
53.6734284650388
 31
0
  0
SOLID
  8
1
 62
2
 10
-140
 20
52.6734284650388
 30
0
 11
-136.8
 21
53.08942846503879
 31
0
 12
-136.8
 22
52.2574284650388
 32
0
 13
-136.8
 23
52.2574284650388
 33
0
  0
SOLID
  8
1
 62
2
 10
-79
 20
52.6734284650388
 30
0
 11
-82.2
 21
52.2574284650388
 31
0
 12
-82.2
 22
53.08942846503879
 32
0
 13
-82.2
 23
53.08942846503879
 33
0
  0
TEXT
  8
1
 62
2
 10
-109.3311111111111
 20
53.6734284650388
 30
0
 40
3.2
  1
61
 41
0.9
  0
TEXT
  8
1
 62
2
 10
-113.5088888888889
 20
53.6734284650388
 30
0
 40
3.2
  1
üá
 41
0.9
  0
ENDBLK
  8
0
  0
BLOCK
  8
1
  2
*D11
 70
1
 10
0
 20
0
 30
0
  0
LINE
  8
1
 62
2
 10
22.00000000000001
 20
64.47958669616961
 30
0
 11
135
 21
64.47958669616961
 31
0
  0
LINE
  8
1
 62
2
 10
135
 20
20.5
 30
0
 11
135
 21
65.47958669616961
 31
0
  0
LINE
  8
1
 62
2
 10
22.00000000000001
 20
30.5
 30
0
 11
22.00000000000001
 21
65.47958669616961
 31
0
  0
SOLID
  8
1
 62
2
 10
22.00000000000001
 20
64.47958669616961
 30
0
 11
25.20000000000001
 21
64.8955866961696
 31
0
 12
25.20000000000001
 22
64.06358669616961
 32
0
 13
25.20000000000001
 23
64.06358669616961
 33
0
  0
SOLID
  8
1
 62
2
 10
135
 20
64.47958669616961
 30
0
 11
131.8
 21
64.06358669616961
 31
0
 12
131.8
 22
64.8955866961696
 32
0
 13
131.8
 23
64.8955866961696
 33
0
  0
TEXT
  8
1
 62
2
 10
75.62000000000001
 20
65.47958669616961
 30
0
 40
3.2
  1
113
 41
0.9
  0
ENDBLK
  8
0
  0
BLOCK
  8
1
  2
*D12
 70
1
 10
0
 20
0
 30
0
  0
LINE
  8
1
 62
2
 10
160.006501193659
 20
-81.5
 30
0
 11
160.006501193659
 21
-70.50565334582424
 31
0
  0
LINE
  8
1
 62
2
 10
160.006501193659
 20
-84.5
 30
0
 11
160.006501193659
 21
-81.5
 31
0
  0
LINE
  8
1
 62
2
 10
160.006501193659
 20
-90.5
 30
0
 11
160.006501193659
 21
-84.5
 31
0
  0
LINE
  8
1
 62
2
 10
122
 20
-81.5
 30
0
 11
161.006501193659
 21
-81.5
 31
0
  0
LINE
  8
1
 62
2
 10
121.3612878820809
 20
-84.5
 30
0
 11
161.006501193659
 21
-84.5
 31
0
  0
SOLID
  8
1
 62
2
 10
160.006501193659
 20
-81.5
 30
0
 11
159.616501193659
 21
-78.5
 31
0
 12
160.396501193659
 22
-78.5
 32
0
 13
160.396501193659
 23
-78.5
 33
0
  0
SOLID
  8
1
 62
2
 10
160.006501193659
 20
-84.5
 30
0
 11
160.396501193659
 21
-87.5
 31
0
 12
159.616501193659
 22
-87.5
 32
0
 13
159.616501193659
 23
-87.5
 33
0
  0
TEXT
  8
1
 62
2
 10
159.006501193659
 20
-74.50565334582423
 30
0
 40
3.2
  1
3
 50
90
 41
0.9
  0
TEXT
  8
1
 62
2
 10
159.006501193659
 20
-76.58565334582424
 30
0
 40
3.2
  1
(
 50
90
 41
0.9
  0
TEXT
  8
1
 62
2
 10
159.006501193659
 20
-70.98565334582423
 30
0
 40
3.2
  1
)
 50
90
 41
0.9
  0
ENDBLK
  8
0
  0
BLOCK
  8
1
  2
*D13
 70
1
 10
0
 20
0
 30
0
  0
LINE
  8
1
 62
2
 10
171.979643875196
 20
-29.5
 30
0
 11
171.979643875196
 21
29.5
 31
0
  0
LINE
  8
1
 62
2
 10
126
 20
29.5
 30
0
 11
172.979643875196
 21
29.5
 31
0
  0
LINE
  8
1
 62
2
 10
126
 20
-29.5
 30
0
 11
172.979643875196
 21
-29.5
 31
0
  0
SOLID
  8
1
 62
2
 10
171.979643875196
 20
29.5
 30
0
 11
172.369643875196
 21
26.5
 31
0
 12
171.589643875196
 22
26.5
 32
0
 13
171.589643875196
 23
26.5
 33
0
  0
SOLID
  8
1
 62
2
 10
171.979643875196
 20
-29.5
 30
0
 11
171.589643875196
 21
-26.5
 31
0
 12
172.369643875196
 22
-26.5
 32
0
 13
172.369643875196
 23
-26.5
 33
0
  0
TEXT
  8
1
 62
2
 10
170.979643875196
 20
-0.577777777777778
 30
0
 40
3.2
  1
59
 50
90
 41
0.9
  0
TEXT
  8
1
 62
2
 10
170.979643875196
 20
-4.222222222222222
 30
0
 40
3.2
  1
âË
 50
90
 41
0.9
  0
ENDBLK
  8
0
  0
BLOCK
  8
1
  2
*D14
 70
1
 10
0
 20
0
 30
0
  0
LINE
  8
1
 62
2
 10
160.006501193659
 20
-12.5
 30
0
 11
160.006501193659
 21
12.5
 31
0
  0
LINE
  8
1
 62
2
 10
143.5
 20
12.5
 30
0
 11
161.006501193659
 21
12.5
 31
0
  0
LINE
  8
1
 62
2
 10
143.5
 20
-12.5
 30
0
 11
161.006501193659
 21
-12.5
 31
0
  0
SOLID
  8
1
 62
2
 10
160.006501193659
 20
12.5
 30
0
 11
160.396501193659
 21
9.5
 31
0
 12
159.616501193659
 22
9.5
 32
0
 13
159.616501193659
 23
9.5
 33
0
  0
SOLID
  8
1
 62
2
 10
160.006501193659
 20
-12.5
 30
0
 11
159.616501193659
 21
-9.5
 31
0
 12
160.396501193659
 22
-9.5
 32
0
 13
160.396501193659
 23
-9.5
 33
0
  0
TEXT
  8
1
 62
2
 10
159.006501193659
 20
-0.577777777777778
 30
0
 40
3.2
  1
25
 50
90
 41
0.9
  0
TEXT
  8
1
 62
2
 10
159.006501193659
 20
-4.222222222222222
 30
0
 40
3.2
  1
âË
 50
90
 41
0.9
  0
ENDBLK
  8
0
  0
BLOCK
  8
1
  2
*D15
 70
1
 10
0
 20
0
 30
0
  0
LINE
  8
1
 62
2
 10
144.5
 20
64.47958669616961
 30
0
 11
157.279417744114
 21
64.47958669616961
 31
0
  0
LINE
  8
1
 62
2
 10
135
 20
64.47958669616961
 30
0
 11
144.5
 21
64.47958669616961
 31
0
  0
LINE
  8
1
 62
2
 10
144.5
 20
11.5
 30
0
 11
144.5
 21
65.47958669616961
 31
0
  0
LINE
  8
1
 62
2
 10
135
 20
20.5
 30
0
 11
135
 21
65.47958669616961
 31
0
  0
SOLID
  8
1
 62
2
 10
135
 20
64.47958669616961
 30
0
 11
138
 21
64.86958669616961
 31
0
 12
138
 22
64.0895866961696
 32
0
 13
138
 23
64.0895866961696
 33
0
  0
SOLID
  8
1
 62
2
 10
144.5
 20
64.47958669616961
 30
0
 11
141.5
 21
64.0895866961696
 31
0
 12
141.5
 22
64.86958669616961
 32
0
 13
141.5
 23
64.86958669616961
 33
0
  0
TEXT
  8
1
 62
2
 10
149.359417744114
 20
65.47958669616961
 30
0
 40
3.2
  1
9.5
 41
0.9
  0
TEXT
  8
1
 62
2
 10
147.279417744114
 20
65.47958669616961
 30
0
 40
3.2
  1
(
 41
0.9
  0
TEXT
  8
1
 62
2
 10
156.799417744114
 20
65.47958669616961
 30
0
 40
3.2
  1
)
 41
0.9
  0
ENDBLK
  8
0
  0
BLOCK
  8
1
  2
*D16
 70
1
 10
0
 20
0
 30
0
  0
LINE
  8
1
 62
2
 10
171.979643875196
 20
-84.5
 30
0
 11
171.979643875196
 21
-29.5
 31
0
  0
LINE
  8
1
 62
2
 10
126
 20
-29.5
 30
0
 11
172.979643875196
 21
-29.5
 31
0
  0
LINE
  8
1
 62
2
 10
121.3612878820809
 20
-84.5
 30
0
 11
172.979643875196
 21
-84.5
 31
0
  0
SOLID
  8
1
 62
2
 10
171.979643875196
 20
-84.5
 30
0
 11
171.589643875196
 21
-81.5
 31
0
 12
172.369643875196
 22
-81.5
 32
0
 13
172.369643875196
 23
-81.5
 33
0
  0
SOLID
  8
1
 62
2
 10
171.979643875196
 20
-29.5
 30
0
 11
172.369643875196
 21
-32.5
 31
0
 12
171.589643875196
 22
-32.5
 32
0
 13
171.589643875196
 23
-32.5
 33
0
  0
TEXT
  8
1
 62
2
 10
170.979643875196
 20
-63.752
 30
0
 40
3.2
  1
300
 50
90
 41
0.9
  0
TEXT
  8
1
 62
2
 10
170.339643875196
 20
-54.472
 30
0
 40
1.92
  1
%%p30
 50
90
 41
0.9
  0
ENDBLK
  8
0
  0
BLOCK
  8
1
  2
*D17
 70
1
 10
0
 20
0
 30
0
  0
LINE
  8
1
 62
2
 10
-141.4999999999999
 20
64.3483698805239
 30
0
 11
-77.49999999999987
 21
64.3483698805239
 31
0
  0
LINE
  8
1
 62
2
 10
-77.49999999999987
 20
8
 30
0
 11
-77.49999999999987
 21
65.3483698805239
 31
0
  0
LINE
  8
1
 62
2
 10
-141.4999999999999
 20
8
 30
0
 11
-141.4999999999999
 21
65.3483698805239
 31
0
  0
SOLID
  8
1
 62
2
 10
-141.4999999999999
 20
64.3483698805239
 30
0
 11
-138.4999999999999
 21
64.73836988052391
 31
0
 12
-138.4999999999999
 22
63.9583698805239
 32
0
 13
-138.4999999999999
 23
63.9583698805239
 33
0
  0
SOLID
  8
1
 62
2
 10
-77.49999999999987
 20
64.3483698805239
 30
0
 11
-80.49999999999987
 21
63.9583698805239
 31
0
 12
-80.49999999999987
 22
64.73836988052391
 32
0
 13
-80.49999999999987
 23
64.73836988052391
 33
0
  0
TEXT
  8
1
 62
2
 10
-117.1799999999999
 20
65.3483698805239
 30
0
 40
3.2
  1
64
 41
0.9
  0
TEXT
  8
1
 62
2
 10
-110.7799999999999
 20
65.3483698805239
 30
0
 40
3.2
  1
MAX
 41
0.9
  0
ENDBLK
  8
0
  0
BLOCK
  8
1
  2
*D18
 70
1
 10
0
 20
0
 30
0
  0
LINE
  8
1
 62
2
 10
-83.57851814873257
 20
-26.37099669097482
 30
0
 11
-69.78824223255681
 21
-45.452804576917
 31
0
  0
LINE
  8
1
 62
2
 10
-69.78824223255681
 20
-45.452804576917
 30
0
 11
-18.8282422325568
 21
-45.452804576917
 31
0
  0
SOLID
  8
1
 62
2
 10
-83.57851814873257
 20
-26.37099669097482
 30
0
 11
-81.36697987498212
 21
-28.72092317147094
 31
0
 12
-82.04131449842764
 22
-29.20825962159814
 32
0
 13
-82.04131449842764
 23
-29.20825962159814
 33
0
  0
TEXT
  8
1
 62
2
 10
-55.3082422325568
 20
-44.452804576917
 30
0
 40
3.2
  1
4
 41
0.9
  0
TEXT
  8
1
 62
2
 10
-64.58824223255679
 20
-44.452804576917
 30
0
 40
3.2
  1
4-M
 41
0.9
  0
TEXT
  8
1
 62
2
 10
-51.7882422325568
 20
-44.452804576917
 30
0
 40
3.2
  1
 DEPTH 6MAX
 41
0.9
  0
ENDBLK
  8
0
  0
ENDSEC
  0
SECTION
  2
ENTITIES
  0
LINE
  8
0
 62
3
 10
-93.2
 20
11.8
 30
0
 11
-86.2
 21
11.8
 31
0
  0
LINE
  8
0
 62
7
 10
-112.145751311064
 20
13
 30
0
 11
-106.8542486889351
 21
13
 31
0
  0
LINE
  8
0
 62
3
 10
-86.2
 20
11.8
 30
0
 11
-85.2
 21
11.8
 31
0
  0
LINE
  8
0
 62
3
 10
-133.8
 20
11.8
 30
0
 11
-125.8
 21
11.8
 31
0
  0
LINE
  8
0
 62
3
 10
-129.8
 20
15.8
 30
0
 11
-129.8
 21
7.800000000000002
 31
0
  0
LINE
  8
0
 62
3
 10
-89.2
 20
15.8
 30
0
 11
-89.2
 21
7.800000000000001
 31
0
  0
LINE
  8
0
 62
3
 10
-109.5
 20
34.5
 30
0
 11
-109.5
 21
-34.5
 31
0
  0
LINE
  8
1
 62
7
 10
-88.1941176470591
 20
12.09999999999997
 30
0
 11
-87.80000000000014
 21
12.09999999999995
 31
0
  0
LINE
  8
1
 62
7
 10
-88.1941176470591
 20
11.50000000000006
 30
0
 11
-87.8000000000001
 21
11.50000000000005
 31
0
  0
LINE
  8
1
 62
7
 10
-88.1999999999999
 20
12.09999999999997
 30
0
 11
-88.1941176470591
 21
12.09999999999997
 31
0
  0
LINE
  8
1
 62
7
 10
-88.1999999999999
 20
11.50000000000006
 30
0
 11
-88.1941176470591
 21
11.50000000000006
 31
0
  0
LINE
  8
1
 62
7
 10
-88.90000000000001
 20
10.8
 30
0
 11
-88.90000000000001
 21
10.40000000000003
 31
0
  0
LINE
  8
1
 62
7
 10
-89.40000000000001
 20
13.3
 30
0
 11
-88.99999999999996
 21
13.3
 31
0
  0
LINE
  8
1
 62
7
 10
-89.40000000000001
 20
10.30000000000001
 30
0
 11
-89
 21
10.3
 31
0
  0
LINE
  8
1
 62
7
 10
-87.7
 20
12.00000000000005
 30
0
 11
-87.6999999999999
 21
11.59999999999997
 31
0
  0
LINE
  8
1
 62
7
 10
-90.6999999999999
 20
12.00000000000006
 30
0
 11
-90.6999999999999
 21
11.59999999999997
 31
0
  0
LINE
  8
1
 62
7
 10
-90.60000000000001
 20
12.09999999999997
 30
0
 11
-90.1999999999999
 21
12.09999999999997
 31
0
  0
LINE
  8
1
 62
7
 10
-90.60000000000001
 20
11.50000000000006
 30
0
 11
-90.1999999999999
 21
11.50000000000006
 31
0
  0
LINE
  8
1
 62
7
 10
-89.5
 20
10.40000000000003
 30
0
 11
-89.5
 21
10.8
 31
0
  0
LINE
  8
1
 62
7
 10
-89.5
 20
13.19999999999999
 30
0
 11
-89.5
 21
12.80000000000001
 31
0
  0
LINE
  8
1
 62
7
 10
-88.90000000000001
 20
13.19999999999999
 30
0
 11
-88.90000000000001
 21
12.80000000000001
 31
0
  0
LINE
  8
1
 62
7
 10
-128.7941176470591
 20
12.09999999999995
 30
0
 11
-128.4
 21
12.09999999999995
 31
0
  0
LINE
  8
1
 62
7
 10
-128.7941176470592
 20
11.50000000000006
 30
0
 11
-128.4
 21
11.50000000000006
 31
0
  0
LINE
  8
1
 62
7
 10
-128.8
 20
12.09999999999997
 30
0
 11
-128.7941176470591
 21
12.09999999999995
 31
0
  0
LINE
  8
1
 62
7
 10
-128.8
 20
11.50000000000006
 30
0
 11
-128.7941176470592
 21
11.50000000000006
 31
0
  0
LINE
  8
1
 62
7
 10
-129.5000000000001
 20
10.80000000000001
 30
0
 11
-129.5000000000001
 21
10.40000000000003
 31
0
  0
LINE
  8
1
 62
7
 10
-130.0000000000001
 20
13.30000000000001
 30
0
 11
-129.6000000000001
 21
13.30000000000001
 31
0
  0
LINE
  8
1
 62
7
 10
-130.0000000000001
 20
10.30000000000001
 30
0
 11
-129.6000000000001
 21
10.30000000000001
 31
0
  0
LINE
  8
1
 62
7
 10
-128.3
 20
12.00000000000006
 30
0
 11
-128.3
 21
11.59999999999997
 31
0
  0
LINE
  8
1
 62
7
 10
-131.3
 20
12.00000000000006
 30
0
 11
-131.3
 21
11.59999999999997
 31
0
  0
LINE
  8
1
 62
7
 10
-131.2000000000001
 20
12.09999999999995
 30
0
 11
-130.8
 21
12.09999999999997
 31
0
  0
LINE
  8
1
 62
7
 10
-131.2000000000001
 20
11.50000000000006
 30
0
 11
-130.8
 21
11.50000000000006
 31
0
  0
LINE
  8
1
 62
7
 10
-130.1000000000001
 20
10.40000000000003
 30
0
 11
-130.1000000000001
 21
10.80000000000001
 31
0
  0
LINE
  8
1
 62
7
 10
-130.1000000000001
 20
13.19999999999999
 30
0
 11
-130.1000000000001
 21
12.80000000000001
 31
0
  0
LINE
  8
1
 62
7
 10
-129.5000000000001
 20
13.19999999999999
 30
0
 11
-129.5000000000001
 21
12.80000000000001
 31
0
  0
LINE
  8
1
 62
7
 10
-130.5
 20
30.5
 30
0
 11
-130.5
 21
25.5
 31
0
  0
LINE
  8
1
 62
7
 10
-140
 20
21
 30
0
 11
-135
 21
21
 31
0
  0
LINE
  8
1
 62
7
 10
-130.5
 20
-30.5
 30
0
 11
-130.5
 21
-25.5
 31
0
  0
LINE
  8
1
 62
7
 10
-79
 20
-21.00000000000001
 30
0
 11
-84
 21
-21.00000000000001
 31
0
  0
LINE
  8
1
 62
7
 10
-88.5
 20
30.49999999999999
 30
0
 11
-88.5
 21
25.49999999999999
 31
0
  0
LINE
  8
1
 62
7
 10
-140
 20
-21
 30
0
 11
-135
 21
-21
 31
0
  0
LINE
  8
1
 62
7
 10
-88.5
 20
-30.50000000000001
 30
0
 11
-88.5
 21
-25.50000000000001
 31
0
  0
LINE
  8
1
 62
7
 10
-79
 20
20.99999999999999
 30
0
 11
-84
 21
20.99999999999999
 31
0
  0
LINE
  8
0
 62
3
 10
-121.5
 20
10
 30
0
 11
-100.5
 21
10
 31
0
  0
LINE
  8
1
 62
7
 10
22.5
 20
-21
 30
0
 11
23
 21
-21
 31
0
  0
LINE
  8
1
 62
7
 10
23
 20
21
 30
0
 11
23
 21
-21
 31
0
  0
LINE
  8
1
 62
7
 10
23
 20
21
 30
0
 11
22.5
 21
21
 31
0
  0
LINE
  8
0
 62
7
 10
66
 20
-30
 30
0
 11
64
 21
-30
 31
0
  0
LINE
  8
0
 62
7
 10
64
 20
30
 30
0
 11
66
 21
30
 31
0
  0
LINE
  8
1
 62
7
 10
66
 20
-30
 30
0
 11
66
 21
30
 31
0
  0
LINE
  8
1
 62
7
 10
67.33360848093707
 20
-28.20403352100783
 30
0
 11
66.10871557427504
 21
-28.2496194698092
 31
0
  0
LINE
  8
1
 62
7
 10
67.33360848093707
 20
-21.29596647899217
 30
0
 11
66.10871557427504
 21
-21.2503805301908
 31
0
  0
LINE
  8
1
 62
7
 10
67.33360848093707
 20
21.29596647899228
 30
0
 11
66.10871557427504
 21
21.25038053019085
 31
0
  0
LINE
  8
1
 62
7
 10
67.33360848093707
 20
28.20403352100777
 30
0
 11
66.10871557427504
 21
28.2496194698092
 31
0
  0
LINE
  8
0
 62
7
 10
64
 20
30.5
 30
0
 11
64
 21
-30.5
 31
0
  0
LINE
  8
1
 62
7
 10
8.385802733759189
 20
14.00024539811398
 30
0
 11
17.00000000000002
 21
13.99965458923566
 31
0
  0
LINE
  8
1
 62
7
 10
17.00000000000002
 20
18.99981600930903
 30
0
 11
17.00000000000002
 21
1.000183990691028
 31
0
  0
LINE
  8
1
 62
7
 10
-10
 20
13
 30
0
 11
3
 21
13
 31
0
  0
LINE
  8
0
 62
7
 10
-10
 20
6
 30
0
 11
17.00000000000002
 21
6
 31
0
  0
LINE
  8
0
 62
7
 10
-10
 20
6
 30
0
 11
-10
 21
13
 31
0
  0
LINE
  8
0
 62
3
 10
18.00000000000002
 20
24.75
 30
0
 11
70
 21
24.75
 31
0
  0
LINE
  8
1
 62
7
 10
17.00000000000002
 20
18.99981600930903
 30
0
 11
23
 21
18.99981600930903
 31
0
  0
LINE
  8
1
 62
7
 10
17.00000000000002
 20
1.000183990691028
 30
0
 11
23
 21
1.000183990691028
 31
0
  0
LINE
  8
1
 62
7
 10
22.00000000000001
 20
-29.5
 30
0
 11
22
 21
-21.5
 31
0
  0
LINE
  8
1
 62
7
 10
64
 20
-30.5
 30
0
 11
23
 21
-30.5
 31
0
  0
LINE
  8
1
 62
7
 10
64
 20
30.5
 30
0
 11
23
 21
30.5
 31
0
  0
LINE
  8
1
 62
7
 10
22.00000000000001
 20
29.5
 30
0
 11
22
 21
21.5
 31
0
  0
LINE
  8
0
 62
3
 10
70
 20
-24.75
 30
0
 11
18.00000000000002
 21
-24.75
 31
0
  0
LINE
  8
0
 62
3
 10
-12.97595247058098
 20
10
 30
0
 11
26.19246060264798
 21
10
 31
0
  0
LINE
  8
1
 62
7
 10
32.82802146673812
 20
31.595538861926
 30
0
 11
51.55083723738899
 21
31.595538861926
 31
0
  0
LINE
  8
1
 62
3
 10
-134.2499999999999
 20
30.5
 30
0
 11
-134.2499999999999
 21
32.40783652817061
 31
0
  0
LINE
  8
1
 62
3
 10
-84.74999999999987
 20
30.5
 30
0
 11
-84.74999999999987
 21
18.99999999999999
 31
0
  0
LINE
  8
1
 62
3
 10
-78.99999999999987
 20
24.75
 30
0
 11
-90.5
 21
24.75
 31
0
  0
LINE
  8
1
 62
3
 10
-78.99999999999987
 20
-24.75
 30
0
 11
-90.5
 21
-24.75
 31
0
  0
LINE
  8
1
 62
3
 10
-97.94541850249919
 20
10
 30
0
 11
-100.5
 21
10
 31
0
  0
LINE
  8
1
 62
3
 10
-78.99999999999987
 20
0
 30
0
 11
-75
 21
0
 31
0
  0
LINE
  8
1
 62
2
 10
-69.38537136008199
 20
-52.5
 30
0
 11
-18.44862967794631
 21
-52.5
 31
0
  0
LINE
  8
1
 62
7
 10
-79
 20
-25.5
 30
0
 11
-79
 21
25.5
 31
0
  0
LINE
  8
1
 62
3
 10
-77
 20
24.75
 30
0
 11
-78.99999999999987
 21
24.75
 31
0
  0
LINE
  8
1
 62
3
 10
-142
 20
24.75
 30
0
 11
-128.5
 21
24.75
 31
0
  0
LINE
  8
1
 62
3
 10
-128.5
 20
-24.75
 30
0
 11
-142
 21
-24.75
 31
0
  0
LINE
  8
1
 62
3
 10
-77
 20
-24.75
 30
0
 11
-78.99999999999987
 21
-24.75
 31
0
  0
LINE
  8
1
 62
3
 10
-134.2499999999999
 20
18.99999999999999
 30
0
 11
-134.2499999999999
 21
30.5
 31
0
  0
LINE
  8
1
 62
3
 10
-84.7499999999999
 20
-32.5
 30
0
 11
-84.74999999999987
 21
-19
 31
0
  0
LINE
  8
1
 62
7
 10
-84
 20
30.5
 30
0
 11
-135
 21
30.5
 31
0
  0
LINE
  8
1
 62
7
 10
-135
 20
-30.5
 30
0
 11
-84
 21
-30.5
 31
0
  0
LINE
  8
1
 62
3
 10
-113.4999999999999
 20
-23.5
 30
0
 11
-105.5000000000001
 21
-23.5
 31
0
  0
LINE
  8
1
 62
3
 10
-134.2499999999999
 20
-19
 30
0
 11
-134.2499999999999
 21
-32.5
 31
0
  0
LINE
  8
1
 62
3
 10
-84.74999999999987
 20
32.5
 30
0
 11
-84.74999999999987
 21
30.5
 31
0
  0
LINE
  8
1
 62
3
 10
-144
 20
0
 30
0
 11
-78.99999999999987
 21
0
 31
0
  0
LINE
  8
1
 62
7
 10
-140
 20
25.5
 30
0
 11
-140
 21
-25.5
 31
0
  0
LINE
  8
1
 62
7
 10
-108.4941176470591
 20
-23.19999999999999
 30
0
 11
-108.0999999999999
 21
-23.19999999999999
 31
0
  0
LINE
  8
1
 62
7
 10
-108.4941176470591
 20
-23.7999999999999
 30
0
 11
-108.0999999999999
 21
-23.7999999999999
 31
0
  0
LINE
  8
1
 62
7
 10
-108.5
 20
-23.19999999999999
 30
0
 11
-108.4941176470591
 21
-23.19999999999999
 31
0
  0
LINE
  8
1
 62
7
 10
-108.5
 20
-23.7999999999999
 30
0
 11
-108.4941176470591
 21
-23.7999999999999
 31
0
  0
LINE
  8
1
 62
7
 10
-109.1999999999999
 20
-24.5
 30
0
 11
-109.1999999999999
 21
-24.89999999999986
 31
0
  0
LINE
  8
1
 62
7
 10
-109.6999999999999
 20
-21.99999999999989
 30
0
 11
-109.3
 21
-21.99999999999989
 31
0
  0
LINE
  8
1
 62
7
 10
-109.6999999999999
 20
-25
 30
0
 11
-109.3
 21
-25
 31
0
  0
LINE
  8
1
 62
7
 10
-108
 20
-23.2999999999999
 30
0
 11
-108
 21
-23.69999999999999
 31
0
  0
LINE
  8
1
 62
7
 10
-111
 20
-23.2999999999999
 30
0
 11
-111
 21
-23.69999999999999
 31
0
  0
LINE
  8
1
 62
7
 10
-110.8999999999998
 20
-23.19999999999999
 30
0
 11
-110.5
 21
-23.19999999999999
 31
0
  0
LINE
  8
1
 62
7
 10
-110.8999999999998
 20
-23.7999999999999
 30
0
 11
-110.5
 21
-23.7999999999999
 31
0
  0
LINE
  8
1
 62
7
 10
-109.7999999999999
 20
-24.89999999999986
 30
0
 11
-109.7999999999999
 21
-24.5
 31
0
  0
LINE
  8
1
 62
7
 10
-109.7999999999999
 20
-22.10000000000002
 30
0
 11
-109.7999999999999
 21
-22.5
 31
0
  0
LINE
  8
1
 62
7
 10
-109.1999999999999
 20
-22.10000000000002
 30
0
 11
-109.1999999999999
 21
-22.5
 31
0
  0
LINE
  8
1
 62
7
 10
66
 20
-20.15000000000003
 30
0
 11
66.5
 21
-20.01666666666659
 31
0
  0
LINE
  8
1
 62
7
 10
121
 20
-81.5
 30
0
 11
117
 21
-81.5
 31
0
  0
LINE
  8
1
 62
7
 10
119.5
 20
-81.5
 30
0
 11
119.5
 21
-84.5
 31
0
  0
LINE
  8
1
 62
7
 10
120.3612878820809
 20
-84.5
 30
0
 11
120.3612878820809
 21
-81.5
 31
0
  0
LINE
  8
1
 62
7
 10
117.6044096585509
 20
-81.5
 30
0
 11
117.6044096585509
 21
-84.5
 31
0
  0
LINE
  8
1
 62
7
 10
118.5
 20
-84.5
 30
0
 11
118.5
 21
-81.5
 31
0
  0
LINE
  8
1
 62
7
 10
121
 20
-56.229729759321
 30
0
 11
121
 21
-81.5
 31
0
  0
LINE
  8
1
 62
7
 10
119
 20
-56.229729759321
 30
0
 11
118.9999999999989
 21
-81.5
 31
0
  0
LINE
  8
1
 62
7
 10
117
 20
-56.20163982705844
 30
0
 11
117
 21
-81.5
 31
0
  0
LINE
  8
1
 62
7
 10
117
 20
-31.5
 30
0
 11
117
 21
-53.13063980214019
 31
0
  0
LINE
  8
1
 62
7
 10
119
 20
-31.5
 30
0
 11
119
 21
-53.42466809013314
 31
0
  0
LINE
  8
1
 62
7
 10
121
 20
-31.5
 30
0
 11
121
 21
-53.49286539778484
 31
0
  0
LINE
  8
1
 62
7
 10
73.8
 20
29.5
 30
0
 11
125
 21
29.5
 31
0
  0
LINE
  8
1
 62
7
 10
110.2
 20
1.399999999999977
 30
0
 11
110.2
 21
1
 31
0
  0
LINE
  8
1
 62
7
 10
109.6
 20
1.399999999999977
 30
0
 11
109.6
 21
1
 31
0
  0
LINE
  8
1
 62
7
 10
109.6
 20
-1.400000000000034
 30
0
 11
109.6
 21
-1
 31
0
  0
LINE
  8
1
 62
7
 10
108.5
 20
-0.2999999999998977
 30
0
 11
108.9
 21
-0.3000000000000114
 31
0
  0
LINE
  8
1
 62
7
 10
108.5
 20
0.2999999999999545
 30
0
 11
108.9
 21
0.2999999999999545
 31
0
  0
LINE
  8
1
 62
7
 10
108.4
 20
0.1999999999999886
 30
0
 11
108.4
 21
-0.2000000000000455
 31
0
  0
LINE
  8
1
 62
7
 10
111.4
 20
0.1999999999999886
 30
0
 11
111.4
 21
-0.2000000000000455
 31
0
  0
LINE
  8
1
 62
7
 10
109.7
 20
-1.5
 30
0
 11
110.1
 21
-1.5
 31
0
  0
LINE
  8
1
 62
7
 10
109.7
 20
1.5
 30
0
 11
110.1
 21
1.5
 31
0
  0
LINE
  8
1
 62
7
 10
110.2
 20
-1
 30
0
 11
110.2
 21
-1.400000000000034
 31
0
  0
LINE
  8
1
 62
7
 10
110.9058823529412
 20
-0.3000000000000115
 30
0
 11
111.3
 21
-0.3000000000000114
 31
0
  0
LINE
  8
1
 62
7
 10
110.9058823529412
 20
0.2999999999999545
 30
0
 11
111.3
 21
0.2999999999999545
 31
0
  0
LINE
  8
1
 62
3
 10
109.9
 20
10.49751927958937
 30
0
 11
109.9
 21
-9.870422382742731
 31
0
  0
LINE
  8
1
 62
7
 10
108.3
 20
2.236626924634493
 30
0
 11
108.3
 21
5.899999999999977
 31
0
  0
LINE
  8
1
 62
7
 10
114.5
 20
29.5
 30
0
 11
114.5
 21
-29.5
 31
0
  0
LINE
  8
1
 62
7
 10
111.5
 20
5.899999999999977
 30
0
 11
111.5
 21
2.236626924634493
 31
0
  0
LINE
  8
1
 62
7
 10
135
 20
-19.5
 30
0
 11
135
 21
19.5
 31
0
  0
LINE
  8
1
 62
7
 10
142.5
 20
-12.5
 30
0
 11
136
 21
-12.5
 31
0
  0
LINE
  8
1
 62
7
 10
136.0154082664935
 20
12.5
 30
0
 11
142.5
 21
12.5
 31
0
  0
LINE
  8
1
 62
7
 10
126.2000000000001
 20
0.7999999999999545
 30
0
 11
121.8
 21
0.7999999999999545
 31
0
  0
LINE
  8
1
 62
7
 10
121.8
 20
-0.8000000000000114
 30
0
 11
126.2000000000001
 21
-0.8000000000000114
 31
0
  0
LINE
  8
1
 62
7
 10
124
 20
-7.502581311993708
 30
0
 11
135
 21
-8.002581311993708
 31
0
  0
LINE
  8
1
 62
7
 10
135
 20
8.002581311993765
 30
0
 11
124
 21
7.502581311993765
 31
0
  0
LINE
  8
1
 62
7
 10
128.6723749477709
 20
-5.212380679444095
 30
0
 11
135
 21
-5.5
 31
0
  0
LINE
  8
1
 62
7
 10
128.6723749477709
 20
5.212380679444152
 30
0
 11
135
 21
5.5
 31
0
  0
LINE
  8
1
 62
7
 10
144.5
 20
-10.5
 30
0
 11
144.5
 21
10.5
 31
0
  0
LINE
  8
1
 62
3
 10
124
 20
10.53178475720466
 30
0
 11
124
 21
-10.92959420309313
 31
0
  0
LINE
  8
1
 62
7
 10
127
 20
-29.29795897113274
 30
0
 11
127
 21
-31.5
 31
0
  0
LINE
  8
1
 62
7
 10
127
 20
-31.5
 30
0
 11
113
 21
-31.5
 31
0
  0
LINE
  8
1
 62
7
 10
113
 20
-29.5
 30
0
 11
113
 21
-31.5
 31
0
  0
LINE
  8
1
 62
7
 10
108.3
 20
-2.23662692463455
 30
0
 11
108.3
 21
-5.900000000000034
 31
0
  0
LINE
  8
1
 62
7
 10
111.5
 20
-5.900000000000034
 30
0
 11
111.5
 21
-2.23662692463455
 31
0
  0
LINE
  8
1
 62
7
 10
108.3
 20
5
 30
0
 11
111.5
 21
5.5
 31
0
  0
LINE
  8
1
 62
7
 10
108.3
 20
-5
 30
0
 11
111.5
 21
-5.5
 31
0
  0
LINE
  8
1
 62
7
 10
73.80000000000001
 20
-29.5
 30
0
 11
125
 21
-29.5
 31
0
  0
LINE
  8
1
 62
7
 10
66
 20
-15.0454545454545
 30
0
 11
66.5
 21
-15.0454545454545
 31
0
  0
LINE
  8
1
 62
7
 10
66.5
 20
15.04545454545451
 30
0
 11
66
 21
15.04545454545451
 31
0
  0
LINE
  8
1
 62
7
 10
66.5
 20
3.516666666666595
 30
0
 11
66
 21
3.649999999999977
 31
0
  0
LINE
  8
1
 62
7
 10
66
 20
-3.650000000000034
 30
0
 11
66.5
 21
-3.516666666666595
 31
0
  0
LINE
  8
1
 62
7
 10
66.5
 20
11
 30
0
 11
66
 21
11
 31
0
  0
LINE
  8
1
 62
7
 10
66
 20
-11
 30
0
 11
66.5
 21
-11
 31
0
  0
LINE
  8
1
 62
3
 10
150.9735500491311
 20
0
 30
0
 11
19.00000000000008
 21
0
 31
0
  0
LINE
  8
1
 62
7
 10
66.5
 20
21.26494267819652
 30
0
 11
66.5
 21
-21.26494267819642
 31
0
  0
LINE
  8
1
 62
7
 10
-141.4999999999999
 20
7
 30
0
 11
-141.4999999999999
 21
-7
 31
0
  0
LINE
  8
1
 62
7
 10
-77.49999999999987
 20
7
 30
0
 11
-77.49999999999987
 21
-7
 31
0
  0
LINE
  8
1
 62
7
 10
-141.4999999999999
 20
-7
 30
0
 11
-139.9999999999999
 21
-7
 31
0
  0
LINE
  8
1
 62
7
 10
-141.4999999999999
 20
7
 30
0
 11
-141.4999999999999
 21
-7
 31
0
  0
LINE
  8
1
 62
7
 10
-139.9999999999999
 20
7
 30
0
 11
-141.4999999999999
 21
7
 31
0
  0
LINE
  8
1
 62
7
 10
-77.49999999999987
 20
-7
 30
0
 11
-78.99999999999987
 21
-7
 31
0
  0
LINE
  8
1
 62
7
 10
-77.49999999999987
 20
7
 30
0
 11
-77.49999999999987
 21
-7
 31
0
  0
LINE
  8
1
 62
7
 10
-78.99999999999987
 20
7
 30
0
 11
-77.49999999999987
 21
7
 31
0
  0
LINE
  8
1
 62
7
 10
103.9999999999999
 20
18.56495153597018
 30
0
 11
103.9999999999999
 21
29.5
 31
0
  0
LINE
  8
1
 62
7
 10
76.49999999999997
 20
18.56495153597018
 30
0
 11
103.9999999999999
 21
18.56495153597018
 31
0
  0
LINE
  8
1
 62
7
 10
76.49999999999997
 20
29.5
 30
0
 11
76.49999999999997
 21
18.56495153597018
 31
0
  0
ARC
  8
1
 62
7
 10
-90.20294117647104
 20
12.80294117647059
 30
0
 40
0.7029473295325435
 50
270.2397298961258
 51
359.7602701039199
  0
ARC
  8
1
 62
7
 10
-88.19705882352901
 20
12.80294117647059
 30
0
 40
0.7029473295329213
 50
180.2397298960801
 51
270.239729896025
  0
ARC
  8
1
 62
7
 10
-88.19705882352901
 20
10.79705882352941
 30
0
 40
0.7029473295325686
 50
89.760270103975
 51
179.7602701039191
  0
ARC
  8
1
 62
7
 10
-90.202941176471
 20
10.79705882352941
 30
0
 40
0.7029473295329213
 50
0.239729896080928
 51
89.76027010387769
  0
ARC
  8
1
 62
7
 10
-130.8029411764711
 20
12.8029411764706
 30
0
 40
0.702947329532554
 50
270.2397298961223
 51
359.760270103919
  0
ARC
  8
1
 62
7
 10
-128.7970588235291
 20
12.80294117647059
 30
0
 40
0.7029473295329213
 50
180.2397298960801
 51
270.2397298960343
  0
ARC
  8
1
 62
7
 10
-128.7970588235291
 20
10.79705882352943
 30
0
 40
0.702947329532549
 50
89.76027010397498
 51
179.7602701039199
  0
ARC
  8
1
 62
7
 10
-130.8029411764711
 20
10.79705882352943
 30
0
 40
0.7029473295329213
 50
0.2397298960800594
 51
89.76027010387769
  0
ARC
  8
1
 62
7
 10
69.47500000000014
 20
-24.75
 30
0
 40
0.9250000000000037
 50
161.0753555839481
 51
198.9246444160519
  0
ARC
  8
1
 62
7
 10
60.60507042253516
 20
-24.76521753674308
 30
0
 40
8.000000000000153
 50
338.4952052003297
 51
357.9599648354465
  0
ARC
  8
1
 62
7
 10
60.60507042253516
 20
-24.73478246325698
 30
0
 40
8.000000000000192
 50
2.040035164553944
 51
21.5047947996707
  0
ARC
  8
1
 62
7
 10
69.47500000000014
 20
24.75
 30
0
 40
0.9250000000000037
 50
161.0753555839481
 51
198.9246444160519
  0
ARC
  8
1
 62
7
 10
60.60507042253516
 20
24.73478246325698
 30
0
 40
8.000000000000156
 50
338.4952052003296
 51
357.9599648354461
  0
ARC
  8
1
 62
7
 10
60.60507042253516
 20
24.76521753674308
 30
0
 40
8.00000000000019
 50
2.040035164553511
 51
21.5047947996703
  0
ARC
  8
1
 62
7
 10
3
 20
27.99999999999682
 30
0
 40
14.99999999999682
 50
270
 51
291.0420805544337
  0
ARC
  8
1
 62
7
 10
-110.5029411764709
 20
-22.49705882352941
 30
0
 40
0.7029473295324998
 50
270.2397298961061
 51
359.7602701039192
  0
ARC
  8
1
 62
7
 10
-108.497058823529
 20
-22.49705882352941
 30
0
 40
0.7029473295328218
 50
180.2397298960808
 51
270.239729896025
  0
ARC
  8
1
 62
7
 10
-108.497058823529
 20
-24.50294117647047
 30
0
 40
0.7029473295324851
 50
89.76027010397496
 51
179.7602701039291
  0
ARC
  8
1
 62
7
 10
-110.5029411764709
 20
-24.50294117647047
 30
0
 40
0.7029473295329208
 50
0.2397298960709379
 51
89.76027010389389
  0
ARC
  8
1
 62
7
 10
108.8970588235294
 20
-1.002941176470642
 30
0
 40
0.7029473295325095
 50
0.2397298960852312
 51
89.76027010391822
  0
ARC
  8
1
 62
7
 10
110.9029411764706
 20
-1.002941176470642
 30
0
 40
0.7029473295325514
 50
89.76027010391822
 51
179.7602701039148
  0
ARC
  8
1
 62
7
 10
110.9029411764706
 20
1.002941176470586
 30
0
 40
0.7029473295325234
 50
180.2397298960807
 51
270.2397298960818
  0
ARC
  8
1
 62
7
 10
108.8970588235294
 20
1.002941176470586
 30
0
 40
0.7029473295325524
 50
270.2397298960818
 51
359.7602701039193
  0
ARC
  8
1
 62
7
 10
109.9
 20
-5.900000000000034
 30
0
 40
1.600000000000009
 50
180
 51
0
  0
ARC
  8
1
 62
7
 10
109.9
 20
5.899999999999977
 30
0
 40
1.599999999999994
 50
0
 51
180
  0
ARC
  8
1
 62
7
 10
126.2000000000001
 20
0
 30
0
 40
0.8000000000000114
 50
270
 51
90
  0
ARC
  8
1
 62
7
 10
121.8
 20
0
 30
0
 40
0.7999999999999545
 50
90
 51
270
  0
ARC
  8
1
 62
7
 10
124
 20
0
 30
0
 40
7.502581311993765
 50
90
 51
270
  0
CIRCLE
  8
0
 62
7
 10
-109.5
 20
10
 30
0
 40
9
  0
CIRCLE
  8
0
 62
7
 10
-129.8
 20
11.80000000000001
 30
0
 40
3.000000000000014
  0
CIRCLE
  8
0
 62
7
 10
-89.2
 20
11.8
 30
0
 40
3
  0
CIRCLE
  8
1
 62
7
 10
-109.5
 20
10
 30
0
 40
6.75
  0
CIRCLE
  8
1
 62
7
 10
-109.5
 20
-23.5
 30
0
 40
3
  0
CIRCLE
  8
1
 62
3
 10
-84.75
 20
24.75
 30
0
 40
2.000000000000128
  0
CIRCLE
  8
1
 62
7
 10
-84.75
 20
24.75
 30
0
 40
1.625
  0
CIRCLE
  8
1
 62
3
 10
-134.2499999999999
 20
24.75
 30
0
 40
2
  0
CIRCLE
  8
1
 62
7
 10
-134.2499999999999
 20
24.75
 30
0
 40
1.625
  0
CIRCLE
  8
1
 62
3
 10
-134.2499999999999
 20
-24.75
 30
0
 40
2
  0
CIRCLE
  8
1
 62
7
 10
-134.2499999999999
 20
-24.75
 30
0
 40
1.625
  0
CIRCLE
  8
1
 62
7
 10
-84.74999999999987
 20
-24.75
 30
0
 40
1.624999999999872
  0
CIRCLE
  8
1
 62
3
 10
-84.74999999999987
 20
-24.75
 30
0
 40
1.999999999999872
  0
CIRCLE
  8
0
 62
7
 10
-109.5
 20
10
 30
0
 40
4.000000000000203
  0
CIRCLE
  8
1
 62
7
 10
109.9
 20
0
 30
0
 40
2.7500000000001
  0
CIRCLE
  8
1
 62
7
 10
124
 20
0
 30
0
 40
5
  0
CIRCLE
  8
1
 62
7
 10
124
 20
0
 30
0
 40
6.99999999999998
  0
POLYLINE
  8
1
 62
2
 66
1
  0
VERTEX
  8
1
 10
117
 20
-53.13063980214019
 30
0
 42
0.004959364709903039
  0
VERTEX
  8
1
 10
117.1868133059515
 20
-53.45740884583285
 30
0
 42
0.01610760733008856
  0
VERTEX
  8
1
 10
117.3755859599016
 20
-53.75751772761851
 30
0
 42
0.03462765575562892
  0
VERTEX
  8
1
 10
117.5682773098491
 20
-54.00430628559022
 30
0
 42
0.07009415413893033
  0
VERTEX
  8
1
 10
117.7668467037927
 20
-54.171114357841
 30
0
 42
0.1384187450980199
  0
VERTEX
  8
1
 10
117.973253489731
 20
-54.23128178246384
 30
0
 42
0.1336282076002744
  0
VERTEX
  8
1
 10
118.1645576069008
 20
-54.18097777310877
 30
0
 42
0.02952619964139867
  0
VERTEX
  8
1
 10
118.3632416258943
 20
-54.05028032011647
 30
0
 42
0.04743485283591081
  0
VERTEX
  8
1
 10
118.5689482373298
 20
-53.86407350256864
 30
0
 42
0.006664315072649339
  0
VERTEX
  8
1
 10
118.7813201318256
 20
-53.64724139954697
 30
0
 42
-0.007265733978052085
  0
VERTEX
  8
1
 10
119
 20
-53.42466809013314
 30
0
 42
-0.01594613734132717
  0
VERTEX
  8
1
 10
119.1955370096244
 20
-53.24410091366312
 30
0
 42
-0.02449293246189506
  0
VERTEX
  8
1
 10
119.3941678713911
 20
-53.08811977778769
 30
0
 42
-0.03667587437397122
  0
VERTEX
  8
1
 10
119.5944534474397
 20
-52.96672840990165
 30
0
 42
-0.05374164416478349
  0
VERTEX
  8
1
 10
119.7949545999098
 20
-52.88993053739976
 30
0
 42
-0.07359236239361376
  0
VERTEX
  8
1
 10
119.994232190941
 20
-52.86772988767683
 30
0
 42
-0.07433083303358919
  0
VERTEX
  8
1
 10
120.1988360974554
 20
-52.90904661869418
 30
0
 42
-0.05003416816811522
  0
VERTEX
  8
1
 10
120.401139774168
 20
-53.00617026371435
 30
0
 42
-0.03022191285211142
  0
VERTEX
  8
1
 10
120.6017182785294
 20
-53.14514909423666
 30
0
 42
-0.01596446642785837
  0
VERTEX
  8
1
 10
120.8011466679899
 20
-53.3120313817604
 30
0
 42
-0.004980351333047762
  0
VERTEX
  8
1
 10
121
 20
-53.49286539778484
 30
0
  0
SEQEND
  8
1
  0
POLYLINE
  8
1
 62
2
 66
1
  0
VERTEX
  8
1
 10
117
 20
-56.20163982705844
 30
0
 42
0.004743828824775743
  0
VERTEX
  8
1
 10
117.1664199141318
 20
-56.41508556858371
 30
0
 42
0.01507104334733456
  0
VERTEX
  8
1
 10
117.3338102389726
 20
-56.61307131383989
 30
0
 42
0.03007720324089247
  0
VERTEX
  8
1
 10
117.5031413852317
 20
-56.78013706655791
 30
0
 42
0.05372635489990996
  0
VERTEX
  8
1
 10
117.6753837636182
 20
-56.90082283046867
 30
0
 42
0.09093657508280847
  0
VERTEX
  8
1
 10
117.8515077848411
 20
-56.95966860930309
 30
0
 42
0.1259786711097607
  0
VERTEX
  8
1
 10
118.0678808765174
 20
-56.93586815102574
 30
0
 42
0.04787193728018085
  0
VERTEX
  8
1
 10
118.2910420411364
 20
-56.82645025264781
 30
0
 42
0.04341530719237319
  0
VERTEX
  8
1
 10
118.5208658814331
 20
-56.65593869841035
 30
0
 42
0.01115428868945694
  0
VERTEX
  8
1
 10
118.7572270001427
 20
-56.44885727255441
 30
0
 42
-0.003374507262124074
  0
VERTEX
  8
1
 10
119
 20
-56.229729759321
 30
0
 42
-0.01455062689464782
  0
VERTEX
  8
1
 10
119.2499597359867
 20
-56.02055748980838
 30
0
 42
-0.02511181930472631
  0
VERTEX
  8
1
 10
119.5024967089982
 20
-55.84074632396922
 30
0
 42
-0.04096858042392158
  0
VERTEX
  8
1
 10
119.7538261740885
 20
-55.7070298166016
 30
0
 42
-0.06491345471678535
  0
VERTEX
  8
1
 10
120.0001633863115
 20
-55.63614152250356
 30
0
 42
-0.1617726136711013
  0
VERTEX
  8
1
 10
120.3976045092406
 20
-55.70487485140026
 30
0
 42
-0.04144019963793965
  0
VERTEX
  8
1
 10
120.552534998651
 20
-55.802883438089
 30
0
 42
-0.02559687134808125
  0
VERTEX
  8
1
 10
120.7037526737295
 20
-55.92935357359899
 30
0
 42
-0.01378851554265916
  0
VERTEX
  8
1
 10
120.8524951392534
 20
-56.07479807498979
 30
0
 42
-0.004346364005215471
  0
VERTEX
  8
1
 10
121
 20
-56.229729759321
 30
0
  0
SEQEND
  8
1
  0
ARC
  8
1
 62
7
 10
-90.60000000000001
 20
12.00000000000006
 30
0
 40
0.09999999999990905
 50
90
 51
180
  0
ARC
  8
1
 62
7
 10
-90.60000000000001
 20
11.59999999999997
 30
0
 40
0.09999999999989484
 50
180
 51
270
  0
ARC
  8
1
 62
7
 10
-89.40000000000001
 20
10.40000000000003
 30
0
 40
0.09999999999999432
 50
180
 51
270
  0
ARC
  8
1
 62
7
 10
-89
 20
10.40000000000003
 30
0
 40
0.1000000000000298
 50
270
 51
0
  0
ARC
  8
1
 62
7
 10
-87.8000000000001
 20
11.59999999999997
 30
0
 40
0.09999999999991971
 50
270
 51
0
  0
ARC
  8
1
 62
7
 10
-87.80000000000014
 20
12.00000000000005
 30
0
 40
0.1000000000001364
 50
0
 51
90
  0
ARC
  8
1
 62
7
 10
-89
 20
13.19999999999999
 30
0
 40
0.09999999999999432
 50
0
 51
90
  0
ARC
  8
1
 62
7
 10
-89.40000000000001
 20
13.19999999999999
 30
0
 40
0.1000000000000103
 50
90
 51
180
  0
ARC
  8
1
 62
7
 10
-131.2000000000001
 20
12.00000000000006
 30
0
 40
0.09999999999988951
 50
90
 51
180
  0
ARC
  8
1
 62
7
 10
-131.2000000000001
 20
11.59999999999997
 30
0
 40
0.09999999999990905
 50
180
 51
270
  0
ARC
  8
1
 62
7
 10
-130.0000000000001
 20
10.40000000000003
 30
0
 40
0.09999999999999432
 50
180
 51
270
  0
ARC
  8
1
 62
7
 10
-129.6000000000001
 20
10.40000000000003
 30
0
 40
0.100000000000021
 50
270
 51
0
  0
ARC
  8
1
 62
7
 10
-128.4
 20
11.59999999999997
 30
0
 40
0.09999999999990905
 50
270
 51
0
  0
ARC
  8
1
 62
7
 10
-128.4
 20
12.00000000000006
 30
0
 40
0.09999999999999432
 50
0
 51
90
  0
ARC
  8
1
 62
7
 10
-129.6000000000001
 20
13.19999999999999
 30
0
 40
0.09999999999999432
 50
0
 51
90
  0
ARC
  8
1
 62
7
 10
-130.0000000000001
 20
13.19999999999999
 30
0
 40
0.1000000000000192
 50
90
 51
180
  0
ARC
  8
1
 62
7
 10
-135
 20
25.5
 30
0
 40
5
 50
90
 51
180
  0
ARC
  8
1
 62
7
 10
-84
 20
25.5
 30
0
 40
5
 50
0
 51
90
  0
ARC
  8
1
 62
7
 10
-84
 20
-25.5
 30
0
 40
5
 50
270
 51
0
  0
ARC
  8
1
 62
7
 10
-135
 20
-25.5
 30
0
 40
5
 50
180
 51
270
  0
ARC
  8
1
 62
7
 10
-135
 20
25.5
 30
0
 40
4.5
 50
270
 51
0
  0
ARC
  8
1
 62
7
 10
-135
 20
-25.5
 30
0
 40
4.5
 50
0
 51
90
  0
ARC
  8
1
 62
7
 10
-84
 20
-25.5
 30
0
 40
4.499999999999989
 50
90
 51
180
  0
ARC
  8
1
 62
7
 10
-84
 20
25.5
 30
0
 40
4.5
 50
180
 51
270
  0
ARC
  8
1
 62
7
 10
22.5
 20
-21.5
 30
0
 40
0.5
 50
90
 51
180
  0
ARC
  8
1
 62
7
 10
22.5
 20
21.5
 30
0
 40
0.5
 50
180
 51
270
  0
ARC
  8
1
 62
7
 10
66.10000000000014
 20
-21.34999999999997
 30
0
 40
0.1000000000000072
 50
84.99999999992211
 51
180
  0
ARC
  8
1
 62
7
 10
66.10000000000014
 20
-28.15000000000003
 30
0
 40
0.1000000000001364
 50
180
 51
275.0000000000779
  0
ARC
  8
1
 62
7
 10
67.3038560597231
 20
-27.40458696655151
 30
0
 40
0.80000000000011
 50
272.1313517246224
 51
338.4952052003221
  0
ARC
  8
1
 62
7
 10
67.3038560597231
 20
-22.09541303344838
 30
0
 40
0.7999999999999183
 50
21.5047947996706
 51
87.86864827537735
  0
ARC
  8
1
 62
7
 10
66.10000000000014
 20
28.15000000000003
 30
0
 40
0.1000000000000072
 50
84.99999999992211
 51
180
  0
ARC
  8
1
 62
7
 10
66.10000000000014
 20
21.35000000000002
 30
0
 40
0.1000000000001364
 50
180
 51
275.0000000000779
  0
ARC
  8
1
 62
7
 10
67.3038560597231
 20
22.09541303344849
 30
0
 40
0.7999999999999999
 50
272.1313517246227
 51
338.4952052003254
  0
ARC
  8
1
 62
7
 10
67.3038560597231
 20
27.40458696655156
 30
0
 40
0.7999999999999405
 50
21.50479479967462
 51
87.86864827537735
  0
ARC
  8
1
 62
7
 10
23
 20
-29.5
 30
0
 40
0.9999999999999893
 50
180
 51
270
  0
ARC
  8
1
 62
7
 10
23
 20
29.5
 30
0
 40
1
 50
90
 51
180
  0
ARC
  8
1
 62
7
 10
-110.8999999999998
 20
-23.2999999999999
 30
0
 40
0.0999999999999126
 50
90
 51
180
  0
ARC
  8
1
 62
7
 10
-110.8999999999998
 20
-23.69999999999999
 30
0
 40
0.1000000000001933
 50
180
 51
270
  0
ARC
  8
1
 62
7
 10
-109.6999999999999
 20
-24.89999999999986
 30
0
 40
0.09999999999999432
 50
180
 51
270
  0
ARC
  8
1
 62
7
 10
-109.3
 20
-24.89999999999986
 30
0
 40
0.10000000000014
 50
270
 51
0
  0
ARC
  8
1
 62
7
 10
-108.0999999999999
 20
-23.69999999999999
 30
0
 40
0.0999999999999126
 50
270
 51
0
  0
ARC
  8
1
 62
7
 10
-108.0999999999999
 20
-23.2999999999999
 30
0
 40
0.09999999999989484
 50
0
 51
90
  0
ARC
  8
1
 62
7
 10
-109.3
 20
-22.10000000000002
 30
0
 40
0.1000000000000938
 50
0
 51
90
  0
ARC
  8
1
 62
7
 10
-109.6999999999999
 20
-22.10000000000002
 30
0
 40
0.1000000000001293
 50
90
 51
180
  0
ARC
  8
1
 62
7
 10
66.10000000000014
 20
21.35000000000002
 30
0
 40
0.1000000000001364
 50
180
 51
275.0000000000779
  0
ARC
  8
1
 62
7
 10
66.10000000000014
 20
-21.34999999999997
 30
0
 40
0.1000000000000072
 50
84.99999999992211
 51
180
  0
ARC
  8
1
 62
7
 10
73.71344422967061
 20
22.38989363196928
 30
0
 40
7.110633197267899
 50
89.30253710511049
 51
139.7055855982889
  0
ARC
  8
1
 62
7
 10
109.7
 20
1.399999999999977
 30
0
 40
0.100000000000023
 50
90
 51
180
  0
ARC
  8
1
 62
7
 10
110.1
 20
1.399999999999977
 30
0
 40
0.1000000000000085
 50
0
 51
90
  0
ARC
  8
1
 62
7
 10
111.3
 20
0.1999999999999886
 30
0
 40
0.1000000000000085
 50
0
 51
90
  0
ARC
  8
1
 62
7
 10
111.3
 20
-0.2000000000000455
 30
0
 40
0.09999999999996592
 50
270
 51
0
  0
ARC
  8
1
 62
7
 10
110.1
 20
-1.400000000000034
 30
0
 40
0.09999999999996589
 50
270
 51
0
  0
ARC
  8
1
 62
7
 10
109.7
 20
-1.400000000000034
 30
0
 40
0.1000000000000085
 50
180
 51
270
  0
ARC
  8
1
 62
7
 10
108.5
 20
-0.2000000000000455
 30
0
 40
0.09999999999999432
 50
180
 51
270
  0
ARC
  8
1
 62
7
 10
108.5
 20
0.1999999999999886
 30
0
 40
0.09999999999996592
 50
90
 51
180
  0
ARC
  8
1
 62
7
 10
125
 20
-19.5
 30
0
 40
10
 50
270
 51
0
  0
ARC
  8
1
 62
7
 10
125
 20
19.5
 30
0
 40
10
 50
0
 51
90
  0
ARC
  8
1
 62
7
 10
136
 20
-13.5
 30
0
 40
1
 50
90
 51
180
  0
ARC
  8
1
 62
7
 10
142.5
 20
-10.5
 30
0
 40
2
 50
270
 51
0
  0
ARC
  8
1
 62
7
 10
136.0154820373594
 20
13.50050386339279
 30
0
 40
1
 50
180
 51
270
  0
ARC
  8
1
 62
7
 10
142.5
 20
10.5
 30
0
 40
2
 50
0
 51
90
  0
ARC
  8
1
 62
7
 10
73.71344422967064
 20
-22.38989363196933
 30
0
 40
7.110633197267861
 50
220.2944144017108
 51
270.6974628948894
  0
LINE
  8
1
 62
2
 10
55.60904257613518
 20
40.5
 30
0
 11
32.19686789242004
 21
40.5
 31
0
  0
LINE
  8
1
 62
2
 10
32.19686789242004
 20
40.5
 30
0
 11
41.10132903049401
 21
31.595538861926
 31
0
  0
SOLID
  8
1
 62
2
 10
38.30063198802642
 20
33.74458928776424
 30
0
 11
38.95227860465577
 21
34.39623590439359
 31
0
 12
41.10132903049401
 22
31.595538861926
 32
0
 13
41.10132903049401
 23
31.595538861926
 33
0
  0
LINE
  8
1
 62
2
 10
111.1579815249747
 20
40
 30
0
 11
86.3256863932927
 21
40
 31
0
  0
LINE
  8
1
 62
2
 10
86.3256863932927
 20
40
 30
0
 11
94.04872971025827
 21
29.5
 31
0
  0
SOLID
  8
1
 62
2
 10
91.60374580049103
 20
32.04644366469426
 30
0
 11
92.34612472465639
 21
32.59248410173535
 31
0
 12
94.04872971025827
 22
29.5
 32
0
 13
94.04872971025827
 23
29.5
 33
0
  0
TEXT
  8
1
 62
2
 10
3.1284834649849
 20
48.29584876068578
 30
0
 40
3.2
  1
(0.197)
 41
0.6300000000000001
 72
1
 73
2
 11
10.1844834649849
 21
49.89584876068578
 31
0
  0
TEXT
  8
1
 62
2
 10
-39.8
 20
17.89181598352308
 30
0
 40
3.2
  1
(0.709DIA.)
 50
90
 41
0.6300000000000001
 72
1
 73
2
 11
-41.4
 21
28.97981598352308
 31
0
  0
TEXT
  8
1
 62
2
 10
-16.3851537860726
 20
29.55317535685259
 30
0
 40
2
  1
%%p0.0118
 50
90
 41
0.63
 72
1
 73
2
 11
-17.3851537860726
 21
35.22317535685259
 31
0
  0
TEXT
  8
1
 62
2
 10
-15.7851537860726
 20
19.39181598352308
 30
0
 40
3.2
  1
(0.276    )
 50
90
 41
0.6300000000000001
 72
1
 73
2
 11
-17.3851537860726
 21
30.47981598352308
 31
0
  0
TEXT
  8
1
 62
2
 10
-0.2291338185131009
 20
60.39525967283628
 30
0
 40
3.2
  1
(1.26)
 41
0.6300000000000001
 72
1
 73
2
 11
5.8188661814869
 21
61.99525967283628
 31
0
  0
TEXT
  8
1
 62
2
 10
-10.8715165350151
 20
48.29584876068578
 30
0
 40
3.2
  1
(0.512)
 41
0.6300000000000001
 72
1
 73
2
 11
-3.815516535015103
 21
49.89584876068578
 31
0
  0
TEXT
  8
1
 62
2
 10
37.1284834649849
 20
48.29584876068578
 30
0
 40
3.2
  1
(1.732)
 41
0.6300000000000001
 72
1
 73
2
 11
44.18448346498489
 21
49.89584876068578
 31
0
  0
TEXT
  8
1
 62
2
 10
34.87210523109899
 20
41.22551303864307
 30
0
 40
3
  1
NAME PLATE
 41
0.6300000000000001
 72
1
 73
2
 11
44.32210523109899
 21
42.72551303864307
 31
0
  0
TEXT
  8
1
 62
2
 10
-27
 20
16.34381598352308
 30
0
 40
3.2
  1
(0.315DIA.      )
 50
90
 41
0.6300000000000001
 72
1
 73
2
 11
-28.6
 21
33.47981598352308
 31
0
  0
TEXT
  8
1
 62
2
 10
-28.8
 20
34.86579333503109
 30
0
 40
2
  1
 0
 50
90
 41
0.63
  0
TEXT
  8
1
 62
2
 10
-26.4
 20
34.86579333503109
 30
0
 40
2
  1
-0.000787
 50
90
 41
0.63
  0
TEXT
  8
1
 62
2
 10
-52.89576323616478
 20
-11.20994335653754
 30
0
 40
3.2
  1
(1.949    )
 50
90
 41
0.6300000000000001
 72
1
 73
2
 11
-54.49576323616478
 21
-0.1219433565375372
 31
0
  0
TEXT
  8
1
 62
2
 10
-53.49576323616478
 20
-1.644512587087958
 30
0
 40
2
  1
%%p0.0118
 50
90
 41
0.63
 72
1
 73
2
 11
-54.49576323616478
 21
4.025487412912042
 31
0
  0
TEXT
  8
1
 62
2
 10
-65.28286461228478
 20
-51.48481685313685
 30
0
 40
3.5
  1
(4-M4 DEPTH 0.236MAX)
 41
0.675
 73
2
 11
-65.28286461228478
 21
-49.73481685313685
 31
0
  0
TEXT
  8
1
 62
2
 10
-120.3574226886887
 20
48.20495267828698
 30
0
 40
3.2
  1
(2.402SQU.)
 41
0.6300000000000001
 72
1
 73
2
 11
-109.2694226886887
 21
49.80495267828698
 31
0
  0
TEXT
  8
1
 62
2
 10
-119.8574226886887
 20
36.20495267828698
 30
0
 40
3.2
  1
(1.949    )
 41
0.6300000000000001
 72
1
 73
2
 11
-108.7694226886887
 21
37.80495267828698
 31
0
  0
TEXT
  8
1
 62
2
 10
-64.89576323616477
 20
-22.75789543257154
 30
0
 40
3.2
  1
(0.394ü@   )
 50
90
 41
0.6300000000000001
 72
1
 73
2
 11
-66.49576323616478
 21
-10.66189543257154
 31
0
  0
TEXT
  8
1
 62
2
 10
-110.4078778667258
 20
36.80495267828698
 30
0
 40
2
  1
%%p0.0118
 41
0.63
 72
1
 73
2
 11
-104.7378778667258
 21
37.80495267828698
 31
0
  0
TEXT
  8
1
 62
2
 10
-65.49576323616478
 20
-11.88446466312196
 30
0
 40
2
  1
%%p0.0197
 50
90
 41
0.63
 72
1
 73
2
 11
-66.49576323616478
 21
-6.21446466312196
 31
0
  0
TEXT
  8
1
 62
2
 10
90.47776825856398
 20
40.82551303864307
 30
0
 40
3
  1
NAME PLATE
 41
0.6300000000000001
 72
1
 73
2
 11
99.92776825856399
 21
42.32551303864307
 31
0
  0
TEXT
  8
1
 62
2
 10
175.4978460456478
 20
-57.68965282932604
 30
0
 40
2
  1
%%p1.181
 50
90
 41
0.63
 72
1
 73
2
 11
174.4978460456478
 21
-52.64965282932604
 31
0
  0
TEXT
  8
1
 62
2
 10
164.1547824644678
 20
-80.11516907639204
 30
0
 40
3.2
  1
(0.118)
 50
90
 41
0.6300000000000001
 72
1
 73
2
 11
162.5547824644678
 21
-73.05916907639204
 31
0
  0
TEXT
  8
1
 62
2
 10
176.0978460456478
 20
-67.910960997667
 30
0
 40
3.2
  1
(11.181   )
 50
90
 41
0.6300000000000001
 72
1
 73
2
 11
174.4978460456478
 21
-56.822960997667
 31
0
  0
TEXT
  8
1
 62
2
 10
164.0491926868409
 20
-11.149359349888
 30
0
 40
3.2
  1
(0.984DIA.)
 50
90
 41
0.6300000000000001
 72
1
 73
2
 11
162.4491926868409
 21
-0.06135934988799363
 31
0
  0
TEXT
  8
1
 62
2
 10
176.0978460456478
 20
-11.149359349888
 30
0
 40
3.2
  1
(2.323DIA.)
 50
90
 41
0.6300000000000001
 72
1
 73
2
 11
174.4978460456478
 21
-0.06135934988799363
 31
0
  0
TEXT
  8
1
 62
2
 10
145.3685292089519
 20
59.49999999999994
 30
0
 40
3.2
  1
(0.374)
 41
0.6300000000000001
 72
1
 73
2
 11
152.4245292089519
 21
61.09999999999994
 31
0
  0
TEXT
  8
1
 62
2
 10
-118.4683596194603
 20
59.87966422655557
 30
0
 40
3.2
  1
(2.52MAX)
 41
0.6300000000000001
 72
1
 73
2
 11
-109.3963596194603
 21
61.47966422655557
 31
0
  0
TEXT
  8
1
 62
2
 10
71.685
 20
60.3
 30
0
 40
3
  1
(4.449)
 41
0.6300000000000001
 72
1
 73
2
 11
78.3
 21
61.8
 31
0
  0
TEXT
  8
1
 62
2
 10
-144.75
 20
93.5
 30
0
 40
5
  1
DME60S6HF
 41
0.9
 72
1
 73
2
 11
-124.5
 21
96
 31
0
  0
DIMENSION
  8
1
  6
CONTINUOUS
 62
2
  2
*D0
  3
DMST_1
 10
22.00000000000001
 20
52.4743656104027
 30
0
 11
44
 21
55.0743656104027
 31
0
 12
0
 22
0
 32
0
 70
0
 13
66
 23
30
 33
0
 14
22.00000000000001
 24
29.5
 34
0
 53
0
  0
DIMENSION
  8
1
  6
CONTINUOUS
 62
2
  2
*D1
  3
DMST_1
 10
17.00000000000002
 20
52.4743656104027
 30
0
 11
10.2368507062801
 21
55.0743656104027
 31
0
 12
0
 22
0
 32
0
 70
0
 13
22.00000000000001
 23
29.5
 33
0
 14
17.00000000000002
 24
18.99981600930903
 34
0
 53
0
  0
DIMENSION
  8
1
  6
CONTINUOUS
 62
2
  2
*D2
  3
DMST_1
 10
-10
 20
52.4743656104027
 30
0
 11
-3.5
 21
55.0743656104027
 31
0
 12
0
 22
0
 32
0
 70
0
 13
3
 23
13
 33
0
 14
-10
 24
13
 34
0
 53
0
  0
DIMENSION
  8
1
  6
CONTINUOUS
 62
2
  2
*D3
  3
DMST_1
 10
-9.999999999999996
 20
64.47958669616961
 30
0
 11
6.000000000000003
 21
67.0795866961696
 31
0
 12
0
 22
0
 32
0
 70
0
 13
22.00000000000001
 23
29.5
 33
0
 14
-10
 24
13
 34
0
 53
0
  0
DIMENSION
  8
1
  6
CONTINUOUS
 62
2
  2
*D4
  3
DMST_1
 10
-43.9611928062272
 20
18.99981600930903
 30
0
 11
-46.5611928062272
 21
28.6108596972679
 31
0
 12
0
 22
0
 32
0
 70
0
  1
âË<>
 13
17.00000000000002
 23
1.000183990691028
 33
0
 14
17.00000000000002
 24
18.99981600930903
 34
0
 50
90
 53
0
  0
DIMENSION
  8
1
  6
CONTINUOUS
 62
2
  2
*D5
  3
DMST_2
 10
-32.02407963547871
 20
14.00024539811398
 30
0
 11
-35.42407963547871
 21
31.1809627366714
 31
0
 12
0
 22
0
 32
0
 70
0
  1
âË<>
 13
-10
 23
6
 33
0
 14
8.385802733759189
 24
14.00024539811398
 34
0
 50
90
 53
0
  0
DIMENSION
  8
1
  6
CONTINUOUS
 62
2
  2
*D6
  3
DMST_3
 10
-19.9735644384611
 20
13
 30
0
 11
-22.5735644384611
 21
30.3242617235369
 31
0
 12
0
 22
0
 32
0
 70
1
 13
-10
 23
6
 33
0
 14
-10
 24
13
 34
0
 53
0
  0
DIMENSION
  8
1
  6
CONTINUOUS
 62
2
  2
*D7
  3
DMST_4
 10
-56.9880333195256
 20
24.75
 30
0
 11
-59.5880333195256
 21
0
 31
0
 12
0
 22
0
 32
0
 70
0
 13
-78.99999999999987
 23
-24.75
 33
0
 14
-78.99999999999987
 24
24.75
 34
0
 50
90
 53
0
  0
DIMENSION
  8
1
  6
CONTINUOUS
 62
2
  2
*D8
  3
DMST_4
 10
-84.74999999999989
 20
40.4412251103172
 30
0
 11
-109.4999999999999
 21
43.0412251103172
 31
0
 12
0
 22
0
 32
0
 70
0
 13
-134.2499999999999
 23
30.5
 33
0
 14
-84.74999999999987
 24
30.5
 34
0
 53
0
  0
DIMENSION
  8
1
  6
CONTINUOUS
 62
2
  2
*D9
  3
DMST_5
 10
-68.97455857919491
 20
0
 30
0
 11
-71.5745585791949
 21
-12.0930059486526
 31
0
 12
0
 22
0
 32
0
 70
0
 13
-100.5
 23
10
 33
0
 14
-78.99999999999987
 24
0
 34
0
 50
90
 53
0
  0
DIMENSION
  8
1
  6
CONTINUOUS
 62
2
  2
*D10
  3
DMST_1
 10
-140
 20
52.6734284650388
 30
0
 11
-109.5
 21
55.2734284650388
 31
0
 12
0
 22
0
 32
0
 70
0
  1
üá<>
 13
-79
 23
25.5
 33
0
 14
-140
 24
25.5
 34
0
 53
0
  0
DIMENSION
  8
1
  6
CONTINUOUS
 62
2
  2
*D11
  3
DMST_1
 10
22.00000000000001
 20
64.47958669616961
 30
0
 11
78.5
 21
67.0795866961696
 31
0
 12
0
 22
0
 32
0
 70
0
 13
135
 23
19.5
 33
0
 14
22.00000000000001
 24
29.5
 34
0
 53
0
  0
DIMENSION
  8
1
  6
CONTINUOUS
 62
2
  2
*D12
  3
DMST_6
 10
160.006501193659
 20
-81.5
 30
0
 11
157.406501193659
 21
-73.54565334582424
 31
0
 12
0
 22
0
 32
0
 70
0
  1
(<>
 13
120.3612878820809
 23
-84.5
 33
0
 14
121
 24
-81.5
 34
0
 50
90
 53
0
  0
DIMENSION
  8
1
  6
CONTINUOUS
 62
2
  2
*D13
  3
DMST_7
 10
171.979643875196
 20
29.5
 30
0
 11
169.379643875196
 21
0
 31
0
 12
0
 22
0
 32
0
 70
0
  1
âË<>
 13
125
 23
-29.5
 33
0
 14
125
 24
29.5
 34
0
 50
90
 53
0
  0
DIMENSION
  8
1
  6
CONTINUOUS
 62
2
  2
*D14
  3
DMST_7
 10
160.006501193659
 20
12.5
 30
0
 11
157.406501193659
 21
0
 31
0
 12
0
 22
0
 32
0
 70
0
  1
âË<>
 13
142.5
 23
-12.5
 33
0
 14
142.5
 24
12.5
 34
0
 50
90
 53
0
  0
DIMENSION
  8
1
  6
CONTINUOUS
 62
2
  2
*D15
  3
DMST_6
 10
144.5
 20
64.47958669616961
 30
0
 11
152.279417744114
 21
67.0795866961696
 31
0
 12
0
 22
0
 32
0
 70
0
  1
(<>
 13
135
 23
19.5
 33
0
 14
144.5
 24
10.5
 34
0
 53
0
  0
DIMENSION
  8
1
  6
CONTINUOUS
 62
2
  2
*D16
  3
DMST_8
 10
171.979643875196
 20
-29.5
 30
0
 11
169.379643875196
 21
-57
 31
0
 12
0
 22
0
 32
0
 70
0
  1
300
 13
120.3612878820809
 23
-84.5
 33
0
 14
125
 24
-29.5
 34
0
 50
90
 53
0
  0
DIMENSION
  8
1
  6
CONTINUOUS
 62
2
  2
*D17
  3
DMST_9
 10
-141.4999999999999
 20
64.3483698805239
 30
0
 11
-109.4999999999999
 21
66.9483698805239
 31
0
 12
0
 22
0
 32
0
 70
0
 13
-77.49999999999987
 23
7
 33
0
 14
-141.4999999999999
 24
7
 34
0
 53
0
  0
INSERT
  8
0
  2
___R___O_______R
 10
0.5
 20
-3.75
 30
0
  0
INSERT
  8
1
  2
*D18
 10
0
 20
0
 30
0
  0
ENDSEC
  0
EOF
