  0
SECTION
  2
HEADER
  9
$ACADVER
  1
AC1009
  9
$INSBASE
 10
0
 20
0
  9
$EXTMIN
 10
-194.5
 20
-146
  9
$EXTMAX
 10
194.5
 20
146
  9
$LIMMIN
 10
-194.5
 20
-146
  9
$LIMMAX
 10
194.5
 20
146
  9
$VIEWCTR
 10
10
 20
10
  9
$VIEWSIZE
 40
10
  9
$SNAPMODE
 70
0
  9
$SNAPUNIT
 10
1
 20
1
  9
$SNAPBASE
 10
0
 20
0
  9
$SNAPANG
 50
0
  9
$SNAPSTYLE
 70
0
  9
$SNAPISOPAIR
 70
0
  9
$GRIDMODE
 70
0
  9
$GRIDUNIT
 10
0
 20
0
  9
$ORTHOMODE
 70
0
  9
$REGENMODE
 70
1
  9
$FILLMODE
 70
1
  9
$QTEXTMODE
 70
0
  9
$DRAGMODE
 70
2
  9
$LTSCALE
 40
1
  9
$OSMODE
 70
0
  9
$ATTMODE
 70
1
  9
$TEXTSIZE
 40
3.5
  9
$TRACEWID
 40
0.5
  9
$TEXTSTYLE
  7
STANDARD
  9
$CLAYER
  8
0
  9
$CELTYPE
  6
BYLAYER
  9
$CECOLOR
 62
256
  9
$DIMSCALE
 40
1
  9
$DIMASZ
 40
0.18
  9
$DIMEXO
 40
0.0625
  9
$DIMDLI
 40
0.38
  9
$DIMRND
 40
0
  9
$DIMDLE
 40
0
  9
$DIMEXE
 40
0.18
  9
$DIMTP
 40
0
  9
$DIMTM
 40
0
  9
$DIMTXT
 40
0.18
  9
$DIMCEN
 40
0.09
  9
$DIMTSZ
 40
0
  9
$DIMTOL
 70
0
  9
$DIMLIM
 70
0
  9
$DIMTIH
 70
1
  9
$DIMTOH
 70
1
  9
$DIMSE1
 70
0
  9
$DIMSE2
 70
0
  9
$DIMTAD
 70
0
  9
$DIMZIN
 70
0
  9
$DIMBLK
  1

  9
$DIMASO
 70
1
  9
$DIMSHO
 70
1
  9
$DIMPOST
  1

  9
$DIMAPOST
  1

  9
$DIMALT
 70
0
  9
$DIMALTD
 70
2
  9
$DIMALTF
 40
25.4
  9
$DIMLFAC
 40
1
  9
$DIMTOFL
 70
0
  9
$DIMTVP
 40
0
  9
$DIMTIX
 70
0
  9
$DIMSOXD
 70
0
  9
$DIMSAH
 70
0
  9
$DIMBLK1
  1

  9
$DIMBLK2
  1

  9
$DIMSTYLE
  2
*UNNAMED
  9
$DIMCLRD
 70
0
  9
$DIMCLRE
 70
0
  9
$DIMCLRT
 70
0
  9
$DIMTFAC
 40
1
  9
$DIMGAP
 40
0.09
  9
$LUNITS
 70
2
  9
$LUPREC
 70
4
  9
$AXISMODE
 70
0
  9
$AXISUNIT
 10
0
 20
0
  9
$SKETCHINC
 40
0.1
  9
$FILLETRAD
 40
2
  9
$AUNITS
 70
0
  9
$AUPREC
 70
0
  9
$MENU
  1
ACAD
  9
$ELEVATION
 40
0
  9
$THICKNESS
 40
0
  9
$VIEWDIR
 10
0
 20
0
 30
1
  9
$LIMCHECK
 70
0
  9
$BLIPMODE
 70
1
  9
$CHAMFERA
 40
0
  9
$CHAMFERB
 40
0
  9
$FASTZOOM
 70
1
  9
$SKPOLY
 70
0
  9
$ANGBASE
 50
0
  9
$ANGDIR
 70
0
  9
$PDMODE
 70
0
  9
$PDSIZE
 40
0
  9
$PLINEWID
 40
0
  9
$COORDS
 70
2
  0
ENDSEC
  0
SECTION
  2
TABLES
  0
TABLE
  2
DIMSTYLE
 70
9
  0
DIMSTYLE
  2
DMST_1
 70
0
  3

  4

  5

  6

  7

 40
1
 41
3.2
 42
1
 43
7
 44
1
 45
0
 46
0
 47
0
 48
0
140
3.2
141
0
142
0
143
25.4
144
1
145
0
146
1
147
0.09
 71
0
 72
0
 73
0
 74
0
 75
0
 76
0
 77
1
 78
9
170
0
171
2
172
0
173
0
174
0
175
0
176
2
177
2
178
2
  0
DIMSTYLE
  2
DMST_2
 70
0
  3

  4

  5

  6

  7

 40
1
 41
3
 42
1
 43
7
 44
1
 45
0
 46
0
 47
0
 48
0
140
3.2
141
0
142
0
143
25.4
144
1
145
0
146
1
147
0.09
 71
0
 72
0
 73
0
 74
0
 75
0
 76
0
 77
1
 78
9
170
0
171
2
172
0
173
0
174
0
175
0
176
2
177
2
178
2
  0
DIMSTYLE
  2
DMST_3
 70
0
  3

  4

  5

  6

  7

 40
1
 41
3
 42
1
 43
7
 44
1
 45
0
 46
0
 47
0.3
 48
0.3
140
3.2
141
0
142
0
143
25.4
144
1
145
0
146
0.6
147
0.09
 71
1
 72
0
 73
0
 74
0
 75
0
 76
0
 77
1
 78
9
170
0
171
2
172
0
173
0
174
0
175
0
176
2
177
2
178
2
  0
DIMSTYLE
  2
DMST_4
 70
0
  3

  4

  5

  6

  7

 40
1
 41
3
 42
1
 43
7
 44
1
 45
0
 46
0
 47
0.5
 48
0.5
140
3.2
141
0
142
0
143
25.4
144
1
145
0
146
0.6
147
0.09
 71
1
 72
0
 73
0
 74
0
 75
0
 76
0
 77
1
 78
9
170
0
171
2
172
0
173
0
174
0
175
0
176
2
177
2
178
2
  0
DIMSTYLE
  2
DMST_5
 70
0
  3

  4

  5

  6

  7

 40
1
 41
3.2
 42
1
 43
7
 44
1
 45
0
 46
0
 47
0.3
 48
0.3
140
3.2
141
0
142
0
143
25.4
144
1
145
0
146
0.6
147
0.09
 71
1
 72
0
 73
0
 74
0
 75
0
 76
0
 77
1
 78
9
170
0
171
2
172
0
173
0
174
0
175
0
176
2
177
2
178
2
  0
DIMSTYLE
  2
DMST_6
 70
0
  3

  4

  5

  6

  7

 40
1
 41
3.2
 42
1
 43
7
 44
1
 45
0
 46
0
 47
0
 48
0.02
140
3.2
141
0
142
0
143
25.4
144
1
145
0
146
0.6
147
0.09
 71
1
 72
0
 73
0
 74
0
 75
0
 76
0
 77
1
 78
9
170
0
171
2
172
0
173
0
174
0
175
0
176
2
177
2
178
2
  0
DIMSTYLE
  2
DMST_7
 70
0
  3
)
  4

  5

  6

  7

 40
1
 41
3
 42
1
 43
7
 44
1
 45
0
 46
0
 47
0
 48
0
140
3.2
141
0
142
0
143
25.4
144
1
145
0
146
1
147
0.09
 71
0
 72
0
 73
0
 74
0
 75
0
 76
0
 77
1
 78
9
170
0
171
2
172
0
173
0
174
0
175
0
176
2
177
2
178
2
  0
DIMSTYLE
  2
DMST_8
 70
0
  3

  4

  5

  6

  7

 40
1
 41
3
 42
1
 43
7
 44
1
 45
0
 46
0
 47
30
 48
30
140
3.2
141
0
142
0
143
25.4
144
1
145
0
146
0.6
147
0.09
 71
1
 72
0
 73
0
 74
0
 75
0
 76
0
 77
1
 78
9
170
0
171
2
172
0
173
0
174
0
175
0
176
2
177
2
178
2
  0
DIMSTYLE
  2
DMST_9
 70
0
  3
MAX
  4

  5

  6

  7

 40
1
 41
3
 42
1
 43
7
 44
1
 45
0
 46
0
 47
0
 48
0
140
3.2
141
0
142
0
143
25.4
144
1
145
0
146
1
147
0.09
 71
0
 72
0
 73
0
 74
0
 75
0
 76
0
 77
1
 78
9
170
0
171
2
172
0
173
0
174
0
175
0
176
2
177
2
178
2
  0
ENDTAB
  0
TABLE
  2
LTYPE
 70
9
  0
LTYPE
  2
CONTINUOUS
 70
64
  3
Solid line
 72
65
 73
0
 40
0
  0
LTYPE
  2
BORDER
 70
64
  3
__ __ . __ __ .
 72
65
 73
6
 40
17.91447368421053
 49
5.118421052631579
 49
-2.559210526315789
 49
5.118421052631579
 49
-2.559210526315789
 49
0
 49
-2.559210526315789
  0
LTYPE
  2
CENTER
 70
64
  3
____ _ ____ _
 72
65
 73
4
 40
20.47368421052632
 49
12.79605263157895
 49
-2.559210526315789
 49
2.559210526315789
 49
-2.559210526315789
  0
LTYPE
  2
DASHDOT
 70
64
  3
__ . __ . __ .
 72
65
 73
4
 40
10.23684210526316
 49
5.118421052631579
 49
-2.559210526315789
 49
0
 49
-2.559210526315789
  0
LTYPE
  2
DASHED
 70
64
  3
__ __ __ __ __
 72
65
 73
2
 40
7.677631578947368
 49
5.118421052631579
 49
-2.559210526315789
  0
LTYPE
  2
DIVIDE
 70
64
  3
__ . . __ . . 
 72
65
 73
6
 40
12.79605263157895
 49
5.118421052631579
 49
-2.559210526315789
 49
0
 49
-2.559210526315789
 49
0
 49
-2.559210526315789
  0
LTYPE
  2
DOT
 70
64
  3
..............
 72
65
 73
4
 40
5.118421052631579
 49
0
 49
-2.559210526315789
 49
0
 49
-2.559210526315789
  0
LTYPE
  2
HIDDEN
 70
64
  3
_ _ _ _ _ _ _
 72
65
 73
2
 40
3.838815789473684
 49
2.559210526315789
 49
-1.279605263157895
  0
LTYPE
  2
PHANTOM
 70
64
  3
_____ _ _ _____ _ _ 
 72
65
 73
6
 40
25.59210526315789
 49
12.79605263157895
 49
-2.559210526315789
 49
2.559210526315789
 49
-2.559210526315789
 49
2.559210526315789
 49
-2.559210526315789
  0
ENDTAB
  0
TABLE
  2
LAYER
 70
3
  0
LAYER
  2
1
 70
0
 62
7
  6
CONTINUOUS
  0
LAYER
  2
0
 70
0
 62
7
  6
CONTINUOUS
  0
ENDTAB
  0
TABLE
  2
STYLE
 70
4
  0
STYLE
  2
STANDARD
 70
0
 40
0
 41
1
 50
0
 71
0
 42
3.5
  3
txt
  4

  0
STYLE
  2
SIMPLEX
 70
0
 40
0
 41
1
 50
0
 71
0
 42
3.5
  3
simplex
  4

  0
STYLE
  2
COMPLEX
 70
0
 40
0
 41
1
 50
0
 71
0
 42
3.5
  3
complex
  4

  0
STYLE
  2
ITALIC
 70
0
 40
0
 41
1
 50
0
 71
0
 42
3.5
  3
italic
  4

  0
ENDTAB
  0
TABLE
  2
VIEW
 70
0
  0
ENDTAB
  0
ENDSEC
  0
SECTION
  2
BLOCKS
  0
BLOCK
  8
0
  2
___R___O_______R
 70
0
 10
0.5
 20
-3.75
 30
0
  0
LINE
  8
1
 62
4
  6
PHANTOM
 10
194.5
 20
-136.5
 30
0
 11
194.5
 21
-146
 31
0
  0
LINE
  8
1
 62
4
  6
PHANTOM
 10
-194.5
 20
-146
 30
0
 11
-194.5
 21
146
 31
0
  0
LINE
  8
1
 62
4
  6
PHANTOM
 10
194.5
 20
146
 30
0
 11
194.5
 21
129
 31
0
  0
LINE
  8
1
 62
4
  6
PHANTOM
 10
194.5
 20
146
 30
0
 11
-194.5
 21
146
 31
0
  0
LINE
  8
1
 62
4
  6
PHANTOM
 10
-194.5
 20
-146
 30
0
 11
194.5
 21
-146
 31
0
  0
TEXT
  8
1
 62
4
 10
178.746911898274
 20
-142.6071298819256
 30
0
 40
5
  1
A3
 41
0.9
 72
1
 73
2
 11
183.246911898274
 21
-140.1071298819256
 31
0
  0
ENDBLK
  8
0
  0
BLOCK
  8
1
  2
*D0
 70
1
 10
0
 20
0
 30
0
  0
LINE
  8
1
 62
2
 10
31.39999999999998
 20
52.4748173182795
 30
0
 11
24.99999999999998
 21
52.4748173182795
 31
0
  0
LINE
  8
1
 62
2
 10
20
 20
52.4748173182795
 30
0
 11
24.99999999999998
 21
52.4748173182795
 31
0
  0
LINE
  8
1
 62
2
 10
20
 20
52.4748173182795
 30
0
 11
13.6
 21
52.4748173182795
 31
0
  0
LINE
  8
1
 62
2
 10
20
 20
20.00000000000012
 30
0
 11
20
 21
53.4748173182795
 31
0
  0
LINE
  8
1
 62
2
 10
24.99999999999998
 20
30.3629393324681
 30
0
 11
24.99999999999998
 21
53.4748173182795
 31
0
  0
SOLID
  8
1
 62
2
 10
20
 20
52.4748173182795
 30
0
 11
16.8
 21
52.0588173182795
 31
0
 12
16.8
 22
52.8908173182795
 32
0
 13
16.8
 23
52.8908173182795
 33
0
  0
SOLID
  8
1
 62
2
 10
24.99999999999998
 20
52.4748173182795
 30
0
 11
28.19999999999998
 21
52.8908173182795
 31
0
 12
28.19999999999998
 22
52.0588173182795
 32
0
 13
28.19999999999998
 23
52.0588173182795
 33
0
  0
TEXT
  8
1
 62
2
 10
14.6593324142064
 20
53.4748173182795
 30
0
 40
3.2
  1
5
 41
0.9
  0
ENDBLK
  8
0
  0
BLOCK
  8
1
  2
*D1
 70
1
 10
0
 20
0
 30
0
  0
LINE
  8
1
 62
2
 10
-130.5
 20
52.3174890833463
 30
0
 11
-69.49999999999989
 21
52.3174890833463
 31
0
  0
LINE
  8
1
 62
2
 10
-130.5
 20
25.75
 30
0
 11
-130.5
 21
53.3174890833463
 31
0
  0
LINE
  8
1
 62
2
 10
-69.49999999999989
 20
25.75
 30
0
 11
-69.49999999999989
 21
53.3174890833463
 31
0
  0
SOLID
  8
1
 62
2
 10
-130.5
 20
52.3174890833463
 30
0
 11
-127.5
 21
52.7074890833463
 31
0
 12
-127.5
 22
51.9274890833463
 32
0
 13
-127.5
 23
51.9274890833463
 33
0
  0
SOLID
  8
1
 62
2
 10
-69.49999999999989
 20
52.3174890833463
 30
0
 11
-72.49999999999989
 21
51.9274890833463
 31
0
 12
-72.49999999999989
 22
52.7074890833463
 32
0
 13
-72.49999999999989
 23
52.7074890833463
 33
0
  0
TEXT
  8
1
 62
2
 10
-99.83111111111101
 20
53.3174890833463
 30
0
 40
3.2
  1
61
 41
0.9
  0
TEXT
  8
1
 62
2
 10
-104.0088888888888
 20
53.3174890833463
 30
0
 40
3.2
  1
üá
 41
0.9
  0
ENDBLK
  8
0
  0
BLOCK
  8
1
  2
*D2
 70
1
 10
0
 20
0
 30
0
  0
LINE
  8
1
 62
2
 10
-124.7499999999999
 20
40.4603039403511
 30
0
 11
-75.24999999999989
 21
40.4603039403511
 31
0
  0
LINE
  8
1
 62
2
 10
-124.7499999999999
 20
31.5
 30
0
 11
-124.7499999999999
 21
41.4603039403511
 31
0
  0
LINE
  8
1
 62
2
 10
-75.24999999999989
 20
31.5
 30
0
 11
-75.24999999999989
 21
41.4603039403511
 31
0
  0
SOLID
  8
1
 62
2
 10
-124.7499999999999
 20
40.4603039403511
 30
0
 11
-121.7499999999999
 21
40.8503039403511
 31
0
 12
-121.7499999999999
 22
40.0703039403511
 32
0
 13
-121.7499999999999
 23
40.0703039403511
 33
0
  0
SOLID
  8
1
 62
2
 10
-75.24999999999989
 20
40.4603039403511
 30
0
 11
-78.24999999999989
 21
40.0703039403511
 31
0
 12
-78.24999999999989
 22
40.8503039403511
 32
0
 13
-78.24999999999989
 23
40.8503039403511
 33
0
  0
TEXT
  8
1
 62
2
 10
-107.5839999999999
 20
41.4603039403511
 30
0
 40
3.2
  1
49.5
 41
0.9
  0
TEXT
  8
1
 62
2
 10
-97.2639999999999
 20
42.1003039403511
 30
0
 40
1.92
  1
%%p0.3
 41
0.9
  0
ENDBLK
  8
0
  0
BLOCK
  8
1
  2
*D3
 70
1
 10
0
 20
0
 30
0
  0
LINE
  8
1
 62
2
 10
-47.38099567361081
 20
-24.75
 30
0
 11
-47.38099567361081
 21
24.75
 31
0
  0
LINE
  8
1
 62
2
 10
-68.4999999999999
 20
-24.75
 30
0
 11
-46.38099567361081
 21
-24.75
 31
0
  0
LINE
  8
1
 62
2
 10
-68.4999999999999
 20
24.75
 30
0
 11
-46.38099567361081
 21
24.75
 31
0
  0
SOLID
  8
1
 62
2
 10
-47.38099567361081
 20
24.75
 30
0
 11
-46.99099567361081
 21
21.75
 31
0
 12
-47.77099567361081
 22
21.75
 32
0
 13
-47.77099567361081
 23
21.75
 33
0
  0
SOLID
  8
1
 62
2
 10
-47.38099567361081
 20
-24.75
 30
0
 11
-47.77099567361081
 21
-21.75
 31
0
 12
-46.99099567361081
 22
-21.75
 32
0
 13
-46.99099567361081
 23
-21.75
 33
0
  0
TEXT
  8
1
 62
2
 10
-48.38099567361081
 20
-7.584
 30
0
 40
3.2
  1
49.5
 50
90
 41
0.9
  0
TEXT
  8
1
 62
2
 10
-49.02099567361081
 20
2.736000000000001
 30
0
 40
1.92
  1
%%p0.3
 50
90
 41
0.9
  0
ENDBLK
  8
0
  0
BLOCK
  8
1
  2
*D4
 70
1
 10
0
 20
0
 30
0
  0
LINE
  8
1
 62
2
 10
-59.4462016085883
 20
0
 30
0
 11
-59.4462016085883
 21
10
 31
0
  0
LINE
  8
1
 62
2
 10
-59.4462016085883
 20
0
 30
0
 11
-59.4462016085883
 21
-13.67285247127719
 31
0
  0
LINE
  8
1
 62
2
 10
-68.49999999999989
 20
0
 30
0
 11
-58.4462016085883
 21
0
 31
0
  0
LINE
  8
1
 62
2
 10
-89.9999999999999
 20
10
 30
0
 11
-58.4462016085883
 21
10
 31
0
  0
SOLID
  8
1
 62
2
 10
-59.4462016085883
 20
10
 30
0
 11
-59.0562016085883
 21
7
 31
0
 12
-59.8362016085883
 22
7
 32
0
 13
-59.8362016085883
 23
7
 33
0
  0
SOLID
  8
1
 62
2
 10
-59.4462016085883
 20
0
 30
0
 11
-59.8362016085883
 21
3
 31
0
 12
-59.0562016085883
 22
3
 32
0
 13
-59.0562016085883
 23
3
 33
0
  0
TEXT
  8
1
 62
2
 10
-60.44620160858829
 20
-13.67285247127719
 30
0
 40
3.2
  1
10
 50
90
 41
0.9
  0
TEXT
  8
1
 62
2
 10
-61.08620160858829
 20
-8.232852471277191
 30
0
 40
1.92
  1
%%p0.5
 50
90
 41
0.9
  0
ENDBLK
  8
0
  0
BLOCK
  8
1
  2
*D5
 70
1
 10
0
 20
0
 30
0
  0
LINE
  8
1
 62
2
 10
0
 20
64.38303131701611
 30
0
 11
24.99999999999998
 21
64.38303131701611
 31
0
  0
LINE
  8
1
 62
2
 10
0
 20
13.5
 30
0
 11
0
 21
65.38303131701611
 31
0
  0
LINE
  8
1
 62
2
 10
24.99999999999998
 20
30.3629393324681
 30
0
 11
24.99999999999998
 21
65.38303131701611
 31
0
  0
SOLID
  8
1
 62
2
 10
0
 20
64.38303131701611
 30
0
 11
3.200000000000001
 21
64.7990313170161
 31
0
 12
3.200000000000001
 22
63.96703131701611
 32
0
 13
3.200000000000001
 23
63.96703131701611
 33
0
  0
SOLID
  8
1
 62
2
 10
24.99999999999998
 20
64.38303131701611
 30
0
 11
21.79999999999998
 21
63.96703131701611
 31
0
 12
21.79999999999998
 22
64.7990313170161
 32
0
 13
21.79999999999998
 23
64.7990313170161
 33
0
  0
TEXT
  8
1
 62
2
 10
10.09999999999999
 20
65.38303131701611
 30
0
 40
3.2
  1
25
 41
0.9
  0
ENDBLK
  8
0
  0
BLOCK
  8
1
  2
*D6
 70
1
 10
0
 20
0
 30
0
  0
LINE
  8
1
 62
2
 10
-33.49820191931385
 20
19.00000000000012
 30
0
 11
-33.49820191931385
 21
32.57069692846512
 31
0
  0
LINE
  8
1
 62
2
 10
-33.49820191931385
 20
1.000183990690921
 30
0
 11
-33.49820191931385
 21
19.00000000000012
 31
0
  0
LINE
  8
1
 62
2
 10
19
 20
19.00000000000012
 30
0
 11
-34.49820191931385
 21
19.00000000000012
 31
0
  0
LINE
  8
1
 62
2
 10
19
 20
1.000183990690921
 30
0
 11
-34.49820191931385
 21
1.000183990690921
 31
0
  0
SOLID
  8
1
 62
2
 10
-33.49820191931385
 20
19.00000000000012
 30
0
 11
-33.08220191931385
 21
15.80000000000012
 31
0
 12
-33.91420191931385
 22
15.80000000000012
 32
0
 13
-33.91420191931385
 23
15.80000000000012
 33
0
  0
SOLID
  8
1
 62
2
 10
-33.49820191931385
 20
1.000183990690921
 30
0
 11
-33.91420191931385
 21
4.200183990690922
 31
0
 12
-33.08220191931385
 22
4.200183990690922
 32
0
 13
-33.08220191931385
 23
4.200183990690922
 33
0
  0
TEXT
  8
1
 62
2
 10
-34.49820191931385
 20
28.73069692846512
 30
0
 40
3.2
  1
18
 50
90
 41
0.9
  0
TEXT
  8
1
 62
2
 10
-34.49820191931385
 20
25.08625248402068
 30
0
 40
3.2
  1
âË
 50
90
 41
0.9
  0
ENDBLK
  8
0
  0
BLOCK
  8
1
  2
*D7
 70
1
 10
0
 20
0
 30
0
  0
LINE
  8
1
 62
2
 10
-9.462236904234031
 20
12.5
 30
0
 11
-9.462236904234031
 21
35.8056550740146
 31
0
  0
LINE
  8
1
 62
2
 10
-9.462236904234031
 20
7.000000000000121
 30
0
 11
-9.462236904234031
 21
12.5
 31
0
  0
LINE
  8
1
 62
2
 10
-9.462236904234031
 20
0.6000000000001187
 30
0
 11
-9.462236904234031
 21
7.000000000000121
 31
0
  0
LINE
  8
1
 62
2
 10
-1
 20
12.5
 30
0
 11
-10.46223690423403
 21
12.5
 31
0
  0
LINE
  8
1
 62
2
 10
-1
 20
7.000000000000121
 30
0
 11
-10.46223690423403
 21
7.000000000000121
 31
0
  0
SOLID
  8
1
 62
2
 10
-9.462236904234031
 20
12.5
 30
0
 11
-9.878236904234031
 21
15.7
 31
0
 12
-9.046236904234032
 22
15.7
 32
0
 13
-9.046236904234032
 23
15.7
 33
0
  0
SOLID
  8
1
 62
2
 10
-9.462236904234031
 20
7.000000000000121
 30
0
 11
-9.046236904234032
 21
3.80000000000012
 31
0
 12
-9.878236904234031
 22
3.80000000000012
 32
0
 13
-9.878236904234031
 23
3.80000000000012
 33
0
  0
TEXT
  8
1
 62
2
 10
-10.46223690423394
 20
23.5176550740146
 30
0
 40
3.2
  1
5.5
 50
90
 41
0.9
  0
TEXT
  8
1
 62
2
 10
-11.10223690423394
 20
30.9576550740146
 30
0
 40
1.92
  1
%%p0.3
 50
90
 41
0.9
  0
ENDBLK
  8
0
  0
BLOCK
  8
1
  2
*D8
 70
1
 10
0
 20
0
 30
0
  0
LINE
  8
1
 62
2
 10
0
 20
52.5337219705081
 30
0
 11
11.99999999999989
 21
52.5337219705081
 31
0
  0
LINE
  8
1
 62
2
 10
11.99999999999989
 20
13.5
 30
0
 11
11.99999999999989
 21
53.5337219705081
 31
0
  0
LINE
  8
1
 62
2
 10
0
 20
13.5
 30
0
 11
0
 21
53.5337219705081
 31
0
  0
SOLID
  8
1
 62
2
 10
0
 20
52.5337219705081
 30
0
 11
3.200000000000001
 21
52.94972197050809
 31
0
 12
3.200000000000001
 22
52.1177219705081
 32
0
 13
3.200000000000001
 23
52.1177219705081
 33
0
  0
SOLID
  8
1
 62
2
 10
11.99999999999989
 20
52.5337219705081
 30
0
 11
8.799999999999889
 21
52.1177219705081
 31
0
 12
8.799999999999889
 22
52.94972197050809
 32
0
 13
8.799999999999889
 23
52.94972197050809
 33
0
  0
TEXT
  8
1
 62
2
 10
4.079999999999945
 20
53.5337219705081
 30
0
 40
3.2
  1
12
 41
0.9
  0
ENDBLK
  8
0
  0
BLOCK
  8
1
  2
*D9
 70
1
 10
0
 20
0
 30
0
  0
LINE
  8
1
 62
2
 10
-21.5906949178695
 20
13.00000000000023
 30
0
 11
-21.5906949178695
 21
39.31877310665042
 31
0
  0
LINE
  8
1
 62
2
 10
-21.5906949178695
 20
7.000000000000117
 30
0
 11
-21.5906949178695
 21
13.00000000000023
 31
0
  0
LINE
  8
1
 62
2
 10
-21.5906949178695
 20
0.6000000000001187
 30
0
 11
-21.5906949178695
 21
7.000000000000117
 31
0
  0
LINE
  8
1
 62
2
 10
14.84057287393535
 20
13.00000000000023
 30
0
 11
-22.5906949178695
 21
13.00000000000023
 31
0
  0
LINE
  8
1
 62
2
 10
-1
 20
7.000000000000117
 30
0
 11
-22.5906949178695
 21
7.000000000000117
 31
0
  0
SOLID
  8
1
 62
2
 10
-21.5906949178695
 20
7.000000000000117
 30
0
 11
-21.1746949178695
 21
3.800000000000117
 31
0
 12
-22.0066949178695
 22
3.800000000000117
 32
0
 13
-22.0066949178695
 23
3.800000000000117
 33
0
  0
SOLID
  8
1
 62
2
 10
-21.5906949178695
 20
13.00000000000023
 30
0
 11
-22.0066949178695
 21
16.20000000000023
 31
0
 12
-21.17469491786951
 22
16.20000000000023
 32
0
 13
-21.17469491786951
 23
16.20000000000023
 33
0
  0
TEXT
  8
1
 62
2
 10
-23.3906949178695
 20
29.03077310665042
 30
0
 40
3.2
  1
6
 50
90
 41
0.9
  0
TEXT
  8
1
 62
2
 10
-25.4706949178695
 20
32.55077310665042
 30
0
 40
1.92
  1
 0
 50
90
 41
0.9
  0
TEXT
  8
1
 62
2
 10
-22.5906949178695
 20
32.55077310665042
 30
0
 40
1.92
  1
-0.02
 50
90
 41
0.9
  0
TEXT
  8
1
 62
2
 10
-23.3906949178695
 20
25.38632866220598
 30
0
 40
3.2
  1
âË
 50
90
 41
0.9
  0
ENDBLK
  8
0
  0
BLOCK
  8
1
  2
*D10
 70
1
 10
0
 20
0
 30
0
  0
LINE
  8
1
 62
2
 10
24.99999999999999
 20
52.484356262941
 30
0
 11
54.00000000000011
 21
52.484356262941
 31
0
  0
LINE
  8
1
 62
2
 10
54.00000000000011
 20
31
 30
0
 11
54.00000000000011
 21
53.484356262941
 31
0
  0
LINE
  8
1
 62
2
 10
24.99999999999999
 20
30.3629393324681
 30
0
 11
24.99999999999999
 21
53.484356262941
 31
0
  0
SOLID
  8
1
 62
2
 10
24.99999999999999
 20
52.484356262941
 30
0
 11
28.19999999999999
 21
52.900356262941
 31
0
 12
28.19999999999999
 22
52.068356262941
 32
0
 13
28.19999999999999
 23
52.068356262941
 33
0
  0
SOLID
  8
1
 62
2
 10
54.00000000000011
 20
52.484356262941
 30
0
 11
50.8000000000001
 21
52.068356262941
 31
0
 12
50.8000000000001
 22
52.900356262941
 32
0
 13
50.8000000000001
 23
52.900356262941
 33
0
  0
TEXT
  8
1
 62
2
 10
37.10000000000006
 20
53.484356262941
 30
0
 40
3.2
  1
29
 41
0.9
  0
ENDBLK
  8
0
  0
BLOCK
  8
1
  2
*D11
 70
1
 10
0
 20
0
 30
0
  0
LINE
  8
1
 62
2
 10
24.99999999999998
 20
64.40034541830811
 30
0
 11
122.9999999999998
 21
64.40034541830811
 31
0
  0
LINE
  8
1
 62
2
 10
122.9999999999998
 20
20.5
 30
0
 11
122.9999999999998
 21
65.40034541830811
 31
0
  0
LINE
  8
1
 62
2
 10
24.99999999999998
 20
30.3629393324681
 30
0
 11
24.99999999999998
 21
65.40034541830811
 31
0
  0
SOLID
  8
1
 62
2
 10
24.99999999999998
 20
64.40034541830811
 30
0
 11
28.19999999999998
 21
64.8163454183081
 31
0
 12
28.19999999999998
 22
63.98434541830811
 32
0
 13
28.19999999999998
 23
63.98434541830811
 33
0
  0
SOLID
  8
1
 62
2
 10
122.9999999999998
 20
64.40034541830811
 30
0
 11
119.7999999999998
 21
63.98434541830811
 31
0
 12
119.7999999999998
 22
64.8163454183081
 32
0
 13
119.7999999999998
 23
64.8163454183081
 33
0
  0
TEXT
  8
1
 62
2
 10
71.59999999999987
 20
65.40034541830811
 30
0
 40
3.2
  1
98
 41
0.9
  0
ENDBLK
  8
0
  0
BLOCK
  8
1
  2
*D12
 70
1
 10
0
 20
0
 30
0
  0
LINE
  8
1
 62
2
 10
148.0065011936588
 20
-95.5
 30
0
 11
148.0065011936588
 21
-89.5
 31
0
  0
LINE
  8
1
 62
2
 10
148.0065011936588
 20
-89.5
 30
0
 11
148.0065011936588
 21
-86.5
 31
0
  0
LINE
  8
1
 62
2
 10
148.0065011936588
 20
-86.5
 30
0
 11
148.0065011936588
 21
-75.50565334582421
 31
0
  0
LINE
  8
1
 62
2
 10
109.3612878820807
 20
-89.5
 30
0
 11
149.0065011936588
 21
-89.5
 31
0
  0
LINE
  8
1
 62
2
 10
109.9999999999998
 20
-86.5
 30
0
 11
149.0065011936588
 21
-86.5
 31
0
  0
SOLID
  8
1
 62
2
 10
148.0065011936588
 20
-86.5
 30
0
 11
147.6165011936588
 21
-83.5
 31
0
 12
148.3965011936588
 22
-83.5
 32
0
 13
148.3965011936588
 23
-83.5
 33
0
  0
SOLID
  8
1
 62
2
 10
148.0065011936588
 20
-89.5
 30
0
 11
148.3965011936588
 21
-92.5
 31
0
 12
147.6165011936588
 22
-92.5
 32
0
 13
147.6165011936588
 23
-92.5
 33
0
  0
TEXT
  8
1
 62
2
 10
147.0065011936588
 20
-79.5056533458242
 30
0
 40
3.2
  1
3
 50
90
 41
0.9
  0
TEXT
  8
1
 62
2
 10
147.0065011936588
 20
-81.58565334582421
 30
0
 40
3.2
  1
(
 50
90
 41
0.9
  0
TEXT
  8
1
 62
2
 10
147.0065011936588
 20
-75.9856533458242
 30
0
 40
3.2
  1
)
 50
90
 41
0.9
  0
ENDBLK
  8
0
  0
BLOCK
  8
1
  2
*D13
 70
1
 10
0
 20
0
 30
0
  0
LINE
  8
1
 62
2
 10
159.9796438751958
 20
-29.5
 30
0
 11
159.9796438751958
 21
29.5
 31
0
  0
LINE
  8
1
 62
2
 10
113.9999999999998
 20
-29.5
 30
0
 11
160.9796438751958
 21
-29.5
 31
0
  0
LINE
  8
1
 62
2
 10
113.9999999999998
 20
29.5
 30
0
 11
160.9796438751958
 21
29.5
 31
0
  0
SOLID
  8
1
 62
2
 10
159.9796438751958
 20
29.5
 30
0
 11
160.3696438751958
 21
26.5
 31
0
 12
159.5896438751958
 22
26.5
 32
0
 13
159.5896438751958
 23
26.5
 33
0
  0
SOLID
  8
1
 62
2
 10
159.9796438751958
 20
-29.5
 30
0
 11
159.5896438751958
 21
-26.5
 31
0
 12
160.3696438751958
 22
-26.5
 32
0
 13
160.3696438751958
 23
-26.5
 33
0
  0
TEXT
  8
1
 62
2
 10
158.9796438751958
 20
-0.5777777777777886
 30
0
 40
3.2
  1
59
 50
90
 41
0.9
  0
TEXT
  8
1
 62
2
 10
158.9796438751958
 20
-4.222222222222233
 30
0
 40
3.2
  1
âË
 50
90
 41
0.9
  0
ENDBLK
  8
0
  0
BLOCK
  8
1
  2
*D14
 70
1
 10
0
 20
0
 30
0
  0
LINE
  8
1
 62
2
 10
148.0065011936588
 20
-12.5
 30
0
 11
148.0065011936588
 21
12.5
 31
0
  0
LINE
  8
1
 62
2
 10
131.4999999999998
 20
-12.5
 30
0
 11
149.0065011936588
 21
-12.5
 31
0
  0
LINE
  8
1
 62
2
 10
131.4999999999998
 20
12.5
 30
0
 11
149.0065011936588
 21
12.5
 31
0
  0
SOLID
  8
1
 62
2
 10
148.0065011936588
 20
12.5
 30
0
 11
148.3965011936588
 21
9.499999999999996
 31
0
 12
147.6165011936588
 22
9.499999999999996
 32
0
 13
147.6165011936588
 23
9.499999999999996
 33
0
  0
SOLID
  8
1
 62
2
 10
148.0065011936588
 20
-12.5
 30
0
 11
147.6165011936588
 21
-9.500000000000004
 31
0
 12
148.3965011936588
 22
-9.500000000000004
 32
0
 13
148.3965011936588
 23
-9.500000000000004
 33
0
  0
TEXT
  8
1
 62
2
 10
147.0065011936588
 20
-0.5777777777777815
 30
0
 40
3.2
  1
25
 50
90
 41
0.9
  0
TEXT
  8
1
 62
2
 10
147.0065011936588
 20
-4.222222222222226
 30
0
 40
3.2
  1
âË
 50
90
 41
0.9
  0
ENDBLK
  8
0
  0
BLOCK
  8
1
  2
*D15
 70
1
 10
0
 20
0
 30
0
  0
LINE
  8
1
 62
2
 10
132.4999999999998
 20
64.3668930959667
 30
0
 11
145.5739635464188
 21
64.3668930959667
 31
0
  0
LINE
  8
1
 62
2
 10
122.9999999999998
 20
64.3668930959667
 30
0
 11
132.4999999999998
 21
64.3668930959667
 31
0
  0
LINE
  8
1
 62
2
 10
132.4999999999998
 20
11.5
 30
0
 11
132.4999999999998
 21
65.3668930959667
 31
0
  0
LINE
  8
1
 62
2
 10
122.9999999999998
 20
20.5
 30
0
 11
122.9999999999998
 21
65.3668930959667
 31
0
  0
SOLID
  8
1
 62
2
 10
122.9999999999998
 20
64.3668930959667
 30
0
 11
125.9999999999998
 21
64.7568930959667
 31
0
 12
125.9999999999998
 22
63.9768930959667
 32
0
 13
125.9999999999998
 23
63.9768930959667
 33
0
  0
SOLID
  8
1
 62
2
 10
132.4999999999998
 20
64.3668930959667
 30
0
 11
129.4999999999998
 21
63.9768930959667
 31
0
 12
129.4999999999998
 22
64.7568930959667
 32
0
 13
129.4999999999998
 23
64.7568930959667
 33
0
  0
TEXT
  8
1
 62
2
 10
137.6539635464188
 20
65.3668930959667
 30
0
 40
3.2
  1
9.5
 41
0.9
  0
TEXT
  8
1
 62
2
 10
135.5739635464188
 20
65.3668930959667
 30
0
 40
3.2
  1
(
 41
0.9
  0
TEXT
  8
1
 62
2
 10
145.0939635464188
 20
65.3668930959667
 30
0
 40
3.2
  1
)
 41
0.9
  0
ENDBLK
  8
0
  0
BLOCK
  8
1
  2
*D16
 70
1
 10
0
 20
0
 30
0
  0
LINE
  8
1
 62
2
 10
159.9796438751958
 20
-89.5
 30
0
 11
159.9796438751958
 21
-29.5
 31
0
  0
LINE
  8
1
 62
2
 10
109.3612878820807
 20
-89.5
 30
0
 11
160.9796438751958
 21
-89.5
 31
0
  0
LINE
  8
1
 62
2
 10
113.9999999999998
 20
-29.5
 30
0
 11
160.9796438751958
 21
-29.5
 31
0
  0
SOLID
  8
1
 62
2
 10
159.9796438751958
 20
-89.5
 30
0
 11
159.5896438751958
 21
-86.5
 31
0
 12
160.3696438751958
 22
-86.5
 32
0
 13
160.3696438751958
 23
-86.5
 33
0
  0
SOLID
  8
1
 62
2
 10
159.9796438751958
 20
-29.5
 30
0
 11
160.3696438751958
 21
-32.5
 31
0
 12
159.5896438751958
 22
-32.5
 32
0
 13
159.5896438751958
 23
-32.5
 33
0
  0
TEXT
  8
1
 62
2
 10
158.9796438751958
 20
-66.252
 30
0
 40
3.2
  1
300
 50
90
 41
0.9
  0
TEXT
  8
1
 62
2
 10
158.3396438751958
 20
-56.972
 30
0
 40
1.92
  1
%%p30
 50
90
 41
0.9
  0
ENDBLK
  8
0
  0
BLOCK
  8
1
  2
*D17
 70
1
 10
0
 20
0
 30
0
  0
LINE
  8
1
 62
2
 10
-131.9999999999999
 20
64.3483698805239
 30
0
 11
-67.99999999999987
 21
64.3483698805239
 31
0
  0
LINE
  8
1
 62
2
 10
-131.9999999999999
 20
8
 30
0
 11
-131.9999999999999
 21
65.3483698805239
 31
0
  0
LINE
  8
1
 62
2
 10
-67.99999999999987
 20
8
 30
0
 11
-67.99999999999987
 21
65.3483698805239
 31
0
  0
SOLID
  8
1
 62
2
 10
-131.9999999999999
 20
64.3483698805239
 30
0
 11
-128.9999999999999
 21
64.73836988052391
 31
0
 12
-128.9999999999999
 22
63.9583698805239
 32
0
 13
-128.9999999999999
 23
63.9583698805239
 33
0
  0
SOLID
  8
1
 62
2
 10
-67.99999999999987
 20
64.3483698805239
 30
0
 11
-70.99999999999987
 21
63.9583698805239
 31
0
 12
-70.99999999999987
 22
64.73836988052391
 32
0
 13
-70.99999999999987
 23
64.73836988052391
 33
0
  0
TEXT
  8
1
 62
2
 10
-107.6799999999999
 20
65.3483698805239
 30
0
 40
3.2
  1
64
 41
0.9
  0
TEXT
  8
1
 62
2
 10
-101.2799999999999
 20
65.3483698805239
 30
0
 40
3.2
  1
MAX
 41
0.9
  0
ENDBLK
  8
0
  0
BLOCK
  8
1
  2
*D18
 70
1
 10
0
 20
0
 30
0
  0
LINE
  8
1
 62
2
 10
-62.81610602716101
 20
-40.5223539043864
 30
0
 11
-11.856106027161
 21
-40.5223539043864
 31
0
  0
LINE
  8
1
 62
2
 10
-74.01181377609426
 20
-26.32063518199814
 30
0
 11
-62.81610602716101
 21
-40.5223539043864
 31
0
  0
SOLID
  8
1
 62
2
 10
-74.01181377609426
 20
-26.32063518199814
 30
0
 11
-71.84826057974618
 21
-28.43514164133375
 31
0
 12
-72.46080830072546
 22
-28.91803426865694
 32
0
 13
-72.46080830072546
 23
-28.91803426865694
 33
0
  0
TEXT
  8
1
 62
2
 10
-48.336106027161
 20
-39.5223539043864
 30
0
 40
3.2
  1
4
 41
0.9
  0
TEXT
  8
1
 62
2
 10
-57.616106027161
 20
-39.5223539043864
 30
0
 40
3.2
  1
4-M
 41
0.9
  0
TEXT
  8
1
 62
2
 10
-44.816106027161
 20
-39.5223539043864
 30
0
 40
3.2
  1
 DEPTH 6MAX
 41
0.9
  0
ENDBLK
  8
0
  0
ENDSEC
  0
SECTION
  2
ENTITIES
  0
LINE
  8
1
 62
7
 10
15.84057287393535
 20
13.00000000000023
 30
0
 11
19.99999999999989
 21
13.0000000000004
 31
0
  0
LINE
  8
1
 62
7
 10
-99.7
 20
-22.09999999999999
 30
0
 11
-99.7
 21
-22.5
 31
0
  0
LINE
  8
1
 62
7
 10
-100.3
 20
-22.09999999999999
 30
0
 11
-100.3
 21
-22.5
 31
0
  0
LINE
  8
1
 62
7
 10
-100.3
 20
-24.90000000000001
 30
0
 11
-100.3
 21
-24.5
 31
0
  0
LINE
  8
1
 62
7
 10
-101.4
 20
-23.80000000000001
 30
0
 11
-101
 21
-23.80000000000001
 31
0
  0
LINE
  8
1
 62
7
 10
-101.4
 20
-23.20000000000002
 30
0
 11
-101
 21
-23.20000000000002
 31
0
  0
LINE
  8
1
 62
7
 10
-101.5
 20
-23.30000000000001
 30
0
 11
-101.5
 21
-23.70000000000002
 31
0
  0
LINE
  8
1
 62
7
 10
-98.5
 20
-23.30000000000001
 30
0
 11
-98.5
 21
-23.70000000000002
 31
0
  0
LINE
  8
1
 62
7
 10
-100.2
 20
-25
 30
0
 11
-99.8
 21
-25
 31
0
  0
LINE
  8
1
 62
7
 10
-100.2
 20
-22
 30
0
 11
-99.8
 21
-22
 31
0
  0
LINE
  8
1
 62
7
 10
-99.7
 20
-24.5
 30
0
 11
-99.7
 21
-24.90000000000001
 31
0
  0
LINE
  8
1
 62
7
 10
-98.9941176470588
 20
-23.80000000000001
 30
0
 11
-98.59999999999999
 21
-23.80000000000001
 31
0
  0
LINE
  8
1
 62
7
 10
-98.9941176470588
 20
-23.20000000000002
 30
0
 11
-98.59999999999999
 21
-23.20000000000002
 31
0
  0
LINE
  8
1
 62
7
 10
-120.1999999999999
 20
13.90000000000001
 30
0
 11
-120.1999999999999
 21
13.5
 31
0
  0
LINE
  8
1
 62
7
 10
-120.7999999999998
 20
13.90000000000001
 30
0
 11
-120.7999999999998
 21
13.5
 31
0
  0
LINE
  8
1
 62
7
 10
-120.7999999999998
 20
11.09999999999999
 30
0
 11
-120.7999999999998
 21
11.5
 31
0
  0
LINE
  8
1
 62
7
 10
-121.8999999999999
 20
12.19999999999999
 30
0
 11
-121.4999999999999
 21
12.19999999999999
 31
0
  0
LINE
  8
1
 62
7
 10
-121.8999999999999
 20
12.79999999999998
 30
0
 11
-121.4999999999999
 21
12.79999999999998
 31
0
  0
LINE
  8
1
 62
7
 10
-121.9999999999999
 20
12.69999999999999
 30
0
 11
-121.9999999999999
 21
12.29999999999998
 31
0
  0
LINE
  8
1
 62
7
 10
-118.9999999999999
 20
12.69999999999999
 30
0
 11
-118.9999999999999
 21
12.29999999999998
 31
0
  0
LINE
  8
1
 62
7
 10
-120.6999999999999
 20
11
 30
0
 11
-120.2999999999998
 21
11
 31
0
  0
LINE
  8
1
 62
7
 10
-120.6999999999999
 20
14
 30
0
 11
-120.2999999999998
 21
14
 31
0
  0
LINE
  8
1
 62
7
 10
-120.1999999999999
 20
11.5
 30
0
 11
-120.1999999999999
 21
11.09999999999999
 31
0
  0
LINE
  8
1
 62
7
 10
-119.4941176470587
 20
12.19999999999999
 30
0
 11
-119.0999999999999
 21
12.19999999999999
 31
0
  0
LINE
  8
1
 62
7
 10
-119.4941176470587
 20
12.79999999999998
 30
0
 11
-119.0999999999999
 21
12.79999999999998
 31
0
  0
LINE
  8
1
 62
7
 10
-79.1999999999999
 20
13.90000000000001
 30
0
 11
-79.1999999999999
 21
13.5
 31
0
  0
LINE
  8
1
 62
7
 10
-79.7999999999999
 20
13.90000000000001
 30
0
 11
-79.7999999999999
 21
13.5
 31
0
  0
LINE
  8
1
 62
7
 10
-79.7999999999999
 20
11.09999999999999
 30
0
 11
-79.7999999999999
 21
11.5
 31
0
  0
LINE
  8
1
 62
7
 10
-80.89999999999991
 20
12.19999999999999
 30
0
 11
-80.4999999999999
 21
12.19999999999999
 31
0
  0
LINE
  8
1
 62
7
 10
-80.89999999999991
 20
12.79999999999998
 30
0
 11
-80.4999999999999
 21
12.79999999999998
 31
0
  0
LINE
  8
1
 62
7
 10
-80.9999999999999
 20
12.69999999999999
 30
0
 11
-80.9999999999999
 21
12.29999999999998
 31
0
  0
LINE
  8
1
 62
7
 10
-77.9999999999999
 20
12.69999999999999
 30
0
 11
-77.9999999999999
 21
12.29999999999998
 31
0
  0
LINE
  8
1
 62
7
 10
-79.6999999999999
 20
11
 30
0
 11
-79.29999999999984
 21
11
 31
0
  0
LINE
  8
1
 62
7
 10
-79.6999999999999
 20
14
 30
0
 11
-79.2999999999999
 21
14
 31
0
  0
LINE
  8
1
 62
7
 10
-79.1999999999999
 20
11.5
 30
0
 11
-79.20000000000005
 21
11.09999999999999
 31
0
  0
LINE
  8
1
 62
7
 10
-78.4941176470587
 20
12.19999999999999
 30
0
 11
-78.09999999999991
 21
12.19999999999999
 31
0
  0
LINE
  8
1
 62
7
 10
-78.4941176470587
 20
12.79999999999998
 30
0
 11
-78.09999999999991
 21
12.79999999999998
 31
0
  0
LINE
  8
1
 62
7
 10
-124.7499999999999
 20
30.5
 30
0
 11
-75.24999999999989
 21
30.5
 31
0
  0
LINE
  8
1
 62
3
 10
-75.24999999999989
 20
16
 30
0
 11
-75.24999999999989
 21
30.5
 31
0
  0
LINE
  8
1
 62
3
 10
-75.24999999999989
 20
-30.5
 30
0
 11
-75.24999999999989
 21
-33.5
 31
0
  0
LINE
  8
1
 62
3
 10
-124.7499999999999
 20
-30.5
 30
0
 11
-124.7499999999999
 21
-33.5
 31
0
  0
LINE
  8
1
 62
7
 10
-124.7499999999999
 20
-30.5
 30
0
 11
-75.24999999999989
 21
-30.5
 31
0
  0
LINE
  8
1
 62
3
 10
-103.9999999999998
 20
-23.5
 30
0
 11
-96.0000000000002
 21
-23.5
 31
0
  0
LINE
  8
1
 62
3
 10
-100
 20
34.5
 30
0
 11
-100
 21
-34.5
 31
0
  0
LINE
  8
1
 62
3
 10
-83.5
 20
12.5
 30
0
 11
-75.49999999999984
 21
12.5
 31
0
  0
LINE
  8
1
 62
3
 10
-79.49999999999989
 20
16.50000000000005
 30
0
 11
-79.49999999999989
 21
8.499999999999954
 31
0
  0
LINE
  8
1
 62
3
 10
-124.5
 20
12.5
 30
0
 11
-116.5
 21
12.5
 31
0
  0
LINE
  8
1
 62
3
 10
-120.4999999999999
 20
16.50000000000005
 30
0
 11
-120.4999999999999
 21
8.499999999999954
 31
0
  0
LINE
  8
1
 62
7
 10
-101.6583123951776
 20
12.5
 30
0
 11
-98.3416876048223
 21
12.5
 31
0
  0
LINE
  8
1
 62
3
 10
-83.99999999999989
 20
24.75
 30
0
 11
-69.49999999999989
 21
24.75
 31
0
  0
LINE
  8
1
 62
3
 10
-83.99999999999989
 20
-24.75
 30
0
 11
-69.49999999999989
 21
-24.75
 31
0
  0
LINE
  8
1
 62
3
 10
-133.683979702465
 20
-24.75
 30
0
 11
-115.9999999999999
 21
-24.75
 31
0
  0
LINE
  8
1
 62
3
 10
-124.7499999999999
 20
-16
 30
0
 11
-124.7499999999999
 21
-30.5
 31
0
  0
LINE
  8
1
 62
3
 10
-75.24999999999989
 20
-16
 30
0
 11
-75.24999999999989
 21
-30.5
 31
0
  0
LINE
  8
1
 62
3
 10
-111.8108407155454
 20
10
 30
0
 11
-90.9999999999999
 21
10
 31
0
  0
LINE
  8
1
 62
3
 10
-116.1839797024649
 20
24.75
 30
0
 11
-130.5
 21
24.75
 31
0
  0
LINE
  8
1
 62
3
 10
-124.7499999999999
 20
32.40783652817061
 30
0
 11
-124.7499999999999
 21
30.5
 31
0
  0
LINE
  8
1
 62
3
 10
-134.5
 20
0
 30
0
 11
-69.49999999999987
 21
0
 31
0
  0
LINE
  8
1
 62
7
 10
-69.49999999999989
 20
24.75
 30
0
 11
-69.49999999999989
 21
-24.75
 31
0
  0
LINE
  8
1
 62
7
 10
-130.5
 20
24.75
 30
0
 11
-130.5
 21
-24.75
 31
0
  0
LINE
  8
1
 62
2
 10
-62.4622431925531
 20
-47.5
 30
0
 11
-12.19197273139051
 21
-47.5
 31
0
  0
LINE
  8
1
 62
3
 10
-69.49999999999987
 20
0
 30
0
 11
-65.4999999999999
 21
0
 31
0
  0
LINE
  8
1
 62
3
 10
-90.9999999999999
 20
10
 30
0
 11
-88.44541850249914
 21
10
 31
0
  0
LINE
  8
1
 62
3
 10
-69.49999999999989
 20
24.75
 30
0
 11
-67.65571212396208
 21
24.75
 31
0
  0
LINE
  8
1
 62
3
 10
-75.24999999999989
 20
30.5
 30
0
 11
-75.24999999999989
 21
32.77579593310037
 31
0
  0
LINE
  8
1
 62
3
 10
-130.5
 20
24.75
 30
0
 11
-133.5
 21
24.75
 31
0
  0
LINE
  8
1
 62
3
 10
-124.7499999999999
 20
30.5
 30
0
 11
-124.7499999999999
 21
16
 31
0
  0
LINE
  8
1
 62
3
 10
-69.49999999999989
 20
-24.75
 30
0
 11
-66.91979331410232
 21
-24.75
 31
0
  0
LINE
  8
1
 62
7
 10
55.33360848093707
 20
-28.20403352100783
 30
0
 11
54.10871557427504
 21
-28.2496194698092
 31
0
  0
LINE
  8
1
 62
7
 10
55.33360848093707
 20
-21.29596647899217
 30
0
 11
54.10871557427458
 21
-21.25038053019074
 31
0
  0
LINE
  8
1
 62
7
 10
55.33360848093707
 20
21.29596647899229
 30
0
 11
54.10871557427458
 21
21.25038053019091
 31
0
  0
LINE
  8
1
 62
7
 10
55.33360848093658
 20
28.20403352100766
 30
0
 11
54.10871557427504
 21
28.24961946980921
 31
0
  0
LINE
  8
1
 62
7
 10
20
 20
1.000183990690921
 30
0
 11
25.99999999999989
 21
1.000183990690921
 31
0
  0
LINE
  8
1
 62
7
 10
25.99999999999989
 20
19.00000000000012
 30
0
 11
20
 21
19.00000000000012
 31
0
  0
LINE
  8
1
 62
7
 10
20
 20
19.00000000000012
 30
0
 11
20
 21
1.000183990690921
 31
0
  0
LINE
  8
1
 62
7
 10
11.99999999999989
 20
12.5
 30
0
 11
0
 21
12.5
 31
0
  0
LINE
  8
1
 62
7
 10
0
 20
7.000000000000121
 30
0
 11
20
 21
7
 31
0
  0
LINE
  8
1
 62
7
 10
0
 20
12.5
 30
0
 11
0
 21
7.000000000000121
 31
0
  0
LINE
  8
1
 62
3
 10
29.08282950123635
 20
10
 30
0
 11
-3.327281133558809
 21
10
 31
0
  0
LINE
  8
1
 62
7
 10
52
 20
30.3629393324681
 30
0
 11
26
 21
30.3629393324681
 31
0
  0
LINE
  8
1
 62
7
 10
52
 20
-30.36293933246808
 30
0
 11
26
 21
-30.36293933246809
 31
0
  0
LINE
  8
0
 62
7
 10
54.00000000000011
 20
-30
 30
0
 11
52
 21
-30
 31
0
  0
LINE
  8
0
 62
7
 10
52
 20
30
 30
0
 11
54.00000000000011
 21
30
 31
0
  0
LINE
  8
0
 62
7
 10
52
 20
30.3629393324681
 30
0
 11
52
 21
-30.36293933246808
 31
0
  0
LINE
  8
1
 62
7
 10
32.76859531800505
 20
31.3629393324681
 30
0
 11
45.89800658932018
 21
31.3629393324681
 31
0
  0
LINE
  8
0
 62
3
 10
59.00000000000009
 20
24.75
 30
0
 11
20.88337355630609
 21
24.74999999999989
 31
0
  0
LINE
  8
0
 62
3
 10
21.53217701381908
 20
-24.75
 30
0
 11
59.00000000000009
 21
-24.75
 31
0
  0
LINE
  8
0
 62
7
 10
54.00000000000011
 20
-30
 30
0
 11
54.00000000000011
 21
30
 31
0
  0
LINE
  8
1
 62
7
 10
24.99999999999989
 20
21
 30
0
 11
24.99999999999998
 21
29.3629393324681
 31
0
  0
LINE
  8
1
 62
7
 10
53.99999999999979
 20
-20.15000000000003
 30
0
 11
54.49999999999979
 21
-20.01666666666659
 31
0
  0
LINE
  8
1
 62
7
 10
53.99999999999979
 20
-15.0454545454545
 30
0
 11
54.49999999999979
 21
-15.0454545454545
 31
0
  0
LINE
  8
1
 62
7
 10
54.49999999999979
 20
15.04545454545451
 30
0
 11
53.99999999999979
 21
15.04545454545451
 31
0
  0
LINE
  8
1
 62
7
 10
54.49999999999979
 20
3.516666666666595
 30
0
 11
53.99999999999979
 21
3.649999999999977
 31
0
  0
LINE
  8
1
 62
7
 10
53.99999999999979
 20
-3.650000000000034
 30
0
 11
54.49999999999979
 21
-3.516666666666595
 31
0
  0
LINE
  8
1
 62
7
 10
54.49999999999979
 20
11
 30
0
 11
53.99999999999979
 21
11
 31
0
  0
LINE
  8
1
 62
7
 10
53.99999999999979
 20
-11
 30
0
 11
54.49999999999979
 21
-11
 31
0
  0
LINE
  8
1
 62
7
 10
54.49999999999979
 20
20.01666666666666
 30
0
 11
53.99999999999979
 21
20.15000000000009
 31
0
  0
LINE
  8
1
 62
7
 10
108.9999999999997
 20
-86.5
 30
0
 11
104.9999999999997
 21
-86.5
 31
0
  0
LINE
  8
1
 62
7
 10
107.4999999999997
 20
-86.5
 30
0
 11
107.4999999999997
 21
-89.5
 31
0
  0
LINE
  8
1
 62
7
 10
108.3612878820806
 20
-89.5
 30
0
 11
108.3612878820806
 21
-86.5
 31
0
  0
LINE
  8
1
 62
7
 10
105.6044096585506
 20
-86.5
 30
0
 11
105.6044096585506
 21
-89.5
 31
0
  0
LINE
  8
1
 62
7
 10
106.4999999999997
 20
-89.5
 30
0
 11
106.4999999999997
 21
-86.5
 31
0
  0
LINE
  8
1
 62
7
 10
108.9999999999997
 20
-56.229729759321
 30
0
 11
108.9999999999997
 21
-86.5
 31
0
  0
LINE
  8
1
 62
7
 10
106.9999999999997
 20
-56.229729759321
 30
0
 11
106.9999999999986
 21
-86.5
 31
0
  0
LINE
  8
1
 62
7
 10
104.9999999999997
 20
-56.20163982705844
 30
0
 11
104.9999999999997
 21
-86.5
 31
0
  0
LINE
  8
1
 62
7
 10
104.9999999999997
 20
-31.5
 30
0
 11
104.9999999999997
 21
-53.13063980214019
 31
0
  0
LINE
  8
1
 62
7
 10
106.9999999999997
 20
-31.5
 30
0
 11
106.9999999999997
 21
-53.42466809013315
 31
0
  0
LINE
  8
1
 62
7
 10
108.9999999999997
 20
-31.5
 30
0
 11
108.9999999999997
 21
-53.49286539778485
 31
0
  0
LINE
  8
1
 62
7
 10
61.79999999999977
 20
29.5
 30
0
 11
112.9999999999998
 21
29.5
 31
0
  0
LINE
  8
1
 62
7
 10
98.19999999999973
 20
1.399999999999977
 30
0
 11
98.19999999999973
 21
1
 31
0
  0
LINE
  8
1
 62
7
 10
97.59999999999974
 20
1.399999999999977
 30
0
 11
97.59999999999974
 21
1
 31
0
  0
LINE
  8
1
 62
7
 10
97.59999999999974
 20
-1.400000000000034
 30
0
 11
97.59999999999974
 21
-1
 31
0
  0
LINE
  8
1
 62
7
 10
96.49999999999973
 20
-0.2999999999998977
 30
0
 11
96.89999999999974
 21
-0.3000000000000114
 31
0
  0
LINE
  8
1
 62
7
 10
96.49999999999973
 20
0.2999999999999543
 30
0
 11
96.89999999999974
 21
0.2999999999999543
 31
0
  0
LINE
  8
1
 62
7
 10
96.39999999999974
 20
0.1999999999999886
 30
0
 11
96.39999999999974
 21
-0.2000000000000455
 31
0
  0
LINE
  8
1
 62
7
 10
99.39999999999974
 20
0.1999999999999886
 30
0
 11
99.39999999999974
 21
-0.2000000000000455
 31
0
  0
LINE
  8
1
 62
7
 10
97.69999999999973
 20
-1.5
 30
0
 11
98.09999999999974
 21
-1.5
 31
0
  0
LINE
  8
1
 62
7
 10
97.69999999999973
 20
1.5
 30
0
 11
98.09999999999974
 21
1.5
 31
0
  0
LINE
  8
1
 62
7
 10
98.19999999999973
 20
-1
 30
0
 11
98.19999999999973
 21
-1.400000000000034
 31
0
  0
LINE
  8
1
 62
7
 10
98.90588235294094
 20
-0.3000000000000114
 30
0
 11
99.29999999999973
 21
-0.3000000000000114
 31
0
  0
LINE
  8
1
 62
7
 10
98.90588235294094
 20
0.2999999999999543
 30
0
 11
99.29999999999973
 21
0.2999999999999543
 31
0
  0
LINE
  8
1
 62
3
 10
97.89999999999974
 20
10.49751927958937
 30
0
 11
97.89999999999974
 21
-9.870422382742731
 31
0
  0
LINE
  8
1
 62
3
 10
135.4735500491309
 20
0
 30
0
 11
16.99999999999986
 21
0
 31
0
  0
LINE
  8
1
 62
7
 10
96.29999999999973
 20
2.236626924634492
 30
0
 11
96.29999999999973
 21
5.899999999999977
 31
0
  0
LINE
  8
1
 62
7
 10
102.4999999999997
 20
29.5
 30
0
 11
102.4999999999997
 21
-29.5
 31
0
  0
LINE
  8
1
 62
7
 10
99.49999999999973
 20
5.899999999999977
 30
0
 11
99.49999999999973
 21
2.236626924634492
 31
0
  0
LINE
  8
1
 62
7
 10
122.9999999999998
 20
-19.5
 30
0
 11
122.9999999999998
 21
19.5
 31
0
  0
LINE
  8
1
 62
7
 10
130.4999999999998
 20
-12.5
 30
0
 11
123.9999999999998
 21
-12.5
 31
0
  0
LINE
  8
1
 62
7
 10
124.0154082664933
 20
12.5
 30
0
 11
130.4999999999998
 21
12.5
 31
0
  0
LINE
  8
1
 62
7
 10
114.1999999999999
 20
0.7999999999999543
 30
0
 11
109.7999999999998
 21
0.7999999999999543
 31
0
  0
LINE
  8
1
 62
7
 10
109.7999999999998
 20
-0.8000000000000114
 30
0
 11
114.1999999999999
 21
-0.8000000000000114
 31
0
  0
LINE
  8
1
 62
7
 10
111.9999999999998
 20
-7.502581311993708
 30
0
 11
122.9999999999998
 21
-8.002581311993708
 31
0
  0
LINE
  8
1
 62
7
 10
122.9999999999998
 20
8.002581311993765
 30
0
 11
111.9999999999998
 21
7.502581311993765
 31
0
  0
LINE
  8
1
 62
7
 10
116.6723749477707
 20
-5.212380679444096
 30
0
 11
122.9999999999998
 21
-5.5
 31
0
  0
LINE
  8
1
 62
7
 10
116.6723749477707
 20
5.212380679444152
 30
0
 11
122.9999999999998
 21
5.5
 31
0
  0
LINE
  8
1
 62
7
 10
132.4999999999998
 20
-10.5
 30
0
 11
132.4999999999998
 21
10.5
 31
0
  0
LINE
  8
1
 62
3
 10
111.9999999999998
 20
10.53178475720467
 30
0
 11
111.9999999999998
 21
-10.92959420309313
 31
0
  0
LINE
  8
1
 62
7
 10
114.9999999999998
 20
-29.29795897113274
 30
0
 11
114.9999999999998
 21
-31.5
 31
0
  0
LINE
  8
1
 62
7
 10
114.9999999999998
 20
-31.5
 30
0
 11
100.9999999999997
 21
-31.5
 31
0
  0
LINE
  8
1
 62
7
 10
100.9999999999997
 20
-29.5
 30
0
 11
100.9999999999997
 21
-31.5
 31
0
  0
LINE
  8
1
 62
7
 10
96.29999999999973
 20
-2.23662692463455
 30
0
 11
96.29999999999973
 21
-5.900000000000034
 31
0
  0
LINE
  8
1
 62
7
 10
99.49999999999973
 20
-5.900000000000034
 30
0
 11
99.49999999999973
 21
-2.23662692463455
 31
0
  0
LINE
  8
1
 62
7
 10
96.29999999999973
 20
5
 30
0
 11
99.49999999999973
 21
5.5
 31
0
  0
LINE
  8
1
 62
7
 10
96.29999999999973
 20
-5
 30
0
 11
99.49999999999973
 21
-5.5
 31
0
  0
LINE
  8
1
 62
7
 10
61.79999999999977
 20
-29.5
 30
0
 11
112.9999999999998
 21
-29.5
 31
0
  0
LINE
  8
1
 62
2
 10
23.20982061369942
 20
-59.34991020425775
 30
0
 11
91.56660838998944
 21
-59.34991020425775
 31
0
  0
LINE
  8
1
 62
7
 10
91.99999999999973
 20
18.56495153597018
 30
0
 11
91.99999999999973
 21
29.5
 31
0
  0
LINE
  8
1
 62
7
 10
64.49999999999977
 20
18.56495153597018
 30
0
 11
91.99999999999973
 21
18.56495153597018
 31
0
  0
LINE
  8
1
 62
7
 10
64.49999999999977
 20
29.5
 30
0
 11
64.49999999999977
 21
18.56495153597018
 31
0
  0
LINE
  8
1
 62
7
 10
54.49999999999977
 20
21.26494267819652
 30
0
 11
54.49999999999977
 21
-21.26494267819642
 31
0
  0
LINE
  8
1
 62
7
 10
24.99999999999989
 20
-21
 30
0
 11
24.99999999999989
 21
-29.36293933246799
 31
0
  0
LINE
  8
1
 62
7
 10
25.99999999999989
 20
-21
 30
0
 11
25.99999999999989
 21
21
 31
0
  0
LINE
  8
1
 62
7
 10
24.99999999999998
 20
29.3629393324681
 30
0
 11
24.99999999999989
 21
21
 31
0
  0
LINE
  8
0
 62
3
 10
59.00000000000009
 20
-24.75
 30
0
 11
21.53217701381908
 21
-24.75
 31
0
  0
LINE
  8
0
 62
3
 10
20.88337355630609
 20
24.74999999999989
 30
0
 11
59.00000000000009
 21
24.75
 31
0
  0
LINE
  8
1
 62
7
 10
-69.49999999999987
 20
7
 30
0
 11
-67.99999999999987
 21
7
 31
0
  0
LINE
  8
1
 62
7
 10
-67.99999999999987
 20
7
 30
0
 11
-67.99999999999987
 21
-7
 31
0
  0
LINE
  8
1
 62
7
 10
-67.99999999999987
 20
-7
 30
0
 11
-69.49999999999987
 21
-7
 31
0
  0
LINE
  8
1
 62
7
 10
-130.4999999999999
 20
7
 30
0
 11
-131.9999999999999
 21
7
 31
0
  0
LINE
  8
1
 62
7
 10
-131.9999999999999
 20
7
 30
0
 11
-131.9999999999999
 21
-7
 31
0
  0
LINE
  8
1
 62
7
 10
-131.9999999999999
 20
-7
 30
0
 11
-130.4999999999999
 21
-7
 31
0
  0
LINE
  8
1
 62
3
 10
-69.49999999999987
 20
0
 30
0
 11
-65.4999999999999
 21
0
 31
0
  0
ARC
  8
1
 62
7
 10
11.99999999999989
 20
27.5
 30
0
 40
15
 50
270
 51
284.8351115819802
  0
ARC
  8
1
 62
7
 10
-101.0029411764706
 20
-24.50294117647061
 30
0
 40
0.7029473295325235
 50
0.2397298960826564
 51
89.76027010391822
  0
ARC
  8
1
 62
7
 10
-98.9970588235294
 20
-24.50294117647061
 30
0
 40
0.7029473295325199
 50
89.76027010391822
 51
179.7602701039173
  0
ARC
  8
1
 62
7
 10
-98.9970588235294
 20
-22.49705882352941
 30
0
 40
0.7029473295325234
 50
180.2397298960809
 51
270.2397298960818
  0
ARC
  8
1
 62
7
 10
-101.0029411764706
 20
-22.49705882352941
 30
0
 40
0.7029473295325306
 50
270.2397298960818
 51
359.760270103919
  0
ARC
  8
1
 62
7
 10
-121.5029411764705
 20
11.49705882352939
 30
0
 40
0.702947329532623
 50
0.2397298960826225
 51
89.76027010391822
  0
ARC
  8
1
 62
7
 10
-119.4970588235293
 20
11.49705882352939
 30
0
 40
0.7029473295325217
 50
89.76027010391822
 51
179.7602701039173
  0
ARC
  8
1
 62
7
 10
-119.4970588235293
 20
13.50294117647059
 30
0
 40
0.7029473295325234
 50
180.2397298960809
 51
270.2397298960818
  0
ARC
  8
1
 62
7
 10
-121.5029411764705
 20
13.50294117647059
 30
0
 40
0.7029473295325306
 50
270.2397298960818
 51
359.7602701039191
  0
ARC
  8
1
 62
7
 10
-80.50294117647047
 20
11.49705882352939
 30
0
 40
0.7029473295324951
 50
0.2397298960826661
 51
89.76027010392053
  0
ARC
  8
1
 62
7
 10
-78.4970588235293
 20
11.49705882352939
 30
0
 40
0.7029473295325217
 50
89.76027010391822
 51
179.7602701039173
  0
ARC
  8
1
 62
7
 10
-78.4970588235293
 20
13.50294117647059
 30
0
 40
0.7029473295325234
 50
180.2397298960809
 51
270.2397298960818
  0
ARC
  8
1
 62
7
 10
-80.50294117647047
 20
13.50294117647059
 30
0
 40
0.7029473295325305
 50
270.2397298960795
 51
359.760270103919
  0
ARC
  8
1
 62
7
 10
57.47500000000014
 20
-24.75
 30
0
 40
0.9250000000000037
 50
161.0753555839481
 51
198.9246444160519
  0
ARC
  8
1
 62
7
 10
48.60507042253516
 20
-24.76521753674313
 30
0
 40
8.00000000000014
 50
338.4952052003301
 51
357.9599648354469
  0
ARC
  8
1
 62
7
 10
48.60507042253516
 20
-24.73478246325697
 30
0
 40
8.000000000000199
 50
2.040035164553866
 51
21.50479479967068
  0
ARC
  8
1
 62
7
 10
57.47500000000014
 20
24.75000000000012
 30
0
 40
0.9250000000000025
 50
161.0753555839483
 51
198.9246444160519
  0
ARC
  8
1
 62
7
 10
48.60507042253516
 20
24.73478246325698
 30
0
 40
8.00000000000014
 50
338.4952052003301
 51
357.959964835447
  0
ARC
  8
1
 62
7
 10
48.60507042253516
 20
24.76521753674314
 30
0
 40
8.000000000000199
 50
2.040035164553916
 51
21.50479479966954
  0
ARC
  8
1
 62
7
 10
96.89705882352914
 20
-1.002941176470642
 30
0
 40
0.7029473295325237
 50
0.2397298960852264
 51
89.76027010391822
  0
ARC
  8
1
 62
7
 10
98.90294117647034
 20
-1.002941176470642
 30
0
 40
0.7029473295325515
 50
89.76027010391822
 51
179.7602701039148
  0
ARC
  8
1
 62
7
 10
98.90294117647034
 20
1.002941176470585
 30
0
 40
0.7029473295325234
 50
180.2397298960806
 51
270.2397298960818
  0
ARC
  8
1
 62
7
 10
96.89705882352914
 20
1.002941176470585
 30
0
 40
0.7029473295325515
 50
270.2397298960818
 51
359.7602701039194
  0
ARC
  8
1
 62
7
 10
97.89999999999974
 20
-5.900000000000034
 30
0
 40
1.600000000000009
 50
180
 51
0
  0
ARC
  8
1
 62
7
 10
97.89999999999974
 20
5.899999999999977
 30
0
 40
1.599999999999994
 50
0
 51
180
  0
ARC
  8
1
 62
7
 10
114.1999999999999
 20
0
 30
0
 40
0.8000000000000114
 50
270
 51
90
  0
ARC
  8
1
 62
7
 10
109.7999999999998
 20
0
 30
0
 40
0.7999999999999543
 50
90
 51
270
  0
ARC
  8
1
 62
7
 10
111.9999999999998
 20
0
 30
0
 40
7.502581311993765
 50
90
 51
270
  0
CIRCLE
  8
1
 62
7
 10
-79.4999999999999
 20
12.5
 30
0
 40
3.000000000000036
  0
CIRCLE
  8
1
 62
7
 10
-120.4999999999999
 20
12.5
 30
0
 40
3.000000000000005
  0
CIRCLE
  8
1
 62
3
 10
-75.24999999999989
 20
24.75
 30
0
 40
2
  0
CIRCLE
  8
1
 62
7
 10
-75.24999999999989
 20
24.75
 30
0
 40
1.624999999999986
  0
CIRCLE
  8
1
 62
3
 10
-124.7499999999999
 20
24.75
 30
0
 40
2
  0
CIRCLE
  8
1
 62
7
 10
-124.7499999999999
 20
24.75
 30
0
 40
1.625
  0
CIRCLE
  8
1
 62
3
 10
-124.7499999999999
 20
-24.75
 30
0
 40
2
  0
CIRCLE
  8
1
 62
7
 10
-124.7499999999999
 20
-24.75
 30
0
 40
1.625
  0
CIRCLE
  8
1
 62
7
 10
-75.24999999999989
 20
-24.75
 30
0
 40
1.625
  0
CIRCLE
  8
1
 62
3
 10
-75.24999999999989
 20
-24.75
 30
0
 40
2
  0
CIRCLE
  8
1
 62
7
 10
-124.7499999999999
 20
24.75
 30
0
 40
5.75
  0
CIRCLE
  8
1
 62
7
 10
-75.24999999999989
 20
24.75
 30
0
 40
5.75
  0
CIRCLE
  8
1
 62
7
 10
-75.24999999999989
 20
-24.75
 30
0
 40
5.75
  0
CIRCLE
  8
1
 62
7
 10
-124.7499999999999
 20
-24.75
 30
0
 40
5.75
  0
CIRCLE
  8
1
 62
7
 10
-100
 20
10
 30
0
 40
9.0000000000001
  0
CIRCLE
  8
1
 62
7
 10
-100
 20
10
 30
0
 40
5.249999999999901
  0
CIRCLE
  8
1
 62
7
 10
-100
 20
10
 30
0
 40
3
  0
CIRCLE
  8
1
 62
7
 10
-100
 20
-23.5
 30
0
 40
2.999999999999816
  0
CIRCLE
  8
1
 62
7
 10
97.89999999999974
 20
0
 30
0
 40
2.7500000000001
  0
CIRCLE
  8
1
 62
7
 10
111.9999999999998
 20
0
 30
0
 40
5
  0
CIRCLE
  8
1
 62
7
 10
111.9999999999998
 20
0
 30
0
 40
6.999999999999989
  0
POLYLINE
  8
1
 62
2
 66
1
  0
VERTEX
  8
1
 10
104.9999999999997
 20
-53.13063980214019
 30
0
 42
0.004959364709978648
  0
VERTEX
  8
1
 10
105.1868133059512
 20
-53.45740884583284
 30
0
 42
0.01610760732999101
  0
VERTEX
  8
1
 10
105.3755859599013
 20
-53.75751772761851
 30
0
 42
0.03462765575577236
  0
VERTEX
  8
1
 10
105.5682773098488
 20
-54.00430628559022
 30
0
 42
0.07009415413876215
  0
VERTEX
  8
1
 10
105.7668467037924
 20
-54.17111435784099
 30
0
 42
0.1384187450981704
  0
VERTEX
  8
1
 10
105.9732534897307
 20
-54.23128178246383
 30
0
 42
0.1336282076001238
  0
VERTEX
  8
1
 10
106.1645576069005
 20
-54.18097777310877
 30
0
 42
0.02952619964157646
  0
VERTEX
  8
1
 10
106.363241625894
 20
-54.05028032011647
 30
0
 42
0.04743485283572977
  0
VERTEX
  8
1
 10
106.5689482373295
 20
-53.86407350256866
 30
0
 42
0.006664315072617362
  0
VERTEX
  8
1
 10
106.7813201318253
 20
-53.64724139954699
 30
0
 42
-0.00726573397808495
  0
VERTEX
  8
1
 10
106.9999999999997
 20
-53.42466809013315
 30
0
 42
-0.01594613734139957
  0
VERTEX
  8
1
 10
107.1955370096241
 20
-53.24410091366313
 30
0
 42
-0.02449293246192372
  0
VERTEX
  8
1
 10
107.3941678713908
 20
-53.0881197777877
 30
0
 42
-0.03667587437389829
  0
VERTEX
  8
1
 10
107.5944534474394
 20
-52.96672840990165
 30
0
 42
-0.05374164416481712
  0
VERTEX
  8
1
 10
107.7949545999095
 20
-52.88993053739977
 30
0
 42
-0.07359236239366779
  0
VERTEX
  8
1
 10
107.9942321909407
 20
-52.86772988767683
 30
0
 42
-0.07433083303356262
  0
VERTEX
  8
1
 10
108.1988360974551
 20
-52.90904661869418
 30
0
 42
-0.05003416816818156
  0
VERTEX
  8
1
 10
108.4011397741677
 20
-53.00617026371435
 30
0
 42
-0.0302219128520803
  0
VERTEX
  8
1
 10
108.6017182785291
 20
-53.14514909423666
 30
0
 42
-0.01596446642790701
  0
VERTEX
  8
1
 10
108.8011466679896
 20
-53.31203138176041
 30
0
 42
-0.004980351333155234
  0
VERTEX
  8
1
 10
108.9999999999997
 20
-53.49286539778485
 30
0
  0
SEQEND
  8
1
  0
POLYLINE
  8
1
 62
2
 66
1
  0
VERTEX
  8
1
 10
104.9999999999997
 20
-56.20163982705844
 30
0
 42
0.004743828824817516
  0
VERTEX
  8
1
 10
105.1664199141315
 20
-56.41508556858371
 30
0
 42
0.01507104334722984
  0
VERTEX
  8
1
 10
105.3338102389723
 20
-56.61307131383989
 30
0
 42
0.03007720324103876
  0
VERTEX
  8
1
 10
105.5031413852314
 20
-56.78013706655791
 30
0
 42
0.05372635489978152
  0
VERTEX
  8
1
 10
105.6753837636179
 20
-56.90082283046867
 30
0
 42
0.09093657508291604
  0
VERTEX
  8
1
 10
105.8515077848408
 20
-56.95966860930309
 30
0
 42
0.1259786711096498
  0
VERTEX
  8
1
 10
106.0678808765171
 20
-56.93586815102574
 30
0
 42
0.04787193728025285
  0
VERTEX
  8
1
 10
106.2910420411361
 20
-56.82645025264781
 30
0
 42
0.0434153071923376
  0
VERTEX
  8
1
 10
106.5208658814328
 20
-56.65593869841035
 30
0
 42
0.01115428868954544
  0
VERTEX
  8
1
 10
106.7572270001424
 20
-56.44885727255441
 30
0
 42
-0.003374507262094542
  0
VERTEX
  8
1
 10
106.9999999999997
 20
-56.229729759321
 30
0
 42
-0.01455062689464782
  0
VERTEX
  8
1
 10
107.2499597359864
 20
-56.02055748980838
 30
0
 42
-0.02511181930480385
  0
VERTEX
  8
1
 10
107.5024967089979
 20
-55.84074632396922
 30
0
 42
-0.04096858042394271
  0
VERTEX
  8
1
 10
107.7538261740882
 20
-55.7070298166016
 30
0
 42
-0.06491345471679873
  0
VERTEX
  8
1
 10
108.0001633863112
 20
-55.63614152250356
 30
0
 42
-0.1617726136711013
  0
VERTEX
  8
1
 10
108.3976045092403
 20
-55.70487485140026
 30
0
 42
-0.04144019963793965
  0
VERTEX
  8
1
 10
108.5525349986507
 20
-55.802883438089
 30
0
 42
-0.02559687134808125
  0
VERTEX
  8
1
 10
108.7037526737292
 20
-55.92935357359899
 30
0
 42
-0.01378851554280396
  0
VERTEX
  8
1
 10
108.8524951392531
 20
-56.07479807498979
 30
0
 42
-0.004346364005263877
  0
VERTEX
  8
1
 10
108.9999999999997
 20
-56.229729759321
 30
0
  0
SEQEND
  8
1
  0
ARC
  8
1
 62
7
 10
-100.2
 20
-22.09999999999999
 30
0
 40
0.09999999999999076
 50
90
 51
180
  0
ARC
  8
1
 62
7
 10
-99.8
 20
-22.09999999999999
 30
0
 40
0.09999999999999432
 50
0
 51
90
  0
ARC
  8
1
 62
7
 10
-98.59999999999999
 20
-23.30000000000001
 30
0
 40
0.09999999999999432
 50
0
 51
90
  0
ARC
  8
1
 62
7
 10
-98.59999999999999
 20
-23.70000000000002
 30
0
 40
0.09999999999999076
 50
270
 51
0
  0
ARC
  8
1
 62
7
 10
-99.8
 20
-24.90000000000001
 30
0
 40
0.09999999999999076
 50
270
 51
0
  0
ARC
  8
1
 62
7
 10
-100.2
 20
-24.90000000000001
 30
0
 40
0.09999999999999432
 50
180
 51
270
  0
ARC
  8
1
 62
7
 10
-101.4
 20
-23.70000000000002
 30
0
 40
0.09999999999999432
 50
180
 51
270
  0
ARC
  8
1
 62
7
 10
-101.4
 20
-23.30000000000001
 30
0
 40
0.09999999999999076
 50
90
 51
180
  0
ARC
  8
1
 62
7
 10
-120.6999999999999
 20
13.90000000000001
 30
0
 40
0.09999999999999076
 50
90
 51
180
  0
ARC
  8
1
 62
7
 10
-120.2999999999998
 20
13.90000000000001
 30
0
 40
0.09999999999989484
 50
0
 51
90
  0
ARC
  8
1
 62
7
 10
-119.0999999999999
 20
12.69999999999999
 30
0
 40
0.09999999999999432
 50
0
 51
90
  0
ARC
  8
1
 62
7
 10
-119.0999999999999
 20
12.29999999999998
 30
0
 40
0.09999999999998899
 50
270
 51
0
  0
ARC
  8
1
 62
7
 10
-120.2999999999998
 20
11.09999999999999
 30
0
 40
0.09999999999999076
 50
270
 51
0
  0
ARC
  8
1
 62
7
 10
-120.6999999999999
 20
11.09999999999999
 30
0
 40
0.09999999999989484
 50
180
 51
270
  0
ARC
  8
1
 62
7
 10
-121.8999999999999
 20
12.29999999999998
 30
0
 40
0.09999999999999432
 50
180
 51
270
  0
ARC
  8
1
 62
7
 10
-121.8999999999999
 20
12.69999999999999
 30
0
 40
0.09999999999998899
 50
90
 51
180
  0
ARC
  8
1
 62
7
 10
-79.6999999999999
 20
13.90000000000001
 30
0
 40
0.09999999999999076
 50
90
 51
180
  0
ARC
  8
1
 62
7
 10
-79.2999999999999
 20
13.90000000000001
 30
0
 40
0.09999999999999432
 50
0
 51
90
  0
ARC
  8
1
 62
7
 10
-78.09999999999991
 20
12.69999999999999
 30
0
 40
0.1000000000000085
 50
0
 51
90
  0
ARC
  8
1
 62
7
 10
-78.09999999999991
 20
12.29999999999998
 30
0
 40
0.09999999999998899
 50
270
 51
0
  0
ARC
  8
1
 62
7
 10
-79.29999999999996
 20
11.09999999999999
 30
0
 40
0.09999999999999076
 50
270
 51
0
  0
ARC
  8
1
 62
7
 10
-79.6999999999999
 20
11.09999999999999
 30
0
 40
0.09999999999999432
 50
180
 51
270
  0
ARC
  8
1
 62
7
 10
-80.89999999999991
 20
12.29999999999998
 30
0
 40
0.09999999999999432
 50
180
 51
270
  0
ARC
  8
1
 62
7
 10
-80.89999999999991
 20
12.69999999999999
 30
0
 40
0.09999999999998899
 50
90
 51
180
  0
ARC
  8
1
 62
7
 10
54.09999999999978
 20
-21.35000000000002
 30
0
 40
0.1000000000001077
 50
84.99999999998843
 51
180
  0
ARC
  8
1
 62
7
 10
54.10000000000014
 20
-28.15000000000003
 30
0
 40
0.1000000000001435
 50
180
 51
275.0000000000738
  0
ARC
  8
1
 62
7
 10
55.3038560597231
 20
-27.40458696655156
 30
0
 40
0.8000000000000604
 50
272.1313517246225
 51
338.4952052003255
  0
ARC
  8
1
 62
7
 10
55.3038560597231
 20
-22.09541303344843
 30
0
 40
0.7999999999999472
 50
21.50479479967444
 51
87.86864827537748
  0
ARC
  8
1
 62
7
 10
54.10000000000014
 20
28.15000000000009
 30
0
 40
0.09999999999995707
 50
84.99999999992369
 51
180
  0
ARC
  8
1
 62
7
 10
54.09999999999978
 20
21.34999999999997
 30
0
 40
0.09999999999978115
 50
179.9999999999369
 51
275.0000000000226
  0
ARC
  8
1
 62
7
 10
55.3038560597231
 20
22.0954130334485
 30
0
 40
0.7999999999999999
 50
272.1313517246227
 51
338.4952052003289
  0
ARC
  8
1
 62
7
 10
55.3038560597231
 20
27.40458696655157
 30
0
 40
0.799999999999925
 50
21.50479479967041
 51
87.86864827541213
  0
ARC
  8
1
 62
7
 10
26
 20
29.3629393324681
 30
0
 40
1
 50
90
 51
180
  0
ARC
  8
1
 62
7
 10
26
 20
-29.36293933246809
 30
0
 40
1.00000000000011
 50
180
 51
270
  0
ARC
  8
1
 62
7
 10
97.69999999999973
 20
1.399999999999977
 30
0
 40
0.100000000000023
 50
90
 51
180
  0
ARC
  8
1
 62
7
 10
98.09999999999974
 20
1.399999999999977
 30
0
 40
0.09999999999999432
 50
0
 51
90
  0
ARC
  8
1
 62
7
 10
99.29999999999973
 20
0.1999999999999886
 30
0
 40
0.1000000000000085
 50
0
 51
90
  0
ARC
  8
1
 62
7
 10
99.29999999999973
 20
-0.2000000000000455
 30
0
 40
0.09999999999996592
 50
270
 51
0
  0
ARC
  8
1
 62
7
 10
98.09999999999974
 20
-1.400000000000034
 30
0
 40
0.09999999999996589
 50
270
 51
0
  0
ARC
  8
1
 62
7
 10
97.69999999999973
 20
-1.400000000000034
 30
0
 40
0.09999999999999432
 50
180
 51
270
  0
ARC
  8
1
 62
7
 10
96.49999999999973
 20
-0.2000000000000455
 30
0
 40
0.09999999999999432
 50
180
 51
270
  0
ARC
  8
1
 62
7
 10
96.49999999999973
 20
0.1999999999999886
 30
0
 40
0.0999999999999657
 50
90
 51
180
  0
ARC
  8
1
 62
7
 10
112.9999999999998
 20
-19.5
 30
0
 40
10
 50
270
 51
0
  0
ARC
  8
1
 62
7
 10
112.9999999999998
 20
19.5
 30
0
 40
10
 50
0
 51
90
  0
ARC
  8
1
 62
7
 10
123.9999999999998
 20
-13.5
 30
0
 40
1
 50
90
 51
180
  0
ARC
  8
1
 62
7
 10
130.4999999999998
 20
-10.5
 30
0
 40
2
 50
270
 51
0
  0
ARC
  8
1
 62
7
 10
124.0154820373592
 20
13.5005038633928
 30
0
 40
1
 50
180
 51
270
  0
ARC
  8
1
 62
7
 10
130.4999999999998
 20
10.5
 30
0
 40
2
 50
0
 51
90
  0
ARC
  8
1
 62
7
 10
61.79999999999977
 20
-22.20000000000004
 30
0
 40
7.299999999999947
 50
220.9918772966003
 51
270
  0
ARC
  8
1
 62
7
 10
61.79999999999977
 20
22.19999999999998
 30
0
 40
7.300000000000019
 50
90
 51
139.0081227033994
  0
ARC
  8
1
 62
7
 10
25.99999999999989
 20
21
 30
0
 40
1
 50
180
 51
270
  0
ARC
  8
1
 62
7
 10
25.99999999999989
 20
-21
 30
0
 40
1
 50
90
 51
180
  0
LINE
  8
1
 62
2
 10
51.23246015591621
 20
40.5
 30
0
 11
28.55071250152514
 21
40.5
 31
0
  0
LINE
  8
1
 62
2
 10
28.55071250152514
 20
40.5
 30
0
 11
36.2782321438101
 21
31.3629393324681
 31
0
  0
SOLID
  8
1
 62
2
 10
33.66625989300346
 20
33.73779145786418
 30
0
 11
34.36991764856028
 21
34.33289849779372
 31
0
 12
36.2782321438101
 22
31.3629393324681
 32
0
 13
36.2782321438101
 23
31.3629393324681
 33
0
  0
LINE
  8
1
 62
2
 10
97.15798152497443
 20
40
 30
0
 11
74.32568639329247
 21
40
 31
0
  0
LINE
  8
1
 62
2
 10
74.32568639329247
 20
40
 30
0
 11
82.04872971025804
 21
29.5
 31
0
  0
SOLID
  8
1
 62
2
 10
79.6037458004908
 20
32.04644366469426
 30
0
 11
80.34612472465616
 21
32.59248410173535
 31
0
 12
82.04872971025804
 22
29.5
 32
0
 13
82.04872971025804
 23
29.5
 33
0
  0
LINE
  8
1
 62
2
 10
23.20982061369942
 20
-66.34991020425775
 30
0
 11
84.56660838998946
 21
-66.34991020425775
 31
0
  0
LINE
  8
1
 62
2
 10
84.56660838998946
 20
-66.34991020425775
 30
0
 11
104.9999999999997
 21
-45.91651859424746
 31
0
  0
SOLID
  8
1
 62
2
 10
102.8509495741615
 20
-48.71721563671505
 30
0
 11
102.1993029575321
 21
-48.0655690200857
 31
0
 12
104.9999999999997
 22
-45.91651859424746
 32
0
 13
104.9999999999997
 23
-45.91651859424746
 33
0
  0
TEXT
  8
1
 62
2
 10
-109.072
 20
60.26368327390348
 30
0
 40
3.2
  1
(2.52MAX)
 41
0.6300000000000001
 72
1
 73
2
 11
-100
 21
61.86368327390348
 31
0
  0
TEXT
  8
1
 62
2
 10
-43.68589412299282
 20
-1.422569230550421
 30
0
 40
2
  1
%%p0.0118
 50
90
 41
0.63
 72
1
 73
2
 11
-44.68589412299282
 21
4.247430769449579
 31
0
  0
TEXT
  8
1
 62
2
 10
-43.08589412299282
 20
-11.088
 30
0
 40
3.2
  1
(1.949    )
 50
90
 41
0.6300000000000001
 72
1
 73
2
 11
-44.68589412299282
 21
0
 31
0
  0
TEXT
  8
1
 62
2
 10
-101.4384551780371
 20
36.86368327390348
 30
0
 40
2
  1
%%p0.0118
 41
0.63
 72
1
 73
2
 11
-95.7684551780371
 21
37.86368327390348
 31
0
  0
TEXT
  8
1
 62
2
 10
-111.088
 20
36.26368327390348
 30
0
 40
3.2
  1
(1.949    )
 41
0.6300000000000001
 72
1
 73
2
 11
-100
 21
37.86368327390348
 31
0
  0
TEXT
  8
1
 62
2
 10
-111.088
 20
48.26368327390348
 30
0
 40
3.2
  1
(2.402SQU.)
 41
0.6300000000000001
 72
1
 73
2
 11
-100
 21
49.86368327390348
 31
0
  0
TEXT
  8
1
 62
2
 10
-57.7597364447559
 20
-46.48481685313686
 30
0
 40
3.5
  1
(4-M4 DEPTH 0.236MAX)
 41
0.6570000000000001
 73
2
 11
-57.7597364447559
 21
-44.73481685313686
 31
0
  0
TEXT
  8
1
 62
2
 10
-55.68589412299282
 20
-10.42256923055042
 30
0
 40
2
  1
%%p0.0197
 50
90
 41
0.63
 72
1
 73
2
 11
-56.68589412299282
 21
-4.752569230550419
 31
0
  0
TEXT
  8
1
 62
2
 10
-55.08589412299282
 20
-20.588
 30
0
 40
3.2
  1
(0.394    )
 50
90
 41
0.6300000000000001
 72
1
 73
2
 11
-56.68589412299282
 21
-9.499999999999998
 31
0
  0
TEXT
  8
1
 62
2
 10
30.57524174352606
 20
41.6149370672025
 30
0
 40
3
  1
NAME PLATE
 41
0.6300000000000001
 72
1
 73
2
 11
40.02524174352607
 21
43.1149370672025
 31
0
  0
TEXT
  8
1
 62
2
 10
-29.29497474686596
 20
18.0407427540474
 30
0
 40
3.2
  1
(0.709DIA.)
 50
90
 41
0.6300000000000001
 72
1
 73
2
 11
-30.89497474686596
 21
29.1287427540474
 31
0
  0
TEXT
  8
1
 62
2
 10
5.080996675841139
 20
60.30000000000001
 30
0
 40
3.2
  1
(0.984)
 41
0.6300000000000001
 72
1
 73
2
 11
12.13699667584114
 21
61.90000000000001
 31
0
  0
TEXT
  8
1
 62
2
 10
-1.119003324158902
 20
48.30000000000001
 30
0
 40
3.2
  1
(0.472)
 41
0.6300000000000001
 72
1
 73
2
 11
5.936996675841099
 21
49.90000000000001
 31
0
  0
TEXT
  8
1
 62
2
 10
10.8969966758411
 20
48.1492510903264
 30
0
 40
3.2
  1
(0.197)
 41
0.45
 72
1
 73
2
 11
15.9369966758411
 21
49.7492510903264
 31
0
  0
TEXT
  8
1
 62
2
 10
-5.91844320358587
 20
27.16765118319298
 30
0
 40
2
  1
 %%p0.0118
 50
90
 41
0.63
 72
1
 73
2
 11
-6.91844320358587
 21
33.46765118319298
 31
0
  0
TEXT
  8
1
 62
2
 10
-5.318443203585871
 20
19.1849450575193
 30
0
 40
3.2
  1
(0.217    )
 50
90
 41
0.6300000000000001
 72
1
 73
2
 11
-6.91844320358587
 21
30.2729450575193
 31
0
  0
TEXT
  8
1
 62
2
 10
-18.29999999999991
 20
35.64128883066108
 30
0
 40
2
  1
 0
 50
90
 41
0.63
  0
TEXT
  8
1
 62
2
 10
-15.89999999999991
 20
35.64128883066108
 30
0
 40
2
  1
-0.000787
 50
90
 41
0.63
  0
TEXT
  8
1
 62
2
 10
-16.49999999999991
 20
16.63694505751928
 30
0
 40
3.2
  1
(0.236DIA.      )
 50
90
 41
0.6300000000000001
 72
1
 73
2
 11
-18.09999999999991
 21
33.77294505751929
 31
0
  0
TEXT
  8
1
 62
2
 10
76.47776825856376
 20
40.82551303864307
 30
0
 40
3
  1
NAME PLATE
 41
0.6300000000000001
 72
1
 73
2
 11
85.92776825856376
 21
42.32551303864307
 31
0
  0
TEXT
  8
1
 62
2
 10
-142.5
 20
93.5
 30
0
 40
5
  1
DME60S6H
 41
0.9
 72
1
 73
2
 11
-124.5
 21
96
 31
0
  0
TEXT
  8
1
 62
2
 10
163.5080808981697
 20
-60.78965282932602
 30
0
 40
2
  1
%%p1.181
 50
90
 41
0.63
 72
1
 73
2
 11
162.5080808981697
 21
-55.74965282932602
 31
0
  0
TEXT
  8
1
 62
2
 10
152.1547824644676
 20
-86.11516907639204
 30
0
 40
3.2
  1
(0.118)
 50
90
 41
0.6300000000000001
 72
1
 73
2
 11
150.5547824644676
 21
-79.05916907639204
 31
0
  0
TEXT
  8
1
 62
2
 10
164.1080808981697
 20
-70.91096099766702
 30
0
 40
3.2
  1
(11.181   )
 50
90
 41
0.6300000000000001
 72
1
 73
2
 11
162.5080808981697
 21
-59.82296099766702
 31
0
  0
TEXT
  8
1
 62
2
 10
152.0491926868407
 20
-11.14935934988802
 30
0
 40
3.2
  1
(0.984DIA.)
 50
90
 41
0.6300000000000001
 72
1
 73
2
 11
150.4491926868407
 21
-0.06135934988802205
 31
0
  0
TEXT
  8
1
 62
2
 10
67.24399999999977
 20
60.01947047635381
 30
0
 40
3.2
  1
(3.858)
 41
0.6300000000000001
 72
1
 73
2
 11
74.29999999999977
 21
61.61947047635381
 31
0
  0
TEXT
  8
1
 62
2
 10
24.40618204092299
 20
-57.9506031044043
 30
0
 40
3.5
  1
LEAD WIRES (RED,BLUE)
 41
0.9
 73
2
 11
24.40618204092299
 21
-56.2006031044043
 31
0
  0
TEXT
  8
1
 62
2
 10
24.40618204092299
 20
-65.11594311103875
 30
0
 40
3.5
  1
UL1015 AWG22
 41
0.9
 73
2
 11
24.40618204092299
 21
-63.36594311103875
 31
0
  0
TEXT
  8
1
 62
2
 10
164.1080808981697
 20
-11.14935934988802
 30
0
 40
3.2
  1
(2.323DIA.)
 50
90
 41
0.6300000000000001
 72
1
 73
2
 11
162.5080808981697
 21
-0.06135934988802205
 31
0
  0
TEXT
  8
1
 62
2
 10
133.3685292089517
 20
59.89472453560027
 30
0
 40
3.2
  1
(0.374)
 41
0.6300000000000001
 72
1
 73
2
 11
140.4245292089517
 21
61.49472453560027
 31
0
  0
TEXT
  8
1
 62
2
 10
32.43576771999558
 20
48.01947047635381
 30
0
 40
3.2
  1
(1.142)
 41
0.6300000000000001
 72
1
 73
2
 11
39.49176771999558
 21
49.61947047635381
 31
0
  0
DIMENSION
  8
1
  6
CONTINUOUS
 62
2
  2
*D0
  3
DMST_1
 10
20
 20
52.4748173182795
 30
0
 11
15.6193324142064
 21
55.0748173182795
 31
0
 12
0
 22
0
 32
0
 70
0
 13
24.99999999999998
 23
29.3629393324681
 33
0
 14
20
 24
19.00000000000012
 34
0
 53
0
  0
DIMENSION
  8
1
  6
CONTINUOUS
 62
2
  2
*D1
  3
DMST_2
 10
-69.49999999999989
 20
52.3174890833463
 30
0
 11
-99.9999999999999
 21
54.9174890833463
 31
0
 12
0
 22
0
 32
0
 70
0
  1
üá<>
 13
-130.5
 23
24.75
 33
0
 14
-69.49999999999989
 24
24.75
 34
0
 53
0
  0
DIMENSION
  8
1
  6
CONTINUOUS
 62
2
  2
*D2
  3
DMST_3
 10
-124.7499999999999
 20
40.4603039403511
 30
0
 11
-99.9999999999999
 21
43.0603039403511
 31
0
 12
0
 22
0
 32
0
 70
0
 13
-75.24999999999989
 23
30.5
 33
0
 14
-124.7499999999999
 24
30.5
 34
0
 53
0
  0
DIMENSION
  8
1
  6
CONTINUOUS
 62
2
  2
*D3
  3
DMST_3
 10
-47.38099567361081
 20
-24.75
 30
0
 11
-49.98099567361081
 21
-2.775557561562891e-016
 31
0
 12
0
 22
0
 32
0
 70
0
 13
-69.49999999999989
 23
24.75
 33
0
 14
-69.49999999999989
 24
-24.75
 34
0
 50
90
 53
0
  0
DIMENSION
  8
1
  6
CONTINUOUS
 62
2
  2
*D4
  3
DMST_4
 10
-59.4462016085883
 20
0
 30
0
 11
-62.04620160858829
 21
-8.52885247127719
 31
0
 12
0
 22
0
 32
0
 70
0
 13
-90.9999999999999
 23
10
 33
0
 14
-69.49999999999987
 24
0
 34
0
 50
90
 53
0
  0
DIMENSION
  8
1
  6
CONTINUOUS
 62
2
  2
*D5
  3
DMST_1
 10
0
 20
64.38303131701611
 30
0
 11
12.49999999999999
 21
66.9830313170161
 31
0
 12
0
 22
0
 32
0
 70
0
 13
24.99999999999998
 23
29.3629393324681
 33
0
 14
0
 24
12.5
 34
0
 53
0
  0
DIMENSION
  8
1
  6
CONTINUOUS
 62
2
  2
*D6
  3
DMST_1
 10
-33.49820191931385
 20
19.00000000000012
 30
0
 11
-36.09820191931385
 21
28.8284747062429
 31
0
 12
0
 22
0
 32
0
 70
0
  1
âË<>
 13
20
 23
1.000183990690921
 33
0
 14
20
 24
19.00000000000012
 34
0
 50
90
 53
0
  0
DIMENSION
  8
1
  6
CONTINUOUS
 62
2
  2
*D7
  3
DMST_5
 10
-9.462236904234031
 20
12.5
 30
0
 11
-12.06223690423394
 21
29.6616550740146
 31
0
 12
0
 22
0
 32
0
 70
0
 13
0
 23
7.000000000000121
 33
0
 14
0
 24
12.5
 34
0
 50
90
 53
0
  0
DIMENSION
  8
1
  6
CONTINUOUS
 62
2
  2
*D8
  3
DMST_1
 10
11.99999999999989
 20
52.5337219705081
 30
0
 11
5.999999999999945
 21
55.1337219705081
 31
0
 12
0
 22
0
 32
0
 70
0
 13
0
 23
12.5
 33
0
 14
11.99999999999989
 24
12.5
 34
0
 53
0
  0
DIMENSION
  8
1
  6
CONTINUOUS
 62
2
  2
*D9
  3
DMST_6
 10
-21.5906949178695
 20
13.00000000000023
 30
0
 11
-24.9906949178695
 21
32.3525508844282
 31
0
 12
0
 22
0
 32
0
 70
0
  1
âË<>
 13
0
 23
7.000000000000121
 33
0
 14
15.84057287393535
 24
13.00000000000023
 34
0
 50
90
 53
0
  0
DIMENSION
  8
1
  6
CONTINUOUS
 62
2
  2
*D10
  3
DMST_1
 10
54.00000000000011
 20
52.484356262941
 30
0
 11
39.50000000000006
 21
55.084356262941
 31
0
 12
0
 22
0
 32
0
 70
0
 13
24.99999999999998
 23
29.3629393324681
 33
0
 14
54.00000000000011
 24
30
 34
0
 53
0
  0
DIMENSION
  8
1
  6
CONTINUOUS
 62
2
  2
*D11
  3
DMST_1
 10
122.9999999999998
 20
64.40034541830811
 30
0
 11
73.99999999999987
 21
67.0003454183081
 31
0
 12
0
 22
0
 32
0
 70
0
 13
24.99999999999998
 23
29.3629393324681
 33
0
 14
122.9999999999998
 24
19.5
 34
0
 53
0
  0
DIMENSION
  8
1
  6
CONTINUOUS
 62
2
  2
*D12
  3
DMST_7
 10
148.0065011936588
 20
-86.5
 30
0
 11
145.4065011936588
 21
-78.54565334582421
 31
0
 12
0
 22
0
 32
0
 70
0
  1
(<>
 13
108.3612878820806
 23
-89.5
 33
0
 14
108.9999999999997
 24
-86.5
 34
0
 50
90
 53
0
  0
DIMENSION
  8
1
  6
CONTINUOUS
 62
2
  2
*D13
  3
DMST_2
 10
159.9796438751958
 20
-29.5
 30
0
 11
157.3796438751958
 21
-1.06581410364015e-014
 31
0
 12
0
 22
0
 32
0
 70
0
  1
âË<>
 13
112.9999999999998
 23
29.5
 33
0
 14
112.9999999999998
 24
-29.5
 34
0
 50
90
 53
0
  0
DIMENSION
  8
1
  6
CONTINUOUS
 62
2
  2
*D14
  3
DMST_2
 10
148.0065011936588
 20
-12.5
 30
0
 11
145.4065011936588
 21
-3.552713678800501e-015
 31
0
 12
0
 22
0
 32
0
 70
0
  1
âË<>
 13
130.4999999999998
 23
12.5
 33
0
 14
130.4999999999998
 24
-12.5
 34
0
 50
90
 53
0
  0
DIMENSION
  8
1
  6
CONTINUOUS
 62
2
  2
*D15
  3
DMST_7
 10
132.4999999999998
 20
64.3668930959667
 30
0
 11
140.5739635464188
 21
66.9668930959667
 31
0
 12
0
 22
0
 32
0
 70
0
  1
(<>
 13
122.9999999999998
 23
19.5
 33
0
 14
132.4999999999998
 24
10.5
 34
0
 53
0
  0
DIMENSION
  8
1
  6
CONTINUOUS
 62
2
  2
*D16
  3
DMST_8
 10
159.9796438751958
 20
-89.5
 30
0
 11
157.3796438751958
 21
-59.5
 31
0
 12
0
 22
0
 32
0
 70
0
  1
300
 13
112.9999999999998
 23
-29.5
 33
0
 14
108.3612878820806
 24
-89.5
 34
0
 50
90
 53
0
  0
DIMENSION
  8
1
  6
CONTINUOUS
 62
2
  2
*D17
  3
DMST_9
 10
-131.9999999999999
 20
64.3483698805239
 30
0
 11
-99.9999999999999
 21
66.9483698805239
 31
0
 12
0
 22
0
 32
0
 70
0
 13
-67.99999999999987
 23
7
 33
0
 14
-131.9999999999999
 24
7
 34
0
 53
0
  0
INSERT
  8
0
  2
___R___O_______R
 10
0.5
 20
-3.75
 30
0
  0
INSERT
  8
1
  2
*D18
 10
0
 20
0
 30
0
  0
ENDSEC
  0
EOF
