  0
SECTION
  2
HEADER
  9
$ACADVER
  1
AC1009
  9
$INSBASE
 10
0
 20
0
  9
$EXTMIN
 10
-194.5
 20
-146
  9
$EXTMAX
 10
194.5
 20
146
  9
$LIMMIN
 10
-194.5
 20
-146
  9
$LIMMAX
 10
194.5
 20
146
  9
$VIEWCTR
 10
10
 20
10
  9
$VIEWSIZE
 40
10
  9
$SNAPMODE
 70
0
  9
$SNAPUNIT
 10
1
 20
1
  9
$SNAPBASE
 10
0
 20
0
  9
$SNAPANG
 50
0
  9
$SNAPSTYLE
 70
0
  9
$SNAPISOPAIR
 70
0
  9
$GRIDMODE
 70
0
  9
$GRIDUNIT
 10
0
 20
0
  9
$ORTHOMODE
 70
0
  9
$REGENMODE
 70
1
  9
$FILLMODE
 70
1
  9
$QTEXTMODE
 70
0
  9
$DRAGMODE
 70
2
  9
$LTSCALE
 40
1
  9
$OSMODE
 70
0
  9
$ATTMODE
 70
1
  9
$TEXTSIZE
 40
3.5
  9
$TRACEWID
 40
0.5
  9
$TEXTSTYLE
  7
STANDARD
  9
$CLAYER
  8
0
  9
$CELTYPE
  6
BYLAYER
  9
$CECOLOR
 62
256
  9
$DIMSCALE
 40
1
  9
$DIMASZ
 40
0.18
  9
$DIMEXO
 40
0.0625
  9
$DIMDLI
 40
0.38
  9
$DIMRND
 40
0
  9
$DIMDLE
 40
0
  9
$DIMEXE
 40
0.18
  9
$DIMTP
 40
0
  9
$DIMTM
 40
0
  9
$DIMTXT
 40
0.18
  9
$DIMCEN
 40
0.09
  9
$DIMTSZ
 40
0
  9
$DIMTOL
 70
0
  9
$DIMLIM
 70
0
  9
$DIMTIH
 70
1
  9
$DIMTOH
 70
1
  9
$DIMSE1
 70
0
  9
$DIMSE2
 70
0
  9
$DIMTAD
 70
0
  9
$DIMZIN
 70
0
  9
$DIMBLK
  1

  9
$DIMASO
 70
1
  9
$DIMSHO
 70
1
  9
$DIMPOST
  1

  9
$DIMAPOST
  1

  9
$DIMALT
 70
0
  9
$DIMALTD
 70
2
  9
$DIMALTF
 40
25.4
  9
$DIMLFAC
 40
1
  9
$DIMTOFL
 70
0
  9
$DIMTVP
 40
0
  9
$DIMTIX
 70
0
  9
$DIMSOXD
 70
0
  9
$DIMSAH
 70
0
  9
$DIMBLK1
  1

  9
$DIMBLK2
  1

  9
$DIMSTYLE
  2
*UNNAMED
  9
$DIMCLRD
 70
0
  9
$DIMCLRE
 70
0
  9
$DIMCLRT
 70
0
  9
$DIMTFAC
 40
1
  9
$DIMGAP
 40
0.09
  9
$LUNITS
 70
2
  9
$LUPREC
 70
4
  9
$AXISMODE
 70
0
  9
$AXISUNIT
 10
0
 20
0
  9
$SKETCHINC
 40
0.1
  9
$FILLETRAD
 40
2
  9
$AUNITS
 70
0
  9
$AUPREC
 70
0
  9
$MENU
  1
ACAD
  9
$ELEVATION
 40
0
  9
$THICKNESS
 40
0
  9
$VIEWDIR
 10
0
 20
0
 30
1
  9
$LIMCHECK
 70
0
  9
$BLIPMODE
 70
1
  9
$CHAMFERA
 40
0
  9
$CHAMFERB
 40
0
  9
$FASTZOOM
 70
1
  9
$SKPOLY
 70
0
  9
$ANGBASE
 50
0
  9
$ANGDIR
 70
0
  9
$PDMODE
 70
0
  9
$PDSIZE
 40
0
  9
$PLINEWID
 40
0
  9
$COORDS
 70
2
  0
ENDSEC
  0
SECTION
  2
TABLES
  0
TABLE
  2
DIMSTYLE
 70
7
  0
DIMSTYLE
  2
DMST_1
 70
0
  3
MAX
  4

  5

  6

  7

 40
1
 41
3.2
 42
1
 43
7
 44
1
 45
0
 46
0
 47
0
 48
0
140
3.2
141
0
142
0
143
25.4
144
1
145
0
146
1
147
0.09
 71
0
 72
0
 73
0
 74
0
 75
0
 76
0
 77
1
 78
9
170
0
171
2
172
0
173
0
174
0
175
0
176
2
177
2
178
2
  0
DIMSTYLE
  2
DMST_2
 70
0
  3

  4

  5

  6

  7

 40
1
 41
3.2
 42
1
 43
7
 44
1
 45
0
 46
0
 47
30
 48
30
140
3.2
141
0
142
0
143
25.4
144
1
145
0
146
0.6
147
0.09
 71
1
 72
0
 73
0
 74
0
 75
0
 76
0
 77
1
 78
9
170
0
171
2
172
0
173
0
174
0
175
0
176
2
177
2
178
2
  0
DIMSTYLE
  2
DMST_3
 70
0
  3

  4

  5

  6

  7

 40
1
 41
3.2
 42
1
 43
7
 44
1
 45
0
 46
0
 47
0
 48
0
140
3.2
141
0
142
0
143
25.4
144
1
145
0
146
1
147
0.09
 71
0
 72
0
 73
0
 74
0
 75
0
 76
0
 77
1
 78
9
170
0
171
2
172
0
173
0
174
0
175
0
176
2
177
2
178
2
  0
DIMSTYLE
  2
DMST_4
 70
0
  3

  4

  5

  6
DOT
  7

 40
1
 41
1.5
 42
1
 43
7
 44
1
 45
0
 46
0
 47
0
 48
0
140
3.2
141
0
142
0
143
25.4
144
1
145
0
146
1
147
0.09
 71
0
 72
0
 73
0
 74
0
 75
0
 76
0
 77
1
 78
9
170
0
171
2
172
0
173
1
174
0
175
0
176
2
177
2
178
2
  0
DIMSTYLE
  2
DMST_5
 70
0
  3

  4

  5

  6

  7

 40
1
 41
3.2
 42
1
 43
7
 44
1
 45
0
 46
0
 47
0
 48
0.03
140
3.2
141
0
142
0
143
25.4
144
1
145
0
146
0.6
147
0.09
 71
1
 72
0
 73
0
 74
0
 75
0
 76
0
 77
1
 78
9
170
0
171
2
172
0
173
0
174
0
175
0
176
2
177
2
178
2
  0
DIMSTYLE
  2
DMST_6
 70
0
  3

  4

  5

  6

  7

 40
1
 41
3.2
 42
1
 43
7
 44
1
 45
0
 46
0
 47
0.3
 48
0.3
140
3.2
141
0
142
0
143
25.4
144
1
145
0
146
0.6
147
0.09
 71
1
 72
0
 73
0
 74
0
 75
0
 76
0
 77
1
 78
9
170
0
171
2
172
0
173
0
174
0
175
0
176
2
177
2
178
2
  0
DIMSTYLE
  2
DMST_7
 70
0
  3
)
  4

  5

  6

  7

 40
1
 41
3.2
 42
1
 43
7
 44
1
 45
0
 46
0
 47
0
 48
0
140
3.2
141
0
142
0
143
25.4
144
1
145
0
146
1
147
0.09
 71
0
 72
0
 73
0
 74
0
 75
0
 76
0
 77
1
 78
9
170
0
171
2
172
0
173
0
174
0
175
0
176
2
177
2
178
2
  0
ENDTAB
  0
TABLE
  2
LTYPE
 70
9
  0
LTYPE
  2
CONTINUOUS
 70
64
  3
Solid line
 72
65
 73
0
 40
0
  0
LTYPE
  2
BORDER
 70
64
  3
__ __ . __ __ .
 72
65
 73
6
 40
17.91447368421053
 49
5.118421052631579
 49
-2.559210526315789
 49
5.118421052631579
 49
-2.559210526315789
 49
0
 49
-2.559210526315789
  0
LTYPE
  2
CENTER
 70
64
  3
____ _ ____ _
 72
65
 73
4
 40
20.47368421052632
 49
12.79605263157895
 49
-2.559210526315789
 49
2.559210526315789
 49
-2.559210526315789
  0
LTYPE
  2
DASHDOT
 70
64
  3
__ . __ . __ .
 72
65
 73
4
 40
10.23684210526316
 49
5.118421052631579
 49
-2.559210526315789
 49
0
 49
-2.559210526315789
  0
LTYPE
  2
DASHED
 70
64
  3
__ __ __ __ __
 72
65
 73
2
 40
7.677631578947368
 49
5.118421052631579
 49
-2.559210526315789
  0
LTYPE
  2
DIVIDE
 70
64
  3
__ . . __ . . 
 72
65
 73
6
 40
12.79605263157895
 49
5.118421052631579
 49
-2.559210526315789
 49
0
 49
-2.559210526315789
 49
0
 49
-2.559210526315789
  0
LTYPE
  2
DOT
 70
64
  3
..............
 72
65
 73
4
 40
5.118421052631579
 49
0
 49
-2.559210526315789
 49
0
 49
-2.559210526315789
  0
LTYPE
  2
HIDDEN
 70
64
  3
_ _ _ _ _ _ _
 72
65
 73
2
 40
3.838815789473684
 49
2.559210526315789
 49
-1.279605263157895
  0
LTYPE
  2
PHANTOM
 70
64
  3
_____ _ _ _____ _ _ 
 72
65
 73
6
 40
25.59210526315789
 49
12.79605263157895
 49
-2.559210526315789
 49
2.559210526315789
 49
-2.559210526315789
 49
2.559210526315789
 49
-2.559210526315789
  0
ENDTAB
  0
TABLE
  2
LAYER
 70
3
  0
LAYER
  2
1
 70
0
 62
7
  6
CONTINUOUS
  0
LAYER
  2
0
 70
0
 62
7
  6
CONTINUOUS
  0
ENDTAB
  0
TABLE
  2
STYLE
 70
4
  0
STYLE
  2
STANDARD
 70
0
 40
0
 41
1
 50
0
 71
0
 42
3.5
  3
txt
  4

  0
STYLE
  2
SIMPLEX
 70
0
 40
0
 41
1
 50
0
 71
0
 42
3.5
  3
simplex
  4

  0
STYLE
  2
COMPLEX
 70
0
 40
0
 41
1
 50
0
 71
0
 42
3.5
  3
complex
  4

  0
STYLE
  2
ITALIC
 70
0
 40
0
 41
1
 50
0
 71
0
 42
3.5
  3
italic
  4

  0
ENDTAB
  0
TABLE
  2
VIEW
 70
0
  0
ENDTAB
  0
ENDSEC
  0
SECTION
  2
BLOCKS
  0
BLOCK
  8
0
  2
___R___O_______R__1
 70
0
 10
0.5
 20
-3.75
 30
0
  0
LINE
  8
1
 62
4
  6
PHANTOM
 10
-194.5
 20
-146
 30
0
 11
194.5
 21
-146
 31
0
  0
LINE
  8
1
 62
4
  6
PHANTOM
 10
194.5
 20
146
 30
0
 11
-194.5
 21
146
 31
0
  0
LINE
  8
1
 62
4
  6
PHANTOM
 10
194.5
 20
146
 30
0
 11
194.5
 21
129
 31
0
  0
LINE
  8
1
 62
4
  6
PHANTOM
 10
-194.5
 20
-146
 30
0
 11
-194.5
 21
146
 31
0
  0
LINE
  8
1
 62
4
  6
PHANTOM
 10
194.5
 20
-136.5
 30
0
 11
194.5
 21
-146
 31
0
  0
TEXT
  8
1
 62
4
 10
178.746911898274
 20
-142.6071298819256
 30
0
 40
5
  1
A3
 41
0.9
 72
1
 73
2
 11
183.246911898274
 21
-140.1071298819256
 31
0
  0
ENDBLK
  8
0
  0
BLOCK
  8
0
  2
___R___O_______R__2
 70
0
 10
0.5
 20
-3.75
 30
0
  0
LINE
  8
1
 62
4
  6
PHANTOM
 10
194.5
 20
-136.5
 30
0
 11
194.5
 21
-146
 31
0
  0
LINE
  8
1
 62
4
  6
PHANTOM
 10
-194.5
 20
-146
 30
0
 11
-194.5
 21
146
 31
0
  0
LINE
  8
1
 62
4
  6
PHANTOM
 10
194.5
 20
146
 30
0
 11
194.5
 21
129
 31
0
  0
LINE
  8
1
 62
4
  6
PHANTOM
 10
194.5
 20
146
 30
0
 11
-194.5
 21
146
 31
0
  0
LINE
  8
1
 62
4
  6
PHANTOM
 10
-194.5
 20
-146
 30
0
 11
194.5
 21
-146
 31
0
  0
TEXT
  8
1
 62
4
 10
178.746911898274
 20
-142.6071298819256
 30
0
 40
5
  1
A3
 41
0.9
 72
1
 73
2
 11
183.246911898274
 21
-140.1071298819256
 31
0
  0
ENDBLK
  8
0
  0
BLOCK
  8
0
  2
___R___O_______R__3
 70
0
 10
0.5
 20
-3.75
 30
0
  0
LINE
  8
1
 62
4
  6
PHANTOM
 10
-194.5
 20
-146
 30
0
 11
194.5
 21
-146
 31
0
  0
LINE
  8
1
 62
4
  6
PHANTOM
 10
194.5
 20
146
 30
0
 11
-194.5
 21
146
 31
0
  0
LINE
  8
1
 62
4
  6
PHANTOM
 10
194.5
 20
146
 30
0
 11
194.5
 21
129
 31
0
  0
LINE
  8
1
 62
4
  6
PHANTOM
 10
-194.5
 20
-146
 30
0
 11
-194.5
 21
146
 31
0
  0
LINE
  8
1
 62
4
  6
PHANTOM
 10
194.5
 20
-136.5
 30
0
 11
194.5
 21
-146
 31
0
  0
TEXT
  8
1
 62
4
 10
178.746911898274
 20
-142.6071298819256
 30
0
 40
5
  1
A3
 41
0.9
 72
1
 73
2
 11
183.246911898274
 21
-140.1071298819256
 31
0
  0
ENDBLK
  8
0
  0
BLOCK
  8
1
  2
*D0
 70
1
 10
0
 20
0
 30
0
  0
LINE
  8
1
 62
2
 10
-133.8499999999999
 20
63.97743509250901
 30
0
 11
-69.84999999999991
 21
63.97743509250901
 31
0
  0
LINE
  8
1
 62
2
 10
-69.84999999999991
 20
5.999999999999993
 30
0
 11
-69.84999999999991
 21
64.97743509250901
 31
0
  0
LINE
  8
1
 62
2
 10
-133.8499999999999
 20
5.999999999999993
 30
0
 11
-133.8499999999999
 21
64.97743509250901
 31
0
  0
SOLID
  8
1
 62
2
 10
-133.8499999999999
 20
63.97743509250901
 30
0
 11
-130.6499999999999
 21
64.39343509250901
 31
0
 12
-130.6499999999999
 22
63.56143509250901
 32
0
 13
-130.6499999999999
 23
63.56143509250901
 33
0
  0
SOLID
  8
1
 62
2
 10
-69.84999999999991
 20
63.97743509250901
 30
0
 11
-73.04999999999991
 21
63.56143509250901
 31
0
 12
-73.04999999999991
 22
64.39343509250901
 32
0
 13
-73.04999999999991
 23
64.39343509250901
 33
0
  0
TEXT
  8
1
 62
2
 10
-109.5299999999999
 20
64.97743509250901
 30
0
 40
3.2
  1
64
 41
0.9
  0
TEXT
  8
1
 62
2
 10
-103.1299999999999
 20
64.97743509250901
 30
0
 40
3.2
  1
MAX
 41
0.9
  0
ENDBLK
  8
0
  0
BLOCK
  8
1
  2
*D1
 70
1
 10
0
 20
0
 30
0
  0
LINE
  8
1
 62
2
 10
144.979643875196
 20
-84.5
 30
0
 11
144.979643875196
 21
-29.5
 31
0
  0
LINE
  8
1
 62
2
 10
94.36128788208086
 20
-84.5
 30
0
 11
145.979643875196
 21
-84.5
 31
0
  0
LINE
  8
1
 62
2
 10
99
 20
-29.5
 30
0
 11
145.979643875196
 21
-29.5
 31
0
  0
SOLID
  8
1
 62
2
 10
144.979643875196
 20
-84.5
 30
0
 11
144.563643875196
 21
-81.3
 31
0
 12
145.395643875196
 22
-81.3
 32
0
 13
145.395643875196
 23
-81.3
 33
0
  0
SOLID
  8
1
 62
2
 10
144.979643875196
 20
-29.5
 30
0
 11
145.395643875196
 21
-32.7
 31
0
 12
144.563643875196
 22
-32.7
 32
0
 13
144.563643875196
 23
-32.7
 33
0
  0
TEXT
  8
1
 62
2
 10
143.979643875196
 20
-63.752
 30
0
 40
3.2
  1
300
 50
90
 41
0.9
  0
TEXT
  8
1
 62
2
 10
143.339643875196
 20
-54.472
 30
0
 40
1.92
  1
%%p30
 50
90
 41
0.9
  0
ENDBLK
  8
0
  0
BLOCK
  8
1
  2
*D2
 70
1
 10
0
 20
0
 30
0
  0
LINE
  8
1
 62
2
 10
36.99999999999999
 20
52.0002772985998
 30
0
 11
108
 21
52.0002772985998
 31
0
  0
LINE
  8
1
 62
2
 10
36.99999999999999
 20
31
 30
0
 11
36.99999999999999
 21
53.0002772985998
 31
0
  0
LINE
  8
1
 62
2
 10
108
 20
20.5
 30
0
 11
108
 21
53.0002772985998
 31
0
  0
SOLID
  8
1
 62
2
 10
36.99999999999999
 20
52.0002772985998
 30
0
 11
40.2
 21
52.4162772985998
 31
0
 12
40.2
 22
51.5842772985998
 32
0
 13
40.2
 23
51.5842772985998
 33
0
  0
SOLID
  8
1
 62
2
 10
108
 20
52.0002772985998
 30
0
 11
104.8
 21
51.5842772985998
 31
0
 12
104.8
 22
52.4162772985998
 32
0
 13
104.8
 23
52.4162772985998
 33
0
  0
TEXT
  8
1
 62
2
 10
70.57999999999998
 20
53.0002772985998
 30
0
 40
3.2
  1
71
 41
0.9
  0
ENDBLK
  8
0
  0
BLOCK
  8
1
  2
*D3
 70
1
 10
0
 20
0
 30
0
  0
LINE
  8
1
 62
2
 10
0
 20
51.9999176000653
 30
0
 11
37
 21
51.9999176000653
 31
0
  0
LINE
  8
1
 62
2
 10
37
 20
31
 30
0
 11
37
 21
52.9999176000653
 31
0
  0
LINE
  8
1
 62
2
 10
0
 20
3.5
 30
0
 11
0
 21
52.9999176000653
 31
0
  0
SOLID
  8
1
 62
2
 10
0
 20
51.9999176000653
 30
0
 11
3.200000000000001
 21
52.41591760006529
 31
0
 12
3.200000000000001
 22
51.5839176000653
 32
0
 13
3.200000000000001
 23
51.5839176000653
 33
0
  0
SOLID
  8
1
 62
2
 10
37
 20
51.9999176000653
 30
0
 11
33.8
 21
51.5839176000653
 31
0
 12
33.8
 22
52.41591760006529
 32
0
 13
33.8
 23
52.41591760006529
 33
0
  0
TEXT
  8
1
 62
2
 10
16.1
 20
52.9999176000653
 30
0
 40
3.2
  1
37
 41
0.9
  0
ENDBLK
  8
0
  0
BLOCK
  8
1
  2
*D4
 70
1
 10
0
 20
0
 30
0
  0
LINE
  8
1
 62
2
 10
37
 20
40.034791919211
 30
0
 11
39
 21
40.034791919211
 31
0
  0
LINE
  8
1
 62
2
 10
39
 20
40.034791919211
 30
0
 11
46.5205853407167
 21
40.034791919211
 31
0
  0
LINE
  8
1
 62
2
 10
37
 20
31
 30
0
 11
37
 21
41.034791919211
 31
0
  0
LINE
  8
1
 62
2
 10
39
 20
31
 30
0
 11
39
 21
41.034791919211
 31
0
  0
CIRCLE
  8
1
 62
2
 10
37
 20
40.034791919211
 30
0
 40
0.75
  0
SOLID
  8
1
 62
2
 10
39
 20
40.034791919211
 30
0
 11
42.2
 21
40.45079191921099
 31
0
 12
42.2
 22
39.618791919211
 32
0
 13
42.2
 23
39.618791919211
 33
0
  0
TEXT
  8
1
 62
2
 10
44.6005853407167
 20
41.034791919211
 30
0
 40
3.2
  1
2
 41
0.9
  0
ENDBLK
  8
0
  0
BLOCK
  8
1
  2
*D5
 70
1
 10
0
 20
0
 30
0
  0
LINE
  8
1
 62
2
 10
-11.0493686979564
 20
2.5
 30
0
 11
-11.0493686979564
 21
20.54405058969352
 31
0
  0
LINE
  8
1
 62
2
 10
-11.0493686979564
 20
-2.500000000000002
 30
0
 11
-11.0493686979564
 21
2.5
 31
0
  0
LINE
  8
1
 62
2
 10
-11.0493686979564
 20
-8.9
 30
0
 11
-11.0493686979564
 21
-2.500000000000002
 31
0
  0
LINE
  8
1
 62
2
 10
-1
 20
2.5
 30
0
 11
-12.0493686979564
 21
2.5
 31
0
  0
LINE
  8
1
 62
2
 10
-1
 20
-2.500000000000002
 30
0
 11
-12.0493686979564
 21
-2.500000000000002
 31
0
  0
SOLID
  8
1
 62
2
 10
-11.0493686979564
 20
2.5
 30
0
 11
-11.4653686979564
 21
5.700000000000001
 31
0
 12
-10.6333686979564
 22
5.700000000000001
 32
0
 13
-10.6333686979564
 23
5.700000000000001
 33
0
  0
SOLID
  8
1
 62
2
 10
-11.0493686979564
 20
-2.500000000000002
 30
0
 11
-10.6333686979564
 21
-5.700000000000003
 31
0
 12
-11.4653686979564
 22
-5.700000000000003
 32
0
 13
-11.4653686979564
 23
-5.700000000000003
 33
0
  0
TEXT
  8
1
 62
2
 10
-12.8493686979564
 20
10.25605058969352
 30
0
 40
3.2
  1
5
 50
90
 41
0.9
  0
TEXT
  8
1
 62
2
 10
-14.9293686979564
 20
13.77605058969352
 30
0
 40
1.92
  1
 0
 50
90
 41
0.9
  0
TEXT
  8
1
 62
2
 10
-12.0493686979564
 20
13.77605058969352
 30
0
 40
1.92
  1
-0.03
 50
90
 41
0.9
  0
TEXT
  8
1
 62
2
 10
-12.8493686979564
 20
6.611606145249078
 30
0
 40
3.2
  1
âË
 50
90
 41
0.9
  0
ENDBLK
  8
0
  0
BLOCK
  8
1
  2
*D6
 70
1
 10
0
 20
0
 30
0
  0
LINE
  8
1
 62
2
 10
-59.8297637785144
 20
-24.75
 30
0
 11
-59.8297637785144
 21
24.75
 31
0
  0
LINE
  8
1
 62
2
 10
-73.8499999999999
 20
-24.75
 30
0
 11
-58.8297637785144
 21
-24.75
 31
0
  0
LINE
  8
1
 62
2
 10
-73.76231050693899
 20
24.75
 30
0
 11
-58.8297637785144
 21
24.75
 31
0
  0
SOLID
  8
1
 62
2
 10
-59.8297637785144
 20
24.75
 30
0
 11
-59.4137637785144
 21
21.55
 31
0
 12
-60.2457637785144
 22
21.55
 32
0
 13
-60.2457637785144
 23
21.55
 33
0
  0
SOLID
  8
1
 62
2
 10
-59.8297637785144
 20
-24.75
 30
0
 11
-60.2457637785144
 21
-21.55
 31
0
 12
-59.4137637785144
 22
-21.55
 32
0
 13
-59.4137637785144
 23
-21.55
 33
0
  0
TEXT
  8
1
 62
2
 10
-60.8297637785144
 20
-7.584000000000007
 30
0
 40
3.2
  1
49.5
 50
90
 41
0.9
  0
TEXT
  8
1
 62
2
 10
-61.4697637785144
 20
2.735999999999994
 30
0
 40
1.92
  1
%%p0.3
 50
90
 41
0.9
  0
ENDBLK
  8
0
  0
BLOCK
  8
1
  2
*D7
 70
1
 10
0
 20
0
 30
0
  0
LINE
  8
1
 62
2
 10
-126.5999999999999
 20
39.99999999999997
 30
0
 11
-77.09999999999992
 21
39.99999999999997
 31
0
  0
LINE
  8
1
 62
2
 10
-126.5999999999999
 20
27.99999999999999
 30
0
 11
-126.5999999999999
 21
40.99999999999997
 31
0
  0
LINE
  8
1
 62
2
 10
-77.09999999999992
 20
28
 30
0
 11
-77.09999999999992
 21
40.99999999999997
 31
0
  0
SOLID
  8
1
 62
2
 10
-126.5999999999999
 20
39.99999999999997
 30
0
 11
-123.3999999999999
 21
40.41599999999997
 31
0
 12
-123.3999999999999
 22
39.58399999999998
 32
0
 13
-123.3999999999999
 23
39.58399999999998
 33
0
  0
SOLID
  8
1
 62
2
 10
-77.09999999999992
 20
39.99999999999997
 30
0
 11
-80.29999999999993
 21
39.58399999999998
 31
0
 12
-80.29999999999993
 22
40.41599999999997
 32
0
 13
-80.29999999999993
 23
40.41599999999997
 33
0
  0
TEXT
  8
1
 62
2
 10
-109.4339999999999
 20
40.99999999999997
 30
0
 40
3.2
  1
49.5
 41
0.9
  0
TEXT
  8
1
 62
2
 10
-99.11399999999989
 20
41.63999999999997
 30
0
 40
1.92
  1
%%p0.3
 41
0.9
  0
ENDBLK
  8
0
  0
BLOCK
  8
1
  2
*D8
 70
1
 10
0
 20
0
 30
0
  0
LINE
  8
1
 62
2
 10
-131.8499999999999
 20
51.9839079094322
 30
0
 11
-71.84999999999992
 21
51.9839079094322
 31
0
  0
LINE
  8
1
 62
2
 10
-131.8499999999999
 20
25.5
 30
0
 11
-131.8499999999999
 21
52.9839079094322
 31
0
  0
LINE
  8
1
 62
2
 10
-71.84999999999992
 20
25.5
 30
0
 11
-71.84999999999992
 21
52.9839079094322
 31
0
  0
SOLID
  8
1
 62
2
 10
-131.8499999999999
 20
51.9839079094322
 30
0
 11
-128.6499999999999
 21
52.39990790943219
 31
0
 12
-128.6499999999999
 22
51.5679079094322
 32
0
 13
-128.6499999999999
 23
51.5679079094322
 33
0
  0
SOLID
  8
1
 62
2
 10
-71.84999999999992
 20
51.9839079094322
 30
0
 11
-75.04999999999993
 21
51.5679079094322
 31
0
 12
-75.04999999999993
 22
52.39990790943219
 32
0
 13
-75.04999999999993
 23
52.39990790943219
 33
0
  0
TEXT
  8
1
 62
2
 10
-102.161111111111
 20
52.9839079094322
 30
0
 40
3.2
  1
60
 41
0.9
  0
TEXT
  8
1
 62
2
 10
-106.3388888888888
 20
52.9839079094322
 30
0
 40
3.2
  1
üá
 41
0.9
  0
ENDBLK
  8
0
  0
BLOCK
  8
1
  2
*D9
 70
1
 10
0
 20
0
 30
0
  0
LINE
  8
1
 62
2
 10
35.5
 20
39.99999999999997
 30
0
 11
26.8533491625394
 21
39.99999999999997
 31
0
  0
LINE
  8
1
 62
2
 10
35.5
 20
39.99999999999997
 30
0
 11
37
 21
39.99999999999997
 31
0
  0
LINE
  8
1
 62
2
 10
37
 20
39.99999999999997
 30
0
 11
37
 21
39.99999999999997
 31
0
  0
LINE
  8
1
 62
2
 10
37
 20
30.99999999999998
 30
0
 11
37
 21
40.99999999999997
 31
0
  0
LINE
  8
1
 62
2
 10
35.5
 20
27.99999999999998
 30
0
 11
35.5
 21
40.99999999999997
 31
0
  0
SOLID
  8
1
 62
2
 10
35.5
 20
39.99999999999997
 30
0
 11
32.3
 21
39.58399999999998
 31
0
 12
32.3
 22
40.41599999999997
 32
0
 13
32.3
 23
40.41599999999997
 33
0
  0
TEXT
  8
1
 62
2
 10
26.8533491625394
 20
40.99999999999997
 30
0
 40
3.2
  1
1.5
 41
0.9
  0
ENDBLK
  8
0
  0
BLOCK
  8
1
  2
*D10
 70
1
 10
0
 20
0
 30
0
  0
LINE
  8
1
 62
2
 10
-23.9456084856476
 20
-27
 30
0
 11
-23.9456084856476
 21
27
 31
0
  0
LINE
  8
1
 62
2
 10
34.5
 20
-27
 30
0
 11
-24.9456084856476
 21
-27
 31
0
  0
LINE
  8
1
 62
2
 10
34.5
 20
27
 30
0
 11
-24.9456084856476
 21
27
 31
0
  0
SOLID
  8
1
 62
2
 10
-23.9456084856476
 20
27
 30
0
 11
-23.5296084856476
 21
23.8
 31
0
 12
-24.3616084856476
 22
23.8
 32
0
 13
-24.3616084856476
 23
23.8
 33
0
  0
SOLID
  8
1
 62
2
 10
-23.9456084856476
 20
-27
 30
0
 11
-24.3616084856476
 21
-23.8
 31
0
 12
-23.5296084856476
 22
-23.8
 32
0
 13
-23.5296084856476
 23
-23.8
 33
0
  0
TEXT
  8
1
 62
2
 10
-25.7456084856476
 20
-7.641777777777783
 30
0
 40
3.2
  1
54h7
 50
90
 41
0.9
  0
TEXT
  8
1
 62
2
 10
-27.8256084856476
 20
4.518222222222219
 30
0
 40
1.92
  1
 0
 50
90
 41
0.9
  0
TEXT
  8
1
 62
2
 10
-24.9456084856476
 20
4.518222222222219
 30
0
 40
1.92
  1
-0.03
 50
90
 41
0.9
  0
TEXT
  8
1
 62
2
 10
-25.7456084856476
 20
-11.28622222222223
 30
0
 40
3.2
  1
âË
 50
90
 41
0.9
  0
ENDBLK
  8
0
  0
BLOCK
  8
1
  2
*D11
 70
1
 10
0
 20
0
 30
0
  0
LINE
  8
1
 62
2
 10
108
 20
52.0026200476624
 30
0
 11
117.5
 21
52.0026200476624
 31
0
  0
LINE
  8
1
 62
2
 10
117.5
 20
52.0026200476624
 30
0
 11
130.317523867862
 21
52.0026200476624
 31
0
  0
LINE
  8
1
 62
2
 10
108
 20
20.5
 30
0
 11
108
 21
53.0026200476624
 31
0
  0
LINE
  8
1
 62
2
 10
117.5
 20
11.5
 30
0
 11
117.5
 21
53.0026200476624
 31
0
  0
SOLID
  8
1
 62
2
 10
108
 20
52.0026200476624
 30
0
 11
111.2
 21
52.41862004766239
 31
0
 12
111.2
 22
51.5866200476624
 32
0
 13
111.2
 23
51.5866200476624
 33
0
  0
SOLID
  8
1
 62
2
 10
117.5
 20
52.0026200476624
 30
0
 11
114.3
 21
51.5866200476624
 31
0
 12
114.3
 22
52.41862004766239
 32
0
 13
114.3
 23
52.41862004766239
 33
0
  0
TEXT
  8
1
 62
2
 10
122.397523867862
 20
53.0026200476624
 30
0
 40
3.2
  1
9.5
 41
0.9
  0
TEXT
  8
1
 62
2
 10
120.317523867862
 20
53.0026200476624
 30
0
 40
3.2
  1
(
 41
0.9
  0
TEXT
  8
1
 62
2
 10
129.837523867862
 20
53.0026200476624
 30
0
 40
3.2
  1
)
 41
0.9
  0
ENDBLK
  8
0
  0
BLOCK
  8
1
  2
*D12
 70
1
 10
0
 20
0
 30
0
  0
LINE
  8
1
 62
2
 10
133.006501193659
 20
-12.5
 30
0
 11
133.006501193659
 21
12.5
 31
0
  0
LINE
  8
1
 62
2
 10
116.5
 20
-12.5
 30
0
 11
134.006501193659
 21
-12.5
 31
0
  0
LINE
  8
1
 62
2
 10
116.5
 20
12.5
 30
0
 11
134.006501193659
 21
12.5
 31
0
  0
SOLID
  8
1
 62
2
 10
133.006501193659
 20
12.5
 30
0
 11
133.422501193659
 21
9.299999999999995
 31
0
 12
132.590501193659
 22
9.299999999999995
 32
0
 13
132.590501193659
 23
9.299999999999995
 33
0
  0
SOLID
  8
1
 62
2
 10
133.006501193659
 20
-12.5
 30
0
 11
132.590501193659
 21
-9.300000000000003
 31
0
 12
133.422501193659
 22
-9.300000000000003
 32
0
 13
133.422501193659
 23
-9.300000000000003
 33
0
  0
TEXT
  8
1
 62
2
 10
132.006501193659
 20
-0.5777777777777815
 30
0
 40
3.2
  1
25
 50
90
 41
0.9
  0
TEXT
  8
1
 62
2
 10
132.006501193659
 20
-4.222222222222226
 30
0
 40
3.2
  1
âË
 50
90
 41
0.9
  0
ENDBLK
  8
0
  0
BLOCK
  8
1
  2
*D13
 70
1
 10
0
 20
0
 30
0
  0
LINE
  8
1
 62
2
 10
144.979643875196
 20
-29.5
 30
0
 11
144.979643875196
 21
29.5
 31
0
  0
LINE
  8
1
 62
2
 10
99
 20
-29.5
 30
0
 11
145.979643875196
 21
-29.5
 31
0
  0
LINE
  8
1
 62
2
 10
99
 20
29.5
 30
0
 11
145.979643875196
 21
29.5
 31
0
  0
SOLID
  8
1
 62
2
 10
144.979643875196
 20
29.5
 30
0
 11
145.395643875196
 21
26.3
 31
0
 12
144.563643875196
 22
26.3
 32
0
 13
144.563643875196
 23
26.3
 33
0
  0
SOLID
  8
1
 62
2
 10
144.979643875196
 20
-29.5
 30
0
 11
144.563643875196
 21
-26.3
 31
0
 12
145.395643875196
 22
-26.3
 32
0
 13
145.395643875196
 23
-26.3
 33
0
  0
TEXT
  8
1
 62
2
 10
143.979643875196
 20
-0.5777777777777886
 30
0
 40
3.2
  1
59
 50
90
 41
0.9
  0
TEXT
  8
1
 62
2
 10
143.979643875196
 20
-4.222222222222233
 30
0
 40
3.2
  1
âË
 50
90
 41
0.9
  0
ENDBLK
  8
0
  0
BLOCK
  8
1
  2
*D14
 70
1
 10
0
 20
0
 30
0
  0
LINE
  8
1
 62
2
 10
133.006501193659
 20
-90.90000000000001
 30
0
 11
133.006501193659
 21
-84.5
 31
0
  0
LINE
  8
1
 62
2
 10
133.006501193659
 20
-84.5
 30
0
 11
133.006501193659
 21
-81.5
 31
0
  0
LINE
  8
1
 62
2
 10
133.006501193659
 20
-81.5
 30
0
 11
133.006501193659
 21
-70.50565334582421
 31
0
  0
LINE
  8
1
 62
2
 10
94.36128788208086
 20
-84.5
 30
0
 11
134.006501193659
 21
-84.5
 31
0
  0
LINE
  8
1
 62
2
 10
94.99999999999997
 20
-81.5
 30
0
 11
134.006501193659
 21
-81.5
 31
0
  0
SOLID
  8
1
 62
2
 10
133.006501193659
 20
-81.5
 30
0
 11
132.590501193659
 21
-78.3
 31
0
 12
133.422501193659
 22
-78.3
 32
0
 13
133.422501193659
 23
-78.3
 33
0
  0
SOLID
  8
1
 62
2
 10
133.006501193659
 20
-84.5
 30
0
 11
133.422501193659
 21
-87.7
 31
0
 12
132.590501193659
 22
-87.7
 32
0
 13
132.590501193659
 23
-87.7
 33
0
  0
TEXT
  8
1
 62
2
 10
132.006501193659
 20
-74.5056533458242
 30
0
 40
3.2
  1
3
 50
90
 41
0.9
  0
TEXT
  8
1
 62
2
 10
132.006501193659
 20
-76.58565334582421
 30
0
 40
3.2
  1
(
 50
90
 41
0.9
  0
TEXT
  8
1
 62
2
 10
132.006501193659
 20
-70.9856533458242
 30
0
 40
3.2
  1
)
 50
90
 41
0.9
  0
ENDBLK
  8
0
  0
BLOCK
  8
1
  2
*D15
 70
1
 10
0
 20
0
 30
0
  0
LINE
  8
1
 62
2
 10
-125.6751445693721
 20
-26.80113198805908
 30
0
 11
-114.3530007213565
 21
-51.911230984077
 31
0
  0
LINE
  8
1
 62
2
 10
-114.3530007213565
 20
-51.911230984077
 30
0
 11
-75.34855627691208
 21
-51.911230984077
 31
0
  0
SOLID
  8
1
 62
2
 10
-125.6751445693721
 20
-26.80113198805908
 30
0
 11
-123.9805631093537
 21
-29.54730198923561
 31
0
 12
-124.739026137827
 22
-29.88929297513886
 32
0
 13
-124.739026137827
 23
-29.88929297513886
 33
0
  0
TEXT
  8
1
 62
2
 10
-100.0685562769121
 20
-50.911230984077
 30
0
 40
3.2
  1
4.5
 41
0.9
  0
TEXT
  8
1
 62
2
 10
-109.1530007213565
 20
-50.911230984077
 30
0
 40
3.2
  1
4-âË
 41
0.9
  0
TEXT
  8
1
 62
2
 10
-92.62855627691207
 20
-50.911230984077
 30
0
 40
3.2
  1
 HOLES
 41
0.9
  0
ENDBLK
  8
0
  0
ENDSEC
  0
SECTION
  2
ENTITIES
  0
LINE
  8
1
 62
7
 10
49.5
 20
29.5
 30
0
 11
49.5
 21
18.56495153597018
 31
0
  0
LINE
  8
1
 62
7
 10
49.5
 20
18.56495153597018
 30
0
 11
76.99999999999996
 21
18.56495153597018
 31
0
  0
LINE
  8
1
 62
7
 10
76.99999999999996
 20
18.56495153597018
 30
0
 11
76.99999999999996
 21
29.5
 31
0
  0
LINE
  8
1
 62
2
 10
8.209820613699652
 20
-59.34991020425775
 30
0
 11
76.56660838998967
 21
-59.34991020425775
 31
0
  0
LINE
  8
1
 62
7
 10
-69.8499999999999
 20
-5
 30
0
 11
-70.3499999999999
 21
-4.999999999999942
 31
0
  0
LINE
  8
1
 62
7
 10
-69.84999999999994
 20
5
 30
0
 11
-69.8499999999999
 21
-5
 31
0
  0
LINE
  8
1
 62
7
 10
-71.8499999999999
 20
7.000000000000058
 30
0
 11
-70.3499999999999
 21
7.000000000000058
 31
0
  0
LINE
  8
1
 62
7
 10
-133.8499999999999
 20
-5
 30
0
 11
-133.3499999999999
 21
-4.999999999999942
 31
0
  0
LINE
  8
1
 62
7
 10
-133.8499999999999
 20
5
 30
0
 11
-133.8499999999999
 21
-5
 31
0
  0
LINE
  8
1
 62
7
 10
-131.8499999999999
 20
7.000000000000058
 30
0
 11
-133.3499999999999
 21
7.000000000000058
 31
0
  0
LINE
  8
1
 62
7
 10
-70.3499999999999
 20
7.000000000000058
 30
0
 11
-70.3499999999999
 21
-7
 31
0
  0
LINE
  8
1
 62
7
 10
-70.3499999999999
 20
-7
 30
0
 11
-71.8499999999999
 21
-7
 31
0
  0
LINE
  8
1
 62
7
 10
-70.3499999999999
 20
5
 30
0
 11
-69.84999999999994
 21
5
 31
0
  0
LINE
  8
1
 62
7
 10
-133.3499999999999
 20
7.000000000000058
 30
0
 11
-133.3499999999999
 21
-7
 31
0
  0
LINE
  8
1
 62
7
 10
-133.3499999999999
 20
5
 30
0
 11
-133.8499999999999
 21
5
 31
0
  0
LINE
  8
1
 62
7
 10
-133.3499999999999
 20
-7
 30
0
 11
-131.8499999999999
 21
-7
 31
0
  0
LINE
  8
1
 62
7
 10
39.5
 20
22.19999999999998
 30
0
 11
39.5
 21
-22.20000000000004
 31
0
  0
LINE
  8
1
 62
7
 10
36.29999999999991
 20
-15.20000000000004
 30
0
 11
36.29999999999991
 21
-17.80000000000001
 31
0
  0
LINE
  8
1
 62
3
 10
40.2668536222524
 20
-16.5
 30
0
 11
35.52206268363611
 21
-16.5
 31
0
  0
LINE
  8
1
 62
7
 10
36.29999999999991
 20
17.79999999999996
 30
0
 11
36.29999999999991
 21
15.19999999999999
 31
0
  0
LINE
  8
1
 62
3
 10
35.52206268363611
 20
16.5
 30
0
 11
40.2668536222524
 21
16.5
 31
0
  0
LINE
  8
1
 62
3
 10
-126.5999999999999
 20
-20.43796890006643
 30
0
 11
-126.5999999999999
 21
-29
 31
0
  0
LINE
  8
1
 62
3
 10
-131.0253789861208
 20
-24.75000000000022
 30
0
 11
-122.3499999999999
 21
-24.75000000000022
 31
0
  0
LINE
  8
1
 62
3
 10
-136.9499999999998
 20
0
 30
0
 11
-66.75000000000001
 21
0
 31
0
  0
LINE
  8
1
 62
3
 10
-101.8499999999999
 20
34.0999999999998
 30
0
 11
-101.8499999999999
 21
-34.0999999999998
 31
0
  0
LINE
  8
1
 62
7
 10
-101.5499999999999
 20
-15.25
 30
0
 11
-101.5499999999999
 21
-15.70000000000004
 31
0
  0
LINE
  8
1
 62
7
 10
-102.15
 20
-15.25
 30
0
 11
-102.15
 21
-15.70000000000004
 31
0
  0
LINE
  8
1
 62
7
 10
-102.15
 20
-17.75
 30
0
 11
-102.15
 21
-17.29999999999989
 31
0
  0
LINE
  8
1
 62
7
 10
-101.5499999999999
 20
-17.29999999999989
 30
0
 11
-101.5499999999999
 21
-17.75
 31
0
  0
LINE
  8
1
 62
7
 10
-103.0999999999999
 20
-16.79999999999989
 30
0
 11
-102.65
 21
-16.79999999999989
 31
0
  0
LINE
  8
1
 62
7
 10
-103.0999999999999
 20
-16.20000000000005
 30
0
 11
-102.65
 21
-16.20000000000005
 31
0
  0
LINE
  8
1
 62
7
 10
-101.0499999999999
 20
-16.20000000000005
 30
0
 11
-100.5999999999999
 21
-16.20000000000005
 31
0
  0
LINE
  8
1
 62
7
 10
-101.0499999999999
 20
-16.79999999999989
 30
0
 11
-100.5999999999999
 21
-16.79999999999989
 31
0
  0
LINE
  8
1
 62
7
 10
-103.1999999999999
 20
-16.29999999999989
 30
0
 11
-103.1999999999999
 21
-16.70000000000005
 31
0
  0
LINE
  8
1
 62
7
 10
-100.5
 20
-16.29999999999989
 30
0
 11
-100.5
 21
-16.70000000000005
 31
0
  0
LINE
  8
1
 62
7
 10
-102.0499999999999
 20
-17.85000000000002
 30
0
 11
-101.65
 21
-17.85000000000002
 31
0
  0
LINE
  8
1
 62
7
 10
-102.0499999999999
 20
-15.15000000000003
 30
0
 11
-101.65
 21
-15.15000000000003
 31
0
  0
LINE
  8
1
 62
7
 10
-85.04999999999991
 20
1.25
 30
0
 11
-85.04999999999991
 21
0.7999999999999543
 31
0
  0
LINE
  8
1
 62
7
 10
-85.65000000000002
 20
1.25
 30
0
 11
-85.65000000000002
 21
0.7999999999999543
 31
0
  0
LINE
  8
1
 62
7
 10
-85.65000000000002
 20
-1.25
 30
0
 11
-85.65000000000002
 21
-0.7999999999998977
 31
0
  0
LINE
  8
1
 62
7
 10
-85.04999999999991
 20
-0.7999999999998977
 30
0
 11
-85.04999999999991
 21
-1.25
 31
0
  0
LINE
  8
1
 62
7
 10
-86.5999999999999
 20
-0.2999999999998977
 30
0
 11
-86.15000000000002
 21
-0.2999999999998977
 31
0
  0
LINE
  8
1
 62
7
 10
-86.5999999999999
 20
0.2999999999999543
 30
0
 11
-86.15000000000002
 21
0.2999999999999543
 31
0
  0
LINE
  8
1
 62
7
 10
-84.54999999999991
 20
0.2999999999999543
 30
0
 11
-84.0999999999999
 21
0.2999999999999543
 31
0
  0
LINE
  8
1
 62
7
 10
-84.54999999999991
 20
-0.2999999999998977
 30
0
 11
-84.0999999999999
 21
-0.2999999999998977
 31
0
  0
LINE
  8
1
 62
7
 10
-86.69999999999992
 20
0.2000000000001023
 30
0
 11
-86.69999999999992
 21
-0.2000000000000455
 31
0
  0
LINE
  8
1
 62
7
 10
-84.00000000000001
 20
0.2000000000001023
 30
0
 11
-84.00000000000001
 21
-0.2000000000000455
 31
0
  0
LINE
  8
1
 62
7
 10
-85.54999999999991
 20
-1.350000000000023
 30
0
 11
-85.15000000000002
 21
-1.350000000000023
 31
0
  0
LINE
  8
1
 62
7
 10
-85.54999999999991
 20
1.349999999999966
 30
0
 11
-85.15000000000002
 21
1.349999999999966
 31
0
  0
LINE
  8
1
 62
7
 10
-101.5499999999999
 20
17.75
 30
0
 11
-101.5499999999999
 21
17.29999999999996
 31
0
  0
LINE
  8
1
 62
7
 10
-102.15
 20
17.75
 30
0
 11
-102.15
 21
17.29999999999996
 31
0
  0
LINE
  8
1
 62
7
 10
-102.15
 20
15.25
 30
0
 11
-102.15
 21
15.70000000000011
 31
0
  0
LINE
  8
1
 62
7
 10
-101.5499999999999
 20
15.70000000000011
 30
0
 11
-101.5499999999999
 21
15.25
 31
0
  0
LINE
  8
1
 62
7
 10
-103.0999999999999
 20
16.20000000000011
 30
0
 11
-102.65
 21
16.20000000000011
 31
0
  0
LINE
  8
1
 62
7
 10
-103.0999999999999
 20
16.79999999999996
 30
0
 11
-102.65
 21
16.79999999999996
 31
0
  0
LINE
  8
1
 62
7
 10
-101.0499999999999
 20
16.79999999999996
 30
0
 11
-100.5999999999999
 21
16.79999999999996
 31
0
  0
LINE
  8
1
 62
7
 10
-101.0499999999999
 20
16.20000000000011
 30
0
 11
-100.5999999999999
 21
16.20000000000011
 31
0
  0
LINE
  8
1
 62
7
 10
-103.1999999999999
 20
16.70000000000011
 30
0
 11
-103.1999999999999
 21
16.29999999999996
 31
0
  0
LINE
  8
1
 62
7
 10
-100.5
 20
16.70000000000011
 30
0
 11
-100.5
 21
16.29999999999996
 31
0
  0
LINE
  8
1
 62
7
 10
-102.0499999999999
 20
15.14999999999998
 30
0
 11
-101.65
 21
15.14999999999998
 31
0
  0
LINE
  8
1
 62
7
 10
-102.0499999999999
 20
17.84999999999997
 30
0
 11
-101.65
 21
17.84999999999997
 31
0
  0
LINE
  8
1
 62
7
 10
-118.0499999999999
 20
1.25
 30
0
 11
-118.0499999999999
 21
0.7999999999999543
 31
0
  0
LINE
  8
1
 62
7
 10
-118.6499999999999
 20
1.25
 30
0
 11
-118.6499999999999
 21
0.7999999999999543
 31
0
  0
LINE
  8
1
 62
7
 10
-118.6499999999999
 20
-1.25
 30
0
 11
-118.6499999999999
 21
-0.7999999999998977
 31
0
  0
LINE
  8
1
 62
7
 10
-118.0499999999999
 20
-0.7999999999998977
 30
0
 11
-118.0499999999999
 21
-1.25
 31
0
  0
LINE
  8
1
 62
7
 10
-119.5999999999999
 20
-0.2999999999998977
 30
0
 11
-119.1499999999999
 21
-0.2999999999998977
 31
0
  0
LINE
  8
1
 62
7
 10
-119.5999999999999
 20
0.2999999999999543
 30
0
 11
-119.1499999999999
 21
0.2999999999999543
 31
0
  0
LINE
  8
1
 62
7
 10
-117.5499999999999
 20
0.2999999999999543
 30
0
 11
-117.0999999999999
 21
0.2999999999999543
 31
0
  0
LINE
  8
1
 62
7
 10
-117.5499999999999
 20
-0.2999999999998977
 30
0
 11
-117.0999999999999
 21
-0.2999999999998977
 31
0
  0
LINE
  8
1
 62
7
 10
-119.6999999999998
 20
0.2000000000001023
 30
0
 11
-119.6999999999998
 21
-0.2000000000000455
 31
0
  0
LINE
  8
1
 62
7
 10
-117
 20
0.2000000000001023
 30
0
 11
-117
 21
-0.2000000000000455
 31
0
  0
LINE
  8
1
 62
7
 10
-118.5499999999999
 20
-1.350000000000023
 30
0
 11
-118.1499999999999
 21
-1.350000000000023
 31
0
  0
LINE
  8
1
 62
7
 10
-118.5499999999999
 20
1.349999999999966
 30
0
 11
-118.1499999999999
 21
1.349999999999966
 31
0
  0
LINE
  8
1
 62
7
 10
-131.8499999999999
 20
24.5
 30
0
 11
-131.8499999999999
 21
-24.5
 31
0
  0
LINE
  8
1
 62
7
 10
-126.3499999999999
 20
-30
 30
0
 11
-77.3499999999999
 21
-30
 31
0
  0
LINE
  8
1
 62
7
 10
-71.8499999999999
 20
-24.5
 30
0
 11
-71.84999999999994
 21
24.5
 31
0
  0
LINE
  8
1
 62
7
 10
-77.3499999999999
 20
30
 30
0
 11
-126.3499999999999
 21
30
 31
0
  0
LINE
  8
1
 62
7
 10
-106.8499999999999
 20
26.53299832284307
 30
0
 11
-106.8499999999999
 21
22.44994432064368
 31
0
  0
LINE
  8
1
 62
7
 10
-96.8499999999999
 20
22.44994432064368
 30
0
 11
-96.8499999999999
 21
26.53299832284307
 31
0
  0
LINE
  8
1
 62
7
 10
-79.40005567935602
 20
-5
 30
0
 11
-75.31700167715691
 21
-5
 31
0
  0
LINE
  8
1
 62
7
 10
-75.31700167715691
 20
5
 30
0
 11
-79.40005567935602
 21
5
 31
0
  0
LINE
  8
1
 62
7
 10
-106.8499999999999
 20
-22.44994432064373
 30
0
 11
-106.8499999999999
 21
-26.53299832284324
 31
0
  0
LINE
  8
1
 62
7
 10
-96.8499999999999
 20
-26.53299832284324
 30
0
 11
-96.8499999999999
 21
-22.44994432064373
 31
0
  0
LINE
  8
1
 62
7
 10
-128.3829983228429
 20
5
 30
0
 11
-124.2999443206438
 21
5
 31
0
  0
LINE
  8
1
 62
7
 10
-124.2999443206438
 20
-5
 30
0
 11
-128.3829983228429
 21
-5
 31
0
  0
LINE
  8
1
 62
3
 10
-130.8499999999999
 20
24.75
 30
0
 11
-122.2623105069397
 21
24.75
 31
0
  0
LINE
  8
1
 62
3
 10
-126.5999999999999
 20
27
 30
0
 11
-126.5999999999999
 21
20.24995588002247
 31
0
  0
LINE
  8
1
 62
3
 10
-81.3499999999999
 20
-24.75
 30
0
 11
-74.8499999999999
 21
-24.75
 31
0
  0
LINE
  8
1
 62
3
 10
-77.0999999999999
 20
-20.78872687230853
 30
0
 11
-77.0999999999999
 21
-29
 31
0
  0
LINE
  8
1
 62
3
 10
-81.3499999999999
 20
24.75
 30
0
 11
-74.76231050693899
 21
24.75
 31
0
  0
LINE
  8
1
 62
3
 10
-77.09999999999991
 20
27
 30
0
 11
-77.0999999999999
 21
20.42533486614366
 31
0
  0
LINE
  8
1
 62
7
 10
35.5
 20
-5
 30
0
 11
37
 21
-5
 31
0
  0
LINE
  8
1
 62
7
 10
37
 20
5
 30
0
 11
35.5
 21
5
 31
0
  0
LINE
  8
1
 62
7
 10
35.5
 20
5
 30
0
 11
35.5
 21
-5
 31
0
  0
LINE
  8
1
 62
7
 10
39
 20
-30
 30
0
 11
39
 21
30
 31
0
  0
LINE
  8
1
 62
7
 10
37
 20
-30
 30
0
 11
37
 21
30
 31
0
  0
LINE
  8
1
 62
7
 10
37
 20
27
 30
0
 11
35.5
 21
27
 31
0
  0
LINE
  8
1
 62
7
 10
35.5
 20
27
 30
0
 11
35.5
 21
23
 31
0
  0
LINE
  8
1
 62
7
 10
35.5
 20
23
 30
0
 11
37
 21
23
 31
0
  0
LINE
  8
1
 62
7
 10
37
 20
-23
 30
0
 11
35.5
 21
-23
 31
0
  0
LINE
  8
1
 62
7
 10
35.5
 20
-23
 30
0
 11
35.5
 21
-27
 31
0
  0
LINE
  8
1
 62
7
 10
35.5
 20
-27
 30
0
 11
37
 21
-27.00000000000011
 31
0
  0
LINE
  8
1
 62
7
 10
0
 20
-2.5
 30
0
 11
35.5
 21
-2.5
 31
0
  0
LINE
  8
1
 62
7
 10
0
 20
2.5
 30
0
 11
0
 21
-2.5
 31
0
  0
LINE
  8
1
 62
7
 10
35.5
 20
2.5
 30
0
 11
0
 21
2.5
 31
0
  0
LINE
  8
1
 62
7
 10
46.8
 20
-29.5
 30
0
 11
98
 21
-29.5
 31
0
  0
LINE
  8
1
 62
7
 10
81.29999999999996
 20
-5
 30
0
 11
84.49999999999996
 21
-5.5
 31
0
  0
LINE
  8
1
 62
7
 10
81.29999999999996
 20
5
 30
0
 11
84.49999999999996
 21
5.5
 31
0
  0
LINE
  8
1
 62
7
 10
84.49999999999996
 20
-5.900000000000034
 30
0
 11
84.49999999999996
 21
-2.23662692463455
 31
0
  0
LINE
  8
1
 62
7
 10
81.29999999999996
 20
-2.23662692463455
 30
0
 11
81.29999999999996
 21
-5.900000000000034
 31
0
  0
LINE
  8
1
 62
7
 10
85.99999999999996
 20
-29.5
 30
0
 11
85.99999999999996
 21
-31.5
 31
0
  0
LINE
  8
1
 62
7
 10
100
 20
-31.5
 30
0
 11
85.99999999999996
 21
-31.5
 31
0
  0
LINE
  8
1
 62
7
 10
100
 20
-29.29795897113274
 30
0
 11
100
 21
-31.5
 31
0
  0
LINE
  8
1
 62
3
 10
97
 20
10.53178475720467
 30
0
 11
97
 21
-10.92959420309313
 31
0
  0
LINE
  8
1
 62
7
 10
117.5
 20
-10.5
 30
0
 11
117.5
 21
10.5
 31
0
  0
LINE
  8
1
 62
7
 10
101.6723749477709
 20
5.212380679444152
 30
0
 11
108
 21
5.5
 31
0
  0
LINE
  8
1
 62
7
 10
101.6723749477709
 20
-5.212380679444096
 30
0
 11
108
 21
-5.5
 31
0
  0
LINE
  8
1
 62
7
 10
108
 20
8.002581311993765
 30
0
 11
97
 21
7.502581311993765
 31
0
  0
LINE
  8
1
 62
7
 10
97
 20
-7.502581311993708
 30
0
 11
108
 21
-8.002581311993708
 31
0
  0
LINE
  8
1
 62
7
 10
94.8
 20
-0.8000000000000114
 30
0
 11
99.2000000000001
 21
-0.8000000000000114
 31
0
  0
LINE
  8
1
 62
7
 10
99.2000000000001
 20
0.7999999999999543
 30
0
 11
94.8
 21
0.7999999999999543
 31
0
  0
LINE
  8
1
 62
7
 10
109.0154082664935
 20
12.5
 30
0
 11
115.5
 21
12.5
 31
0
  0
LINE
  8
1
 62
7
 10
115.5
 20
-12.5
 30
0
 11
109
 21
-12.5
 31
0
  0
LINE
  8
1
 62
7
 10
108
 20
-19.5
 30
0
 11
108
 21
19.5
 31
0
  0
LINE
  8
1
 62
7
 10
84.49999999999996
 20
5.899999999999977
 30
0
 11
84.49999999999996
 21
2.236626924634492
 31
0
  0
LINE
  8
1
 62
7
 10
87.49999999999996
 20
29.5
 30
0
 11
87.49999999999996
 21
-29.5
 31
0
  0
LINE
  8
1
 62
7
 10
81.29999999999996
 20
2.236626924634492
 30
0
 11
81.29999999999996
 21
5.899999999999977
 31
0
  0
LINE
  8
1
 62
3
 10
120.4735500491311
 20
0
 30
0
 11
-3.999999999999915
 21
0
 31
0
  0
LINE
  8
1
 62
3
 10
82.89999999999996
 20
10.49751927958937
 30
0
 11
82.89999999999996
 21
-9.870422382742731
 31
0
  0
LINE
  8
1
 62
7
 10
83.90588235294116
 20
0.2999999999999543
 30
0
 11
84.29999999999996
 21
0.2999999999999543
 31
0
  0
LINE
  8
1
 62
7
 10
83.90588235294116
 20
-0.3000000000000114
 30
0
 11
84.29999999999996
 21
-0.3000000000000114
 31
0
  0
LINE
  8
1
 62
7
 10
83.19999999999996
 20
-1
 30
0
 11
83.19999999999996
 21
-1.400000000000034
 31
0
  0
LINE
  8
1
 62
7
 10
82.69999999999996
 20
1.5
 30
0
 11
83.09999999999997
 21
1.5
 31
0
  0
LINE
  8
1
 62
7
 10
82.69999999999996
 20
-1.5
 30
0
 11
83.09999999999997
 21
-1.5
 31
0
  0
LINE
  8
1
 62
7
 10
84.39999999999996
 20
0.1999999999999886
 30
0
 11
84.39999999999996
 21
-0.2000000000000455
 31
0
  0
LINE
  8
1
 62
7
 10
81.39999999999996
 20
0.1999999999999886
 30
0
 11
81.39999999999996
 21
-0.2000000000000455
 31
0
  0
LINE
  8
1
 62
7
 10
81.49999999999996
 20
0.2999999999999543
 30
0
 11
81.89999999999996
 21
0.2999999999999543
 31
0
  0
LINE
  8
1
 62
7
 10
81.49999999999996
 20
-0.2999999999998977
 30
0
 11
81.89999999999996
 21
-0.3000000000000114
 31
0
  0
LINE
  8
1
 62
7
 10
82.59999999999997
 20
-1.400000000000034
 30
0
 11
82.59999999999997
 21
-1
 31
0
  0
LINE
  8
1
 62
7
 10
82.59999999999997
 20
1.399999999999977
 30
0
 11
82.59999999999997
 21
1
 31
0
  0
LINE
  8
1
 62
7
 10
83.19999999999996
 20
1.399999999999977
 30
0
 11
83.19999999999996
 21
1
 31
0
  0
LINE
  8
0
 62
7
 10
37
 20
30
 30
0
 11
39
 21
30
 31
0
  0
LINE
  8
0
 62
7
 10
39
 20
-30
 30
0
 11
37
 21
-30
 31
0
  0
LINE
  8
1
 62
7
 10
37
 20
30
 30
0
 11
39
 21
30
 31
0
  0
LINE
  8
1
 62
7
 10
39
 20
-30
 30
0
 11
37
 21
-30
 31
0
  0
LINE
  8
1
 62
7
 10
46.8
 20
29.5
 30
0
 11
98
 21
29.5
 31
0
  0
LINE
  8
1
 62
7
 10
93.99999999999996
 20
-31.5
 30
0
 11
93.99999999999996
 21
-53.49286539778485
 31
0
  0
LINE
  8
1
 62
7
 10
91.99999999999996
 20
-31.5
 30
0
 11
91.99999999999996
 21
-53.42466809013315
 31
0
  0
LINE
  8
1
 62
7
 10
89.99999999999996
 20
-31.5
 30
0
 11
89.99999999999996
 21
-53.13063980214019
 31
0
  0
LINE
  8
1
 62
7
 10
89.99999999999996
 20
-56.20163982705844
 30
0
 11
89.99999999999996
 21
-81.5
 31
0
  0
LINE
  8
1
 62
7
 10
91.99999999999996
 20
-56.229729759321
 30
0
 11
91.99999999999886
 21
-81.5
 31
0
  0
LINE
  8
1
 62
7
 10
93.99999999999996
 20
-56.229729759321
 30
0
 11
93.99999999999996
 21
-81.5
 31
0
  0
LINE
  8
1
 62
7
 10
91.49999999999996
 20
-84.5
 30
0
 11
91.49999999999996
 21
-81.5
 31
0
  0
LINE
  8
1
 62
7
 10
90.60440965855086
 20
-81.5
 30
0
 11
90.60440965855086
 21
-84.5
 31
0
  0
LINE
  8
1
 62
7
 10
93.36128788208086
 20
-84.5
 30
0
 11
93.36128788208086
 21
-81.5
 31
0
  0
LINE
  8
1
 62
7
 10
92.49999999999996
 20
-81.5
 30
0
 11
92.49999999999996
 21
-84.5
 31
0
  0
LINE
  8
1
 62
7
 10
93.99999999999996
 20
-81.5
 30
0
 11
89.99999999999996
 21
-81.5
 31
0
  0
LINE
  8
1
 62
2
 10
8.209820613699652
 20
-59.34991020425775
 30
0
 11
76.56660838998967
 21
-59.34991020425775
 31
0
  0
LINE
  8
1
 62
2
 10
-113.702587416798
 20
-59
 30
0
 11
-75.05489243951537
 21
-59
 31
0
  0
LINE
  8
1
 62
7
 10
39.50000000000001
 20
20.01666666666666
 30
0
 11
39.00000000000001
 21
20.15000000000009
 31
0
  0
LINE
  8
1
 62
7
 10
39.00000000000001
 20
-11
 30
0
 11
39.50000000000001
 21
-11
 31
0
  0
LINE
  8
1
 62
7
 10
39.50000000000001
 20
11
 30
0
 11
39.00000000000001
 21
11
 31
0
  0
LINE
  8
1
 62
7
 10
39.00000000000001
 20
-3.650000000000034
 30
0
 11
39.50000000000001
 21
-3.516666666666595
 31
0
  0
LINE
  8
1
 62
7
 10
39.50000000000001
 20
3.516666666666595
 30
0
 11
39.00000000000001
 21
3.649999999999977
 31
0
  0
LINE
  8
1
 62
7
 10
39.50000000000001
 20
15.04545454545451
 30
0
 11
39.00000000000001
 21
15.04545454545451
 31
0
  0
LINE
  8
1
 62
7
 10
39.00000000000001
 20
-15.0454545454545
 30
0
 11
39.50000000000001
 21
-15.0454545454545
 31
0
  0
LINE
  8
1
 62
7
 10
39.00000000000001
 20
-20.15000000000003
 30
0
 11
39.50000000000001
 21
-20.01666666666659
 31
0
  0
LINE
  8
1
 62
3
 10
-77.09999999999991
 20
27
 30
0
 11
-77.09999999999991
 21
29
 31
0
  0
LINE
  8
1
 62
3
 10
-126.5999999999999
 20
27
 30
0
 11
-126.5999999999999
 21
29
 31
0
  0
LINE
  8
1
 62
3
 10
-74.8499999999999
 20
-24.75
 30
0
 11
-72.8499999999999
 21
-24.75
 31
0
  0
LINE
  8
1
 62
3
 10
-74.76231050693899
 20
24.75
 30
0
 11
-72.8499999999999
 21
24.75
 31
0
  0
ARC
  8
1
 62
7
 10
-101.0499999999999
 20
-15.70000000000004
 30
0
 40
0.5
 50
180
 51
270
  0
ARC
  8
1
 62
7
 10
-102.65
 20
-15.70000000000004
 30
0
 40
0.5000000000000089
 50
270
 51
0
  0
ARC
  8
1
 62
7
 10
-102.65
 20
-17.29999999999989
 30
0
 40
0.5
 50
0
 51
90
  0
ARC
  8
1
 62
7
 10
-101.0499999999999
 20
-17.29999999999989
 30
0
 40
0.5
 50
90
 51
180
  0
ARC
  8
1
 62
7
 10
-84.54999999999991
 20
0.7999999999999543
 30
0
 40
0.5
 50
180
 51
270
  0
ARC
  8
1
 62
7
 10
-86.15000000000002
 20
0.7999999999999543
 30
0
 40
0.5
 50
270
 51
0
  0
ARC
  8
1
 62
7
 10
-86.15000000000002
 20
-0.7999999999998977
 30
0
 40
0.5
 50
0
 51
90
  0
ARC
  8
1
 62
7
 10
-84.54999999999991
 20
-0.7999999999998977
 30
0
 40
0.5
 50
90
 51
180
  0
ARC
  8
1
 62
7
 10
-101.0499999999999
 20
17.29999999999996
 30
0
 40
0.5
 50
180
 51
270
  0
ARC
  8
1
 62
7
 10
-102.65
 20
17.29999999999996
 30
0
 40
0.5
 50
270
 51
0
  0
ARC
  8
1
 62
7
 10
-102.65
 20
15.70000000000011
 30
0
 40
0.5
 50
0
 51
90
  0
ARC
  8
1
 62
7
 10
-101.0499999999999
 20
15.70000000000011
 30
0
 40
0.5
 50
90
 51
180
  0
ARC
  8
1
 62
7
 10
-117.5499999999999
 20
0.7999999999999543
 30
0
 40
0.5
 50
180
 51
270
  0
ARC
  8
1
 62
7
 10
-119.1499999999999
 20
0.7999999999999543
 30
0
 40
0.5
 50
270
 51
0
  0
ARC
  8
1
 62
7
 10
-119.1499999999999
 20
-0.7999999999998977
 30
0
 40
0.5
 50
0
 51
90
  0
ARC
  8
1
 62
7
 10
-117.5499999999999
 20
-0.7999999999998977
 30
0
 40
0.5
 50
90
 51
180
  0
ARC
  8
1
 62
7
 10
-101.8499999999999
 20
0
 30
0
 40
23.00000000000003
 50
77.44414220141404
 51
102.555857798586
  0
ARC
  8
1
 62
7
 10
-101.8499999999999
 20
0
 30
0
 40
26.99999999999988
 50
79.3280707142378
 51
100.6719292857622
  0
ARC
  8
1
 62
7
 10
-101.8499999999999
 20
0
 30
0
 40
23.00000000000022
 50
347.4441422014142
 51
12.55585779858585
  0
ARC
  8
1
 62
7
 10
-101.8499999999999
 20
0
 30
0
 40
26.99999999999979
 50
349.3280707142378
 51
10.67192928576223
  0
ARC
  8
1
 62
7
 10
-101.8499999999999
 20
0
 30
0
 40
27.00000000000004
 50
259.3280707142379
 51
280.6719292857621
  0
ARC
  8
1
 62
7
 10
-101.8499999999999
 20
0
 30
0
 40
23.00000000000008
 50
257.444142201414
 51
282.5558577985859
  0
ARC
  8
1
 62
7
 10
-101.8499999999999
 20
0
 30
0
 40
23.00000000000026
 50
167.4441422014142
 51
192.5558577985858
  0
ARC
  8
1
 62
7
 10
-101.8499999999999
 20
0
 30
0
 40
26.99999999999981
 50
169.3280707142378
 51
190.6719292857622
  0
ARC
  8
1
 62
3
  6
CENTER
 10
-101.8499999999999
 20
0
 30
0
 40
16.49999999999961
 50
342.3602986057636
 51
17.63970139423648
  0
ARC
  8
1
 62
3
  6
CENTER
 10
-101.8499999999999
 20
0
 30
0
 40
16.4999999999999
 50
72.36029860576386
 51
107.6397013942362
  0
ARC
  8
1
 62
3
  6
CENTER
 10
-101.8499999999999
 20
0
 30
0
 40
16.50000000000058
 50
162.3602986057658
 51
197.6397013942365
  0
ARC
  8
1
 62
3
  6
CENTER
 10
-101.8499999999999
 20
0
 30
0
 40
16.50000000000072
 50
252.3602986057648
 51
287.6397013942353
  0
ARC
  8
1
 62
7
 10
97
 20
0
 30
0
 40
7.502581311993765
 50
90
 51
270
  0
ARC
  8
1
 62
7
 10
94.8
 20
0
 30
0
 40
0.7999999999999543
 50
90
 51
270
  0
ARC
  8
1
 62
7
 10
99.2000000000001
 20
0
 30
0
 40
0.8000000000000114
 50
270
 51
90
  0
ARC
  8
1
 62
7
 10
82.89999999999996
 20
5.899999999999977
 30
0
 40
1.599999999999994
 50
0
 51
180
  0
ARC
  8
1
 62
7
 10
82.89999999999996
 20
-5.900000000000034
 30
0
 40
1.600000000000009
 50
180
 51
0
  0
ARC
  8
1
 62
7
 10
81.89705882352936
 20
1.002941176470585
 30
0
 40
0.7029473295325515
 50
270.2397298960818
 51
359.7602701039194
  0
ARC
  8
1
 62
7
 10
83.90294117647056
 20
1.002941176470585
 30
0
 40
0.7029473295325234
 50
180.2397298960806
 51
270.2397298960818
  0
ARC
  8
1
 62
7
 10
83.90294117647056
 20
-1.002941176470642
 30
0
 40
0.7029473295325515
 50
89.76027010391822
 51
179.7602701039148
  0
ARC
  8
1
 62
7
 10
81.89705882352936
 20
-1.002941176470642
 30
0
 40
0.7029473295325237
 50
0.2397298960852264
 51
89.76027010391822
  0
CIRCLE
  8
1
 62
7
 10
-101.8499999999999
 20
0
 30
0
 40
9.75
  0
CIRCLE
  8
1
 62
7
 10
-126.5999999999999
 20
-24.75000000000022
 30
0
 40
2.25
  0
CIRCLE
  8
1
 62
7
 10
-101.8499999999999
 20
0
 30
0
 40
2.5
  0
CIRCLE
  8
1
 62
7
 10
-101.8499999999999
 20
-16.5
 30
0
 40
2.25
  0
CIRCLE
  8
1
 62
7
 10
-85.3499999999999
 20
0
 30
0
 40
2.25
  0
CIRCLE
  8
1
 62
7
 10
-101.8499999999999
 20
16.5
 30
0
 40
2.25
  0
CIRCLE
  8
1
 62
7
 10
-118.3499999999999
 20
0
 30
0
 40
2.25
  0
CIRCLE
  8
1
 62
7
 10
-101.8499999999999
 20
0
 30
0
 40
4.5
  0
CIRCLE
  8
1
 62
7
 10
-126.5999999999999
 20
24.75
 30
0
 40
2.25
  0
CIRCLE
  8
1
 62
7
 10
-77.0999999999999
 20
24.75
 30
0
 40
2.25
  0
CIRCLE
  8
1
 62
7
 10
-77.0999999999999
 20
-24.75
 30
0
 40
2.25
  0
CIRCLE
  8
1
 62
7
 10
-101.8499999999999
 20
16.5
 30
0
 40
3
  0
CIRCLE
  8
1
 62
7
 10
-118.3499999999999
 20
0
 30
0
 40
3
  0
CIRCLE
  8
1
 62
7
 10
-101.8499999999999
 20
-16.5
 30
0
 40
3
  0
CIRCLE
  8
1
 62
7
 10
-85.3499999999999
 20
0
 30
0
 40
3
  0
CIRCLE
  8
1
 62
7
 10
97
 20
0
 30
0
 40
6.999999999999989
  0
CIRCLE
  8
1
 62
7
 10
97
 20
0
 30
0
 40
5
  0
CIRCLE
  8
1
 62
7
 10
82.89999999999996
 20
0
 30
0
 40
2.7500000000001
  0
POLYLINE
  8
1
 62
2
 66
1
  0
VERTEX
  8
1
 10
89.99999999999996
 20
-56.20163982705844
 30
0
 42
0.004743828824775743
  0
VERTEX
  8
1
 10
90.16641991413171
 20
-56.41508556858371
 30
0
 42
0.01507104334733423
  0
VERTEX
  8
1
 10
90.33381023897258
 20
-56.61307131383989
 30
0
 42
0.03007720324087166
  0
VERTEX
  8
1
 10
90.50314138523166
 20
-56.78013706655791
 30
0
 42
0.05372635489997036
  0
VERTEX
  8
1
 10
90.67538376361813
 20
-56.90082283046867
 30
0
 42
0.09093657508272787
  0
VERTEX
  8
1
 10
90.85150778484106
 20
-56.95966860930309
 30
0
 42
0.1259786711098386
  0
VERTEX
  8
1
 10
91.06788087651738
 20
-56.93586815102574
 30
0
 42
0.04787193728009005
  0
VERTEX
  8
1
 10
91.29104204113637
 20
-56.82645025264781
 30
0
 42
0.04341530719249077
  0
VERTEX
  8
1
 10
91.5208658814331
 20
-56.65593869841035
 30
0
 42
0.01115428868951512
  0
VERTEX
  8
1
 10
91.75722700014262
 20
-56.44885727255441
 30
0
 42
-0.00337450726212363
  0
VERTEX
  8
1
 10
91.99999999999996
 20
-56.229729759321
 30
0
 42
-0.01455062689464782
  0
VERTEX
  8
1
 10
92.24995973598662
 20
-56.02055748980838
 30
0
 42
-0.02511181930475075
  0
VERTEX
  8
1
 10
92.50249670899817
 20
-55.84074632396922
 30
0
 42
-0.04096858042394271
  0
VERTEX
  8
1
 10
92.75382617408847
 20
-55.7070298166016
 30
0
 42
-0.06491345471682927
  0
VERTEX
  8
1
 10
93.00016338631144
 20
-55.63614152250356
 30
0
 42
-0.1617726136711013
  0
VERTEX
  8
1
 10
93.39760450924058
 20
-55.70487485140026
 30
0
 42
-0.04144019963785691
  0
VERTEX
  8
1
 10
93.55253499865097
 20
-55.802883438089
 30
0
 42
-0.02559687134808125
  0
VERTEX
  8
1
 10
93.70375267372947
 20
-55.92935357359899
 30
0
 42
-0.01378851554280396
  0
VERTEX
  8
1
 10
93.85249513925336
 20
-56.07479807498979
 30
0
 42
-0.004346364005263877
  0
VERTEX
  8
1
 10
93.99999999999996
 20
-56.229729759321
 30
0
  0
SEQEND
  8
1
  0
POLYLINE
  8
1
 62
2
 66
1
  0
VERTEX
  8
1
 10
89.99999999999996
 20
-53.13063980214019
 30
0
 42
0.004959364709968933
  0
VERTEX
  8
1
 10
90.18681330595143
 20
-53.45740884583285
 30
0
 42
0.01610760733001097
  0
VERTEX
  8
1
 10
90.37558595990157
 20
-53.75751772761851
 30
0
 42
0.03462765575574722
  0
VERTEX
  8
1
 10
90.56827730984909
 20
-54.00430628559022
 30
0
 42
0.07009415413879457
  0
VERTEX
  8
1
 10
90.76684670379267
 20
-54.17111435784099
 30
0
 42
0.1384187450981489
  0
VERTEX
  8
1
 10
90.97325348973097
 20
-54.23128178246383
 30
0
 42
0.1336282076001238
  0
VERTEX
  8
1
 10
91.16455760690074
 20
-54.18097777310877
 30
0
 42
0.02952619964159279
  0
VERTEX
  8
1
 10
91.36324162589423
 20
-54.05028032011647
 30
0
 42
0.04743485283570763
  0
VERTEX
  8
1
 10
91.56894823732975
 20
-53.86407350256865
 30
0
 42
0.006664315072700744
  0
VERTEX
  8
1
 10
91.78132013182555
 20
-53.64724139954699
 30
0
 42
-0.007265733978052085
  0
VERTEX
  8
1
 10
91.99999999999996
 20
-53.42466809013315
 30
0
 42
-0.01594613734139957
  0
VERTEX
  8
1
 10
92.19553700962435
 20
-53.24410091366313
 30
0
 42
-0.02449293246195993
  0
VERTEX
  8
1
 10
92.39416787139102
 20
-53.0881197777877
 30
0
 42
-0.03667587437392698
  0
VERTEX
  8
1
 10
92.59445344743961
 20
-52.96672840990165
 30
0
 42
-0.05374164416481712
  0
VERTEX
  8
1
 10
92.79495459990972
 20
-52.88993053739977
 30
0
 42
-0.07359236239366779
  0
VERTEX
  8
1
 10
92.99423219094096
 20
-52.86772988767683
 30
0
 42
-0.07433083303356262
  0
VERTEX
  8
1
 10
93.19883609745533
 20
-52.90904661869418
 30
0
 42
-0.05003416816812702
  0
VERTEX
  8
1
 10
93.40113977416797
 20
-53.00617026371435
 30
0
 42
-0.0302219128520803
  0
VERTEX
  8
1
 10
93.60171827852935
 20
-53.14514909423666
 30
0
 42
-0.01596446642787291
  0
VERTEX
  8
1
 10
93.80114666798987
 20
-53.31203138176041
 30
0
 42
-0.004980351333119373
  0
VERTEX
  8
1
 10
93.99999999999996
 20
-53.49286539778485
 30
0
  0
SEQEND
  8
1
  0
ARC
  8
1
 62
7
 10
46.8
 20
-22.20000000000004
 30
0
 40
7.299999999999997
 50
180
 51
270
  0
ARC
  8
1
 62
7
 10
46.8
 20
22.19999999999998
 30
0
 40
7.300000000000019
 50
90
 51
180
  0
ARC
  8
1
 62
7
 10
37.29999999999991
 20
-15.20000000000004
 30
0
 40
1.000000000000055
 50
107.4576031237158
 51
180
  0
ARC
  8
1
 62
7
 10
37.29999999999991
 20
-17.80000000000001
 30
0
 40
1
 50
180
 51
252.5423968762821
  0
ARC
  8
1
 62
7
 10
37.29999999999991
 20
15.19999999999999
 30
0
 40
1
 50
180
 51
252.5423968762842
  0
ARC
  8
1
 62
7
 10
37.29999999999991
 20
17.79999999999996
 30
0
 40
0.9999999999999377
 50
107.4576031237179
 51
180
  0
ARC
  8
1
 62
7
 10
-102.0499999999999
 20
-15.25
 30
0
 40
0.09999999999996945
 50
90
 51
180
  0
ARC
  8
1
 62
7
 10
-101.65
 20
-15.25
 30
0
 40
0.100000000000108
 50
0
 51
90
  0
ARC
  8
1
 62
7
 10
-100.5999999999999
 20
-16.29999999999989
 30
0
 40
0.09999999999989484
 50
0
 51
90
  0
ARC
  8
1
 62
7
 10
-100.5999999999999
 20
-16.70000000000005
 30
0
 40
0.09999999999984155
 50
270
 51
0
  0
ARC
  8
1
 62
7
 10
-101.65
 20
-17.75
 30
0
 40
0.1000000000000192
 50
270
 51
0
  0
ARC
  8
1
 62
7
 10
-102.0499999999999
 20
-17.75
 30
0
 40
0.100000000000108
 50
180
 51
270
  0
ARC
  8
1
 62
7
 10
-103.0999999999999
 20
-16.70000000000005
 30
0
 40
0.1000000000000085
 50
180
 51
270
  0
ARC
  8
1
 62
7
 10
-103.0999999999999
 20
-16.29999999999989
 30
0
 40
0.09999999999984155
 50
90
 51
180
  0
ARC
  8
1
 62
7
 10
-85.54999999999991
 20
1.25
 30
0
 40
0.09999999999996589
 50
90
 51
180
  0
ARC
  8
1
 62
7
 10
-85.15000000000002
 20
1.25
 30
0
 40
0.100000000000108
 50
0
 51
90
  0
ARC
  8
1
 62
7
 10
-84.0999999999999
 20
0.2000000000001023
 30
0
 40
0.09999999999988063
 50
0
 51
90
  0
ARC
  8
1
 62
7
 10
-84.0999999999999
 20
-0.2000000000000455
 30
0
 40
0.09999999999985218
 50
270
 51
0
  0
ARC
  8
1
 62
7
 10
-85.15000000000002
 20
-1.25
 30
0
 40
0.100000000000023
 50
270
 51
0
  0
ARC
  8
1
 62
7
 10
-85.54999999999991
 20
-1.25
 30
0
 40
0.100000000000108
 50
180
 51
270
  0
ARC
  8
1
 62
7
 10
-86.5999999999999
 20
-0.2000000000000455
 30
0
 40
0.1000000000000227
 50
180
 51
270
  0
ARC
  8
1
 62
7
 10
-86.5999999999999
 20
0.2000000000001023
 30
0
 40
0.09999999999985201
 50
90
 51
180
  0
ARC
  8
1
 62
7
 10
-102.0499999999999
 20
17.75
 30
0
 40
0.09999999999996945
 50
90
 51
180
  0
ARC
  8
1
 62
7
 10
-101.65
 20
17.75
 30
0
 40
0.100000000000108
 50
0
 51
90
  0
ARC
  8
1
 62
7
 10
-100.5999999999999
 20
16.70000000000011
 30
0
 40
0.09999999999989484
 50
0
 51
90
  0
ARC
  8
1
 62
7
 10
-100.5999999999999
 20
16.29999999999996
 30
0
 40
0.09999999999985221
 50
270
 51
0
  0
ARC
  8
1
 62
7
 10
-101.65
 20
15.25
 30
0
 40
0.1000000000000192
 50
270
 51
0
  0
ARC
  8
1
 62
7
 10
-102.0499999999999
 20
15.25
 30
0
 40
0.100000000000108
 50
180
 51
270
  0
ARC
  8
1
 62
7
 10
-103.0999999999999
 20
16.29999999999996
 30
0
 40
0.1000000000000085
 50
180
 51
270
  0
ARC
  8
1
 62
7
 10
-103.0999999999999
 20
16.70000000000011
 30
0
 40
0.09999999999985221
 50
90
 51
180
  0
ARC
  8
1
 62
7
 10
-118.5499999999999
 20
1.25
 30
0
 40
0.09999999999996589
 50
90
 51
180
  0
ARC
  8
1
 62
7
 10
-118.1499999999999
 20
1.25
 30
0
 40
0.1000000000000085
 50
0
 51
90
  0
ARC
  8
1
 62
7
 10
-117.0999999999999
 20
0.2000000000001023
 30
0
 40
0.09999999999989484
 50
0
 51
90
  0
ARC
  8
1
 62
7
 10
-117.0999999999999
 20
-0.2000000000000455
 30
0
 40
0.09999999999985218
 50
270
 51
0
  0
ARC
  8
1
 62
7
 10
-118.1499999999999
 20
-1.25
 30
0
 40
0.100000000000023
 50
270
 51
0
  0
ARC
  8
1
 62
7
 10
-118.5499999999999
 20
-1.25
 30
0
 40
0.1000000000000085
 50
180
 51
270
  0
ARC
  8
1
 62
7
 10
-119.5999999999999
 20
-0.2000000000000455
 30
0
 40
0.09999999999990905
 50
180
 51
270
  0
ARC
  8
1
 62
7
 10
-119.5999999999999
 20
0.2000000000001023
 30
0
 40
0.09999999999985201
 50
90
 51
180
  0
ARC
  8
1
 62
7
 10
-126.3499999999999
 20
24.5
 30
0
 40
5.5
 50
90
 51
180
  0
ARC
  8
1
 62
7
 10
-126.3499999999999
 20
-24.5
 30
0
 40
5.500000000000014
 50
180
 51
270
  0
ARC
  8
1
 62
7
 10
-77.3499999999999
 20
-24.5
 30
0
 40
5.5
 50
270
 51
0
  0
ARC
  8
1
 62
7
 10
-77.34999999999991
 20
24.50000000000001
 30
0
 40
5.499999999999972
 50
0
 51
90
  0
ARC
  8
1
 62
7
 10
115.5
 20
10.5
 30
0
 40
2
 50
0
 51
90
  0
ARC
  8
1
 62
7
 10
109.0154820373594
 20
13.5005038633928
 30
0
 40
1
 50
180
 51
270
  0
ARC
  8
1
 62
7
 10
115.5
 20
-10.5
 30
0
 40
2
 50
270
 51
0
  0
ARC
  8
1
 62
7
 10
109
 20
-13.5
 30
0
 40
1
 50
90
 51
180
  0
ARC
  8
1
 62
7
 10
98
 20
19.5
 30
0
 40
10
 50
0
 51
90
  0
ARC
  8
1
 62
7
 10
98
 20
-19.5
 30
0
 40
10
 50
270
 51
0
  0
ARC
  8
1
 62
7
 10
81.49999999999996
 20
0.1999999999999886
 30
0
 40
0.0999999999999657
 50
90
 51
180
  0
ARC
  8
1
 62
7
 10
81.49999999999996
 20
-0.2000000000000455
 30
0
 40
0.09999999999999432
 50
180
 51
270
  0
ARC
  8
1
 62
7
 10
82.69999999999996
 20
-1.400000000000034
 30
0
 40
0.09999999999999432
 50
180
 51
270
  0
ARC
  8
1
 62
7
 10
83.09999999999997
 20
-1.400000000000034
 30
0
 40
0.09999999999996589
 50
270
 51
0
  0
ARC
  8
1
 62
7
 10
84.29999999999996
 20
-0.2000000000000455
 30
0
 40
0.09999999999996592
 50
270
 51
0
  0
ARC
  8
1
 62
7
 10
84.29999999999996
 20
0.1999999999999886
 30
0
 40
0.1000000000000085
 50
0
 51
90
  0
ARC
  8
1
 62
7
 10
83.09999999999997
 20
1.399999999999977
 30
0
 40
0.09999999999999432
 50
0
 51
90
  0
ARC
  8
1
 62
7
 10
82.69999999999996
 20
1.399999999999977
 30
0
 40
0.100000000000023
 50
90
 51
180
  0
LINE
  8
1
 62
2
 10
8.209820613699652
 20
-66.34991020425775
 30
0
 11
69.56660838998968
 21
-66.34991020425775
 31
0
  0
LINE
  8
1
 62
2
 10
69.56660838998968
 20
-66.34991020425775
 30
0
 11
89.99999999999996
 21
-45.91651859424746
 31
0
  0
SOLID
  8
1
 62
2
 10
87.85094957416172
 20
-48.71721563671505
 30
0
 11
87.19930295753237
 21
-48.0655690200857
 31
0
 12
89.99999999999996
 22
-45.91651859424746
 32
0
 13
89.99999999999996
 23
-45.91651859424746
 33
0
  0
LINE
  8
1
 62
2
 10
8.209820613699652
 20
-66.34991020425775
 30
0
 11
69.56660838998968
 21
-66.34991020425775
 31
0
  0
LINE
  8
1
 62
2
 10
69.56660838998968
 20
-66.34991020425775
 30
0
 11
89.99999999999996
 21
-45.91651859424746
 31
0
  0
SOLID
  8
1
 62
2
 10
87.85094957416172
 20
-48.71721563671505
 30
0
 11
87.19930295753237
 21
-48.0655690200857
 31
0
 12
89.99999999999996
 22
-45.91651859424746
 32
0
 13
89.99999999999996
 23
-45.91651859424746
 33
0
  0
LINE
  8
1
 62
2
 10
84.15798152497466
 20
40
 30
0
 11
59.3256863932927
 21
40
 31
0
  0
LINE
  8
1
 62
2
 10
59.3256863932927
 20
40
 30
0
 11
67.04872971025827
 21
29.5
 31
0
  0
SOLID
  8
1
 62
2
 10
64.60374580049103
 20
32.04644366469426
 30
0
 11
65.34612472465639
 21
32.59248410173535
 31
0
 12
67.04872971025827
 22
29.5
 32
0
 13
67.04872971025827
 23
29.5
 33
0
  0
TEXT
  8
1
 62
2
 10
118.3685292089519
 20
47.89472453560027
 30
0
 40
3.2
  1
(0.374)
 41
0.6300000000000001
 72
1
 73
2
 11
125.4245292089519
 21
49.49472453560027
 31
0
  0
TEXT
  8
1
 62
2
 10
149.1080808981699
 20
-11.14935934988802
 30
0
 40
3.2
  1
(2.323DIA.)
 50
90
 41
0.6300000000000001
 72
1
 73
2
 11
147.5080808981699
 21
-0.06135934988802205
 31
0
  0
TEXT
  8
1
 62
2
 10
9.406182040923213
 20
-65.11594311103875
 30
0
 40
3.5
  1
UL1015 AWG22
 41
0.9
 73
2
 11
9.406182040923213
 21
-63.36594311103875
 31
0
  0
TEXT
  8
1
 62
2
 10
9.406182040923213
 20
-57.9506031044043
 30
0
 40
3.5
  1
LEAD WIRES (RED,BLUE)
 41
0.9
 73
2
 11
9.406182040923213
 21
-56.2006031044043
 31
0
  0
TEXT
  8
1
 62
2
 10
67.38452920895186
 20
47.89472453560027
 30
0
 40
3.2
  1
(2.8)
 41
0.6300000000000001
 72
1
 73
2
 11
72.42452920895187
 21
49.49472453560027
 31
0
  0
TEXT
  8
1
 62
2
 10
137.0491926868409
 20
-11.14935934988802
 30
0
 40
3.2
  1
(0.984DIA.)
 50
90
 41
0.6300000000000001
 72
1
 73
2
 11
135.4491926868409
 21
-0.06135934988802205
 31
0
  0
TEXT
  8
1
 62
2
 10
149.1080808981699
 20
-67.91096099766702
 30
0
 40
3.2
  1
(11.811   )
 50
90
 41
0.6300000000000001
 72
1
 73
2
 11
147.5080808981699
 21
-56.82296099766702
 31
0
  0
TEXT
  8
1
 62
2
 10
137.1547824644678
 20
-80.61516907639204
 30
0
 40
3.2
  1
(0.118)
 50
90
 41
0.6300000000000001
 72
1
 73
2
 11
135.5547824644678
 21
-73.55916907639204
 31
0
  0
TEXT
  8
1
 62
2
 10
148.5080808981699
 20
-57.58965282932601
 30
0
 40
2
  1
%%p1.181
 50
90
 41
0.63
 72
1
 73
2
 11
147.5080808981699
 21
-52.54965282932601
 31
0
  0
TEXT
  8
1
 62
2
 10
-138
 20
93.5
 30
0
 40
5
  1
DME60S
 41
0.9
 72
1
 73
2
 11
-124.5
 21
96
 31
0
  0
TEXT
  8
1
 62
2
 10
20.62432113022699
 20
35.90967359496349
 30
0
 40
3.2
  1
(0.0591)
 41
0.6300000000000001
 72
1
 73
2
 11
28.68832113022699
 21
37.50967359496349
 31
0
  0
TEXT
  8
1
 62
2
 10
-55.740850894044
 20
-11.097842120614
 30
0
 40
3.2
  1
(1.949    )
 50
90
 41
0.6300000000000001
 72
1
 73
2
 11
-57.340850894044
 21
-0.00984212061399603
 31
0
  0
TEXT
  8
1
 62
2
 10
-56.340850894044
 20
-1.223864769106044
 30
0
 40
2
  1
%%p0.0118
 50
90
 41
0.63
 72
1
 73
2
 11
-57.340850894044
 21
4.446135230893956
 31
0
  0
TEXT
  8
1
 62
2
 10
-103.0799633032615
 20
36.30583207551797
 30
0
 40
2
  1
%%p0.0118
 41
0.63
 72
1
 73
2
 11
-97.40996330326153
 21
37.30583207551797
 31
0
  0
TEXT
  8
1
 62
2
 10
-110.5766559915745
 20
59.87966422655557
 30
0
 40
3.2
  1
(2.52MAX)
 41
0.6300000000000001
 72
1
 73
2
 11
-101.5046559915745
 21
61.47966422655557
 31
0
  0
TEXT
  8
1
 62
2
 10
-112.5926559915745
 20
47.89885509507657
 30
0
 40
3.2
  1
(2.362SQU.)
 41
0.6300000000000001
 72
1
 73
2
 11
-101.5046559915745
 21
49.49885509507657
 31
0
  0
TEXT
  8
1
 62
2
 10
-112.5926559915745
 20
35.70583207551797
 30
0
 40
3.2
  1
(1.949    )
 41
0.6300000000000001
 72
1
 73
2
 11
-101.5046559915745
 21
37.30583207551797
 31
0
  0
TEXT
  8
1
 62
2
 10
9.40618204092317
 20
-65.11594311103875
 30
0
 40
3.5
  1
UL1015 AWG22
 41
0.9
 73
2
 11
9.40618204092317
 21
-63.36594311103875
 31
0
  0
TEXT
  8
1
 62
2
 10
9.40618204092317
 20
-57.9506031044043
 30
0
 40
3.5
  1
LEAD WIRES (RED,BLUE)
 41
0.9
 73
2
 11
9.40618204092317
 21
-56.2006031044043
 31
0
  0
TEXT
  8
1
 62
2
 10
-109.7058975468381
 20
-58.57149208177714
 30
0
 40
3.5
  1
(4-0.177DIA. HOLES)
 41
0.6030000000000001
 73
2
 11
-109.7058975468381
 21
-56.82149208177714
 31
0
  0
TEXT
  8
1
 62
2
 10
11.23827595343627
 20
47.89472453560027
 30
0
 40
3.2
  1
(1.457)
 41
0.6300000000000001
 72
1
 73
2
 11
18.29427595343627
 21
49.49472453560027
 31
0
  0
TEXT
  8
1
 62
2
 10
-19.0369960067764
 20
-18.14400000000001
 30
0
 40
3.2
  1
(2.126DIA.       )
 50
90
 41
0.6300000000000001
 72
1
 73
2
 11
-20.6369960067764
 21
0
 31
0
  0
TEXT
  8
1
 62
2
 10
-6.000000000000004
 20
-1.437842120614004
 30
0
 40
3.2
  1
(0.197DIA.ü@   )
 50
90
 41
0.6300000000000001
 72
1
 73
2
 11
-7.600000000000003
 21
14.690157879386
 31
0
  0
TEXT
  8
1
 62
2
 10
38.124321130227
 20
35.90967359496349
 30
0
 40
3.2
  1
(0.0787)
 41
0.6300000000000001
 72
1
 73
2
 11
46.188321130227
 21
37.50967359496349
 31
0
  0
TEXT
  8
1
 62
2
 10
-20.8369960067764
 20
3.915977351507951
 30
0
 40
2
  1
 0
 50
90
 41
0.63
  0
TEXT
  8
1
 62
2
 10
-18.4369960067764
 20
3.915977351507951
 30
0
 40
2
  1
-0.00118
 50
90
 41
0.63
  0
TEXT
  8
1
 62
2
 10
-7.800000000000004
 20
16.80613523089397
 30
0
 40
2
  1
 0
 50
90
 41
0.63
  0
TEXT
  8
1
 62
2
 10
-5.400000000000004
 20
16.80613523089397
 30
0
 40
2
  1
-0.00118
 50
90
 41
0.63
  0
TEXT
  8
1
 62
2
 10
63.47776825856398
 20
40.82551303864307
 30
0
 40
3
  1
NAME PLATE
 41
0.6300000000000001
 72
1
 73
2
 11
72.92776825856399
 21
42.32551303864307
 31
0
  0
DIMENSION
  8
1
  6
CONTINUOUS
 62
2
  2
*D0
  3
DMST_1
 10
-69.84999999999991
 20
63.97743509250901
 30
0
 11
-101.8499999999999
 21
66.57743509250901
 31
0
 12
0
 22
0
 32
0
 70
0
 13
-133.8499999999999
 23
5
 33
0
 14
-69.84999999999994
 24
5
 34
0
 53
0
  0
DIMENSION
  8
1
  6
CONTINUOUS
 62
2
  2
*D1
  3
DMST_2
 10
144.979643875196
 20
-84.5
 30
0
 11
142.379643875196
 21
-57
 31
0
 12
0
 22
0
 32
0
 70
0
  1
300
 13
98
 23
-29.5
 33
0
 14
93.36128788208086
 24
-84.5
 34
0
 50
90
 53
0
  0
DIMENSION
  8
1
  6
CONTINUOUS
 62
2
  2
*D2
  3
DMST_3
 10
36.99999999999999
 20
52.0002772985998
 30
0
 11
72.49999999999999
 21
54.6002772985998
 31
0
 12
0
 22
0
 32
0
 70
0
 13
108
 23
19.5
 33
0
 14
37
 24
30
 34
0
 53
0
  0
DIMENSION
  8
1
  6
CONTINUOUS
 62
2
  2
*D3
  3
DMST_3
 10
37
 20
51.9999176000653
 30
0
 11
18.5
 21
54.5999176000653
 31
0
 12
0
 22
0
 32
0
 70
0
 13
0
 23
2.5
 33
0
 14
37
 24
30
 34
0
 53
0
  0
DIMENSION
  8
1
  6
CONTINUOUS
 62
2
  2
*D4
  3
DMST_4
 10
39
 20
40.034791919211
 30
0
 11
45.5605853407167
 21
42.634791919211
 31
0
 12
0
 22
0
 32
0
 70
0
 13
37
 23
30
 33
0
 14
39
 24
30
 34
0
 53
0
  0
DIMENSION
  8
1
  6
CONTINUOUS
 62
2
  2
*D5
  3
DMST_5
 10
-11.0493686979564
 20
2.5
 30
0
 11
-14.4493686979564
 21
13.5778283674713
 31
0
 12
0
 22
0
 32
0
 70
0
  1
âË<>
 13
0
 23
-2.5
 33
0
 14
0
 24
2.5
 34
0
 50
90
 53
0
  0
DIMENSION
  8
1
  6
CONTINUOUS
 62
2
  2
*D6
  3
DMST_6
 10
-59.8297637785144
 20
-24.75
 30
0
 11
-62.4297637785144
 21
-7.105427357601002e-015
 31
0
 12
0
 22
0
 32
0
 70
0
 13
-74.76231050693899
 23
24.75
 33
0
 14
-74.8499999999999
 24
-24.75
 34
0
 50
90
 53
0
  0
DIMENSION
  8
1
  6
CONTINUOUS
 62
2
  2
*D7
  3
DMST_6
 10
-77.09999999999992
 20
39.99999999999997
 30
0
 11
-101.8499999999999
 21
42.59999999999997
 31
0
 12
0
 22
0
 32
0
 70
0
 13
-126.5999999999999
 23
27
 33
0
 14
-77.09999999999991
 24
27
 34
0
 53
0
  0
DIMENSION
  8
1
  6
CONTINUOUS
 62
2
  2
*D8
  3
DMST_3
 10
-71.84999999999992
 20
51.9839079094322
 30
0
 11
-101.8499999999999
 21
54.5839079094322
 31
0
 12
0
 22
0
 32
0
 70
0
  1
üá<>
 13
-131.8499999999999
 23
24.5
 33
0
 14
-71.84999999999994
 24
24.5
 34
0
 53
0
  0
DIMENSION
  8
1
  6
CONTINUOUS
 62
2
  2
*D10
  3
DMST_5
 10
-23.9456084856476
 20
-27
 30
0
 11
-27.3456084856476
 21
-1.332267629550188e-015
 31
0
 12
0
 22
0
 32
0
 70
0
  1
54h7
 13
35.5
 23
27
 33
0
 14
35.5
 24
-27
 34
0
 50
90
 53
0
  0
DIMENSION
  8
1
  6
CONTINUOUS
 62
2
  2
*D11
  3
DMST_7
 10
117.5
 20
52.0026200476624
 30
0
 11
125.317523867862
 21
54.6026200476624
 31
0
 12
0
 22
0
 32
0
 70
0
  1
(<>
 13
108
 23
19.5
 33
0
 14
117.5
 24
10.5
 34
0
 53
0
  0
DIMENSION
  8
1
  6
CONTINUOUS
 62
2
  2
*D12
  3
DMST_3
 10
133.006501193659
 20
-12.5
 30
0
 11
130.406501193659
 21
-3.552713678800501e-015
 31
0
 12
0
 22
0
 32
0
 70
0
  1
âË<>
 13
115.5
 23
12.5
 33
0
 14
115.5
 24
-12.5
 34
0
 50
90
 53
0
  0
DIMENSION
  8
1
  6
CONTINUOUS
 62
2
  2
*D13
  3
DMST_3
 10
144.979643875196
 20
-29.5
 30
0
 11
142.379643875196
 21
-1.06581410364015e-014
 31
0
 12
0
 22
0
 32
0
 70
0
  1
âË<>
 13
98
 23
29.5
 33
0
 14
98
 24
-29.5
 34
0
 50
90
 53
0
  0
DIMENSION
  8
1
  6
CONTINUOUS
 62
2
  2
*D14
  3
DMST_7
 10
133.006501193659
 20
-81.5
 30
0
 11
130.406501193659
 21
-73.54565334582421
 31
0
 12
0
 22
0
 32
0
 70
0
  1
(<>
 13
93.36128788208086
 23
-84.5
 33
0
 14
93.99999999999996
 24
-81.5
 34
0
 50
90
 53
0
  0
INSERT
  8
0
  2
___R___O_______R__1
 10
0.5
 20
-3.75
 30
0
  0
INSERT
  8
0
  2
___R___O_______R__2
 10
0.5
 20
-3.75
 30
0
  0
INSERT
  8
0
  2
___R___O_______R__3
 10
0.5
 20
-3.75
 30
0
  0
INSERT
  8
1
  2
*D9
 10
0
 20
0
 30
0
  0
INSERT
  8
1
  2
*D15
 10
0
 20
0
 30
0
  0
ENDSEC
  0
EOF
