  0
SECTION
  2
HEADER
  9
$ACADVER
  1
AC1009
  9
$INSBASE
 10
0
 20
0
  9
$EXTMIN
 10
-194.5
 20
-146
  9
$EXTMAX
 10
194.5
 20
146
  9
$LIMMIN
 10
-194.5
 20
-146
  9
$LIMMAX
 10
194.5
 20
146
  9
$VIEWCTR
 10
10
 20
10
  9
$VIEWSIZE
 40
10
  9
$SNAPMODE
 70
0
  9
$SNAPUNIT
 10
1
 20
1
  9
$SNAPBASE
 10
0
 20
0
  9
$SNAPANG
 50
0
  9
$SNAPSTYLE
 70
0
  9
$SNAPISOPAIR
 70
0
  9
$GRIDMODE
 70
0
  9
$GRIDUNIT
 10
0
 20
0
  9
$ORTHOMODE
 70
0
  9
$REGENMODE
 70
1
  9
$FILLMODE
 70
1
  9
$QTEXTMODE
 70
0
  9
$DRAGMODE
 70
2
  9
$LTSCALE
 40
1
  9
$OSMODE
 70
0
  9
$ATTMODE
 70
1
  9
$TEXTSIZE
 40
3.5
  9
$TRACEWID
 40
0.5
  9
$TEXTSTYLE
  7
STANDARD
  9
$CLAYER
  8
0
  9
$CELTYPE
  6
BYLAYER
  9
$CECOLOR
 62
256
  9
$DIMSCALE
 40
1
  9
$DIMASZ
 40
0.18
  9
$DIMEXO
 40
0.0625
  9
$DIMDLI
 40
0.38
  9
$DIMRND
 40
0
  9
$DIMDLE
 40
0
  9
$DIMEXE
 40
0.18
  9
$DIMTP
 40
0
  9
$DIMTM
 40
0
  9
$DIMTXT
 40
0.18
  9
$DIMCEN
 40
0.09
  9
$DIMTSZ
 40
0
  9
$DIMTOL
 70
0
  9
$DIMLIM
 70
0
  9
$DIMTIH
 70
1
  9
$DIMTOH
 70
1
  9
$DIMSE1
 70
0
  9
$DIMSE2
 70
0
  9
$DIMTAD
 70
0
  9
$DIMZIN
 70
0
  9
$DIMBLK
  1

  9
$DIMASO
 70
1
  9
$DIMSHO
 70
1
  9
$DIMPOST
  1

  9
$DIMAPOST
  1

  9
$DIMALT
 70
0
  9
$DIMALTD
 70
2
  9
$DIMALTF
 40
25.4
  9
$DIMLFAC
 40
1
  9
$DIMTOFL
 70
0
  9
$DIMTVP
 40
0
  9
$DIMTIX
 70
0
  9
$DIMSOXD
 70
0
  9
$DIMSAH
 70
0
  9
$DIMBLK1
  1

  9
$DIMBLK2
  1

  9
$DIMSTYLE
  2
*UNNAMED
  9
$DIMCLRD
 70
0
  9
$DIMCLRE
 70
0
  9
$DIMCLRT
 70
0
  9
$DIMTFAC
 40
1
  9
$DIMGAP
 40
0.09
  9
$LUNITS
 70
2
  9
$LUPREC
 70
4
  9
$AXISMODE
 70
0
  9
$AXISUNIT
 10
0
 20
0
  9
$SKETCHINC
 40
0.1
  9
$FILLETRAD
 40
2
  9
$AUNITS
 70
0
  9
$AUPREC
 70
0
  9
$MENU
  1
ACAD
  9
$ELEVATION
 40
0
  9
$THICKNESS
 40
0
  9
$VIEWDIR
 10
0
 20
0
 30
1
  9
$LIMCHECK
 70
0
  9
$BLIPMODE
 70
1
  9
$CHAMFERA
 40
0
  9
$CHAMFERB
 40
0
  9
$FASTZOOM
 70
1
  9
$SKPOLY
 70
0
  9
$ANGBASE
 50
0
  9
$ANGDIR
 70
0
  9
$PDMODE
 70
0
  9
$PDSIZE
 40
0
  9
$PLINEWID
 40
0
  9
$COORDS
 70
2
  0
ENDSEC
  0
SECTION
  2
TABLES
  0
TABLE
  2
DIMSTYLE
 70
5
  0
DIMSTYLE
  2
DMST_1
 70
0
  3

  4

  5

  6

  7

 40
1
 41
3.2
 42
1
 43
7
 44
1
 45
0
 46
0
 47
0
 48
0
140
3.2
141
0
142
0
143
25.4
144
1
145
0
146
1
147
0.09
 71
0
 72
0
 73
0
 74
0
 75
0
 76
0
 77
1
 78
9
170
0
171
2
172
0
173
0
174
0
175
0
176
2
177
2
178
2
  0
DIMSTYLE
  2
DMST_2
 70
0
  3
)
  4

  5

  6

  7

 40
1
 41
3.2
 42
1
 43
7
 44
1
 45
0
 46
0
 47
0
 48
0
140
3.2
141
0
142
0
143
25.4
144
1
145
0
146
1
147
0.09
 71
0
 72
0
 73
0
 74
0
 75
0
 76
0
 77
1
 78
9
170
0
171
2
172
0
173
0
174
0
175
0
176
2
177
2
178
2
  0
DIMSTYLE
  2
DMST_3
 70
0
  3

  4

  5

  6

  7

 40
1
 41
3.2
 42
1
 43
7
 44
1
 45
0
 46
0
 47
0.3
 48
0.3
140
3.2
141
0
142
0
143
25.4
144
1
145
0
146
0.6
147
0.09
 71
1
 72
0
 73
0
 74
0
 75
0
 76
0
 77
1
 78
9
170
0
171
2
172
0
173
0
174
0
175
0
176
2
177
2
178
2
  0
DIMSTYLE
  2
DMST_4
 70
0
  3

  4

  5

  6

  7

 40
1
 41
3.2
 42
1
 43
7
 44
1
 45
0
 46
0
 47
0
 48
0.1
140
3.2
141
0
142
0
143
25.4
144
1
145
0
146
0.6
147
0.09
 71
1
 72
0
 73
0
 74
0
 75
0
 76
0
 77
1
 78
9
170
0
171
2
172
0
173
0
174
0
175
0
176
2
177
2
178
2
  0
DIMSTYLE
  2
DMST_5
 70
0
  3

  4

  5

  6

  7

 40
1
 41
3.2
 42
1
 43
7
 44
1
 45
0
 46
0
 47
-0.002
 48
0.01
140
3.2
141
0
142
0
143
25.4
144
1
145
0
146
0.6
147
0.09
 71
1
 72
0
 73
0
 74
0
 75
0
 76
0
 77
1
 78
9
170
0
171
2
172
0
173
0
174
0
175
0
176
2
177
2
178
2
  0
ENDTAB
  0
TABLE
  2
LTYPE
 70
9
  0
LTYPE
  2
CONTINUOUS
 70
64
  3
Solid line
 72
65
 73
0
 40
0
  0
LTYPE
  2
BORDER
 70
64
  3
__ __ . __ __ .
 72
65
 73
6
 40
17.91447368421053
 49
5.118421052631579
 49
-2.559210526315789
 49
5.118421052631579
 49
-2.559210526315789
 49
0
 49
-2.559210526315789
  0
LTYPE
  2
CENTER
 70
64
  3
____ _ ____ _
 72
65
 73
4
 40
20.47368421052632
 49
12.79605263157895
 49
-2.559210526315789
 49
2.559210526315789
 49
-2.559210526315789
  0
LTYPE
  2
DASHDOT
 70
64
  3
__ . __ . __ .
 72
65
 73
4
 40
10.23684210526316
 49
5.118421052631579
 49
-2.559210526315789
 49
0
 49
-2.559210526315789
  0
LTYPE
  2
DASHED
 70
64
  3
__ __ __ __ __
 72
65
 73
2
 40
7.677631578947368
 49
5.118421052631579
 49
-2.559210526315789
  0
LTYPE
  2
DIVIDE
 70
64
  3
__ . . __ . . 
 72
65
 73
6
 40
12.79605263157895
 49
5.118421052631579
 49
-2.559210526315789
 49
0
 49
-2.559210526315789
 49
0
 49
-2.559210526315789
  0
LTYPE
  2
DOT
 70
64
  3
..............
 72
65
 73
4
 40
5.118421052631579
 49
0
 49
-2.559210526315789
 49
0
 49
-2.559210526315789
  0
LTYPE
  2
HIDDEN
 70
64
  3
_ _ _ _ _ _ _
 72
65
 73
2
 40
3.838815789473684
 49
2.559210526315789
 49
-1.279605263157895
  0
LTYPE
  2
PHANTOM
 70
64
  3
_____ _ _ _____ _ _ 
 72
65
 73
6
 40
25.59210526315789
 49
12.79605263157895
 49
-2.559210526315789
 49
2.559210526315789
 49
-2.559210526315789
 49
2.559210526315789
 49
-2.559210526315789
  0
ENDTAB
  0
TABLE
  2
LAYER
 70
3
  0
LAYER
  2
1
 70
0
 62
7
  6
CONTINUOUS
  0
LAYER
  2
0
 70
0
 62
7
  6
CONTINUOUS
  0
ENDTAB
  0
TABLE
  2
STYLE
 70
4
  0
STYLE
  2
STANDARD
 70
0
 40
0
 41
1
 50
0
 71
0
 42
3.5
  3
txt
  4

  0
STYLE
  2
SIMPLEX
 70
0
 40
0
 41
1
 50
0
 71
0
 42
3.5
  3
simplex
  4

  0
STYLE
  2
COMPLEX
 70
0
 40
0
 41
1
 50
0
 71
0
 42
3.5
  3
complex
  4

  0
STYLE
  2
ITALIC
 70
0
 40
0
 41
1
 50
0
 71
0
 42
3.5
  3
italic
  4

  0
ENDTAB
  0
TABLE
  2
VIEW
 70
0
  0
ENDTAB
  0
ENDSEC
  0
SECTION
  2
BLOCKS
  0
BLOCK
  8
0
  2
___R___O_______R
 70
0
 10
0.5
 20
-3.75
 30
0
  0
LINE
  8
1
 62
4
  6
PHANTOM
 10
194.5
 20
-136.5
 30
0
 11
194.5
 21
-146
 31
0
  0
LINE
  8
1
 62
4
  6
PHANTOM
 10
-194.5
 20
-146
 30
0
 11
-194.5
 21
146
 31
0
  0
LINE
  8
1
 62
4
  6
PHANTOM
 10
194.5
 20
146
 30
0
 11
194.5
 21
129
 31
0
  0
LINE
  8
1
 62
4
  6
PHANTOM
 10
194.5
 20
146
 30
0
 11
-194.5
 21
146
 31
0
  0
LINE
  8
1
 62
4
  6
PHANTOM
 10
-194.5
 20
-146
 30
0
 11
194.5
 21
-146
 31
0
  0
TEXT
  8
1
 62
4
 10
178.746911898274
 20
-142.6071298819256
 30
0
 40
5
  1
A3
 41
0.9
 72
1
 73
2
 11
183.246911898274
 21
-140.1071298819256
 31
0
  0
ENDBLK
  8
0
  0
BLOCK
  8
1
  2
*D0
 70
1
 10
0
 20
0
 30
0
  0
LINE
  8
1
 62
2
 10
-106
 20
53.9780695478966
 30
0
 11
-61.99999999999999
 21
53.9780695478966
 31
0
  0
LINE
  8
1
 62
2
 10
-106
 20
11
 30
0
 11
-106
 21
54.9780695478966
 31
0
  0
LINE
  8
1
 62
2
 10
-61.99999999999999
 20
11
 30
0
 11
-61.99999999999999
 21
54.9780695478966
 31
0
  0
SOLID
  8
1
 62
2
 10
-61.99999999999999
 20
53.9780695478966
 30
0
 11
-65.19999999999999
 21
53.5620695478966
 31
0
 12
-65.19999999999999
 22
54.39406954789659
 32
0
 13
-65.19999999999999
 23
54.39406954789659
 33
0
  0
SOLID
  8
1
 62
2
 10
-106
 20
53.9780695478966
 30
0
 11
-102.8
 21
54.39406954789659
 31
0
 12
-102.8
 22
53.5620695478966
 32
0
 13
-102.8
 23
53.5620695478966
 33
0
  0
TEXT
  8
1
 62
2
 10
-84.57777777777775
 20
54.9780695478966
 30
0
 40
3.2
  1
44
 41
0.9
  0
TEXT
  8
1
 62
2
 10
-88.2222222222222
 20
54.9780695478966
 30
0
 40
3.2
  1
âË
 41
0.9
  0
ENDBLK
  8
0
  0
BLOCK
  8
1
  2
*D1
 70
1
 10
0
 20
0
 30
0
  0
LINE
  8
1
 62
2
 10
135.126386258749
 20
-12.99999999999998
 30
0
 11
135.126386258749
 21
33.00000000000002
 31
0
  0
LINE
  8
1
 62
2
 10
113.6999999999996
 20
-12.99999999999998
 30
0
 11
136.126386258749
 21
-12.99999999999998
 31
0
  0
LINE
  8
1
 62
2
 10
113.6999999999996
 20
33.00000000000002
 30
0
 11
136.126386258749
 21
33.00000000000002
 31
0
  0
SOLID
  8
1
 62
2
 10
135.126386258749
 20
33.00000000000002
 30
0
 11
135.542386258749
 21
29.80000000000002
 31
0
 12
134.710386258749
 22
29.80000000000002
 32
0
 13
134.710386258749
 23
29.80000000000002
 33
0
  0
SOLID
  8
1
 62
2
 10
135.126386258749
 20
-12.99999999999998
 30
0
 11
134.710386258749
 21
-9.799999999999979
 31
0
 12
135.542386258749
 22
-9.799999999999979
 32
0
 13
135.542386258749
 23
-9.799999999999979
 33
0
  0
TEXT
  8
1
 62
2
 10
134.126386258749
 20
9.422222222222242
 30
0
 40
3.2
  1
46
 50
90
 41
0.9
  0
TEXT
  8
1
 62
2
 10
134.126386258749
 20
5.777777777777797
 30
0
 40
3.2
  1
âË
 50
90
 41
0.9
  0
ENDBLK
  8
0
  0
BLOCK
  8
1
  2
*D2
 70
1
 10
0
 20
0
 30
0
  0
LINE
  8
1
 62
2
 10
123.1999999999995
 20
-76.72501808427236
 30
0
 11
123.1999999999995
 21
-64.40345881872878
 31
0
  0
LINE
  8
1
 62
2
 10
123.1999999999995
 20
-79.72501808427236
 30
0
 11
123.1999999999995
 21
-76.72501808427236
 31
0
  0
LINE
  8
1
 62
2
 10
123.1999999999995
 20
-86.12501808427237
 30
0
 11
123.1999999999995
 21
-79.72501808427236
 31
0
  0
LINE
  8
1
 62
2
 10
93.40515236440488
 20
-76.72501808427236
 30
0
 11
124.1999999999995
 21
-76.72501808427236
 31
0
  0
LINE
  8
1
 62
2
 10
92.9551523644049
 20
-79.72501808427236
 30
0
 11
124.1999999999995
 21
-79.72501808427236
 31
0
  0
SOLID
  8
1
 62
2
 10
123.1999999999995
 20
-76.72501808427236
 30
0
 11
122.7839999999995
 21
-73.52501808427236
 31
0
 12
123.6159999999995
 22
-73.52501808427236
 32
0
 13
123.6159999999995
 23
-73.52501808427236
 33
0
  0
SOLID
  8
1
 62
2
 10
123.1999999999995
 20
-79.72501808427236
 30
0
 11
123.6159999999995
 21
-82.92501808427237
 31
0
 12
122.7839999999995
 22
-82.92501808427237
 32
0
 13
122.7839999999995
 23
-82.92501808427237
 33
0
  0
TEXT
  8
1
 62
2
 10
122.1999999999995
 20
-68.40345881872877
 30
0
 40
3.2
  1
3
 50
90
 41
0.9
  0
TEXT
  8
1
 62
2
 10
122.1999999999995
 20
-70.48345881872878
 30
0
 40
3.2
  1
(
 50
90
 41
0.9
  0
TEXT
  8
1
 62
2
 10
122.1999999999995
 20
-64.88345881872877
 30
0
 40
3.2
  1
)
 50
90
 41
0.9
  0
ENDBLK
  8
0
  0
BLOCK
  8
1
  2
*D3
 70
1
 10
0
 20
0
 30
0
  0
LINE
  8
1
 62
2
 10
43.99999999999989
 20
54.0376492432957
 30
0
 11
113.1999999999996
 21
54.0376492432957
 31
0
  0
LINE
  8
1
 62
2
 10
43.99999999999989
 20
30.00000000000003
 30
0
 11
43.99999999999989
 21
55.0376492432957
 31
0
  0
LINE
  8
1
 62
2
 10
113.1999999999996
 20
33.50000000000003
 30
0
 11
113.1999999999996
 21
55.0376492432957
 31
0
  0
SOLID
  8
1
 62
2
 10
43.99999999999989
 20
54.0376492432957
 30
0
 11
47.19999999999989
 21
54.45364924329569
 31
0
 12
47.19999999999989
 22
53.6216492432957
 32
0
 13
47.19999999999989
 23
53.6216492432957
 33
0
  0
SOLID
  8
1
 62
2
 10
113.1999999999996
 20
54.0376492432957
 30
0
 11
109.9999999999996
 21
53.6216492432957
 31
0
 12
109.9999999999996
 22
54.45364924329569
 32
0
 13
109.9999999999996
 23
54.45364924329569
 33
0
  0
TEXT
  8
1
 62
2
 10
70.6787865341533
 20
55.0376492432957
 30
0
 40
3.2
  1
69.2
 41
0.9
  0
ENDBLK
  8
0
  0
BLOCK
  8
1
  2
*D4
 70
1
 10
0
 20
0
 30
0
  0
LINE
  8
1
 62
2
 10
34.59999999999999
 20
42.0084110440441
 30
0
 11
40.99999999999999
 21
42.0084110440441
 31
0
  0
LINE
  8
1
 62
2
 10
40.99999999999999
 20
42.0084110440441
 30
0
 11
43.99999999999999
 21
42.0084110440441
 31
0
  0
LINE
  8
1
 62
2
 10
43.99999999999999
 20
42.0084110440441
 30
0
 11
51.49610361839449
 21
42.0084110440441
 31
0
  0
LINE
  8
1
 62
2
 10
40.99999999999999
 20
21
 30
0
 11
40.99999999999999
 21
43.0084110440441
 31
0
  0
LINE
  8
1
 62
2
 10
43.99999999999999
 20
30
 30
0
 11
43.99999999999999
 21
43.0084110440441
 31
0
  0
SOLID
  8
1
 62
2
 10
40.99999999999999
 20
42.0084110440441
 30
0
 11
37.79999999999999
 21
41.5924110440441
 31
0
 12
37.79999999999999
 22
42.42441104404409
 32
0
 13
37.79999999999999
 23
42.42441104404409
 33
0
  0
SOLID
  8
1
 62
2
 10
43.99999999999999
 20
42.0084110440441
 30
0
 11
47.2
 21
42.42441104404409
 31
0
 12
47.2
 22
41.5924110440441
 32
0
 13
47.2
 23
41.5924110440441
 33
0
  0
TEXT
  8
1
 62
2
 10
49.57610361839449
 20
43.0084110440441
 30
0
 40
3.2
  1
3
 41
0.9
  0
ENDBLK
  8
0
  0
BLOCK
  8
1
  2
*D5
 70
1
 10
0
 20
0
 30
0
  0
LINE
  8
1
 62
2
 10
-92.90000000000001
 20
42.0693114022219
 30
0
 11
-86.5
 21
42.0693114022219
 31
0
  0
LINE
  8
1
 62
2
 10
-86.5
 20
42.0693114022219
 30
0
 11
-82.5
 21
42.0693114022219
 31
0
  0
LINE
  8
1
 62
2
 10
-82.5
 20
42.0693114022219
 30
0
 11
-68.7279638038857
 21
42.0693114022219
 31
0
  0
LINE
  8
1
 62
2
 10
-86.5
 20
11
 30
0
 11
-86.5
 21
43.0693114022219
 31
0
  0
LINE
  8
1
 62
2
 10
-82.5
 20
13
 30
0
 11
-82.5
 21
43.0693114022219
 31
0
  0
SOLID
  8
1
 62
2
 10
-86.5
 20
42.0693114022219
 30
0
 11
-89.7
 21
41.6533114022219
 31
0
 12
-89.7
 22
42.4853114022219
 32
0
 13
-89.7
 23
42.4853114022219
 33
0
  0
SOLID
  8
1
 62
2
 10
-82.5
 20
42.0693114022219
 30
0
 11
-79.3
 21
42.4853114022219
 31
0
 12
-79.3
 22
41.6533114022219
 32
0
 13
-79.3
 23
41.6533114022219
 33
0
  0
TEXT
  8
1
 62
2
 10
-77.0959638038857
 20
43.0693114022219
 30
0
 40
3.2
  1
4
 41
0.9
  0
TEXT
  8
1
 62
2
 10
-73.5759638038857
 20
43.7093114022219
 30
0
 40
1.92
  1
%%p0.3
 41
0.9
  0
ENDBLK
  8
0
  0
BLOCK
  8
1
  2
*D6
 70
1
 10
0
 20
0
 30
0
  0
LINE
  8
1
 62
2
 10
4.932439289597391
 20
20
 30
0
 11
4.932439289597391
 21
40.96613072369222
 31
0
  0
LINE
  8
1
 62
2
 10
4.932439289597391
 20
0
 30
0
 11
4.932439289597391
 21
20
 31
0
  0
LINE
  8
1
 62
2
 10
39.99999999999999
 20
20
 30
0
 11
3.932439289597391
 21
20
 31
0
  0
LINE
  8
1
 62
2
 10
39.99999999999999
 20
0
 30
0
 11
3.932439289597391
 21
0
 31
0
  0
SOLID
  8
1
 62
2
 10
4.932439289597391
 20
0
 30
0
 11
4.51643928959739
 21
3.200000000000001
 31
0
 12
5.34843928959739
 22
3.200000000000001
 32
0
 13
5.34843928959739
 23
3.200000000000001
 33
0
  0
SOLID
  8
1
 62
2
 10
4.932439289597391
 20
20
 30
0
 11
5.348439289597391
 21
16.8
 31
0
 12
4.516439289597391
 22
16.8
 32
0
 13
4.516439289597391
 23
16.8
 33
0
  0
TEXT
  8
1
 62
2
 10
3.132439289597392
 20
30.10213072369222
 30
0
 40
3.2
  1
20
 50
90
 41
0.9
  0
TEXT
  8
1
 62
2
 10
1.052439289597392
 20
36.50213072369222
 30
0
 40
1.92
  1
 0
 50
90
 41
0.9
  0
TEXT
  8
1
 62
2
 10
3.932439289597392
 20
36.50213072369222
 30
0
 40
1.92
  1
-0.1
 50
90
 41
0.9
  0
TEXT
  8
1
 62
2
 10
3.132439289597392
 20
26.45768627924778
 30
0
 40
3.2
  1
âË
 50
90
 41
0.9
  0
ENDBLK
  8
0
  0
BLOCK
  8
1
  2
*D7
 70
1
 10
0
 20
0
 30
0
  0
LINE
  8
1
 62
2
 10
18.95167362582039
 20
12.5
 30
0
 11
18.95167362582039
 21
42.88427505256382
 31
0
  0
LINE
  8
1
 62
2
 10
18.95167362582039
 20
7.499999999999996
 30
0
 11
18.95167362582039
 21
12.5
 31
0
  0
LINE
  8
1
 62
2
 10
18.95167362582039
 20
1.099999999999994
 30
0
 11
18.95167362582039
 21
7.499999999999996
 31
0
  0
LINE
  8
1
 62
2
 10
29.99999999999999
 20
12.5
 30
0
 11
17.95167362582039
 21
12.5
 31
0
  0
LINE
  8
1
 62
2
 10
29.99999999999999
 20
7.499999999999996
 30
0
 11
17.95167362582039
 21
7.499999999999996
 31
0
  0
SOLID
  8
1
 62
2
 10
18.95167362582039
 20
12.5
 30
0
 11
18.53567362582039
 21
15.7
 31
0
 12
19.36767362582039
 22
15.7
 32
0
 13
19.36767362582039
 23
15.7
 33
0
  0
SOLID
  8
1
 62
2
 10
18.95167362582039
 20
7.499999999999996
 30
0
 11
19.36767362582039
 21
4.299999999999995
 31
0
 12
18.53567362582039
 22
4.299999999999995
 32
0
 13
18.53567362582039
 23
4.299999999999995
 33
0
  0
TEXT
  8
1
 62
2
 10
17.15167362582039
 20
30.86827505256382
 30
0
 40
3.2
  1
5
 50
90
 41
0.9
  0
TEXT
  8
1
 62
2
 10
15.07167362582039
 20
34.38827505256382
 30
0
 40
1.92
  1
-0.002
 50
90
 41
0.9
  0
TEXT
  8
1
 62
2
 10
17.95167362582039
 20
34.38827505256382
 30
0
 40
1.92
  1
-0.01
 50
90
 41
0.9
  0
TEXT
  8
1
 62
2
 10
17.15167362582039
 20
27.22383060811938
 30
0
 40
3.2
  1
âË
 50
90
 41
0.9
  0
ENDBLK
  8
0
  0
BLOCK
  8
1
  2
*D8
 70
1
 10
0
 20
0
 30
0
  0
LINE
  8
1
 62
2
 10
31
 20
54.0376492432957
 30
0
 11
43.99999999999989
 21
54.0376492432957
 31
0
  0
LINE
  8
1
 62
2
 10
31
 20
13.5
 30
0
 11
31
 21
55.0376492432957
 31
0
  0
LINE
  8
1
 62
2
 10
43.99999999999989
 20
30.00000000000003
 30
0
 11
43.99999999999989
 21
55.0376492432957
 31
0
  0
SOLID
  8
1
 62
2
 10
31
 20
54.0376492432957
 30
0
 11
34.2
 21
54.45364924329569
 31
0
 12
34.2
 22
53.6216492432957
 32
0
 13
34.2
 23
53.6216492432957
 33
0
  0
SOLID
  8
1
 62
2
 10
43.99999999999989
 20
54.0376492432957
 30
0
 11
40.79999999999988
 21
53.6216492432957
 31
0
 12
40.79999999999988
 22
54.45364924329569
 32
0
 13
40.79999999999988
 23
54.45364924329569
 33
0
  0
TEXT
  8
1
 62
2
 10
35.57999999999994
 20
55.0376492432957
 30
0
 40
3.2
  1
13
 41
0.9
  0
ENDBLK
  8
0
  0
BLOCK
  8
1
  2
*D9
 70
1
 10
0
 20
0
 30
0
  0
LINE
  8
1
 62
2
 10
135.126386258749
 20
-79.72501808427236
 30
0
 11
135.126386258749
 21
-36.9326402670819
 31
0
  0
LINE
  8
1
 62
2
 10
92.95515236440485
 20
-79.72501808427236
 30
0
 11
136.126386258749
 21
-79.72501808427236
 31
0
  0
SOLID
  8
1
 62
2
 10
135.126386258749
 20
-79.72501808427236
 30
0
 11
134.710386258749
 21
-76.52501808427236
 31
0
 12
135.542386258749
 22
-76.52501808427236
 32
0
 13
135.542386258749
 23
-76.52501808427236
 33
0
  0
TEXT
  8
1
 62
2
 10
134.126386258749
 20
-49.4766402670819
 30
0
 40
3.2
  1
150
 50
90
 41
0.9
  0
TEXT
  8
1
 62
2
 10
133.486386258749
 20
-41.1566402670819
 30
0
 40
1.92
  1
%%p20
 50
90
 41
0.9
  0
ENDBLK
  8
0
  0
BLOCK
  8
1
  2
*D10
 70
1
 10
0
 20
0
 30
0
  0
LINE
  8
1
 62
2
 10
-84.99630230686086
 20
-8.621330331946734
 30
0
 11
-109.4289827429611
 21
-36.12011807447743
 31
0
  0
LINE
  8
1
 62
2
 10
-109.4289827429611
 20
-36.12011807447743
 30
0
 11
-53.50898274296112
 21
-36.12011807447743
 31
0
  0
SOLID
  8
1
 62
2
 10
-84.99630230686086
 20
-8.621330331946734
 30
0
 11
-86.81076494943746
 21
-11.28980954653581
 31
0
 12
-87.43272950689057
 22
-10.73719386699699
 32
0
 13
-87.43272950689057
 23
-10.73719386699699
 33
0
  0
TEXT
  8
1
 62
2
 10
-94.94898274296112
 20
-35.12011807447743
 30
0
 40
3.2
  1
3
 41
0.9
  0
TEXT
  8
1
 62
2
 10
-104.2289827429611
 20
-35.12011807447743
 30
0
 40
3.2
  1
3-M
 41
0.9
  0
TEXT
  8
1
 62
2
 10
-91.42898274296113
 20
-35.12011807447743
 30
0
 40
3.2
  1
 DEPTH 3.5MAX.
 41
0.9
  0
ENDBLK
  8
0
  0
ENDSEC
  0
SECTION
  2
ENTITIES
  0
LINE
  8
1
 62
7
 10
-104.3075726071558
 20
-11.4780305359007
 30
0
 11
-104.4700968544643
 21
-11.30374461846671
 31
0
  0
LINE
  8
1
 62
7
 10
-104.3075726071558
 20
-11.4780305359007
 30
0
 11
-116.4674348425733
 21
-22.8172855157831
 31
0
  0
LINE
  8
1
 62
7
 10
-104.4700968544643
 20
-11.30374461846671
 30
0
 11
-105.5749341977655
 21
-10.11895162184371
 31
0
  0
LINE
  8
1
 62
7
 10
-104.4700968544643
 20
-11.30374461846671
 30
0
 11
-116.6299590898818
 21
-22.64299959834919
 31
0
  0
LINE
  8
1
 62
7
 10
-105.5749341977655
 20
-10.11895162184371
 30
0
 11
-106.6797715410668
 21
-8.93415862522059
 31
0
  0
LINE
  8
1
 62
7
 10
-105.5749341977655
 20
-10.11895162184371
 30
0
 11
-117.734796433183
 21
-21.4582066017261
 31
0
  0
LINE
  8
1
 62
7
 10
-106.6797715410668
 20
-8.93415862522059
 30
0
 11
-107.1571703931106
 21
-8.422211034087209
 31
0
  0
LINE
  8
1
 62
7
 10
-106.6797715410668
 20
-8.93415862522059
 30
0
 11
-118.8396337764843
 21
-20.273413605103
 31
0
  0
LINE
  8
1
 62
7
 10
-104.8513872870189
 20
-7.229162725064381
 30
0
 11
-105.3287861390626
 21
-6.717215133930889
 31
0
  0
LINE
  8
1
 62
7
 10
-102.4791883531079
 20
-9.773034635744409
 30
0
 11
-104.8513872870189
 21
-7.229162725064381
 31
0
  0
LINE
  8
1
 62
7
 10
-100.1182378876984
 20
-11.0002878461986
 30
0
 11
-101.3452212724806
 21
-9.538867457795309
 31
0
  0
LINE
  8
1
 62
7
 10
-102.5595702022277
 20
-13.92494411752529
 30
0
 11
-100.1601698138507
 21
-11.68746705767919
 31
0
  0
LINE
  8
1
 62
7
 10
-104.6202709105151
 20
-12.5929006531122
 30
0
 11
-103.2480005029923
 21
-13.91883870098991
 31
0
  0
LINE
  8
1
 62
7
 10
-101.634793386967
 20
-9.521197661739191
 30
0
 11
-104.6176981342349
 21
-12.30280133907809
 31
0
  0
LINE
  8
1
 62
7
 10
-102.212053633577
 20
-10.05950155033059
 30
0
 11
-102.4791883531079
 21
-9.773034635744409
 31
0
  0
LINE
  8
1
 62
7
 10
-105.7527917575671
 20
-6.702408531463991
 30
0
 11
-107.1423637906435
 21
-7.998205415582699
 31
0
  0
LINE
  8
1
 62
7
 10
-104.040437887625
 20
-11.7644974504868
 30
0
 11
-104.3075726071558
 21
-11.4780305359007
 31
0
  0
LINE
  8
1
 62
7
 10
-100.0897814356218
 20
-5.00396392137489
 30
0
 11
-103.7465499437176
 21
-8.41395572168739
 31
0
  0
LINE
  8
1
 62
7
 10
-98.94126287454699
 20
-6.148023523443381
 30
0
 11
-102.6417126004164
 21
-9.5987487183105
 31
0
  0
LINE
  8
1
 62
7
 10
-101.1509375611495
 20
-3.778437530197291
 30
0
 11
-104.8513872870189
 21
-7.229162725064381
 31
0
  0
LINE
  8
1
 62
7
 10
-101.7641643310008
 20
-3.147032578540291
 30
0
 11
-102.7942766729725
 21
-4.107627877845401
 31
0
  0
LINE
  8
1
 62
7
 10
-98.35417253068832
 20
-6.803801086636181
 30
0
 11
-99.38428487266
 21
-7.7643963859413
 31
0
  0
LINE
  8
1
 62
7
 10
-96.37199953382032
 20
-9.057377247017708
 30
0
 11
-95.91880610239102
 21
-8.634767535271411
 31
0
  0
LINE
  8
1
 62
7
 10
-103.4207880630785
 20
-0.5898768174604907
 30
0
 11
-103.8739814945077
 21
-1.01248652920691
 31
0
  0
LINE
  8
1
 62
3
 10
119.6381927524945
 20
9.99999999999994
 30
0
 11
28.29837311273086
 21
10.00000000000002
 31
0
  0
LINE
  8
1
 62
7
 10
94.78254857475889
 20
-14.09230990270737
 30
0
 11
92.87693270783296
 21
-13.99298243474016
 31
0
  0
LINE
  8
1
 62
7
 10
95.25652212988075
 20
-17.87239810861226
 30
0
 11
95.25652212988075
 21
-14.59163206741366
 31
0
  0
LINE
  8
1
 62
7
 10
92.87693270783296
 20
-18.47104774128578
 30
0
 11
94.78254857475889
 21
-18.37172027331858
 31
0
  0
LINE
  8
1
 62
7
 10
92.666522129881
 20
-14.19271130062257
 30
0
 11
92.666522129881
 21
-18.27131887540327
 31
0
  0
LINE
  8
1
 62
7
 10
92.666522129881
 20
-14.98201508801296
 30
0
 11
86.9651523644049
 21
-14.98201508801296
 31
0
  0
LINE
  8
1
 62
7
 10
86.665152364405
 20
-15.28201508801297
 30
0
 11
86.665152364405
 21
-17.18201508801298
 31
0
  0
LINE
  8
1
 62
7
 10
92.666522129881
 20
-17.48201508801296
 30
0
 11
86.9651523644049
 21
-17.48201508801296
 31
0
  0
LINE
  8
1
 62
7
 10
87.665152364405
 20
-12.99999999999998
 30
0
 11
87.665152364405
 21
-14.98201508801296
 31
0
  0
LINE
  8
1
 62
7
 10
89.28515236440489
 20
-12.99999999999998
 30
0
 11
89.28515236440489
 21
-14.98201508801296
 31
0
  0
LINE
  8
1
 62
7
 10
90.9051523644049
 20
-12.99999999999998
 30
0
 11
90.9051523644049
 21
-14.98201508801296
 31
0
  0
LINE
  8
1
 62
7
 10
87.665152364405
 20
-17.48201508801296
 30
0
 11
87.665152364405
 21
-51.69115937863993
 31
0
  0
LINE
  8
1
 62
7
 10
89.28515236440489
 20
-17.48201508801296
 30
0
 11
89.28515236440489
 21
-51.22965819731505
 31
0
  0
LINE
  8
1
 62
7
 10
90.9051523644049
 20
-17.48201508801296
 30
0
 11
90.9051523644049
 21
-51.60507058459005
 31
0
  0
LINE
  8
1
 62
7
 10
92.4051523644049
 20
-17.48201508801296
 30
0
 11
92.4051523644049
 21
-51.41615973273995
 31
0
  0
LINE
  8
1
 62
7
 10
87.665152364405
 20
-76.72501808427236
 30
0
 11
88.17515236440499
 21
-76.72501808427236
 31
0
  0
LINE
  8
1
 62
7
 10
90.9051523644049
 20
-76.72501808427236
 30
0
 11
91.355152364405
 21
-76.72501808427236
 31
0
  0
LINE
  8
1
 62
7
 10
89.28515236440489
 20
-76.72501808427236
 30
0
 11
89.795152364405
 21
-76.72501808427236
 31
0
  0
LINE
  8
1
 62
7
 10
88.17515236440499
 20
-76.72501808427236
 30
0
 11
88.17515236440499
 21
-79.72501808427236
 31
0
  0
LINE
  8
1
 62
7
 10
88.17515236440499
 20
-76.72501808427236
 30
0
 11
88.7751523644049
 21
-76.72501808427236
 31
0
  0
LINE
  8
1
 62
7
 10
88.7751523644049
 20
-76.72501808427236
 30
0
 11
88.7751523644049
 21
-79.72501808427236
 31
0
  0
LINE
  8
1
 62
7
 10
88.7751523644049
 20
-76.72501808427236
 30
0
 11
89.28515236440489
 21
-76.72501808427236
 31
0
  0
LINE
  8
1
 62
7
 10
89.795152364405
 20
-76.72501808427236
 30
0
 11
89.795152364405
 21
-79.72501808427236
 31
0
  0
LINE
  8
1
 62
7
 10
89.795152364405
 20
-76.72501808427236
 30
0
 11
90.39515236440496
 21
-76.72501808427236
 31
0
  0
LINE
  8
1
 62
7
 10
90.39515236440496
 20
-76.72501808427236
 30
0
 11
90.39515236440496
 21
-79.72501808427236
 31
0
  0
LINE
  8
1
 62
7
 10
90.39515236440496
 20
-76.72501808427236
 30
0
 11
90.9051523644049
 21
-76.72501808427236
 31
0
  0
LINE
  8
1
 62
7
 10
91.355152364405
 20
-76.72501808427236
 30
0
 11
91.355152364405
 21
-79.72501808427236
 31
0
  0
LINE
  8
1
 62
7
 10
91.355152364405
 20
-76.72501808427236
 30
0
 11
91.95515236440485
 21
-76.72501808427236
 31
0
  0
LINE
  8
1
 62
7
 10
91.95515236440485
 20
-76.72501808427236
 30
0
 11
91.95515236440485
 21
-79.72501808427236
 31
0
  0
LINE
  8
1
 62
7
 10
91.95515236440485
 20
-76.72501808427236
 30
0
 11
92.4051523644049
 21
-76.72501808427236
 31
0
  0
LINE
  8
1
 62
7
 10
87.665152364405
 20
-53.69115937863993
 30
0
 11
87.665152364405
 21
-76.72501808427236
 31
0
  0
LINE
  8
1
 62
7
 10
89.28515236440489
 20
-53.22965819731494
 30
0
 11
89.28515236440489
 21
-76.72501808427236
 31
0
  0
LINE
  8
1
 62
7
 10
90.9051523644049
 20
-53.60507058459005
 30
0
 11
90.9051523644049
 21
-76.72501808427236
 31
0
  0
LINE
  8
1
 62
7
 10
92.4051523644049
 20
-53.41615973273995
 30
0
 11
92.4051523644049
 21
-76.72501808427236
 31
0
  0
LINE
  8
1
 62
7
 10
86.9999999999996
 20
33.00000000000002
 30
0
 11
112.6999999999996
 21
33.00000000000002
 31
0
  0
LINE
  8
1
 62
7
 10
113.1999999999996
 20
32.50000000000002
 30
0
 11
113.1999999999996
 21
-12.49999999999998
 31
0
  0
LINE
  8
1
 62
7
 10
112.6999999999996
 20
-12.99999999999998
 30
0
 11
86.9999999999996
 21
-12.99999999999998
 31
0
  0
LINE
  8
1
 62
7
 10
86.9999999999996
 20
-12.99999999999998
 30
0
 11
86.9999999999996
 21
33.00000000000002
 31
0
  0
LINE
  8
1
 62
7
 10
81.14999999999969
 20
32.25044495978502
 30
0
 11
81.14999999999969
 21
31.99946475602001
 31
0
  0
LINE
  8
1
 62
7
 10
46.99999999999989
 20
32.00000000000002
 30
0
 11
81.14999999999969
 21
32.00000000000002
 31
0
  0
LINE
  8
1
 62
7
 10
54.77752817792145
 20
23.00000000000002
 30
0
 11
54.77752817792145
 21
32.00000000000002
 31
0
  0
LINE
  8
1
 62
7
 10
54.77752817792145
 20
23.00000000000002
 30
0
 11
74.77752817792144
 21
23.00000000000002
 31
0
  0
LINE
  8
1
 62
7
 10
74.77752817792117
 20
32.00000000000002
 30
0
 11
74.77752817792144
 21
23.00000000000002
 31
0
  0
LINE
  8
1
 62
7
 10
43.99999999999989
 20
29.00000000000002
 30
0
 11
43.99999999999989
 21
-8.999070093232181
 31
0
  0
LINE
  8
1
 62
7
 10
46.99999999999989
 20
-11.99999999999998
 30
0
 11
87
 21
-11.99999999999998
 31
0
  0
LINE
  8
1
 62
7
 10
87
 20
31.99087221682504
 30
0
 11
87
 21
-11.99999999999998
 31
0
  0
LINE
  8
1
 62
7
 10
82.59999999999985
 20
31.81091160757301
 30
0
 11
82.59999999999985
 21
30.89615076659993
 31
0
  0
LINE
  8
1
 62
7
 10
85.59999999999985
 20
30.89615076659993
 30
0
 11
85.59999999999985
 21
31.81091160757301
 31
0
  0
LINE
  8
1
 62
7
 10
87.0499999999999
 20
32.25044495978502
 30
0
 11
87.0499999999999
 21
31.99946475602001
 31
0
  0
LINE
  8
1
 62
3
 10
84.09999999999985
 20
-13.87634983292807
 30
0
 11
84.09999999999985
 21
-11.52513152805799
 31
0
  0
LINE
  8
1
 62
3
 10
84.09999999999985
 20
34.16117345456883
 30
0
 11
84.09999999999985
 21
29.06946085579102
 31
0
  0
LINE
  8
1
 62
2
 10
-109.4618834329087
 20
-43.00000000000001
 30
0
 11
-53.32694240941898
 21
-43.00000000000001
 31
0
  0
LINE
  8
1
 62
2
 10
-109.4618834329087
 20
-50.00000000000001
 30
0
 11
-53.32694240941895
 21
-50.00000000000001
 31
0
  0
LINE
  8
1
 62
2
 10
-109.4618834329087
 20
-57
 30
0
 11
-53.32694240941898
 21
-57
 31
0
  0
LINE
  8
1
 62
3
 10
-96.40498600089802
 20
17.16202200691308
 30
0
 11
-102.1920594225665
 21
20.50319040473289
 31
0
  0
LINE
  8
1
 62
3
 10
-71.91329522649372
 20
16.97826225459943
 30
0
 11
-65.92042012878662
 21
20.43825030548178
 31
0
  0
LINE
  8
1
 62
3
 10
-84
 20
34.99999999999999
 30
0
 11
-84
 21
-15.00000000000001
 31
0
  0
LINE
  8
1
 62
3
 10
-58.99999999999999
 20
10
 30
0
 11
-109
 21
10
 31
0
  0
LINE
  8
1
 62
7
 10
-82.5
 20
12
 30
0
 11
-82.5
 21
8
 31
0
  0
LINE
  8
1
 62
7
 10
40.99999999999999
 20
0
 30
0
 11
40.99999999999999
 21
20
 31
0
  0
LINE
  8
1
 62
7
 10
40.99999999999999
 20
20
 30
0
 11
43.99999999999999
 21
20
 31
0
  0
LINE
  8
1
 62
7
 10
40.99999999999999
 20
0
 30
0
 11
43.99999999999999
 21
0
 31
0
  0
LINE
  8
1
 62
3
 10
104.9283085596209
 20
10
 30
0
 11
27.17371598660715
 21
10
 31
0
  0
LINE
  8
1
 62
7
 10
30.99999999999999
 20
12.5
 30
0
 11
30.99999999999999
 21
7.5
 31
0
  0
LINE
  8
1
 62
2
 10
135.1999999999996
 20
-17.10002334769979
 30
0
 11
135.1999999999996
 21
-36.40321556867804
 31
0
  0
LINE
  8
1
 62
2
 10
30.99999999999999
 20
12
 30
0
 11
40.99999999999999
 21
8
 31
0
  0
LINE
  8
1
 62
2
 10
30.99999999999999
 20
8
 30
0
 11
40.99999999999999
 21
12
 31
0
  0
LINE
  8
1
 62
7
 10
30.99999999999999
 20
8
 30
0
 11
40.99999999999999
 21
8
 31
0
  0
LINE
  8
1
 62
7
 10
30.99999999999999
 20
12
 30
0
 11
40.99999999999999
 21
12
 31
0
  0
LINE
  8
1
 62
7
 10
30.99999999999999
 20
12.5
 30
0
 11
40.99999999999999
 21
12.5
 31
0
  0
LINE
  8
1
 62
7
 10
30.99999999999999
 20
7.5
 30
0
 11
40.99999999999999
 21
7.5
 31
0
  0
LINE
  8
1
 62
2
 10
67.38415017735721
 20
-56.19752078129528
 30
0
 11
-10.83484763559509
 21
-56.19752078129528
 31
0
  0
LINE
  8
1
 62
2
 10
74.38415017735721
 20
-49.19752078129528
 30
0
 11
-10.83484763559509
 21
-49.19752078129528
 31
0
  0
ARC
  8
1
 62
7
 10
-84
 20
10
 30
0
 40
22.00000000000001
 50
0
 51
180
  0
ARC
  8
1
 62
7
 10
-84
 20
10
 30
0
 40
23.5
 50
211.4630409671846
 51
217.5058177354721
  0
ARC
  8
1
 62
7
 10
-84
 20
10
 30
0
 40
23.49999999999995
 50
226.9528866498843
 51
229.3909792154898
  0
ARC
  8
1
 62
7
 10
-84
 20
10
 30
0
 40
23.49999999999999
 50
217.5058177354721
 51
219.0471133501154
  0
ARC
  8
1
 62
7
 10
-84
 20
10
 30
0
 40
21.99999999999996
 50
218.777124973062
 51
227.2228750269381
  0
ARC
  8
1
 62
7
 10
-84
 20
10
 30
0
 40
21.99999999999999
 50
208.4771730020647
 51
218.777124973062
  0
ARC
  8
1
 62
7
 10
-84
 20
10
 30
0
 40
22
 50
180
 51
208.4771730020647
  0
ARC
  8
1
 62
7
 10
-84
 20
10
 30
0
 40
21.99999999999998
 50
237.5228269979347
 51
0
  0
ARC
  8
1
 62
7
 10
-84
 20
10
 30
0
 40
21.99999999999993
 50
227.2228750269381
 51
237.5228269979347
  0
ARC
  8
1
 62
7
 10
-84
 20
10
 30
0
 40
23.00000000000001
 50
236.7183038184191
 51
0
  0
ARC
  8
1
 62
7
 10
-84
 20
10
 30
0
 40
23.00000000000001
 50
0
 51
209.2816961815805
  0
ARC
  8
1
 62
7
 10
-84
 20
10
 30
0
 40
23.49999999999988
 50
229.3909792154898
 51
234.5369590328153
  0
ARC
  8
1
 62
7
 10
84.09999999999985
 20
47.26976677318881
 30
0
 40
15.30629046289753
 50
258.8877819708923
 51
281.1122180291074
  0
ARC
  8
1
 62
7
 10
84.09999999999985
 20
49.01574839561001
 30
0
 40
17.27010158924896
 50
260.1647661718483
 51
279.8352338281513
  0
ARC
  8
1
 62
7
 10
84.09999999999985
 20
30.89615076659993
 30
0
 40
1.5
 50
180
 51
0
  0
ARC
  8
1
 62
7
 10
84.09999999999985
 20
29.69946475602003
 30
0
 40
3.900000000000146
 50
40.8512521033073
 51
139.1487478966938
  0
ARC
  8
1
 62
7
 10
84.09999999999985
 20
-9.045586756619059
 30
0
 40
3.899999999999761
 50
229.24797006729
 51
310.7520299327126
  0
CIRCLE
  8
1
 62
7
 10
-84
 20
10
 30
0
 40
10
  0
CIRCLE
  8
1
 62
2
 10
-84
 20
-7.5
 30
0
 40
1.5
  0
CIRCLE
  8
1
 62
7
 10
-84
 20
-7.5
 30
0
 40
1
  0
CIRCLE
  8
1
 62
7
 10
-99.1554445662276
 20
18.75
 30
0
 40
1
  0
CIRCLE
  8
1
 62
2
 10
-99.1554445662276
 20
18.75
 30
0
 40
1.5
  0
CIRCLE
  8
1
 62
7
 10
-68.84455543377229
 20
18.75
 30
0
 40
1.000000000000085
  0
CIRCLE
  8
1
 62
2
 10
-68.84455543377229
 20
18.75
 30
0
 40
1.500000000000085
  0
CIRCLE
  8
1
 62
7
 10
-84
 20
10
 30
0
 40
12.5
  0
CIRCLE
  8
1
 62
7
 10
-84
 20
10
 30
0
 40
6.5
  0
CIRCLE
  8
1
 62
3
  6
CENTER
 10
-84
 20
10
 30
0
 40
17.5
  0
CIRCLE
  8
1
 62
7
 10
-84
 20
10
 30
0
 40
2.5
  0
POLYLINE
  8
1
 62
2
 66
1
  0
VERTEX
  8
1
 10
-118.8396337764843
 20
-20.273413605103
 30
0
 42
0.004201787785703692
  0
VERTEX
  8
1
 10
-118.8238173058044
 20
-20.43760153121183
 30
0
 42
0.0129853233082907
  0
VERTEX
  8
1
 10
-118.8028370097047
 20
-20.59757060053225
 30
0
 42
0.02368764596160478
  0
VERTEX
  8
1
 10
-118.7715290627653
 20
-20.74910195627586
 30
0
 42
0.03698086856910644
  0
VERTEX
  8
1
 10
-118.7247296395664
 20
-20.88797674165424
 30
0
 42
0.05310431523646614
  0
VERTEX
  8
1
 10
-118.6572749146881
 20
-21.009976099879
 30
0
 42
0.07911701648544961
  0
VERTEX
  8
1
 10
-118.5278673793793
 20
-21.14367504174355
 30
0
 42
0.04438058985854197
  0
VERTEX
  8
1
 10
-118.3611036279722
 20
-21.24709244940549
 30
0
 42
0.03487593238245643
  0
VERTEX
  8
1
 10
-118.166795796069
 20
-21.32848343631986
 30
0
 42
0.009121925278244878
  0
VERTEX
  8
1
 10
-117.9547560192718
 20
-21.39610311594172
 30
0
 42
0.007642460714494866
  0
VERTEX
  8
1
 10
-117.734796433183
 20
-21.4582066017261
 30
0
 42
-0.008114348177588293
  0
VERTEX
  8
1
 10
-117.5400953707036
 20
-21.51570014080553
 30
0
 42
-0.01932452149150084
  0
VERTEX
  8
1
 10
-117.3545735789465
 20
-21.5816023396136
 30
0
 42
-0.03336379529044797
  0
VERTEX
  8
1
 10
-117.185905993184
 20
-21.66214450936734
 30
0
 42
-0.05099163073954561
  0
VERTEX
  8
1
 10
-117.0417675486883
 20
-21.7635579612838
 30
0
 42
-0.0689809266435835
  0
VERTEX
  8
1
 10
-116.9298331807315
 20
-21.89207400658
 30
0
 42
-0.05048200875143662
  0
VERTEX
  8
1
 10
-116.860728879527
 20
-22.03086662103548
 30
0
 42
-0.02154714559961173
  0
VERTEX
  8
1
 10
-116.8094972588063
 20
-22.18553892552414
 30
0
 42
0.002749831103609529
  0
VERTEX
  8
1
 10
-116.7628303796028
 20
-22.34590748196198
 30
0
 42
0.02643430537930083
  0
VERTEX
  8
1
 10
-116.7074203029501
 20
-22.50178885226499
 30
0
 42
0.0537215326536056
  0
VERTEX
  8
1
 10
-116.6299590898818
 20
-22.64299959834919
 30
0
 42
0.02342956027992969
  0
VERTEX
  8
1
 10
-116.601139752048
 20
-22.68044734549263
 30
0
 42
0.008194178312793468
  0
VERTEX
  8
1
 10
-116.5698634064623
 20
-22.7161680501983
 30
0
 42
0.01525811203618882
  0
VERTEX
  8
1
 10
-116.5367443050626
 20
-22.75059347307564
 30
0
 42
0.0001966161519627639
  0
VERTEX
  8
1
 10
-116.5023966997869
 20
-22.78415537473409
 30
0
 42
0.007465910803265535
  0
VERTEX
  8
1
 10
-116.4674348425733
 20
-22.8172855157831
 30
0
  0
SEQEND
  8
1
  0
POLYLINE
  8
1
 62
7
 66
1
  0
VERTEX
  8
1
 10
-104.8513872870189
 20
-7.229162725064381
 30
0
 42
0.002522358894276633
  0
VERTEX
  8
1
 10
-104.6771687452321
 20
-7.068381028816861
 30
0
 42
0.007611018257336387
  0
VERTEX
  8
1
 10
-104.5069712594737
 20
-6.9048005627813
 30
0
 42
0.01289679850934604
  0
VERTEX
  8
1
 10
-104.3448158857723
 20
-6.735622557169661
 30
0
 42
0.01834820517655657
  0
VERTEX
  8
1
 10
-104.1947236801561
 20
-6.558048242193904
 30
0
 42
0.04727384430660474
  0
VERTEX
  8
1
 10
-103.9465131189488
 20
-6.171275522793802
 30
0
 42
0.006918203064087294
  0
VERTEX
  8
1
 10
-103.8438173283421
 20
-5.965158417111869
 30
0
 42
0.002552910027427271
  0
VERTEX
  8
1
 10
-103.7446759080776
 20
-5.756357914794135
 30
0
 42
-0.01077080458769923
  0
VERTEX
  8
1
 10
-103.6411364393993
 20
-5.550304399614536
 30
0
 42
-0.02136049806205673
  0
VERTEX
  8
1
 10
-103.5252465035514
 20
-5.352428255347011
 30
0
 42
-0.01654931334429965
  0
VERTEX
  8
1
 10
-103.4330802138706
 20
-5.220750610627308
 30
0
 42
-0.01212148598730563
  0
VERTEX
  8
1
 10
-103.333260589661
 20
-5.094245227698695
 30
0
 42
-0.007729825329369686
  0
VERTEX
  8
1
 10
-103.2281407026809
 20
-4.971377700022131
 30
0
 42
-0.003410150448590711
  0
VERTEX
  8
1
 10
-103.1200736246888
 20
-4.850613621058576
 30
0
 42
0.0008716354143075507
  0
VERTEX
  8
1
 10
-103.0114124274433
 20
-4.730418584268991
 30
0
 42
0.002675281886327175
  0
VERTEX
  8
1
 10
-102.9365792212
 20
-4.646452471359439
 30
0
 42
0.0006933733938019448
  0
VERTEX
  8
1
 10
-102.8624266020962
 20
-4.56211283240531
 30
0
 42
0.001839787903967573
  0
VERTEX
  8
1
 10
-102.788784423347
 20
-4.477493048917749
 30
0
 42
0.0006349204002070537
  0
VERTEX
  8
1
 10
-102.7154825381675
 20
-4.392686502407901
 30
0
 42
0.0002119462370049884
  0
VERTEX
  8
1
 10
-102.6423507997729
 20
-4.30778657438691
 30
0
  0
SEQEND
  8
1
  0
POLYLINE
  8
1
 62
7
 66
1
  0
VERTEX
  8
1
 10
-102.4791883531079
 20
-9.773034635744409
 30
0
 42
-0.0022708760887551
  0
VERTEX
  8
1
 10
-102.3420179528283
 20
-9.65860073508788
 30
0
 42
-0.006866791505686826
  0
VERTEX
  8
1
 10
-102.2033332893437
 20
-9.547129873411311
 30
0
 42
-0.01160480602890972
  0
VERTEX
  8
1
 10
-102.061620099449
 20
-9.441585089694669
 30
0
 42
-0.01650533133774784
  0
VERTEX
  8
1
 10
-101.9153641199392
 20
-9.344929422917911
 30
0
 42
-0.04746429300927311
  0
VERTEX
  8
1
 10
-101.5714442698493
 20
-9.176166479797262
 30
0
 42
-0.01334187817508945
  0
VERTEX
  8
1
 10
-101.3726250693074
 20
-9.105989115275262
 30
0
 42
-0.003457211622411863
  0
VERTEX
  8
1
 10
-101.1702563114949
 20
-9.042095790423932
 30
0
 42
0.006259698926887563
  0
VERTEX
  8
1
 10
-100.9680008219236
 20
-8.976988477172204
 30
0
 42
0.0160619283943488
  0
VERTEX
  8
1
 10
-100.7695214261049
 20
-8.90316914744901
 30
0
 42
0.02461726706715997
  0
VERTEX
  8
1
 10
-100.5512905604196
 20
-8.801118036603944
 30
0
 42
0.01653401751887594
  0
VERTEX
  8
1
 10
-100.3418914287636
 20
-8.681305587444339
 30
0
 42
0.01752779701211654
  0
VERTEX
  8
1
 10
-100.1404699799768
 20
-8.547076620194964
 30
0
 42
0.00961602788216788
  0
VERTEX
  8
1
 10
-99.94617216289902
 20
-8.401775955080591
 30
0
 42
0.01089685402655494
  0
VERTEX
  8
1
 10
-99.75814392637
 20
-8.248748412325991
 30
0
 42
0.0006062463997545195
  0
VERTEX
  8
1
 10
-99.66401283270102
 20
-8.168470227603494
 30
0
 42
0.00520842824008013
  0
VERTEX
  8
1
 10
-99.57101703012253
 20
-8.087273404944636
 30
0
 42
0.001826273380111927
  0
VERTEX
  8
1
 10
-99.47887269586195
 20
-8.005387603833505
 30
0
 42
0.001098561066386191
  0
VERTEX
  8
1
 10
-99.3872960071466
 20
-7.923042483754193
 30
0
 42
0.0003659168922369814
  0
VERTEX
  8
1
 10
-99.2960031412039
 20
-7.84046770419079
 30
0
  0
SEQEND
  8
1
  0
POLYLINE
  8
1
 62
7
 66
1
  0
VERTEX
  8
1
 10
90.9051523644049
 20
-14.98201508801296
 30
0
 42
-0.005094356481272089
  0
VERTEX
  8
1
 10
90.91736762214624
 20
-14.76299701891685
 30
0
 42
-0.01584736770680944
  0
VERTEX
  8
1
 10
90.93827931374193
 20
-14.54859286548506
 30
0
 42
-0.02813623112775029
  0
VERTEX
  8
1
 10
90.97658387304634
 20
-14.34341654338192
 30
0
 42
-0.042104489462225
  0
VERTEX
  8
1
 10
91.04097773391381
 20
-14.15208196827175
 30
0
 42
-0.05553794553668786
  0
VERTEX
  8
1
 10
91.14015733019869
 20
-13.97920305581886
 30
0
 42
-0.03672474558969516
  0
VERTEX
  8
1
 10
91.25061912185038
 20
-13.85262530668629
 30
0
 42
-0.01318721956794927
  0
VERTEX
  8
1
 10
91.37658464086266
 20
-13.7341903562998
 30
0
 42
0.008246026423510508
  0
VERTEX
  8
1
 10
91.50423771998121
 20
-13.61648525684251
 30
0
 42
0.03048928362227676
  0
VERTEX
  8
1
 10
91.61976219195165
 20
-13.4920970604975
 30
0
 42
0.05673379786342694
  0
VERTEX
  8
1
 10
91.70934188951969
 20
-13.35361281944788
 30
0
 42
0.03162911466047815
  0
VERTEX
  8
1
 10
91.73701359330238
 20
-13.28771901225383
 30
0
 42
0.01491982400332183
  0
VERTEX
  8
1
 10
91.75873442442708
 20
-13.21860603392943
 30
0
 42
0.01896189942897944
  0
VERTEX
  8
1
 10
91.77599210105828
 20
-13.14707867725726
 30
0
 42
0.002988020207073964
  0
VERTEX
  8
1
 10
91.79027434136049
 20
-13.07394173501992
 30
0
 42
0.007769728381415514
  0
VERTEX
  8
1
 10
91.8030688634982
 20
-12.99999999999998
 30
0
  0
SEQEND
  8
1
  0
POLYLINE
  8
1
 62
7
 66
1
  0
VERTEX
  8
1
 10
92.4051523644049
 20
-14.98201508801296
 30
0
 42
-0.004084977899081025
  0
VERTEX
  8
1
 10
92.41099143507142
 20
-14.82728537190942
 30
0
 42
-0.0125967742429752
  0
VERTEX
  8
1
 10
92.42180415719862
 20
-14.67494251304335
 30
0
 42
-0.02205174309488478
  0
VERTEX
  8
1
 10
92.44256418224722
 20
-14.52737336865225
 30
0
 42
-0.03266673935386331
  0
VERTEX
  8
1
 10
92.4782451616779
 20
-14.38696479597359
 30
0
 42
-0.04360750023886129
  0
VERTEX
  8
1
 10
92.53382074695139
 20
-14.25610365224486
 30
0
 42
-0.05030981493759354
  0
VERTEX
  8
1
 10
92.64204293992108
 20
-14.0988176443231
 30
0
 42
-0.0233396674101958
  0
VERTEX
  8
1
 10
92.77666907512051
 20
-13.95394141882074
 30
0
 42
0.000269287009808361
  0
VERTEX
  8
1
 10
92.92025591635449
 20
-13.81284248046767
 30
0
 42
0.02339659100323224
  0
VERTEX
  8
1
 10
93.05536022742778
 20
-13.66688833399378
 30
0
 42
0.0498454538370687
  0
VERTEX
  8
1
 10
93.16453877214519
 20
-13.50744648412897
 30
0
 42
0.03673432362393976
  0
VERTEX
  8
1
 10
93.20727136122113
 20
-13.41362143392762
 30
0
 42
0.01729554683206246
  0
VERTEX
  8
1
 10
93.23998623642683
 20
-13.31468688597664
 30
0
 42
0.02214380962598273
  0
VERTEX
  8
1
 10
93.26518782622989
 20
-13.21192021471343
 30
0
 42
0.003389403776257404
  0
VERTEX
  8
1
 10
93.28538055909782
 20
-13.10659879457541
 30
0
 42
0.009106353430434261
  0
VERTEX
  8
1
 10
93.3030688634982
 20
-12.99999999999998
 30
0
  0
SEQEND
  8
1
  0
POLYLINE
  8
1
 62
7
 66
1
  0
VERTEX
  8
1
 10
90.9051523644049
 20
-13.51385998600398
 30
0
 42
0.00291211801623067
  0
VERTEX
  8
1
 10
90.95649504006363
 20
-13.47454571450999
 30
0
 42
0.008821845128379621
  0
VERTEX
  8
1
 10
91.00653937125176
 20
-13.43432816194339
 30
0
 42
0.01512924885910648
  0
VERTEX
  8
1
 10
91.05398701349873
 20
-13.39230404723159
 30
0
 42
0.02183695989852425
  0
VERTEX
  8
1
 10
91.09753962233393
 20
-13.34757008930198
 30
0
 42
0.02882759816992329
  0
VERTEX
  8
1
 10
91.13589885328679
 20
-13.29922300708197
 30
0
 42
0.0318819241974833
  0
VERTEX
  8
1
 10
91.16902621809547
 20
-13.24510962237056
 30
0
 42
0.02025139653542574
  0
VERTEX
  8
1
 10
91.19666168324754
 20
-13.18717542652249
 30
0
 42
0.01776681578190201
  0
VERTEX
  8
1
 10
91.22017822365717
 20
-13.12637562232193
 30
0
 42
0.006845406332472283
  0
VERTEX
  8
1
 10
91.24094881423849
 20
-13.06366541255304
 30
0
 42
0.005203691309181285
  0
VERTEX
  8
1
 10
91.26034642990567
 20
-12.99999999999998
 30
0
  0
SEQEND
  8
1
  0
POLYLINE
  8
1
 62
2
 66
1
  0
VERTEX
  8
1
 10
87.665152364405
 20
-51.69115937863993
 30
0
 42
-0.005741291917640831
  0
VERTEX
  8
1
 10
87.88453843004507
 20
-51.47776341740217
 30
0
 42
-0.01871628237798501
  0
VERTEX
  8
1
 10
88.10457797927509
 20
-51.28334149073643
 30
0
 42
-0.03661427606487449
  0
VERTEX
  8
1
 10
88.32592449568512
 20
-51.1268676332148
 30
0
 42
-0.06301418143511668
  0
VERTEX
  8
1
 10
88.54923146286504
 20
-51.02731587940929
 30
0
 42
-0.09379985442498005
  0
VERTEX
  8
1
 10
88.7751523644049
 20
-51.00366026389194
 30
0
 42
-0.1008313723748198
  0
VERTEX
  8
1
 10
89.09466834284342
 20
-51.1113890145318
 30
0
 42
-0.03511203745505137
  0
VERTEX
  8
1
 10
89.41847261231601
 20
-51.32539833451885
 30
0
 42
0.005474580852523149
  0
VERTEX
  8
1
 10
89.74451889256937
 20
-51.56804317295568
 30
0
 42
0.04662449111782025
  0
VERTEX
  8
1
 10
90.07076090335013
 20
-51.76167847894484
 30
0
 42
0.1199957498014689
  0
VERTEX
  8
1
 10
90.39515236440496
 20
-51.82865920158893
 30
0
 42
0.1205723122193876
  0
VERTEX
  8
1
 10
90.64356788333146
 20
-51.75851116740189
 30
0
 42
0.005978808524016102
  0
VERTEX
  8
1
 10
90.89171788003475
 20
-51.61406109302017
 30
0
 42
0.03080024829301294
  0
VERTEX
  8
1
 10
91.14166011727477
 20
-51.44281011540466
 30
0
 42
-0.03450643078444188
  0
VERTEX
  8
1
 10
91.39545235781148
 20
-51.2922593715163
 30
0
 42
-0.08238517047753108
  0
VERTEX
  8
1
 10
91.6551523644049
 20
-51.20990999831597
 30
0
 42
-0.05438523440348751
  0
VERTEX
  8
1
 10
91.80221732694355
 20
-51.20852734639437
 30
0
 42
-0.03989026302427924
  0
VERTEX
  8
1
 10
91.95123898112311
 20
-51.23556642701036
 30
0
 42
-0.02615921155708327
  0
VERTEX
  8
1
 10
92.10172815403334
 20
-51.28392180702956
 30
0
 42
-0.01460085277478911
  0
VERTEX
  8
1
 10
92.25319567276401
 20
-51.34648805331756
 30
0
 42
-0.004677241814791093
  0
VERTEX
  8
1
 10
92.4051523644049
 20
-51.41615973273995
 30
0
  0
SEQEND
  8
1
  0
POLYLINE
  8
1
 62
2
 66
1
  0
VERTEX
  8
1
 10
87.665152364405
 20
-53.69115937863993
 30
0
 42
-0.005741291917674139
  0
VERTEX
  8
1
 10
87.88453843004507
 20
-53.47776341740217
 30
0
 42
-0.01871628237794902
  0
VERTEX
  8
1
 10
88.10457797927509
 20
-53.28334149073643
 30
0
 42
-0.03661427606487449
  0
VERTEX
  8
1
 10
88.32592449568512
 20
-53.1268676332148
 30
0
 42
-0.06301418143503443
  0
VERTEX
  8
1
 10
88.54923146286504
 20
-53.02731587940928
 30
0
 42
-0.09379985442494891
  0
VERTEX
  8
1
 10
88.7751523644049
 20
-53.00366026389194
 30
0
 42
-0.1008313723748393
  0
VERTEX
  8
1
 10
89.09466834284342
 20
-53.11138901453181
 30
0
 42
-0.03511203745503626
  0
VERTEX
  8
1
 10
89.41847261231601
 20
-53.32539833451885
 30
0
 42
0.005474580852509105
  0
VERTEX
  8
1
 10
89.74451889256937
 20
-53.56804317295568
 30
0
 42
0.04662449111784128
  0
VERTEX
  8
1
 10
90.07076090335013
 20
-53.76167847894485
 30
0
 42
0.119995749801457
  0
VERTEX
  8
1
 10
90.39515236440496
 20
-53.82865920158893
 30
0
 42
0.1205723122193891
  0
VERTEX
  8
1
 10
90.64356788333146
 20
-53.75851116740189
 30
0
 42
0.00597880852402354
  0
VERTEX
  8
1
 10
90.89171788003475
 20
-53.61406109302016
 30
0
 42
0.03080024829298516
  0
VERTEX
  8
1
 10
91.14166011727477
 20
-53.44281011540466
 30
0
 42
-0.03450643078444188
  0
VERTEX
  8
1
 10
91.39545235781148
 20
-53.2922593715163
 30
0
 42
-0.08238517047758071
  0
VERTEX
  8
1
 10
91.6551523644049
 20
-53.20990999831597
 30
0
 42
-0.05438523440348751
  0
VERTEX
  8
1
 10
91.80221732694355
 20
-53.20852734639437
 30
0
 42
-0.03989026302418695
  0
VERTEX
  8
1
 10
91.95123898112311
 20
-53.23556642701036
 30
0
 42
-0.02615921155708327
  0
VERTEX
  8
1
 10
92.10172815403334
 20
-53.28392180702956
 30
0
 42
-0.01460085277478911
  0
VERTEX
  8
1
 10
92.25319567276401
 20
-53.34648805331756
 30
0
 42
-0.004677241814791093
  0
VERTEX
  8
1
 10
92.4051523644049
 20
-53.41615973273995
 30
0
  0
SEQEND
  8
1
  0
ARC
  8
1
 62
7
 10
-101.4983937149547
 20
-9.667468402062891
 30
0
 40
0.1999999999999891
 50
40.01624065171436
 51
132.9999999999848
  0
ARC
  8
1
 62
7
 10
-104.4812984622226
 20
-12.44907207940179
 30
0
 40
0.1999999999997666
 50
132.9999999999852
 51
225.9837593483052
  0
ARC
  8
1
 62
7
 10
-102.900569382259
 20
-13.55926726671581
 30
0
 40
0.4999999999999336
 50
225.9837593479839
 51
313.0000000000115
  0
ARC
  8
1
 62
7
 10
-100.5011689938819
 20
-11.32179020686959
 30
0
 40
0.4999999999999796
 50
312.9999999999951
 51
40.01624065202182
  0
ARC
  8
1
 62
7
 10
-105.5481922495484
 20
-6.921814641949709
 30
0
 40
0.3000000000000884
 50
43.00000000000262
 51
132.9999999999958
  0
ARC
  8
1
 62
7
 10
-106.9377642826249
 20
-8.217611526068399
 30
0
 40
0.2999999999998627
 50
132.9999999999862
 51
223.0000000000141
  0
ARC
  8
1
 62
7
 10
-103.7617872431097
 20
-0.2241999666509908
 30
0
 40
0.4999999999998972
 50
313.0000000000017
 51
327.9148977526114
  0
ARC
  8
1
 62
7
 10
-95.5778069223598
 20
-9.000444386081
 30
0
 40
0.5000000000000414
 50
58.64420969854564
 51
118.0851022473935
  0
ARC
  8
1
 62
7
 10
-95.5778069223598
 20
-9.000444386081
 30
0
 40
0.5000000000000201
 50
118.0851022473935
 51
132.9999999999971
  0
ARC
  8
1
 62
7
 10
-103.1919831344452
 20
-1.743840230826009
 30
0
 40
0.9999999999999542
 50
133.0000000000032
 51
211.4630409671884
  0
ARC
  8
1
 62
7
 10
-97.05399789388281
 20
-8.326023545398581
 30
0
 40
0.9999999999998455
 50
234.5369590328141
 51
313.0000000000015
  0
ARC
  8
1
 62
7
 10
112.6999999999996
 20
-12.49999999999998
 30
0
 40
0.5
 50
270
 51
0
  0
ARC
  8
1
 62
7
 10
112.6999999999996
 20
32.50000000000002
 30
0
 40
0.5
 50
0
 51
90
  0
ARC
  8
1
 62
7
 10
92.86652212988065
 20
-14.19271130062257
 30
0
 40
0.199999999999937
 50
87.01624065170614
 51
180
  0
ARC
  8
1
 62
7
 10
92.86652212988065
 20
-18.27131887540327
 30
0
 40
0.1999999999996476
 50
180
 51
272.9837593482924
  0
ARC
  8
1
 62
7
 10
94.75652212988075
 20
-17.87239810861226
 30
0
 40
0.5000000000000011
 50
272.9837593479896
 51
0
  0
ARC
  8
1
 62
7
 10
94.75652212988075
 20
-14.59163206741366
 30
0
 40
0.5
 50
0
 51
87.01624065201021
  0
ARC
  8
1
 62
7
 10
86.9651523644049
 20
-15.28201508801297
 30
0
 40
0.3000000000000114
 50
90
 51
180
  0
ARC
  8
1
 62
7
 10
86.9651523644049
 20
-17.18201508801298
 30
0
 40
0.2999999999998977
 50
180
 51
270
  0
ARC
  8
1
 62
7
 10
46.99999999999989
 20
29.00000000000002
 30
0
 40
3
 50
90
 51
180
  0
ARC
  8
1
 62
7
 10
46.99999999999999
 20
-9
 30
0
 40
3
 50
180
 51
270
  0
LINE
  8
1
 62
2
 10
81.0523184975097
 20
41.99999999999999
 30
0
 11
57.22002336582767
 21
41.99999999999999
 31
0
  0
LINE
  8
1
 62
2
 10
57.22002336582767
 20
41.99999999999999
 30
0
 11
67.22002336582769
 21
32
 31
0
  0
SOLID
  8
1
 62
2
 10
64.4193263233601
 20
34.14905042583824
 30
0
 11
65.07097293998945
 21
34.80069704246759
 31
0
 12
67.22002336582769
 22
32
 32
0
 13
67.22002336582769
 23
32
 33
0
  0
LINE
  8
1
 62
2
 10
-10.83484763559507
 20
-63.19752078129528
 30
0
 11
60.38415017735721
 21
-63.19752078129528
 31
0
  0
LINE
  8
1
 62
2
 10
60.38415017735721
 20
-63.19752078129528
 30
0
 11
87.665152364405
 21
-35.91651859424746
 31
0
  0
SOLID
  8
1
 62
2
 10
85.51610193856676
 20
-38.71721563671505
 30
0
 11
84.86445532193741
 21
-38.0655690200857
 31
0
 12
87.665152364405
 22
-35.91651859424746
 32
0
 13
87.665152364405
 23
-35.91651859424746
 33
0
  0
TEXT
  8
1
 62
2
 10
-105.7558975468381
 20
-42.00304781296149
 30
0
 40
3.5
  1
(3-M3 DEPTH 0.138MAX)
 41
0.765
 73
2
 11
-105.7558975468381
 21
-40.25304781296149
 31
0
  0
TEXT
  8
1
 62
2
 10
-105.7558975468381
 20
-56.00348330781738
 30
0
 40
3.5
  1
(P.C.D=1.378DIA.     )
 41
0.8550000000000001
 73
2
 11
-105.7558975468381
 21
-54.25348330781738
 31
0
  0
TEXT
  8
1
 62
2
 10
-104.2558975468381
 20
-49.00304781296149
 30
0
 40
3.5
  1
P=120%%d P.C.D=âË35
 41
0.8100000000000001
 73
2
 11
-104.2558975468381
 21
-47.25304781296149
 31
0
  0
TEXT
  8
1
 62
2
 10
-74.42250313197086
 20
38.50431944720204
 30
0
 40
2
  1
%%p0.0118
 41
0.54
 72
1
 73
2
 11
-69.56250313197086
 21
39.50431944720204
 31
0
  0
TEXT
  8
1
 62
2
 10
-82.41654853507878
 20
37.90431944720204
 30
0
 40
3.2
  1
(0.157    )
 41
0.54
 72
1
 73
2
 11
-72.91254853507877
 21
39.50431944720204
 31
0
  0
TEXT
  8
1
 62
2
 10
-66.49995420472098
 20
-48.50304781296149
 30
0
 40
2.5
  1
%%p0.2
 41
0.7200000000000001
 72
1
 73
2
 11
-61.09995420472097
 21
-47.25304781296149
 31
0
  0
TEXT
  8
1
 62
2
 10
-71.89089393652279
 20
-55.50348330781738
 30
0
 40
2.5
  1
%%p0.00787
 41
0.7200000000000001
 72
1
 73
2
 11
-62.89089393652278
 21
-54.25348330781738
 31
0
  0
TEXT
  8
1
 62
2
 10
22.19999999999999
 20
35.74613523089394
 30
0
 40
2
  1
-0.0000787
 50
90
 41
0.63
  0
TEXT
  8
1
 62
2
 10
24.59999999999999
 20
35.74613523089394
 30
0
 40
2
  1
-0.000394
 50
90
 41
0.63
  0
TEXT
  8
1
 62
2
 10
8.19999999999999
 20
37.10613523089394
 30
0
 40
2
  1
 0
 50
90
 41
0.63
  0
TEXT
  8
1
 62
2
 10
10.59999999999999
 20
37.10613523089394
 30
0
 40
2
  1
-0.00394
 50
90
 41
0.63
  0
TEXT
  8
1
 62
2
 10
43.526658102762
 20
37.90116106407875
 30
0
 40
3.2
  1
(0.118)
 41
0.6300000000000001
 72
1
 73
2
 11
50.582658102762
 21
39.50116106407875
 31
0
  0
TEXT
  8
1
 62
2
 10
23.99999999999999
 20
16.84615787938598
 30
0
 40
3.2
  1
(0.197DIA.       )
 50
90
 41
0.6300000000000001
 72
1
 73
2
 11
22.39999999999999
 21
34.99015787938598
 31
0
  0
TEXT
  8
1
 62
2
 10
9.999999999999989
 20
17.85415787938598
 30
0
 40
3.2
  1
(0.787DIA. ü@   )
 50
90
 41
0.6300000000000001
 72
1
 73
2
 11
8.399999999999992
 21
34.99015787938598
 31
0
  0
TEXT
  8
1
 62
2
 10
143.524339447508
 20
-60.11815881038471
 30
0
 40
3.2
  1
(FROM MOTOR CASE)
 50
90
 41
0.6300000000000001
 72
1
 73
2
 11
141.924339447508
 21
-42.9821588103847
 31
0
  0
TEXT
  8
1
 62
2
 10
139.2929951484038
 20
-1.088000000000001
 30
0
 40
3.2
  1
(1.811DIA.)
 50
90
 41
0.6300000000000001
 72
1
 73
2
 11
137.6929951484038
 21
10
 31
0
  0
TEXT
  8
1
 62
2
 10
139.2929951484038
 20
-54.0701588103847
 30
0
 40
3.2
  1
(5.906    )
 50
90
 41
0.6300000000000001
 72
1
 73
2
 11
137.6929951484038
 21
-42.9821588103847
 31
0
  0
TEXT
  8
1
 62
2
 10
127.2096923065288
 20
-73.56535013471112
 30
0
 40
3
  1
(0.118)
 50
90
 41
0.6300000000000001
 72
1
 73
2
 11
125.7096923065288
 21
-66.95035013471113
 31
0
  0
TEXT
  8
1
 62
2
 10
138.6929951484038
 20
-43.84885064204369
 30
0
 40
2
  1
%%p0.787
 50
90
 41
0.63
 72
1
 73
2
 11
137.6929951484038
 21
-38.80885064204369
 31
0
  0
TEXT
  8
1
 62
2
 10
31.13261292597126
 20
49.90275744857979
 30
0
 40
3.2
  1
(0.512)
 41
0.6300000000000001
 72
1
 73
2
 11
38.18861292597126
 21
51.50275744857979
 31
0
  0
TEXT
  8
1
 62
2
 10
68.26286618148687
 20
49.90275744857979
 30
0
 40
3.2
  1
(2.724)
 41
0.6300000000000001
 72
1
 73
2
 11
75.31886618148687
 21
51.50275744857979
 31
0
  0
TEXT
  8
1
 62
2
 10
60.37210523109897
 20
42.82551303864307
 30
0
 40
3
  1
NAME PLATE
 41
0.6300000000000001
 72
1
 73
2
 11
69.82210523109897
 21
44.32551303864307
 31
0
  0
TEXT
  8
1
 62
2
 10
-140.25
 20
93.5
 30
0
 40
5
  1
DME44SM
 41
0.9
 72
1
 73
2
 11
-124.5
 21
96
 31
0
  0
TEXT
  8
1
 62
2
 10
-9.928665594671784
 20
-61.96355368807627
 30
0
 40
3.5
  1
PG LEAD ü@  : UL1007 AWG24
 41
0.8100000000000001
 73
2
 11
-9.928665594671784
 21
-60.21355368807627
 31
0
  0
TEXT
  8
1
 62
2
 10
-9.928665594671784
 20
-47.79821368144178
 30
0
 40
3.5
  1
LEAD WIRES
 41
0.9
 73
2
 11
-9.928665594671784
 21
-46.04821368144178
 31
0
  0
TEXT
  8
1
 62
2
 10
-9.928665594671784
 20
-54.96355368807627
 30
0
 40
3.5
  1
MOTOR LEAD : UL1007 AWG22
 41
0.8100000000000001
 73
2
 11
-9.928665594671784
 21
-53.21355368807627
 31
0
  0
TEXT
  8
1
 62
2
 10
-94.76913381851313
 20
49.90275744857979
 30
0
 40
3.2
  1
(1.732DIA.)
 41
0.6300000000000001
 72
1
 73
2
 11
-83.68113381851313
 21
51.50275744857979
 31
0
  0
DIMENSION
  8
1
  6
CONTINUOUS
 62
2
  2
*D0
  3
DMST_1
 10
-61.99999999999999
 20
53.9780695478966
 30
0
 11
-83.99999999999997
 21
56.5780695478966
 31
0
 12
0
 22
0
 32
0
 70
0
  1
âË<>
 13
-106
 23
10
 33
0
 14
-61.99999999999999
 24
10
 34
0
 53
0
  0
DIMENSION
  8
1
  6
CONTINUOUS
 62
2
  2
*D1
  3
DMST_1
 10
135.126386258749
 20
-12.99999999999998
 30
0
 11
132.526386258749
 21
10.00000000000002
 31
0
 12
0
 22
0
 32
0
 70
0
  1
âË<>
 13
112.6999999999996
 23
33.00000000000002
 33
0
 14
112.6999999999996
 24
-12.99999999999998
 34
0
 50
90
 53
0
  0
DIMENSION
  8
1
  6
CONTINUOUS
 62
2
  2
*D2
  3
DMST_2
 10
123.1999999999995
 20
-76.72501808427236
 30
0
 11
120.5999999999995
 21
-67.44345881872877
 31
0
 12
0
 22
0
 32
0
 70
0
  1
(<>
 13
91.95515236440485
 23
-79.72501808427236
 33
0
 14
92.4051523644049
 24
-76.72501808427236
 34
0
 50
90
 53
0
  0
DIMENSION
  8
1
  6
CONTINUOUS
 62
2
  2
*D3
  3
DMST_1
 10
43.99999999999989
 20
54.0376492432957
 30
0
 11
75.0387865341533
 21
56.6376492432957
 31
0
 12
0
 22
0
 32
0
 70
0
 13
113.1999999999996
 23
32.50000000000002
 33
0
 14
43.99999999999989
 24
29.00000000000002
 34
0
 53
0
  0
DIMENSION
  8
1
  6
CONTINUOUS
 62
2
  2
*D4
  3
DMST_1
 10
43.99999999999999
 20
42.0084110440441
 30
0
 11
50.53610361839449
 21
44.6084110440441
 31
0
 12
0
 22
0
 32
0
 70
0
 13
40.99999999999999
 23
20
 33
0
 14
43.99999999999989
 24
29.00000000000002
 34
0
 53
0
  0
DIMENSION
  8
1
  6
CONTINUOUS
 62
2
  2
*D5
  3
DMST_3
 10
-82.5
 20
42.0693114022219
 30
0
 11
-72.9119638038857
 21
44.6693114022219
 31
0
 12
0
 22
0
 32
0
 70
0
 13
-86.5
 23
10
 33
0
 14
-82.5
 24
12
 34
0
 53
0
  0
DIMENSION
  8
1
  6
CONTINUOUS
 62
2
  2
*D6
  3
DMST_4
 10
4.932439289597391
 20
20
 30
0
 11
1.532439289597392
 21
33.71190850147
 31
0
 12
0
 22
0
 32
0
 70
0
  1
âË<>
 13
40.99999999999999
 23
0
 33
0
 14
40.99999999999999
 24
20
 34
0
 50
90
 53
0
  0
DIMENSION
  8
1
  6
CONTINUOUS
 62
2
  2
*D7
  3
DMST_5
 10
18.95167362582039
 20
12.5
 30
0
 11
15.55167362582039
 21
35.0540528303416
 31
0
 12
0
 22
0
 32
0
 70
0
  1
âË<>
 13
30.99999999999999
 23
7.5
 33
0
 14
30.99999999999999
 24
12.5
 34
0
 50
90
 53
0
  0
DIMENSION
  8
1
  6
CONTINUOUS
 62
2
  2
*D8
  3
DMST_1
 10
31
 20
54.0376492432957
 30
0
 11
37.49999999999994
 21
56.6376492432957
 31
0
 12
0
 22
0
 32
0
 70
0
 13
43.99999999999989
 23
29.00000000000002
 33
0
 14
30.99999999999999
 24
12.5
 34
0
 53
0
  0
INSERT
  8
0
  2
___R___O_______R
 10
0.5
 20
-3.75
 30
0
  0
INSERT
  8
1
  2
*D9
 10
0
 20
0
 30
0
  0
INSERT
  8
1
  2
*D10
 10
0
 20
0
 30
0
  0
ENDSEC
  0
EOF
