  0
SECTION
  2
HEADER
  9
$ACADVER
  1
AC1009
  9
$INSBASE
 10
0
 20
0
  9
$EXTMIN
 10
-194.5
 20
-146
  9
$EXTMAX
 10
194.5
 20
146
  9
$LIMMIN
 10
-194.5
 20
-146
  9
$LIMMAX
 10
194.5
 20
146
  9
$VIEWCTR
 10
10
 20
10
  9
$VIEWSIZE
 40
10
  9
$SNAPMODE
 70
0
  9
$SNAPUNIT
 10
1
 20
1
  9
$SNAPBASE
 10
0
 20
0
  9
$SNAPANG
 50
0
  9
$SNAPSTYLE
 70
0
  9
$SNAPISOPAIR
 70
0
  9
$GRIDMODE
 70
0
  9
$GRIDUNIT
 10
0
 20
0
  9
$ORTHOMODE
 70
0
  9
$REGENMODE
 70
1
  9
$FILLMODE
 70
1
  9
$QTEXTMODE
 70
0
  9
$DRAGMODE
 70
2
  9
$LTSCALE
 40
1
  9
$OSMODE
 70
0
  9
$ATTMODE
 70
1
  9
$TEXTSIZE
 40
3.5
  9
$TRACEWID
 40
0.5
  9
$TEXTSTYLE
  7
STANDARD
  9
$CLAYER
  8
0
  9
$CELTYPE
  6
BYLAYER
  9
$CECOLOR
 62
256
  9
$DIMSCALE
 40
1
  9
$DIMASZ
 40
0.18
  9
$DIMEXO
 40
0.0625
  9
$DIMDLI
 40
0.38
  9
$DIMRND
 40
0
  9
$DIMDLE
 40
0
  9
$DIMEXE
 40
0.18
  9
$DIMTP
 40
0
  9
$DIMTM
 40
0
  9
$DIMTXT
 40
0.18
  9
$DIMCEN
 40
0.09
  9
$DIMTSZ
 40
0
  9
$DIMTOL
 70
0
  9
$DIMLIM
 70
0
  9
$DIMTIH
 70
1
  9
$DIMTOH
 70
1
  9
$DIMSE1
 70
0
  9
$DIMSE2
 70
0
  9
$DIMTAD
 70
0
  9
$DIMZIN
 70
0
  9
$DIMBLK
  1

  9
$DIMASO
 70
1
  9
$DIMSHO
 70
1
  9
$DIMPOST
  1

  9
$DIMAPOST
  1

  9
$DIMALT
 70
0
  9
$DIMALTD
 70
2
  9
$DIMALTF
 40
25.4
  9
$DIMLFAC
 40
1
  9
$DIMTOFL
 70
0
  9
$DIMTVP
 40
0
  9
$DIMTIX
 70
0
  9
$DIMSOXD
 70
0
  9
$DIMSAH
 70
0
  9
$DIMBLK1
  1

  9
$DIMBLK2
  1

  9
$DIMSTYLE
  2
*UNNAMED
  9
$DIMCLRD
 70
0
  9
$DIMCLRE
 70
0
  9
$DIMCLRT
 70
0
  9
$DIMTFAC
 40
1
  9
$DIMGAP
 40
0.09
  9
$LUNITS
 70
2
  9
$LUPREC
 70
4
  9
$AXISMODE
 70
0
  9
$AXISUNIT
 10
0
 20
0
  9
$SKETCHINC
 40
0.1
  9
$FILLETRAD
 40
2
  9
$AUNITS
 70
0
  9
$AUPREC
 70
0
  9
$MENU
  1
ACAD
  9
$ELEVATION
 40
0
  9
$THICKNESS
 40
0
  9
$VIEWDIR
 10
0
 20
0
 30
1
  9
$LIMCHECK
 70
0
  9
$BLIPMODE
 70
1
  9
$CHAMFERA
 40
0
  9
$CHAMFERB
 40
0
  9
$FASTZOOM
 70
1
  9
$SKPOLY
 70
0
  9
$ANGBASE
 50
0
  9
$ANGDIR
 70
0
  9
$PDMODE
 70
0
  9
$PDSIZE
 40
0
  9
$PLINEWID
 40
0
  9
$COORDS
 70
2
  0
ENDSEC
  0
SECTION
  2
TABLES
  0
TABLE
  2
DIMSTYLE
 70
6
  0
DIMSTYLE
  2
DMST_1
 70
0
  3
)
  4

  5

  6

  7

 40
1
 41
3.2
 42
1
 43
7
 44
1
 45
0
 46
0
 47
0
 48
0
140
3.2
141
0
142
0
143
25.4
144
1
145
0
146
1
147
0.09
 71
0
 72
0
 73
0
 74
0
 75
0
 76
0
 77
1
 78
9
170
0
171
2
172
0
173
0
174
0
175
0
176
2
177
2
178
2
  0
DIMSTYLE
  2
DMST_2
 70
0
  3

  4

  5

  6

  7

 40
1
 41
3.2
 42
1
 43
7
 44
1
 45
0
 46
0
 47
0
 48
0
140
3.2
141
0
142
0
143
25.4
144
1
145
0
146
1
147
0.09
 71
0
 72
0
 73
0
 74
0
 75
0
 76
0
 77
1
 78
9
170
0
171
2
172
0
173
0
174
0
175
0
176
2
177
2
178
2
  0
DIMSTYLE
  2
DMST_3
 70
0
  3

  4

  5

  6

  7

 40
1
 41
3.2
 42
1
 43
7
 44
1
 45
0
 46
0
 47
0
 48
0.02
140
3.2
141
0
142
0
143
25.4
144
1
145
0
146
0.6
147
0.09
 71
1
 72
0
 73
0
 74
0
 75
0
 76
0
 77
1
 78
9
170
0
171
2
172
0
173
0
174
0
175
0
176
2
177
2
178
2
  0
DIMSTYLE
  2
DMST_4
 70
0
  3

  4

  5

  6

  7

 40
1
 41
3.2
 42
1
 43
7
 44
1
 45
0
 46
0
 47
0
 48
0
140
3.2
141
0
142
0
143
25.4
144
1
145
0
146
1
147
0.09
 71
0
 72
0
 73
1
 74
1
 75
0
 76
0
 77
1
 78
9
170
0
171
2
172
0
173
0
174
0
175
0
176
2
177
2
178
2
  0
DIMSTYLE
  2
DMST_5
 70
0
  3

  4

  5

  6

  7

 40
1
 41
3.2
 42
1
 43
7
 44
1
 45
0
 46
0
 47
0.3
 48
0.3
140
3.2
141
0
142
0
143
25.4
144
1
145
0
146
0.6
147
0.09
 71
1
 72
0
 73
0
 74
0
 75
0
 76
0
 77
1
 78
9
170
0
171
2
172
0
173
0
174
0
175
0
176
2
177
2
178
2
  0
DIMSTYLE
  2
DMST_6
 70
0
  3

  4

  5

  6

  7

 40
1
 41
3.2
 42
1
 43
7
 44
1
 45
0
 46
0
 47
0.5
 48
0.5
140
3.2
141
0
142
0
143
25.4
144
1
145
0
146
0.6
147
0.09
 71
1
 72
0
 73
0
 74
0
 75
0
 76
0
 77
1
 78
9
170
0
171
2
172
0
173
0
174
0
175
0
176
2
177
2
178
2
  0
ENDTAB
  0
TABLE
  2
LTYPE
 70
9
  0
LTYPE
  2
CONTINUOUS
 70
64
  3
Solid line
 72
65
 73
0
 40
0
  0
LTYPE
  2
BORDER
 70
64
  3
__ __ . __ __ .
 72
65
 73
6
 40
17.91447368421053
 49
5.118421052631579
 49
-2.559210526315789
 49
5.118421052631579
 49
-2.559210526315789
 49
0
 49
-2.559210526315789
  0
LTYPE
  2
CENTER
 70
64
  3
____ _ ____ _
 72
65
 73
4
 40
20.47368421052632
 49
12.79605263157895
 49
-2.559210526315789
 49
2.559210526315789
 49
-2.559210526315789
  0
LTYPE
  2
DASHDOT
 70
64
  3
__ . __ . __ .
 72
65
 73
4
 40
10.23684210526316
 49
5.118421052631579
 49
-2.559210526315789
 49
0
 49
-2.559210526315789
  0
LTYPE
  2
DASHED
 70
64
  3
__ __ __ __ __
 72
65
 73
2
 40
7.677631578947368
 49
5.118421052631579
 49
-2.559210526315789
  0
LTYPE
  2
DIVIDE
 70
64
  3
__ . . __ . . 
 72
65
 73
6
 40
12.79605263157895
 49
5.118421052631579
 49
-2.559210526315789
 49
0
 49
-2.559210526315789
 49
0
 49
-2.559210526315789
  0
LTYPE
  2
DOT
 70
64
  3
..............
 72
65
 73
4
 40
5.118421052631579
 49
0
 49
-2.559210526315789
 49
0
 49
-2.559210526315789
  0
LTYPE
  2
HIDDEN
 70
64
  3
_ _ _ _ _ _ _
 72
65
 73
2
 40
3.838815789473684
 49
2.559210526315789
 49
-1.279605263157895
  0
LTYPE
  2
PHANTOM
 70
64
  3
_____ _ _ _____ _ _ 
 72
65
 73
6
 40
25.59210526315789
 49
12.79605263157895
 49
-2.559210526315789
 49
2.559210526315789
 49
-2.559210526315789
 49
2.559210526315789
 49
-2.559210526315789
  0
ENDTAB
  0
TABLE
  2
LAYER
 70
3
  0
LAYER
  2
1
 70
0
 62
7
  6
CONTINUOUS
  0
LAYER
  2
0
 70
0
 62
7
  6
CONTINUOUS
  0
ENDTAB
  0
TABLE
  2
STYLE
 70
4
  0
STYLE
  2
STANDARD
 70
0
 40
0
 41
1
 50
0
 71
0
 42
3.5
  3
txt
  4

  0
STYLE
  2
SIMPLEX
 70
0
 40
0
 41
1
 50
0
 71
0
 42
3.5
  3
simplex
  4

  0
STYLE
  2
COMPLEX
 70
0
 40
0
 41
1
 50
0
 71
0
 42
3.5
  3
complex
  4

  0
STYLE
  2
ITALIC
 70
0
 40
0
 41
1
 50
0
 71
0
 42
3.5
  3
italic
  4

  0
ENDTAB
  0
TABLE
  2
VIEW
 70
0
  0
ENDTAB
  0
ENDSEC
  0
SECTION
  2
BLOCKS
  0
BLOCK
  8
0
  2
TOP
 70
0
 10
-196.1221264909976
 20
-445.6883015227631
 30
0
  0
LINE
  8
1
 62
2
  6
DOT
 10
-39.49999999999997
 20
-79.59999999999999
 30
0
 11
-39.49999999999997
 21
-93.19999999999999
 31
0
  0
LINE
  8
1
 62
7
 10
-89.5
 20
-76
 30
0
 11
-89.5
 21
-93.19999999999999
 31
0
  0
LINE
  8
1
 62
7
 10
-19.49999999999994
 20
-76
 30
0
 11
-154.5
 21
-76
 31
0
  0
LINE
  8
1
 62
7
 10
-154.5
 20
-88.19999999999999
 30
0
 11
-19.49999999999997
 21
-88.19999999999999
 31
0
  0
LINE
  8
1
 62
7
 10
-154.5
 20
-93.19999999999999
 30
0
 11
-19.49999999999997
 21
-93.19999999999999
 31
0
  0
LINE
  8
1
 62
7
 10
-19.49999999999994
 20
-76
 30
0
 11
-19.49999999999997
 21
-93.19999999999999
 31
0
  0
LINE
  8
1
 62
7
 10
-124.5
 20
-76
 30
0
 11
-124.5
 21
-93.19999999999999
 31
0
  0
LINE
  8
1
 62
7
 10
-154.5
 20
-76
 30
0
 11
-154.5
 21
-93.19999999999999
 31
0
  0
LINE
  8
1
 62
4
  6
PHANTOM
 10
-194.5
 20
-146
 30
0
 11
-194.5
 21
-136
 31
0
  0
LINE
  8
1
 62
4
  6
PHANTOM
 10
-194.5
 20
-146
 30
0
 11
-184.5
 21
-146
 31
0
  0
LINE
  8
1
 62
7
 10
-124.5
 20
-79.59999999999999
 30
0
 11
-19.49999999999996
 21
-79.59999999999999
 31
0
  0
LINE
  8
1
 62
7
 10
-54.49999999999994
 20
-76
 30
0
 11
-54.49999999999994
 21
-93.19999999999999
 31
0
  0
LINE
  8
1
 62
2
  6
DOT
 10
-109.5
 20
-79.59999999999999
 30
0
 11
-109.5
 21
-93.19999999999999
 31
0
  0
LINE
  8
1
 62
7
 10
-154.5
 20
-83.19999999999999
 30
0
 11
-19.49999999999997
 21
-83.19999999999999
 31
0
  0
LINE
  8
1
 62
2
  6
DOT
 10
-74.49999999999997
 20
-79.59999999999999
 30
0
 11
-74.49999999999997
 21
-93.19999999999999
 31
0
  0
TEXT
  8
1
 62
2
 10
-43.35040000000017
 20
-79.06
 30
0
 40
2.520000000000007
  1
ＢＯＬＴ
 41
0.63
 72
1
 73
2
 11
-37.00000000000004
 21
-77.8
 31
0
  0
TEXT
  8
1
 62
7
 10
-58.25
 20
-91.94999999999999
 30
0
 40
2.5
  1
Ｍ５×６０
 41
0.9
 72
1
 73
2
 11
-47
 21
-90.69999999999999
 31
0
  0
TEXT
  8
1
 62
7
 10
-58.25
 20
-86.94999999999999
 30
0
 40
2.5
  1
Ｍ５×５０
 41
0.9
 72
1
 73
2
 11
-47
 21
-85.69999999999999
 31
0
  0
TEXT
  8
1
 62
2
 10
-51.7628000000001
 20
-82.66
 30
0
 40
2.520000000000007
  1
(ｍｍ)
 41
0.63
 72
1
 73
2
 11
-47
 21
-81.39999999999999
 31
0
  0
TEXT
  8
1
 62
2
 10
-37.43800000000016
 20
-82.66
 30
0
 40
2.520000000000007
  1
(ｉｎｃｈ)
 41
0.63
 72
1
 73
2
 11
-29.5
 21
-81.39999999999999
 31
0
  0
TEXT
  8
1
 62
7
 10
-43.90000000000001
 20
-91.94999999999999
 30
0
 40
2.5
  1
Ｍ５×２．３６２
 41
0.7200000000000001
 72
1
 73
2
 11
-29.50000000000001
 21
-90.69999999999999
 31
0
  0
TEXT
  8
1
 62
7
 10
-43.90000000000001
 20
-86.94999999999999
 30
0
 40
2.5
  1
Ｍ５×１．９６９
 41
0.7200000000000001
 72
1
 73
2
 11
-29.50000000000001
 21
-85.69999999999999
 31
0
  0
TEXT
  8
1
 62
2
 10
-74.38140000000004
 20
-79.06
 30
0
 40
2.520000000000007
  1
Ｌ2
 41
0.63
 72
1
 73
2
 11
-72
 21
-77.8
 31
0
  0
TEXT
  8
1
 62
7
 10
-86.5
 20
-91.94999999999999
 30
0
 40
2.5
  1
４２
 41
0.9
 72
1
 73
2
 11
-82
 21
-90.69999999999999
 31
0
  0
TEXT
  8
1
 62
7
 10
-86.5
 20
-86.94999999999999
 30
0
 40
2.5
  1
３２
 41
0.9
 72
1
 73
2
 11
-82
 21
-85.69999999999999
 31
0
  0
TEXT
  8
1
 62
7
 10
-128.25
 20
-91.94999999999999
 30
0
 40
2.5
  1
１００．１
 41
0.9
 72
1
 73
2
 11
-117
 21
-90.69999999999999
 31
0
  0
TEXT
  8
1
 62
7
 10
-126
 20
-86.94999999999999
 30
0
 40
2.5
  1
９０．１
 41
0.9
 72
1
 73
2
 11
-117
 21
-85.69999999999999
 31
0
  0
TEXT
  8
1
 62
2
 10
-109.3814
 20
-79.06
 30
0
 40
2.520000000000007
  1
Ｌ1
 41
0.63
 72
1
 73
2
 11
-107
 21
-77.8
 31
0
  0
TEXT
  8
1
 62
7
 10
-153.5
 20
-91.94999999999999
 30
0
 40
2.5
  1
１／２２５ ～ １／１８００
 41
0.7200000000000001
 73
2
 11
-153.5
 21
-90.69999999999999
 31
0
  0
TEXT
  8
1
 62
7
 10
-153.5
 20
-86.94999999999999
 30
0
 40
2.5
  1
１／３　　 ～ １／１８０
 41
0.7200000000000001
 73
2
 11
-153.5
 21
-85.69999999999999
 31
0
  0
TEXT
  8
1
 62
2
 10
-163.9944000000005
 20
-80.85999999999997
 30
0
 40
2.520000000000007
  1
ＤＥＣＯＬＥＲＡＴＩＯＮ　ＲＡＴＩＯ
 41
0.5399999999999999
 72
1
 73
2
 11
-139.5
 21
-79.59999999999997
 31
0
  0
TEXT
  8
1
 62
2
 10
-121.7628000000001
 20
-82.66
 30
0
 40
2.520000000000007
  1
(ｍｍ)
 41
0.63
 72
1
 73
2
 11
-117
 21
-81.39999999999999
 31
0
  0
TEXT
  8
1
 62
2
 10
-86.7628000000001
 20
-82.66
 30
0
 40
2.520000000000007
  1
(ｍｍ)
 41
0.63
 72
1
 73
2
 11
-82
 21
-81.39999999999999
 31
0
  0
TEXT
  8
1
 62
2
 10
-107.4380000000002
 20
-82.66
 30
0
 40
2.520000000000007
  1
(ｉｎｃｈ)
 41
0.63
 72
1
 73
2
 11
-99.5
 21
-81.39999999999999
 31
0
  0
TEXT
  8
1
 62
2
 10
-72.43800000000012
 20
-82.66
 30
0
 40
2.520000000000007
  1
(ｉｎｃｈ)
 41
0.63
 72
1
 73
2
 11
-64.49999999999996
 21
-81.39999999999999
 31
0
  0
TEXT
  8
1
 62
7
 10
-110.75
 20
-86.94999999999999
 30
0
 40
2.5
  1
３．５４７
 41
0.9
 72
1
 73
2
 11
-99.5
 21
-85.69999999999999
 31
0
  0
TEXT
  8
1
 62
7
 10
-110.75
 20
-91.94999999999999
 30
0
 40
2.5
  1
３．９４１
 41
0.9
 72
1
 73
2
 11
-99.5
 21
-90.69999999999999
 31
0
  0
TEXT
  8
1
 62
7
 10
-75.74999999999997
 20
-91.94999999999999
 30
0
 40
2.5
  1
１．６５４
 41
0.9
 72
1
 73
2
 11
-64.49999999999997
 21
-90.69999999999999
 31
0
  0
TEXT
  8
1
 62
7
 10
-73.49999999999997
 20
-86.94999999999999
 30
0
 40
2.5
  1
１．２６
 41
0.9
 72
1
 73
2
 11
-64.49999999999997
 21
-85.69999999999999
 31
0
  0
ENDBLK
  8
0
  0
BLOCK
  8
0
  2
DME34B36G-04
 70
0
 10
-1.393200981719019
 20
-303.0502600399581
 30
0
  0
INSERT
  8
0
  2
TOP
 10
-196.1221264909976
 20
-445.6883015227631
 30
0
  0
ENDBLK
  8
0
  0
BLOCK
  8
0
  2
DME34B36G
 70
0
 10
437.6912236417212
 20
475.007598067909
 30
0
  0
INSERT
  8
0
  2
DME34B36G-04
 10
-1.393200981719019
 20
-303.0502600399581
 30
0
  0
ENDBLK
  8
0
  0
BLOCK
  8
0
  2
DME34B8H
 70
0
 10
830.836246218818
 20
174.536560683823
 30
0
  0
INSERT
  8
0
  2
DME34B36G
 10
437.6912236417212
 20
475.007598067909
 30
0
  0
ENDBLK
  8
0
  0
BLOCK
  8
0
  2
___R___O_______R
 70
0
 10
0.5
 20
-3.75
 30
0
  0
LINE
  8
1
 62
4
  6
PHANTOM
 10
194.5
 20
-136.5
 30
0
 11
194.5
 21
-146
 31
0
  0
LINE
  8
1
 62
4
  6
PHANTOM
 10
-194.5
 20
-146
 30
0
 11
-194.5
 21
146
 31
0
  0
LINE
  8
1
 62
4
  6
PHANTOM
 10
194.5
 20
146
 30
0
 11
194.5
 21
129
 31
0
  0
LINE
  8
1
 62
4
  6
PHANTOM
 10
194.5
 20
146
 30
0
 11
-194.5
 21
146
 31
0
  0
LINE
  8
1
 62
4
  6
PHANTOM
 10
-194.5
 20
-146
 30
0
 11
194.5
 21
-146
 31
0
  0
TEXT
  8
1
 62
4
 10
178.746911898274
 20
-142.6071298819256
 30
0
 40
5
  1
A3
 41
0.9
 72
1
 73
2
 11
183.246911898274
 21
-140.1071298819256
 31
0
  0
ENDBLK
  8
0
  0
BLOCK
  8
1
  2
*D0
 70
1
 10
0
 20
0
 30
0
  0
LINE
  8
1
 62
2
 10
133.01213367191
 20
-79.18233801184221
 30
0
 11
133.01213367191
 21
-72.7823380118422
 31
0
  0
LINE
  8
1
 62
2
 10
133.01213367191
 20
-72.7823380118422
 30
0
 11
133.01213367191
 21
-69.7823380118422
 31
0
  0
LINE
  8
1
 62
2
 10
133.01213367191
 20
-69.7823380118422
 30
0
 11
133.01213367191
 21
-58.50993385985932
 31
0
  0
LINE
  8
1
 62
2
 10
116.596882135101
 20
-72.7823380118422
 30
0
 11
134.01213367191
 21
-72.7823380118422
 31
0
  0
LINE
  8
1
 62
2
 10
116.8943369725351
 20
-69.7823380118422
 30
0
 11
134.01213367191
 21
-69.7823380118422
 31
0
  0
SOLID
  8
1
 62
2
 10
133.01213367191
 20
-69.7823380118422
 30
0
 11
132.59613367191
 21
-66.5823380118422
 31
0
 12
133.42813367191
 22
-66.5823380118422
 32
0
 13
133.42813367191
 23
-66.5823380118422
 33
0
  0
SOLID
  8
1
 62
2
 10
133.01213367191
 20
-72.7823380118422
 30
0
 11
133.42813367191
 21
-75.9823380118422
 31
0
 12
132.59613367191
 22
-75.9823380118422
 32
0
 13
132.59613367191
 23
-75.9823380118422
 33
0
  0
TEXT
  8
1
 62
2
 10
132.01213367191
 20
-62.50993385985932
 30
0
 40
3.2
  1
3
 50
90
 41
0.9
  0
TEXT
  8
1
 62
2
 10
132.01213367191
 20
-64.58993385985933
 30
0
 40
3.2
  1
(
 50
90
 41
0.9
  0
TEXT
  8
1
 62
2
 10
132.01213367191
 20
-58.98993385985932
 30
0
 40
3.2
  1
)
 50
90
 41
0.9
  0
ENDBLK
  8
0
  0
BLOCK
  8
1
  2
*D1
 70
1
 10
0
 20
0
 30
0
  0
LINE
  8
1
 62
2
 10
145.010726840473
 20
-22
 30
0
 11
145.010726840473
 21
22
 31
0
  0
LINE
  8
1
 62
2
 10
119.4999999999999
 20
-22
 30
0
 11
146.010726840473
 21
-22
 31
0
  0
LINE
  8
1
 62
2
 10
119.5000000000014
 20
22
 30
0
 11
146.010726840473
 21
22
 31
0
  0
SOLID
  8
1
 62
2
 10
145.010726840473
 20
22
 30
0
 11
145.426726840473
 21
18.8
 31
0
 12
144.594726840473
 22
18.8
 32
0
 13
144.594726840473
 23
18.8
 33
0
  0
SOLID
  8
1
 62
2
 10
145.010726840473
 20
-22
 30
0
 11
144.594726840473
 21
-18.8
 31
0
 12
145.426726840473
 22
-18.8
 32
0
 13
145.426726840473
 23
-18.8
 33
0
  0
TEXT
  8
1
 62
2
 10
144.010726840473
 20
-0.577777777777778
 30
0
 40
3.2
  1
44
 50
90
 41
0.9
  0
TEXT
  8
1
 62
2
 10
144.010726840473
 20
-4.222222222222222
 30
0
 40
3.2
  1
φ
 50
90
 41
0.9
  0
ENDBLK
  8
0
  0
BLOCK
  8
1
  2
*D2
 70
1
 10
0
 20
0
 30
0
  0
LINE
  8
1
 62
2
 10
35
 20
73.9617379356731
 30
0
 11
125.1000000000004
 21
73.9617379356731
 31
0
  0
LINE
  8
1
 62
2
 10
35
 20
40.50000000000001
 30
0
 11
35
 21
74.9617379356731
 31
0
  0
LINE
  8
1
 62
2
 10
125.1000000000004
 20
11
 30
0
 11
125.1000000000004
 21
74.9617379356731
 31
0
  0
SOLID
  8
1
 62
2
 10
35
 20
73.9617379356731
 30
0
 11
38.2
 21
74.3777379356731
 31
0
 12
38.2
 22
73.5457379356731
 32
0
 13
38.2
 23
73.5457379356731
 33
0
  0
SOLID
  8
1
 62
2
 10
125.1000000000004
 20
73.9617379356731
 30
0
 11
121.9000000000004
 21
73.5457379356731
 31
0
 12
121.9000000000004
 22
74.3777379356731
 32
0
 13
121.9000000000004
 23
74.3777379356731
 33
0
  0
TEXT
  8
1
 62
2
 10
78.13000000000027
 20
74.9617379356731
 30
0
 40
3.2
  1
L1
 41
0.9
  0
ENDBLK
  8
0
  0
BLOCK
  8
1
  2
*D3
 70
1
 10
0
 20
0
 30
0
  0
LINE
  8
1
 62
2
 10
35
 20
62.033405063342
 30
0
 11
67
 21
62.033405063342
 31
0
  0
LINE
  8
1
 62
2
 10
35
 20
40.5
 30
0
 11
35
 21
63.033405063342
 31
0
  0
LINE
  8
1
 62
2
 10
67
 20
41
 30
0
 11
67
 21
63.033405063342
 31
0
  0
SOLID
  8
1
 62
2
 10
35
 20
62.033405063342
 30
0
 11
38.2
 21
62.44940506334199
 31
0
 12
38.2
 22
61.617405063342
 32
0
 13
38.2
 23
61.617405063342
 33
0
  0
SOLID
  8
1
 62
2
 10
67
 20
62.033405063342
 30
0
 11
63.8
 21
61.617405063342
 31
0
 12
63.8
 22
62.44940506334199
 32
0
 13
63.8
 23
62.44940506334199
 33
0
  0
TEXT
  8
1
 62
2
 10
48.6
 20
63.033405063342
 30
0
 40
3.2
  1
L2
 41
0.9
  0
ENDBLK
  8
0
  0
BLOCK
  8
1
  2
*D4
 70
1
 10
0
 20
0
 30
0
  0
LINE
  8
1
 62
2
 10
41.40000000000001
 20
62.033405063342
 30
0
 11
35
 21
62.033405063342
 31
0
  0
LINE
  8
1
 62
2
 10
30
 20
62.033405063342
 30
0
 11
35
 21
62.033405063342
 31
0
  0
LINE
  8
1
 62
2
 10
30
 20
62.033405063342
 30
0
 11
21.9829955978459
 21
62.033405063342
 31
0
  0
LINE
  8
1
 62
2
 10
30
 20
29.63000000000002
 30
0
 11
30
 21
63.033405063342
 31
0
  0
LINE
  8
1
 62
2
 10
35
 20
39.25
 30
0
 11
35
 21
63.033405063342
 31
0
  0
SOLID
  8
1
 62
2
 10
30
 20
62.033405063342
 30
0
 11
26.8
 21
61.61740506334201
 31
0
 12
26.8
 22
62.449405063342
 32
0
 13
26.8
 23
62.449405063342
 33
0
  0
SOLID
  8
1
 62
2
 10
35
 20
62.033405063342
 30
0
 11
38.2
 21
62.449405063342
 31
0
 12
38.2
 22
61.61740506334201
 32
0
 13
38.2
 23
61.61740506334201
 33
0
  0
TEXT
  8
1
 62
2
 10
21.9829955978459
 20
63.033405063342
 30
0
 40
3.2
  1
5
 41
0.9
  0
ENDBLK
  8
0
  0
BLOCK
  8
1
  2
*D5
 70
1
 10
0
 20
0
 30
0
  0
LINE
  8
1
 62
2
 10
-22.39127610145023
 20
4.599999999999998
 30
0
 11
-22.39127610145023
 21
11
 31
0
  0
LINE
  8
1
 62
2
 10
-22.39127610145023
 20
11
 30
0
 11
-22.39127610145023
 21
19
 31
0
  0
LINE
  8
1
 62
2
 10
-22.39127610145023
 20
19
 30
0
 11
-22.39127610145023
 21
37.78538319924472
 31
0
  0
LINE
  8
1
 62
2
 10
-1
 20
11
 30
0
 11
-23.39127610145023
 21
11
 31
0
  0
LINE
  8
1
 62
2
 10
16
 20
19
 30
0
 11
-23.39127610145023
 21
19
 31
0
  0
SOLID
  8
1
 62
2
 10
-22.39127610145023
 20
11
 30
0
 11
-21.97527610145023
 21
7.799999999999999
 31
0
 12
-22.80727610145023
 22
7.799999999999999
 32
0
 13
-22.80727610145023
 23
7.799999999999999
 33
0
  0
SOLID
  8
1
 62
2
 10
-22.39127610145023
 20
19
 30
0
 11
-22.80727610145023
 21
22.2
 31
0
 12
-21.97527610145023
 22
22.2
 32
0
 13
-21.97527610145023
 23
22.2
 33
0
  0
TEXT
  8
1
 62
2
 10
-24.19127610145023
 20
27.49738319924472
 30
0
 40
3.2
  1
8
 50
90
 41
0.9
  0
TEXT
  8
1
 62
2
 10
-26.27127610145023
 20
31.01738319924472
 30
0
 40
1.92
  1
 0
 50
90
 41
0.9
  0
TEXT
  8
1
 62
2
 10
-23.39127610145023
 20
31.01738319924472
 30
0
 40
1.92
  1
-0.02
 50
90
 41
0.9
  0
TEXT
  8
1
 62
2
 10
-24.19127610145023
 20
23.85293875480028
 30
0
 40
3.2
  1
φ
 50
90
 41
0.9
  0
TEXT
  8
1
 62
2
 10
-25.79127610145023
 20
30.8191609770225
 30
0
 40
3.2
  1

 50
90
 41
0.9
  0
ENDBLK
  8
0
  0
BLOCK
  8
1
  2
*D6
 70
1
 10
0
 20
0
 30
0
  0
LINE
  8
1
 62
2
 10
-117
 20
50.05773237904651
 30
0
 11
-83.00000000000003
 21
50.05773237904651
 31
0
  0
LINE
  8
1
 62
2
 10
-83.00000000000003
 20
16
 30
0
 11
-83.00000000000003
 21
51.05773237904651
 31
0
  0
LINE
  8
1
 62
2
 10
-117
 20
16
 30
0
 11
-117
 21
51.05773237904651
 31
0
  0
SOLID
  8
1
 62
2
 10
-117
 20
50.05773237904651
 30
0
 11
-113.8
 21
50.4737323790465
 31
0
 12
-113.8
 22
49.64173237904651
 32
0
 13
-113.8
 23
49.64173237904651
 33
0
  0
SOLID
  8
1
 62
2
 10
-83.00000000000003
 20
50.05773237904651
 30
0
 11
-86.20000000000003
 21
49.64173237904651
 31
0
 12
-86.20000000000003
 22
50.4737323790465
 32
0
 13
-86.20000000000003
 23
50.4737323790465
 33
0
  0
TEXT
  8
1
 62
2
 10
-100.5777777777778
 20
51.05773237904651
 30
0
 40
3.2
  1
34
 41
0.9
  0
TEXT
  8
1
 62
2
 10
-104.2222222222222
 20
51.05773237904651
 30
0
 40
3.2
  1
φ
 41
0.9
  0
ENDBLK
  8
0
  0
BLOCK
  8
1
  2
*D7
 70
1
 10
0
 20
0
 30
0
  0
LINE
  8
1
 62
2
 10
-10.43313521476973
 20
18
 30
0
 11
-10.43313521476973
 21
34.0463004105215
 31
0
  0
LINE
  8
1
 62
2
 10
-10.43313521476973
 20
11
 30
0
 11
-10.43313521476973
 21
18
 31
0
  0
LINE
  8
1
 62
2
 10
-10.43313521476973
 20
4.599999999999998
 30
0
 11
-10.43313521476973
 21
11
 31
0
  0
LINE
  8
1
 62
2
 10
-1
 20
18
 30
0
 11
-11.43313521476973
 21
18
 31
0
  0
LINE
  8
1
 62
2
 10
-1
 20
11
 30
0
 11
-11.43313521476973
 21
11
 31
0
  0
SOLID
  8
1
 62
2
 10
-10.43313521476973
 20
11
 30
0
 11
-10.01713521476973
 21
7.799999999999999
 31
0
 12
-10.84913521476973
 22
7.799999999999999
 32
0
 13
-10.84913521476973
 23
7.799999999999999
 33
0
  0
SOLID
  8
1
 62
2
 10
-10.43313521476973
 20
18
 30
0
 11
-10.84913521476973
 21
21.2
 31
0
 12
-10.01713521476973
 22
21.2
 32
0
 13
-10.01713521476973
 23
21.2
 33
0
  0
TEXT
  8
1
 62
2
 10
-11.43313521476973
 20
25.6783004105215
 30
0
 40
3.2
  1
7
 50
90
 41
0.9
  0
TEXT
  8
1
 62
2
 10
-12.07313521476973
 20
29.1983004105215
 30
0
 40
1.92
  1
%%p0.3
 50
90
 41
0.9
  0
ENDBLK
  8
0
  0
BLOCK
  8
1
  2
*D8
 70
1
 10
0
 20
0
 30
0
  0
LINE
  8
1
 62
2
 10
0
 20
73.97722490554651
 30
0
 11
35
 21
73.97722490554651
 31
0
  0
LINE
  8
1
 62
2
 10
0
 20
19
 30
0
 11
0
 21
74.97722490554651
 31
0
  0
LINE
  8
1
 62
2
 10
35
 20
40.5
 30
0
 11
35
 21
74.97722490554651
 31
0
  0
SOLID
  8
1
 62
2
 10
0
 20
73.97722490554651
 30
0
 11
3.200000000000001
 21
74.3932249055465
 31
0
 12
3.200000000000001
 22
73.56122490554651
 32
0
 13
3.200000000000001
 23
73.56122490554651
 33
0
  0
SOLID
  8
1
 62
2
 10
35
 20
73.97722490554651
 30
0
 11
31.8
 21
73.56122490554651
 31
0
 12
31.8
 22
74.3932249055465
 32
0
 13
31.8
 23
74.3932249055465
 33
0
  0
TEXT
  8
1
 62
2
 10
15.1
 20
74.97722490554651
 30
0
 40
3.2
  1
35
 41
0.9
  0
ENDBLK
  8
0
  0
BLOCK
  8
1
  2
*D9
 70
1
 10
0
 20
0
 30
0
  0
LINE
  8
1
 62
2
 10
3.552713678800501e-015
 20
62.0201267850426
 30
0
 11
14
 21
62.0201267850426
 31
0
  0
LINE
  8
1
 62
2
 10
3.552713678800501e-015
 20
19
 30
0
 11
3.552713678800501e-015
 21
63.0201267850426
 31
0
  0
LINE
  8
1
 62
2
 10
14
 20
19
 30
0
 11
14
 21
63.0201267850426
 31
0
  0
SOLID
  8
1
 62
2
 10
3.552713678800501e-015
 20
62.0201267850426
 30
0
 11
3.200000000000004
 21
62.4361267850426
 31
0
 12
3.200000000000004
 22
61.6041267850426
 32
0
 13
3.200000000000004
 23
61.6041267850426
 33
0
  0
SOLID
  8
1
 62
2
 10
14
 20
62.0201267850426
 30
0
 11
10.8
 21
61.6041267850426
 31
0
 12
10.8
 22
62.4361267850426
 32
0
 13
10.8
 23
62.4361267850426
 33
0
  0
TEXT
  8
1
 62
2
 10
5.080000000000002
 20
63.0201267850426
 30
0
 40
3.2
  1
14
 41
0.9
  0
ENDBLK
  8
0
  0
BLOCK
  8
1
  2
*D10
 70
1
 10
0
 20
0
 30
0
  0
LINE
  8
1
 62
2
 10
-140
 20
74.10918551895651
 30
0
 11
-60
 21
74.10918551895651
 31
0
  0
LINE
  8
1
 62
2
 10
-140
 20
34.35000000000022
 30
0
 11
-140
 21
75.10918551895651
 31
0
  0
LINE
  8
1
 62
2
 10
-60
 20
34.25
 30
0
 11
-60
 21
75.10918551895651
 31
0
  0
SOLID
  8
1
 62
2
 10
-140
 20
74.10918551895651
 30
0
 11
-136.8
 21
74.52518551895651
 31
0
 12
-136.8
 22
73.69318551895651
 32
0
 13
-136.8
 23
73.69318551895651
 33
0
  0
SOLID
  8
1
 62
2
 10
-60
 20
74.10918551895651
 30
0
 11
-63.2
 21
73.69318551895651
 31
0
 12
-63.2
 22
74.52518551895651
 32
0
 13
-63.2
 23
74.52518551895651
 33
0
  0
TEXT
  8
1
 62
2
 10
-100.3111111111111
 20
75.10918551895651
 30
0
 40
3.2
  1
80
 41
0.9
  0
TEXT
  8
1
 62
2
 10
-104.4888888888889
 20
75.10918551895651
 30
0
 40
3.2
  1
□
 41
0.9
  0
ENDBLK
  8
0
  0
BLOCK
  8
1
  2
*D11
 70
1
 10
0
 20
0
 30
0
  0
LINE
  8
1
 62
2
 10
-133.25
 20
62.14153071044151
 30
0
 11
-66.75008717648473
 21
62.14153071044151
 31
0
  0
LINE
  8
1
 62
2
 10
-133.25
 20
41
 30
0
 11
-133.25
 21
63.14153071044151
 31
0
  0
LINE
  8
1
 62
2
 10
-66.75008717648473
 20
41
 30
0
 11
-66.75008717648473
 21
63.14153071044151
 31
0
  0
SOLID
  8
1
 62
2
 10
-133.25
 20
62.14153071044151
 30
0
 11
-130.05
 21
62.55753071044151
 31
0
 12
-130.05
 22
61.72553071044151
 32
0
 13
-130.05
 23
61.72553071044151
 33
0
  0
SOLID
  8
1
 62
2
 10
-66.75008717648473
 20
62.14153071044151
 30
0
 11
-69.95008717648473
 21
61.72553071044151
 31
0
 12
-69.95008717648473
 22
62.55753071044151
 32
0
 13
-69.95008717648473
 23
62.55753071044151
 33
0
  0
TEXT
  8
1
 62
2
 10
-107.5840435882424
 20
63.14153071044151
 30
0
 40
3.2
  1
66.5
 41
0.9
  0
TEXT
  8
1
 62
2
 10
-97.2640435882424
 20
63.78153071044151
 30
0
 40
1.92
  1
%%p0.3
 41
0.9
  0
ENDBLK
  8
0
  0
BLOCK
  8
1
  2
*D12
 70
1
 10
0
 20
0
 30
0
  0
LINE
  8
1
 62
2
 10
-50.0752728711181
 20
0
 30
0
 11
-50.0752728711181
 21
15
 31
0
  0
LINE
  8
1
 62
2
 10
-50.0752728711181
 20
0
 30
0
 11
-50.0752728711181
 21
-14.67245957710446
 31
0
  0
LINE
  8
1
 62
2
 10
-59.14508717648471
 20
0
 30
0
 11
-49.0752728711181
 21
0
 31
0
  0
LINE
  8
1
 62
2
 10
-82.14508717648482
 20
15
 30
0
 11
-49.0752728711181
 21
15
 31
0
  0
SOLID
  8
1
 62
2
 10
-50.0752728711181
 20
15
 30
0
 11
-49.65927287111811
 21
11.8
 31
0
 12
-50.4912728711181
 22
11.8
 32
0
 13
-50.4912728711181
 23
11.8
 33
0
  0
SOLID
  8
1
 62
2
 10
-50.0752728711181
 20
0
 30
0
 11
-50.49127287111811
 21
3.200000000000001
 31
0
 12
-49.65927287111811
 22
3.200000000000001
 32
0
 13
-49.65927287111811
 23
3.200000000000001
 33
0
  0
TEXT
  8
1
 62
2
 10
-51.0752728711181
 20
-14.67245957710446
 30
0
 40
3.2
  1
15
 50
90
 41
0.9
  0
TEXT
  8
1
 62
2
 10
-51.7152728711181
 20
-9.232459577104461
 30
0
 40
1.92
  1
%%p0.5
 50
90
 41
0.9
  0
ENDBLK
  8
0
  0
BLOCK
  8
1
  2
*D13
 70
1
 10
0
 20
0
 30
0
  0
LINE
  8
1
 62
2
 10
-38.2103392172119
 20
-33.24999999999999
 30
0
 11
-38.2103392172119
 21
33.25000000000001
 31
0
  0
LINE
  8
1
 62
2
 10
-59
 20
-33.24999999999999
 30
0
 11
-37.2103392172119
 21
-33.24999999999999
 31
0
  0
LINE
  8
1
 62
2
 10
-59
 20
33.25000000000001
 30
0
 11
-37.2103392172119
 21
33.25000000000001
 31
0
  0
SOLID
  8
1
 62
2
 10
-38.2103392172119
 20
-33.24999999999999
 30
0
 11
-38.6263392172119
 21
-30.04999999999999
 31
0
 12
-37.7943392172119
 22
-30.04999999999999
 32
0
 13
-37.7943392172119
 23
-30.04999999999999
 33
0
  0
SOLID
  8
1
 62
2
 10
-38.2103392172119
 20
33.25000000000001
 30
0
 11
-37.7943392172119
 21
30.05000000000001
 31
0
 12
-38.62633921721189
 22
30.05000000000001
 32
0
 13
-38.62633921721189
 23
30.05000000000001
 33
0
  0
TEXT
  8
1
 62
2
 10
-39.2103392172119
 20
-7.583999999999985
 30
0
 40
3.2
  1
66.5
 50
90
 41
0.9
  0
TEXT
  8
1
 62
2
 10
-39.8503392172119
 20
2.736000000000015
 30
0
 40
1.92
  1
%%p0.3
 50
90
 41
0.9
  0
ENDBLK
  8
0
  0
BLOCK
  8
1
  2
*D14
 70
1
 10
0
 20
0
 30
0
  0
LINE
  8
1
 62
2
 10
145.009365118498
 20
-72.7823380118422
 30
0
 11
145.009365118498
 21
-42.7733870424753
 31
0
  0
LINE
  8
1
 62
2
 10
116.596882135101
 20
-72.7823380118422
 30
0
 11
146.009365118498
 21
-72.7823380118422
 31
0
  0
SOLID
  8
1
 62
2
 10
145.009365118498
 20
-72.7823380118422
 30
0
 11
144.593365118498
 21
-69.5823380118422
 31
0
 12
145.425365118498
 22
-69.5823380118422
 32
0
 13
145.425365118498
 23
-69.5823380118422
 33
0
  0
TEXT
  8
1
 62
2
 10
144.009365118498
 20
-55.3173870424753
 30
0
 40
3.2
  1
150
 50
90
 41
0.9
  0
TEXT
  8
1
 62
2
 10
143.369365118498
 20
-46.9973870424753
 30
0
 40
1.92
  1
%%p20
 50
90
 41
0.9
  0
ENDBLK
  8
0
  0
ENDSEC
  0
SECTION
  2
ENTITIES
  0
LINE
  8
1
 62
2
 10
31.11034870426496
 20
-59.34991020425775
 30
0
 11
99.46713648055506
 21
-59.34991020425775
 31
0
  0
LINE
  8
1
 62
7
 10
99.72002336582766
 20
13.54455245716452
 30
0
 11
99.72002336582766
 21
22
 31
0
  0
LINE
  8
1
 62
7
 10
79.72002336582766
 20
13.54455245716452
 30
0
 11
99.72002336582766
 21
13.54455245716452
 31
0
  0
LINE
  8
1
 62
7
 10
79.72002336582766
 20
22
 30
0
 11
79.72002336582766
 21
13.54455245716452
 31
0
  0
LINE
  8
1
 62
7
 10
39.87937719366079
 20
40.73955815186577
 30
0
 11
57.87937719366079
 21
40.73955815186577
 31
0
  0
LINE
  8
1
 62
7
 10
118.4999999999999
 20
22
 30
0
 11
71.5
 21
22
 31
0
  0
LINE
  8
1
 62
7
 10
71.5
 20
-22
 30
0
 11
118.4999999999999
 21
-22
 31
0
  0
LINE
  8
1
 62
7
 10
115.8943369725351
 20
-69.7823380118422
 30
0
 11
112.8943369725351
 21
-69.7823380118422
 31
0
  0
LINE
  8
1
 62
7
 10
112.8943369725351
 20
-69.7823380118422
 30
0
 11
115.8943369725351
 21
-69.7823380118422
 31
0
  0
LINE
  8
1
 62
7
 10
112.8943369725351
 20
-53.50414249122189
 30
0
 11
112.8943369725351
 21
-69.7823380118422
 31
0
  0
LINE
  8
1
 62
7
 10
114.3943369725351
 20
-53.50414249122189
 30
0
 11
114.3943369725351
 21
-69.7823380118422
 31
0
  0
LINE
  8
1
 62
7
 10
115.8943369725351
 20
-53.50414249122189
 30
0
 11
115.8943369725351
 21
-69.7823380118422
 31
0
  0
LINE
  8
1
 62
7
 10
114.0667996462209
 20
-72.7823380118422
 30
0
 11
114.0667996462209
 21
-69.7823380118422
 31
0
  0
LINE
  8
1
 62
7
 10
113.3017584017809
 20
-69.7823380118422
 30
0
 11
113.3017584017809
 21
-72.7823380118422
 31
0
  0
LINE
  8
1
 62
7
 10
115.596882135101
 20
-72.7823380118422
 30
0
 11
115.596882135101
 21
-69.7823380118422
 31
0
  0
LINE
  8
1
 62
7
 10
114.9103066593208
 20
-69.7823380118422
 30
0
 11
114.9103066593208
 21
-72.7823380118422
 31
0
  0
LINE
  8
1
 62
2
 10
144.9999999999999
 20
-27.10002334769979
 30
0
 11
144.9999999999999
 21
-46.40321556867804
 31
0
  0
LINE
  8
1
 62
3
 10
130.4283085596209
 20
0
 30
0
 11
23.67371598660717
 21
0
 31
0
  0
LINE
  8
1
 62
7
 10
-147.2141007294141
 20
-41.81279072162198
 30
0
 11
-139.7963324206465
 21
-34.89560986822244
 31
0
  0
LINE
  8
1
 62
7
 10
-146.1092633861127
 20
-42.99758371824504
 30
0
 11
-139.1577224732332
 21
-36.51516694508177
 31
0
  0
LINE
  8
1
 62
7
 10
-145.0044260428115
 20
-44.18237671486816
 30
0
 11
-138.2009798148795
 21
-37.83806046959455
 31
0
  0
LINE
  8
1
 62
7
 10
67
 20
-40
 30
0
 11
67
 21
40
 31
0
  0
LINE
  8
1
 62
7
 10
124.6000000000004
 20
-10.5
 30
0
 11
122.9999999999999
 21
-10.5
 31
0
  0
LINE
  8
1
 62
7
 10
119.8636038969317
 20
-12.66366416655808
 30
0
 11
119.7221825406951
 21
-12.52224281032011
 31
0
  0
LINE
  8
1
 62
7
 10
120.1464466094069
 20
-12.45153213220112
 30
0
 11
119.934314575051
 21
-12.66366416655808
 31
0
  0
LINE
  8
1
 62
7
 10
121.0656854249474
 20
-12.66366416655808
 30
0
 11
120.8535533905934
 21
-12.45153213220112
 31
0
  0
LINE
  8
1
 62
7
 10
121.2778174593052
 20
-12.52224281032011
 30
0
 11
121.1363961030684
 21
-12.66366416655808
 31
0
  0
LINE
  8
1
 62
7
 10
121.0656854249474
 20
-12.23940009784491
 30
0
 11
121.2778174593052
 21
-12.45153213220112
 31
0
  0
LINE
  8
1
 62
7
 10
121.2778174593052
 20
-11.32016128230418
 30
0
 11
121.0656854249474
 21
-11.53229331665909
 31
0
  0
LINE
  8
1
 62
7
 10
121.1363961030684
 20
-11.10802924794814
 30
0
 11
121.2778174593052
 21
-11.24945060418378
 31
0
  0
LINE
  8
1
 62
7
 10
120.8535533905934
 20
-11.32016128230418
 30
0
 11
121.0656854249474
 21
-11.10802924794814
 31
0
  0
LINE
  8
1
 62
7
 10
119.934314575051
 20
-11.10802924794814
 30
0
 11
120.1464466094069
 21
-11.32016128230418
 31
0
  0
LINE
  8
1
 62
7
 10
119.7221825406935
 20
-11.24945060418378
 30
0
 11
119.8636038969317
 21
-11.10802924794814
 31
0
  0
LINE
  8
1
 62
7
 10
119.934314575051
 20
-11.53229331665909
 30
0
 11
119.7221825406935
 21
-11.32016128230418
 31
0
  0
LINE
  8
1
 62
7
 10
119.7221825406935
 20
-12.45153213220112
 30
0
 11
119.934314575051
 21
-12.23940009784491
 31
0
  0
LINE
  8
1
 62
7
 10
111.4999999999999
 20
22
 30
0
 11
111.4999999999999
 21
-22
 31
0
  0
LINE
  8
1
 62
7
 10
118.4999999999999
 20
-5.423402264367894
 30
0
 11
118.4999999999999
 21
22
 31
0
  0
LINE
  8
1
 62
7
 10
118.5000000000014
 20
22
 30
0
 11
118.4999999999999
 21
22
 31
0
  0
LINE
  8
1
 62
7
 10
118.4999999999999
 20
21
 30
0
 11
120.9999999999991
 21
21
 31
0
  0
LINE
  8
1
 62
7
 10
118.4999999999999
 20
-22
 30
0
 11
118.4999999999999
 21
-18.73726491636808
 31
0
  0
LINE
  8
1
 62
3
 10
120.4999999999999
 20
-9.373806877512999
 30
0
 11
120.4999999999999
 21
-14.373806877513
 31
0
  0
LINE
  8
1
 62
3
 10
118.0000362397033
 20
-11.88584670725311
 30
0
 11
122.9999999999998
 21
-11.88584670725311
 31
0
  0
LINE
  8
1
 62
7
 10
122.9999999999991
 20
19
 30
0
 11
122.9999999999999
 21
-19
 31
0
  0
LINE
  8
1
 62
7
 10
122.9999999999999
 20
-19.00020593517104
 30
0
 11
122.9999999999999
 21
-19
 31
0
  0
LINE
  8
1
 62
7
 10
118.4999999999999
 20
-21
 30
0
 11
120.9999999999999
 21
-21
 31
0
  0
LINE
  8
1
 62
7
 10
118.4999999999999
 20
-18.73726491636808
 30
0
 11
121.4357753639379
 21
-18.73726491636808
 31
0
  0
LINE
  8
1
 62
7
 10
111.4999999999999
 20
-17.51713668286698
 30
0
 11
122.9999999999999
 21
-17.51713668286698
 31
0
  0
LINE
  8
1
 62
7
 10
111.4999999999999
 20
-19.00020593517104
 30
0
 11
118.4999999999999
 21
-19.00020593517104
 31
0
  0
LINE
  8
1
 62
7
 10
118.4999999999999
 20
-5.190748865207183
 30
0
 11
121.8056131734831
 21
-5.190748865207183
 31
0
  0
LINE
  8
1
 62
7
 10
111.4999999999999
 20
-5.423402264367894
 30
0
 11
118.4999999999999
 21
-5.423402264367894
 31
0
  0
LINE
  8
1
 62
7
 10
122.9999999999999
 20
10.5
 30
0
 11
124.6000000000004
 21
10.5
 31
0
  0
LINE
  8
1
 62
7
 10
125.1000000000004
 20
10
 30
0
 11
125.1000000000004
 21
-10
 31
0
  0
LINE
  8
1
 62
7
 10
115.8943369725351
 20
-22
 30
0
 11
115.8943369725351
 21
-49.1521953523299
 31
0
  0
LINE
  8
1
 62
7
 10
112.8943369725351
 20
-49.1521953523299
 30
0
 11
112.8943369725351
 21
-22
 31
0
  0
LINE
  8
1
 62
7
 10
114.3943369725351
 20
-49.1521953523299
 30
0
 11
114.3943369725351
 21
-22
 31
0
  0
LINE
  8
1
 62
3
 10
108.6000000000004
 20
-23.87634983292821
 30
0
 11
108.6000000000004
 21
-21.5251315280579
 31
0
  0
LINE
  8
1
 62
7
 10
110.1000000000004
 20
20.89668601058099
 30
0
 11
110.1000000000004
 21
22
 31
0
  0
LINE
  8
1
 62
7
 10
107.1000000000004
 20
22
 30
0
 11
107.1000000000004
 21
20.89668601058099
 31
0
  0
LINE
  8
1
 62
7
 10
111.5499999999984
 20
22.2509802037651
 30
0
 11
111.5499999999984
 21
22
 31
0
  0
LINE
  8
1
 62
7
 10
105.6499999999997
 20
22.2509802037651
 30
0
 11
105.6499999999997
 21
22
 31
0
  0
LINE
  8
1
 62
3
 10
108.6000000000004
 20
24.16117345456985
 30
0
 11
108.6000000000004
 21
19.06946085579091
 31
0
  0
LINE
  8
1
 62
7
 10
-129.2499128235153
 20
30.94059892324151
 30
0
 11
-129.2499128235153
 21
35.55940107675852
 31
0
  0
LINE
  8
1
 62
7
 10
-137.2499128235153
 20
35.55940107675852
 30
0
 11
-137.2499128235153
 21
30.94059892324151
 31
0
  0
LINE
  8
1
 62
7
 10
-133.2499128235153
 20
37.86880215351701
 30
0
 11
-137.2499128235153
 21
35.55940107675852
 31
0
  0
LINE
  8
1
 62
7
 10
-129.2499128235153
 20
35.55940107675852
 30
0
 11
-133.2499128235153
 21
37.86880215351701
 31
0
  0
LINE
  8
1
 62
7
 10
-133.2499128235153
 20
28.63119784648302
 30
0
 11
-129.2499128235153
 21
30.94059892324151
 31
0
  0
LINE
  8
1
 62
7
 10
-137.2499128235153
 20
30.94059892324151
 30
0
 11
-133.2499128235153
 21
28.63119784648302
 31
0
  0
LINE
  8
1
 62
3
 10
-142
 20
-33.24999999999997
 30
0
 11
-124.5007407813894
 21
-33.24999999999994
 31
0
  0
LINE
  8
1
 62
7
 10
-129.25
 20
-35.55940107675846
 30
0
 11
-129.25
 21
-30.94059892324148
 31
0
  0
LINE
  8
1
 62
7
 10
-137.25
 20
-30.94059892324148
 30
0
 11
-137.25
 21
-35.55940107675846
 31
0
  0
LINE
  8
1
 62
7
 10
-133.25
 20
-28.63119784648299
 30
0
 11
-137.25
 21
-30.94059892324148
 31
0
  0
LINE
  8
1
 62
3
 10
-133.25
 20
-24.60155758711685
 30
0
 11
-133.25
 21
-42.09999999999999
 31
0
  0
LINE
  8
1
 62
7
 10
-129.25
 20
-30.94059892324148
 30
0
 11
-133.25
 21
-28.63119784648299
 31
0
  0
LINE
  8
1
 62
7
 10
-133.25
 20
-37.86880215351701
 30
0
 11
-129.25
 21
-35.55940107675846
 31
0
  0
LINE
  8
1
 62
7
 10
-137.25
 20
-35.55940107675846
 30
0
 11
-133.25
 21
-37.86880215351701
 31
0
  0
LINE
  8
1
 62
7
 10
-70.75
 20
-30.94059892324148
 30
0
 11
-70.75
 21
-35.55940107675846
 31
0
  0
LINE
  8
1
 62
7
 10
-66.75
 20
-28.63119784648299
 30
0
 11
-70.75
 21
-30.94059892324148
 31
0
  0
LINE
  8
1
 62
7
 10
-62.75
 20
-30.94059892324148
 30
0
 11
-66.75
 21
-28.63119784648299
 31
0
  0
LINE
  8
1
 62
7
 10
-62.75
 20
-35.55940107675846
 30
0
 11
-62.75
 21
-30.94059892324148
 31
0
  0
LINE
  8
1
 62
7
 10
-66.75
 20
-37.86880215351701
 30
0
 11
-62.75
 21
-35.55940107675846
 31
0
  0
LINE
  8
1
 62
7
 10
-70.75
 20
-35.55940107675846
 30
0
 11
-66.75
 21
-37.86880215351701
 31
0
  0
LINE
  8
1
 62
7
 10
-70.75
 20
35.55940107675855
 30
0
 11
-70.75
 21
30.94059892324154
 31
0
  0
LINE
  8
1
 62
7
 10
-66.75
 20
37.86880215351704
 30
0
 11
-70.75
 21
35.55940107675855
 31
0
  0
LINE
  8
1
 62
7
 10
-62.75
 20
35.55940107675852
 30
0
 11
-66.75
 21
37.86880215351704
 31
0
  0
LINE
  8
1
 62
7
 10
-62.75
 20
30.94059892324154
 30
0
 11
-62.75
 21
35.55940107675852
 31
0
  0
LINE
  8
1
 62
7
 10
-66.75
 20
28.63119784648305
 30
0
 11
-62.75
 21
30.94059892324154
 31
0
  0
LINE
  8
1
 62
7
 10
-70.75
 20
30.94059892324154
 30
0
 11
-66.75
 21
28.63119784648305
 31
0
  0
LINE
  8
1
 62
3
 10
-124.5007407813894
 20
33.25
 30
0
 11
-142
 21
33.24999999999991
 31
0
  0
LINE
  8
1
 62
3
 10
-105
 20
-31.99999999999997
 30
0
 11
-95
 21
-31.99999999999997
 31
0
  0
LINE
  8
1
 62
3
 10
-132.5
 20
16
 30
0
 11
-122.49111044015
 21
16
 31
0
  0
LINE
  8
1
 62
3
 10
-127.5
 20
21
 30
0
 11
-127.5
 21
11
 31
0
  0
LINE
  8
1
 62
3
 10
-77.5
 20
16
 30
0
 11
-67.5
 21
16
 31
0
  0
LINE
  8
1
 62
3
 10
-72.5
 20
21
 30
0
 11
-72.5
 21
11
 31
0
  0
LINE
  8
1
 62
7
 10
67.5
 20
-20.75
 30
0
 11
68
 21
-20.75
 31
0
  0
LINE
  8
1
 62
7
 10
67.5
 20
20.75
 30
0
 11
68
 21
20.75
 31
0
  0
LINE
  8
1
 62
7
 10
68.5
 20
20.25
 30
0
 11
68.5
 21
-20.25
 31
0
  0
LINE
  8
1
 62
7
 10
-129.7
 20
16.40000000000003
 30
0
 11
-129.1
 21
16.40000000000003
 31
0
  0
LINE
  8
1
 62
7
 10
-127.9
 20
17.59999999999991
 30
0
 11
-127.9
 21
18.20000000000005
 31
0
  0
LINE
  8
1
 62
7
 10
-127.8
 20
18.30000000000001
 30
0
 11
-127.2
 21
18.30000000000001
 31
0
  0
LINE
  8
1
 62
7
 10
-127.1
 20
18.20000000000005
 30
0
 11
-127.1
 21
17.59999999999991
 31
0
  0
LINE
  8
1
 62
7
 10
-125.9
 20
16.40000000000003
 30
0
 11
-125.3
 21
16.40000000000003
 31
0
  0
LINE
  8
1
 62
7
 10
-125.2
 20
16.2999999999999
 30
0
 11
-125.2
 21
15.70000000000005
 31
0
  0
LINE
  8
1
 62
7
 10
-125.9
 20
15.60000000000002
 30
0
 11
-125.3
 21
15.60000000000002
 31
0
  0
LINE
  8
1
 62
7
 10
-127.1
 20
14.40000000000003
 30
0
 11
-127.1
 21
13.80000000000001
 31
0
  0
LINE
  8
1
 62
7
 10
-127.2
 20
13.70000000000005
 30
0
 11
-127.8
 21
13.70000000000005
 31
0
  0
LINE
  8
1
 62
7
 10
-127.9
 20
13.80000000000001
 30
0
 11
-127.9
 21
14.40000000000003
 31
0
  0
LINE
  8
1
 62
7
 10
-129.1
 20
15.60000000000002
 30
0
 11
-129.7
 21
15.60000000000002
 31
0
  0
LINE
  8
1
 62
7
 10
-129.8
 20
15.70000000000005
 30
0
 11
-129.8
 21
16.2999999999999
 31
0
  0
LINE
  8
1
 62
7
 10
-74.70000000000002
 20
16.40000000000003
 30
0
 11
-74.10000000000002
 21
16.40000000000003
 31
0
  0
LINE
  8
1
 62
7
 10
-72.90000000000001
 20
17.59999999999991
 30
0
 11
-72.90000000000001
 21
18.20000000000005
 31
0
  0
LINE
  8
1
 62
7
 10
-72.80000000000001
 20
18.30000000000001
 30
0
 11
-72.20000000000002
 21
18.30000000000001
 31
0
  0
LINE
  8
1
 62
7
 10
-72.10000000000002
 20
18.20000000000005
 30
0
 11
-72.10000000000002
 21
17.59999999999991
 31
0
  0
LINE
  8
1
 62
7
 10
-70.90000000000001
 20
16.40000000000003
 30
0
 11
-70.30000000000001
 21
16.40000000000003
 31
0
  0
LINE
  8
1
 62
7
 10
-70.20000000000002
 20
16.2999999999999
 30
0
 11
-70.20000000000002
 21
15.70000000000005
 31
0
  0
LINE
  8
1
 62
7
 10
-70.90000000000001
 20
15.60000000000002
 30
0
 11
-70.30000000000001
 21
15.60000000000002
 31
0
  0
LINE
  8
1
 62
7
 10
-72.10000000000002
 20
14.40000000000003
 30
0
 11
-72.10000000000002
 21
13.80000000000001
 31
0
  0
LINE
  8
1
 62
7
 10
-72.20000000000002
 20
13.70000000000005
 30
0
 11
-72.80000000000001
 21
13.70000000000005
 31
0
  0
LINE
  8
1
 62
7
 10
-72.90000000000001
 20
13.80000000000001
 30
0
 11
-72.90000000000001
 21
14.40000000000003
 31
0
  0
LINE
  8
1
 62
7
 10
-74.10000000000002
 20
15.60000000000002
 30
0
 11
-74.70000000000002
 21
15.60000000000002
 31
0
  0
LINE
  8
1
 62
7
 10
-74.80000000000001
 20
15.70000000000005
 30
0
 11
-74.80000000000001
 21
16.2999999999999
 31
0
  0
LINE
  8
1
 62
7
 10
-102.2
 20
-31.59999999999997
 30
0
 11
-101.6
 21
-31.59999999999997
 31
0
  0
LINE
  8
1
 62
7
 10
-100.4
 20
-30.40000000000009
 30
0
 11
-100.4
 21
-29.79999999999995
 31
0
  0
LINE
  8
1
 62
7
 10
-100.3
 20
-29.69999999999999
 30
0
 11
-99.7
 21
-29.69999999999999
 31
0
  0
LINE
  8
1
 62
7
 10
-99.59999999999999
 20
-29.79999999999995
 30
0
 11
-99.59999999999999
 21
-30.40000000000009
 31
0
  0
LINE
  8
1
 62
7
 10
-98.40000000000001
 20
-31.59999999999997
 30
0
 11
-97.8
 21
-31.59999999999997
 31
0
  0
LINE
  8
1
 62
7
 10
-97.7
 20
-31.7000000000001
 30
0
 11
-97.7
 21
-32.29999999999995
 31
0
  0
LINE
  8
1
 62
7
 10
-98.40000000000001
 20
-32.39999999999998
 30
0
 11
-97.8
 21
-32.39999999999998
 31
0
  0
LINE
  8
1
 62
7
 10
-99.59999999999999
 20
-33.59999999999997
 30
0
 11
-99.59999999999999
 21
-34.19999999999999
 31
0
  0
LINE
  8
1
 62
7
 10
-99.7
 20
-34.29999999999995
 30
0
 11
-100.3
 21
-34.29999999999995
 31
0
  0
LINE
  8
1
 62
7
 10
-100.4
 20
-34.19999999999999
 30
0
 11
-100.4
 21
-33.59999999999997
 31
0
  0
LINE
  8
1
 62
7
 10
-101.6
 20
-32.39999999999998
 30
0
 11
-102.2
 21
-32.39999999999998
 31
0
  0
LINE
  8
1
 62
7
 10
-102.3
 20
-32.29999999999995
 30
0
 11
-102.3
 21
-31.7000000000001
 31
0
  0
LINE
  8
1
 62
7
 10
35.5
 20
-32.04999999999998
 30
0
 11
35.5
 21
32.05000000000001
 31
0
  0
LINE
  8
1
 62
7
 10
-133.25
 20
40
 30
0
 11
-66.75008717648473
 21
40
 31
0
  0
LINE
  8
1
 62
7
 10
68.33360848093673
 20
-37.7044140511986
 30
0
 11
67.1087155742747
 21
-37.74999999999997
 31
0
  0
LINE
  8
1
 62
7
 10
68.33360848093673
 20
-28.77368243524998
 30
0
 11
67.1087155742747
 21
-28.72809648644861
 31
0
  0
LINE
  8
1
 62
7
 10
68.33360848093679
 20
28.79558594880137
 30
0
 11
67.1087155742747
 21
28.75
 31
0
  0
LINE
  8
1
 62
7
 10
68.33360848093679
 20
37.72631756474999
 30
0
 11
67.1087155742747
 21
37.77190351355142
 31
0
  0
LINE
  8
1
 62
2
 10
16.99999999999977
 20
-31.24999999999997
 30
0
 11
29.29999999999995
 21
-31.24999999999997
 31
0
  0
LINE
  8
1
 62
7
 10
17.49999999999977
 20
-30.74999999999997
 30
0
 11
16.99999999999977
 21
-31.24999999999997
 31
0
  0
LINE
  8
1
 62
7
 10
17.49999999999977
 20
-30.74999999999997
 30
0
 11
17.49999999999977
 21
-35.74999999999997
 31
0
  0
LINE
  8
1
 62
7
 10
17.49999999999977
 20
-30.74999999999997
 30
0
 11
29.29999999999995
 21
-30.74999999999997
 31
0
  0
LINE
  8
1
 62
7
 10
17.49999999999977
 20
-35.74999999999997
 30
0
 11
16.99999999999977
 21
-35.24999999999997
 31
0
  0
LINE
  8
1
 62
7
 10
16.99999999999977
 20
-31.24999999999997
 30
0
 11
16.99999999999977
 21
-35.24999999999997
 31
0
  0
LINE
  8
1
 62
2
 10
16.99999999999977
 20
-35.24999999999997
 30
0
 11
29.29999999999995
 21
-35.24999999999997
 31
0
  0
LINE
  8
1
 62
7
 10
17.49999999999977
 20
-35.74999999999997
 30
0
 11
29.29999999999995
 21
-35.74999999999997
 31
0
  0
LINE
  8
1
 62
2
 10
16.99999999999977
 20
35.25
 30
0
 11
29.29999999999995
 21
35.25
 31
0
  0
LINE
  8
1
 62
7
 10
17.49999999999977
 20
35.75
 30
0
 11
16.99999999999977
 21
35.25
 31
0
  0
LINE
  8
1
 62
7
 10
17.49999999999977
 20
35.75
 30
0
 11
17.49999999999977
 21
30.75
 31
0
  0
LINE
  8
1
 62
7
 10
17.49999999999977
 20
35.75
 30
0
 11
29.29999999999995
 21
35.75
 31
0
  0
LINE
  8
1
 62
7
 10
17.49999999999977
 20
30.75
 30
0
 11
16.99999999999977
 21
31.25
 31
0
  0
LINE
  8
1
 62
7
 10
16.99999999999977
 20
35.25
 30
0
 11
16.99999999999977
 21
31.25
 31
0
  0
LINE
  8
1
 62
2
 10
16.99999999999977
 20
31.25
 30
0
 11
29.29999999999995
 21
31.25
 31
0
  0
LINE
  8
1
 62
7
 10
17.49999999999977
 20
30.75
 30
0
 11
29.29999999999995
 21
30.75
 31
0
  0
LINE
  8
1
 62
7
 10
33.6965764095188
 20
30.94000000000003
 30
0
 11
29.60342359048093
 21
30.94000000000003
 31
0
  0
LINE
  8
1
 62
7
 10
33.6965764095188
 20
35.56
 30
0
 11
29.60342359048093
 21
35.56
 31
0
  0
LINE
  8
1
 62
7
 10
33.6965764095188
 20
37.87
 30
0
 11
29.60342359048093
 21
37.87
 31
0
  0
LINE
  8
1
 62
7
 10
33.6965764095188
 20
28.63000000000002
 30
0
 11
29.60342359048093
 21
28.63000000000002
 31
0
  0
LINE
  8
1
 62
7
 10
29.29999999999995
 20
36.715
 30
0
 11
29.29999999999995
 21
29.78500000000003
 31
0
  0
LINE
  8
1
 62
7
 10
34
 20
28.25
 30
0
 11
35
 21
28.25
 31
0
  0
LINE
  8
1
 62
7
 10
34
 20
38.25
 30
0
 11
34
 21
28.25
 31
0
  0
LINE
  8
1
 62
7
 10
35
 20
38.25
 30
0
 11
34
 21
38.25
 31
0
  0
LINE
  8
1
 62
7
 10
35
 20
39.5
 30
0
 11
35
 21
27
 31
0
  0
LINE
  8
1
 62
7
 10
33.6965764095188
 20
-35.55999999999997
 30
0
 11
29.60342359048093
 21
-35.55999999999997
 31
0
  0
LINE
  8
1
 62
7
 10
33.6965764095188
 20
-30.93999999999997
 30
0
 11
29.60342359048093
 21
-30.93999999999997
 31
0
  0
LINE
  8
1
 62
7
 10
33.6965764095188
 20
-28.62999999999997
 30
0
 11
29.60342359048093
 21
-28.62999999999997
 31
0
  0
LINE
  8
1
 62
7
 10
33.6965764095188
 20
-37.86999999999998
 30
0
 11
29.60342359048093
 21
-37.86999999999998
 31
0
  0
LINE
  8
1
 62
7
 10
29.29999999999995
 20
-29.785
 30
0
 11
29.29999999999995
 21
-36.715
 31
0
  0
LINE
  8
1
 62
7
 10
34
 20
-38.24999999999997
 30
0
 11
35
 21
-38.24999999999997
 31
0
  0
LINE
  8
1
 62
7
 10
34
 20
-28.24999999999997
 30
0
 11
34
 21
-38.24999999999997
 31
0
  0
LINE
  8
1
 62
7
 10
35
 20
-28.24999999999997
 30
0
 11
34
 21
-28.24999999999997
 31
0
  0
LINE
  8
1
 62
7
 10
35
 20
-26.99999999999997
 30
0
 11
35
 21
-39.5
 31
0
  0
LINE
  8
1
 62
7
 10
3.552713678800501e-015
 20
18
 30
0
 11
14
 21
18
 31
0
  0
LINE
  8
1
 62
7
 10
30
 20
-2
 30
0
 11
30
 21
28.63000000000002
 31
0
  0
LINE
  8
1
 62
3
 10
-5.865921321095009
 20
15
 30
0
 11
42.13921302499102
 21
15
 31
0
  0
LINE
  8
1
 62
7
 10
67
 20
-40
 30
0
 11
35.5
 21
-40
 31
0
  0
LINE
  8
1
 62
7
 10
67
 20
40
 30
0
 11
35.5
 21
40
 31
0
  0
LINE
  8
1
 62
7
 10
3.552713678800501e-015
 20
11
 30
0
 11
30
 21
11
 31
0
  0
LINE
  8
1
 62
3
 10
-133.25
 20
42.0557763023054
 30
0
 11
-133.25
 21
40
 31
0
  0
LINE
  8
1
 62
3
 10
-75.6443463950953
 20
33.25
 30
0
 11
-60
 21
33.25
 31
0
  0
LINE
  8
1
 62
3
 10
-75.6443463950953
 20
-33.24999999999997
 30
0
 11
-60
 21
-33.25
 31
0
  0
LINE
  8
1
 62
7
 10
-66.75008717648473
 20
-40
 30
0
 11
-133.25
 21
-40
 31
0
  0
LINE
  8
1
 62
3
 10
-100
 20
44.10000000000002
 30
0
 11
-100
 21
-44.10000000000011
 31
0
  0
LINE
  8
1
 62
3
 10
-66.75008717648473
 20
42.1125721442669
 30
0
 11
-66.75008717648473
 21
40
 31
0
  0
LINE
  8
1
 62
3
 10
-66.75008717648473
 20
-24.60155758711685
 30
0
 11
-66.75008717648473
 21
-42.09999999999999
 31
0
  0
LINE
  8
1
 62
3
 10
-58
 20
33.25
 30
0
 11
-60
 21
33.25
 31
0
  0
LINE
  8
1
 62
7
 10
-60
 20
33.25
 30
0
 11
-60
 21
-33.25
 31
0
  0
LINE
  8
1
 62
7
 10
-140
 20
-33.25
 30
0
 11
-140
 21
33.35000000000022
 31
0
  0
LINE
  8
1
 62
3
 10
-56.14508717648471
 20
0
 30
0
 11
-60.14508717648471
 21
0
 31
0
  0
LINE
  8
1
 62
7
 10
3.552713678800501e-015
 20
11
 30
0
 11
3.552713678800501e-015
 21
18
 31
0
  0
LINE
  8
1
 62
7
 10
30
 20
-2
 30
0
 11
35.5
 21
-2
 31
0
  0
LINE
  8
1
 62
3
 10
16.33714175124783
 20
33.25
 30
0
 11
73.64127457559675
 21
33.25
 31
0
  0
LINE
  8
1
 62
3
 10
16.09470163550679
 20
-33.24999999999997
 30
0
 11
73.64127457559675
 21
-33.24999999999997
 31
0
  0
LINE
  8
1
 62
7
 10
30
 20
19
 30
0
 11
17
 21
19
 31
0
  0
LINE
  8
1
 62
3
 10
-80.52164200393406
 20
15
 30
0
 11
-83.14508717648482
 21
15
 31
0
  0
LINE
  8
1
 62
7
 10
65
 20
40
 30
0
 11
65
 21
-40
 31
0
  0
LINE
  8
1
 62
7
 10
-102.6457513110646
 20
18
 30
0
 11
-97.3542486889354
 21
18
 31
0
  0
LINE
  8
1
 62
3
 10
-83.14508717648482
 20
15
 30
0
 11
-120.1450871764848
 21
15
 31
0
  0
LINE
  8
1
 62
3
 10
-60.14508717648471
 20
0
 30
0
 11
-144.1450871764847
 21
0
 31
0
  0
LINE
  8
1
 62
3
 10
-60
 20
-33.25
 30
0
 11
-58
 21
-33.24999999999997
 31
0
  0
LINE
  8
1
 62
3
 10
-66.75008717648473
 20
40
 30
0
 11
-66.75008717648473
 21
24.61338886034284
 31
0
  0
LINE
  8
1
 62
3
 10
-133.25
 20
40
 30
0
 11
-133.25
 21
24.61338886034284
 31
0
  0
ARC
  8
1
 62
7
 10
108.6000000000004
 20
-19.04558675661798
 30
0
 40
3.900000000001207
 50
229.2479700672901
 51
310.7520299326907
  0
ARC
  8
1
 62
7
 10
108.6000000000004
 20
20.89668601058099
 30
0
 40
1.5
 50
180
 51
0
  0
ARC
  8
1
 62
7
 10
108.6000000000004
 20
19.70000000000005
 30
0
 40
3.899999999998637
 50
40.85125210332764
 51
139.1487478966984
  0
ARC
  8
1
 62
7
 10
14
 20
23
 30
0
 40
5
 50
270
 51
306.8698976458441
  0
ARC
  8
1
 62
7
 10
62.10895377245788
 20
-33.7260578133826
 30
0
 40
8.292915283595509
 50
337.1227217188463
 51
1.2164754143072
  0
ARC
  8
1
 62
7
 10
68.21636203428204
 20
-35.77838608834671
 30
0
 40
1.929593336156754
 50
273.483566724868
 51
322.6139950970445
  0
ARC
  8
1
 62
7
 10
61.15104111881237
 20
-32.95720062064757
 30
0
 40
9.248961684147945
 50
0.04460665194091472
 51
21.61619621490557
  0
ARC
  8
1
 62
7
 10
68.33843741604869
 20
-30.44430767341149
 30
0
 40
1.670632217155089
 50
32.36499987074419
 51
90.16561274461662
  0
ARC
  8
1
 62
7
 10
71.08929794868152
 20
-33.24999999999997
 30
0
 40
0.7517523941143045
 50
156.4800993873236
 51
203.5199006126764
  0
ARC
  8
1
 62
7
 10
62.10895377245788
 20
32.7739421866174
 30
0
 40
8.292915283595573
 50
337.1227217188463
 51
1.2164754143072
  0
ARC
  8
1
 62
7
 10
68.21636203428204
 20
30.72161391165332
 30
0
 40
1.929593336156818
 50
273.4835667248696
 51
322.6139950970442
  0
ARC
  8
1
 62
7
 10
61.15104111881249
 20
33.5427993793524
 30
0
 40
9.248961684147824
 50
0.0446066519409153
 51
21.61619621490599
  0
ARC
  8
1
 62
7
 10
68.33843741604869
 20
36.05569232658851
 30
0
 40
1.670632217155086
 50
32.36499987074399
 51
90.16561274461466
  0
ARC
  8
1
 62
7
 10
71.08929794868152
 20
33.25
 30
0
 40
0.7517523941143045
 50
156.4800993873236
 51
203.5199006126744
  0
ARC
  8
1
 62
7
 10
25.05513538572268
 20
33.25
 30
0
 40
8.944864614277089
 50
345.0338261958146
 51
14.9661738041856
  0
ARC
  8
1
 62
7
 10
31.64999999999998
 20
29.78500000000003
 30
0
 40
2.349999999999777
 50
330.5614799140718
 51
29.43852008592812
  0
ARC
  8
1
 62
7
 10
31.64999999999998
 20
36.715
 30
0
 40
2.349999999999774
 50
330.5614799140719
 51
29.43852008592797
  0
ARC
  8
1
 62
7
 10
38.24486461427705
 20
33.25
 30
0
 40
8.944864614277096
 50
165.0338261958144
 51
194.9661738041854
  0
ARC
  8
1
 62
7
 10
31.64999999999998
 20
29.78500000000003
 30
0
 40
2.349999999999977
 50
150.5614799140747
 51
209.4385200859254
  0
ARC
  8
1
 62
7
 10
31.64999999999998
 20
36.715
 30
0
 40
2.349999999999974
 50
150.5614799140749
 51
209.4385200859253
  0
ARC
  8
1
 62
7
 10
25.05513538572268
 20
-33.24999999999997
 30
0
 40
8.944864614277094
 50
345.0338261958144
 51
14.9661738041856
  0
ARC
  8
1
 62
7
 10
31.64999999999998
 20
-36.715
 30
0
 40
2.349999999999763
 50
330.5614799140723
 51
29.43852008592888
  0
ARC
  8
1
 62
7
 10
31.64999999999998
 20
-29.785
 30
0
 40
2.349999999999758
 50
330.5614799140726
 51
29.43852008592872
  0
ARC
  8
1
 62
7
 10
38.24486461427705
 20
-33.24999999999997
 30
0
 40
8.944864614277096
 50
165.0338261958144
 51
194.9661738041856
  0
ARC
  8
1
 62
7
 10
31.64999999999998
 20
-36.715
 30
0
 40
2.349999999999995
 50
150.5614799140739
 51
209.4385200859249
  0
ARC
  8
1
 62
7
 10
31.64999999999998
 20
-29.785
 30
0
 40
2.349999999999992
 50
150.5614799140741
 51
209.4385200859246
  0
ARC
  8
1
 62
7
 10
-100
 20
15
 30
0
 40
16.99999999999997
 50
0
 51
180
  0
ARC
  8
1
 62
7
 10
-100
 20
15
 30
0
 40
17
 50
180
 51
0
  0
CIRCLE
  8
1
 62
7
 10
120.4999999999999
 20
-11.873806877513
 30
0
 40
2
  0
CIRCLE
  8
1
 62
7
 10
-133.2499128235153
 20
33.25
 30
0
 40
6.750015467137439
  0
CIRCLE
  8
1
 62
7
 10
-133.2499128235153
 20
33.25
 30
0
 40
2.5
  0
CIRCLE
  8
1
 62
7
 10
-133.2499128235153
 20
33.25
 30
0
 40
4
  0
CIRCLE
  8
1
 62
7
 10
-133.25
 20
-33.25
 30
0
 40
2.5
  0
CIRCLE
  8
1
 62
7
 10
-133.25
 20
-33.25
 30
0
 40
4
  0
CIRCLE
  8
1
 62
7
 10
-66.75
 20
-33.25
 30
0
 40
2.5
  0
CIRCLE
  8
1
 62
7
 10
-66.75
 20
-33.25
 30
0
 40
4
  0
CIRCLE
  8
1
 62
7
 10
-66.75
 20
33.25
 30
0
 40
2.5
  0
CIRCLE
  8
1
 62
7
 10
-66.75
 20
33.25
 30
0
 40
4
  0
CIRCLE
  8
1
 62
7
 10
-66.75
 20
33.25
 30
0
 40
6.750015467137439
  0
CIRCLE
  8
1
 62
7
 10
-66.75
 20
-33.25
 30
0
 40
6.75
  0
CIRCLE
  8
1
 62
7
 10
-133.25
 20
-33.25
 30
0
 40
6.75
  0
CIRCLE
  8
1
 62
7
 10
-100
 20
-32
 30
0
 40
4
  0
CIRCLE
  8
1
 62
7
 10
-72.5
 20
16
 30
0
 40
4
  0
CIRCLE
  8
1
 62
7
 10
-127.5
 20
16
 30
0
 40
4
  0
CIRCLE
  8
1
 62
7
 10
-100
 20
-32
 30
0
 40
3.5
  0
CIRCLE
  8
1
 62
7
 10
-72.5
 20
16
 30
0
 40
3.5
  0
CIRCLE
  8
1
 62
7
 10
-127.5
 20
16
 30
0
 40
3.5
  0
CIRCLE
  8
1
 62
7
 10
-100
 20
15
 30
0
 40
9.75
  0
CIRCLE
  8
1
 62
2
 10
-133.25
 20
33.25
 30
0
 40
2
  0
CIRCLE
  8
1
 62
2
 10
-66.75
 20
33.25
 30
0
 40
2
  0
CIRCLE
  8
1
 62
2
 10
-66.75
 20
-33.25
 30
0
 40
2
  0
CIRCLE
  8
1
 62
7
 10
-66.75
 20
-33.25
 30
0
 40
2.5
  0
CIRCLE
  8
1
 62
2
 10
-133.25
 20
-33.25
 30
0
 40
2.000000000000057
  0
CIRCLE
  8
1
 62
7
 10
-100
 20
15
 30
0
 40
4.000000000000006
  0
POLYLINE
  8
1
 62
2
 66
1
  0
VERTEX
  8
1
 10
112.8943369725351
 20
-53.50414249122189
 30
0
 42
-0.00493407863608597
  0
VERTEX
  8
1
 10
113.0453470727624
 20
-53.31823622454745
 30
0
 42
-0.01634587272625162
  0
VERTEX
  8
1
 10
113.1962866156842
 20
-53.14741098073307
 30
0
 42
-0.03331015729452404
  0
VERTEX
  8
1
 10
113.3470850439949
 20
-53.00674778263883
 30
0
 42
-0.06243861218595781
  0
VERTEX
  8
1
 10
113.497671800389
 20
-52.91132765312479
 30
0
 42
-0.1069941638609686
  0
VERTEX
  8
1
 10
113.6479763275611
 20
-52.87623161505101
 30
0
 42
-0.1070085680457554
  0
VERTEX
  8
1
 10
113.7971219573299
 20
-52.91116350201636
 30
0
 42
-0.06296447185965388
  0
VERTEX
  8
1
 10
113.9461248200801
 20
-53.00603272771701
 30
0
 42
-0.03373007877709151
  0
VERTEX
  8
1
 10
114.0951909324434
 20
-53.14622709755209
 30
0
 42
-0.01666255219670704
  0
VERTEX
  8
1
 10
114.2445263110512
 20
-53.31713441692068
 30
0
 42
-0.005266270714974252
  0
VERTEX
  8
1
 10
114.3943369725351
 20
-53.50414249122189
 30
0
 42
0.004633674952075158
  0
VERTEX
  8
1
 10
114.55403260124
 20
-53.70404846438353
 30
0
 42
0.01574387385476011
  0
VERTEX
  8
1
 10
114.7138212384852
 20
-53.88815817456892
 30
0
 42
0.03306298376918745
  0
VERTEX
  8
1
 10
114.873027495493
 20
-54.03899649986511
 30
0
 42
0.06382794567280233
  0
VERTEX
  8
1
 10
115.0309759834854
 20
-54.13908831835912
 30
0
 42
0.1184715252690844
  0
VERTEX
  8
1
 10
115.1869913136846
 20
-54.17095850813802
 30
0
 42
0.1277305739103835
  0
VERTEX
  8
1
 10
115.3312173763401
 20
-54.12816682116953
 30
0
 42
0.04228886383229309
  0
VERTEX
  8
1
 10
115.473605485072
 20
-54.02499412325788
 30
0
 42
0.04982109643857913
  0
VERTEX
  8
1
 10
115.6146151283612
 20
-53.87653566713887
 30
0
 42
0.01598923890356888
  0
VERTEX
  8
1
 10
115.7547057946886
 20
-53.69788670554827
 30
0
 42
0.004276663101356911
  0
VERTEX
  8
1
 10
115.8943369725351
 20
-53.50414249122189
 30
0
  0
SEQEND
  8
1
  0
POLYLINE
  8
1
 62
2
 66
1
  0
VERTEX
  8
1
 10
-147.2141007294141
 20
-41.81279072162198
 30
0
 42
0.005102122425402906
  0
VERTEX
  8
1
 10
-147.205177580188
 20
-42.03371945891858
 30
0
 42
0.01606637972576134
  0
VERTEX
  8
1
 10
-147.1875620807777
 20
-42.24623465817093
 30
0
 42
0.03108709041832834
  0
VERTEX
  8
1
 10
-147.1525618809988
 20
-42.44192278133478
 30
0
 42
0.05251856945869417
  0
VERTEX
  8
1
 10
-147.091484630667
 20
-42.6123702903659
 30
0
 42
0.08125437472201488
  0
VERTEX
  8
1
 10
-146.995637979598
 20
-42.74916364722003
 30
0
 42
0.08485033053514439
  0
VERTEX
  8
1
 10
-146.8658820792888
 20
-42.84340835259855
 30
0
 42
0.04133592999768274
  0
VERTEX
  8
1
 10
-146.7043289097178
 20
-42.90723423627681
 30
0
 42
0.03655890767427844
  0
VERTEX
  8
1
 10
-146.519016230953
 20
-42.94877977436832
 30
0
 42
0.00599069583249565
  0
VERTEX
  8
1
 10
-146.317981803062
 20
-42.97618344298656
 30
0
 42
0.01066155707569351
  0
VERTEX
  8
1
 10
-146.1092633861127
 20
-42.99758371824504
 30
0
 42
-0.007283823207568123
  0
VERTEX
  8
1
 10
-145.8963372560622
 20
-43.0214558689616
 30
0
 42
-0.01781062613264344
  0
VERTEX
  8
1
 10
-145.6919826588378
 20
-43.05465901568584
 30
0
 42
-0.03178172545254733
  0
VERTEX
  8
1
 10
-145.5044016903495
 20
-43.1042945246154
 30
0
 42
-0.05138225866255933
  0
VERTEX
  8
1
 10
-145.3417964465069
 20
-43.17746376194792
 30
0
 42
-0.07533925343526406
  0
VERTEX
  8
1
 10
-145.2123690232199
 20
-43.28126809388101
 30
0
 42
-0.07368280993741339
  0
VERTEX
  8
1
 10
-145.122788856696
 20
-43.41772385208984
 30
0
 42
-0.04967281548801541
  0
VERTEX
  8
1
 10
-145.0652030704669
 20
-43.58335692095773
 30
0
 42
-0.03006130296738223
  0
VERTEX
  8
1
 10
-145.0316130694589
 20
-43.77087297281993
 30
0
 42
-0.01590120516246764
  0
VERTEX
  8
1
 10
-145.0140202585984
 20
-43.97297768001167
 30
0
 42
-0.004963902395188314
  0
VERTEX
  8
1
 10
-145.0044260428115
 20
-44.18237671486816
 30
0
  0
SEQEND
  8
1
  0
POLYLINE
  8
1
 62
2
 66
1
  0
VERTEX
  8
1
 10
112.8943369725351
 20
-49.1521953523299
 30
0
 42
-0.004786202196927917
  0
VERTEX
  8
1
 10
113.0464410736479
 20
-48.95217829990288
 30
0
 42
-0.01597734592664812
  0
VERTEX
  8
1
 10
113.1982011172337
 20
-48.76850803998666
 30
0
 42
-0.03316329143456097
  0
VERTEX
  8
1
 10
113.3492730457658
 20
-48.61753136509208
 30
0
 42
-0.0644259648447378
  0
VERTEX
  8
1
 10
113.4993128017172
 20
-48.51559506772995
 30
0
 42
-0.116159795586152
  0
VERTEX
  8
1
 10
113.6479763275611
 20
-48.47904594041108
 30
0
 42
-0.1160531622143877
  0
VERTEX
  8
1
 10
113.7944518364141
 20
-48.5182966000561
 30
0
 42
-0.06337138659142949
  0
VERTEX
  8
1
 10
113.9407755535121
 20
-48.62182207936404
 30
0
 42
-0.03075748353542241
  0
VERTEX
  8
1
 10
114.088497580681
 20
-48.77303717004133
 30
0
 42
-0.01233166728908945
  0
VERTEX
  8
1
 10
114.2391680197467
 20
-48.95535666379448
 30
0
 42
0.0002860134757210789
  0
VERTEX
  8
1
 10
114.3943369725351
 20
-49.1521953523299
 30
0
 42
0.0111696015701498
  0
VERTEX
  8
1
 10
114.5725677995875
 20
-49.36793396265936
 30
0
 42
0.0201471501115864
  0
VERTEX
  8
1
 10
114.7544784425237
 20
-49.56198936906961
 30
0
 42
0.0385998346019135
  0
VERTEX
  8
1
 10
114.9363106297701
 20
-49.71521898029262
 30
0
 42
0.07034189392673897
  0
VERTEX
  8
1
 10
115.1143060897529
 20
-49.80848020506041
 30
0
 42
0.1303926716605268
  0
VERTEX
  8
1
 10
115.2847065508986
 20
-49.82263045210493
 30
0
 42
0.1148326588778712
  0
VERTEX
  8
1
 10
115.4156381703367
 20
-49.76647921041382
 30
0
 42
0.03979547205398189
  0
VERTEX
  8
1
 10
115.5405660997009
 20
-49.65837078321344
 30
0
 42
0.04593415206482758
  0
VERTEX
  8
1
 10
115.6609912615097
 20
-49.51129446688113
 30
0
 42
0.01530954315342847
  0
VERTEX
  8
1
 10
115.7784145782816
 20
-49.33823955779417
 30
0
 42
0.004165254485819347
  0
VERTEX
  8
1
 10
115.8943369725351
 20
-49.1521953523299
 30
0
  0
SEQEND
  8
1
  0
POLYLINE
  8
1
 62
7
 66
1
  0
VERTEX
  8
1
 10
121.4357753639379
 20
-18.73726491636808
 30
0
 42
0.0006469231333045025
  0
VERTEX
  8
1
 10
121.6178106954386
 20
-18.71329038042008
 30
0
 42
0.001939430959987061
  0
VERTEX
  8
1
 10
121.7998147053388
 20
-18.68836152534762
 30
0
 42
0.003224838912207269
  0
VERTEX
  8
1
 10
121.981756072038
 20
-18.66152403202627
 30
0
 42
0.004498484598719166
  0
VERTEX
  8
1
 10
122.1636034739357
 20
-18.63182358133157
 30
0
 42
0.005750739773255079
  0
VERTEX
  8
1
 10
122.3453255894313
 20
-18.59830585413908
 30
0
 42
0.004409538470564159
  0
VERTEX
  8
1
 10
122.4359975193967
 20
-18.57966927383599
 30
0
 42
0.008155476055169602
  0
VERTEX
  8
1
 10
122.5260890328571
 20
-18.55877963030343
 30
0
 42
0.01073214353266899
  0
VERTEX
  8
1
 10
122.6150588284073
 20
-18.5345756349018
 30
0
 42
0.01463651226149742
  0
VERTEX
  8
1
 10
122.7023656046418
 20
-18.50599599899153
 30
0
 42
0.01731903605019026
  0
VERTEX
  8
1
 10
122.7874680601554
 20
-18.47197943393303
 30
0
 42
0.01021451201338388
  0
VERTEX
  8
1
 10
122.8308721841293
 20
-18.45179312381417
 30
0
 42
0.005813929582155834
  0
VERTEX
  8
1
 10
122.8736778174332
 20
-18.43019033227923
 30
0
 42
0.006163535979887047
  0
VERTEX
  8
1
 10
122.9160345827346
 20
-18.40752517968225
 30
0
 42
0.001793105059260496
  0
VERTEX
  8
1
 10
122.958092102701
 20
-18.38415178637724
 30
0
 42
0.00217521229560274
  0
VERTEX
  8
1
 10
122.9999999999999
 20
-18.36042427271821
 30
0
  0
SEQEND
  8
1
  0
POLYLINE
  8
1
 62
7
 66
1
  0
VERTEX
  8
1
 10
121.8056131734831
 20
-5.190748865207183
 30
0
 42
0.002271026600337636
  0
VERTEX
  8
1
 10
121.9183173729504
 20
-5.182240875692031
 30
0
 42
0.006843212417998595
  0
VERTEX
  8
1
 10
122.0304832881811
 20
-5.171714218711215
 30
0
 42
0.0115490331022787
  0
VERTEX
  8
1
 10
122.1415726349387
 20
-5.15715022679907
 30
0
 42
0.01636043009973886
  0
VERTEX
  8
1
 10
122.2510471289868
 20
-5.136530232489932
 30
0
 42
0.02118775621020757
  0
VERTEX
  8
1
 10
122.3583684860887
 20
-5.107835568318137
 30
0
 42
0.01333203921688054
  0
VERTEX
  8
1
 10
122.4178625212909
 20
-5.087437974912763
 30
0
 42
0.009175496568986034
  0
VERTEX
  8
1
 10
122.4765634975526
 20
-5.064311037455706
 30
0
 42
0.009389970364486633
  0
VERTEX
  8
1
 10
122.534537110125
 20
-5.038945902167537
 30
0
 42
0.005326531553771225
  0
VERTEX
  8
1
 10
122.5918490542592
 20
-5.011833715268822
 30
0
 42
0.005635101821009811
  0
VERTEX
  8
1
 10
122.6485650252063
 20
-4.983465622980134
 30
0
 42
0.002934225036205777
  0
VERTEX
  8
1
 10
122.7198793713737
 20
-4.946254382151646
 30
0
 42
0.004491887137921417
  0
VERTEX
  8
1
 10
122.7905088167354
 20
-4.908055387287335
 30
0
 42
0.001093985513823099
  0
VERTEX
  8
1
 10
122.8606245864926
 20
-4.869115576896157
 30
0
 42
0.002636924427445239
  0
VERTEX
  8
1
 10
122.930397905847
 20
-4.829681889487069
 30
0
 42
0.0004670070722599896
  0
VERTEX
  8
1
 10
122.9999999999999
 20
-4.790001263569025
 30
0
  0
SEQEND
  8
1
  0
ARC
  8
1
 62
7
 10
71.5
 20
19
 30
0
 40
3
 50
90
 51
180
  0
ARC
  8
1
 62
7
 10
35.5
 20
39.5
 30
0
 40
0.5
 50
90
 51
180
  0
ARC
  8
1
 62
7
 10
71.5
 20
-19
 30
0
 40
3
 50
180
 51
270
  0
ARC
  8
1
 62
7
 10
119.7575378797539
 20
-12.48688747126209
 30
0
 40
0.0500000000019217
 50
134.9999999995394
 51
224.999999999371
  0
ARC
  8
1
 62
7
 10
119.8989592359915
 20
-12.62830882749898
 30
0
 40
0.05000000000016696
 50
224.9999999994401
 51
315.0000000003296
  0
ARC
  8
1
 62
7
 10
121.2424621202454
 20
-12.48688747126209
 30
0
 40
0.04999999999940327
 50
315.000000001435
 51
45.00000000095574
  0
ARC
  8
1
 62
7
 10
121.101040764008
 20
-12.62830882749898
 30
0
 40
0.05000000000073973
 50
224.9999999987838
 51
315.000000001055
  0
ARC
  8
1
 62
7
 10
121.2424621202454
 20
-11.28480594324412
 30
0
 40
0.0500000000008465
 50
314.9999999997812
 51
45.00000000044476
  0
ARC
  8
1
 62
7
 10
121.101040764008
 20
-11.14338458700598
 30
0
 40
0.04999999999970724
 50
44.99999999792301
 51
135.0000000022382
  0
ARC
  8
1
 62
7
 10
119.8989592359915
 20
-11.14338458700598
 30
0
 40
0.04999999999907418
 50
44.99999999864845
 51
135.0000000015818
  0
ARC
  8
1
 62
7
 10
119.7575378797539
 20
-11.28480594324412
 30
0
 40
0.05000000000147579
 50
135.0000000000504
 51
224.9999999997236
  0
ARC
  8
1
 62
7
 10
121.4192388155417
 20
-11.88584670725311
 30
0
 40
0.5000000000012539
 50
135.0000000000226
 51
224.9999999997975
  0
ARC
  8
1
 62
7
 10
120.4999999999999
 20
-12.80508552279514
 30
0
 40
0.5000000000006911
 50
45.00000000004189
 51
134.9999999999178
  0
ARC
  8
1
 62
7
 10
119.5807611844569
 20
-11.88584670725311
 30
0
 40
0.4999999999995431
 50
315.0000000001865
 51
44.99999999999353
  0
ARC
  8
1
 62
7
 10
120.4999999999999
 20
-10.96660789171
 30
0
 40
0.5000000000004525
 50
225.0000000000951
 51
314.9999999999452
  0
ARC
  8
1
 62
7
 10
120.9999999999991
 20
19
 30
0
 40
2
 50
0
 51
90
  0
ARC
  8
1
 62
7
 10
124.6000000000004
 20
-10
 30
0
 40
0.5
 50
270
 51
0
  0
ARC
  8
1
 62
7
 10
120.9999999999999
 20
-19
 30
0
 40
2
 50
270
 51
0
  0
ARC
  8
1
 62
7
 10
124.6000000000004
 20
10
 30
0
 40
0.5
 50
0
 51
90
  0
ARC
  8
1
 62
7
 10
68
 20
-20.25
 30
0
 40
0.5
 50
270
 51
0
  0
ARC
  8
1
 62
7
 10
67.5
 20
-21.25
 30
0
 40
0.5
 50
90
 51
180
  0
ARC
  8
1
 62
7
 10
68
 20
20.25
 30
0
 40
0.5
 50
0
 51
90
  0
ARC
  8
1
 62
7
 10
67.5
 20
21.25
 30
0
 40
0.5
 50
180
 51
270
  0
ARC
  8
1
 62
7
 10
-129.1
 20
17.59999999999991
 30
0
 40
1.199999999999879
 50
270
 51
0
  0
ARC
  8
1
 62
7
 10
-125.9
 20
17.59999999999991
 30
0
 40
1.199999999999989
 50
180
 51
270
  0
ARC
  8
1
 62
7
 10
-129.1
 20
14.40000000000003
 30
0
 40
1.199999999999989
 50
0
 51
90
  0
ARC
  8
1
 62
7
 10
-125.9
 20
14.40000000000003
 30
0
 40
1.199999999999989
 50
90
 51
180
  0
ARC
  8
1
 62
7
 10
-127.8
 20
18.20000000000005
 30
0
 40
0.09999999999996234
 50
90
 51
180
  0
ARC
  8
1
 62
7
 10
-127.2
 20
18.20000000000005
 30
0
 40
0.1000000000000085
 50
0
 51
90
  0
ARC
  8
1
 62
7
 10
-129.7
 20
16.2999999999999
 30
0
 40
0.1000000000001293
 50
90
 51
180
  0
ARC
  8
1
 62
7
 10
-129.7
 20
15.70000000000005
 30
0
 40
0.1000000000000227
 50
180
 51
270
  0
ARC
  8
1
 62
7
 10
-127.8
 20
13.80000000000001
 30
0
 40
0.1000000000000085
 50
180
 51
270
  0
ARC
  8
1
 62
7
 10
-127.2
 20
13.80000000000001
 30
0
 40
0.09999999999995879
 50
270
 51
0
  0
ARC
  8
1
 62
7
 10
-125.3
 20
15.70000000000005
 30
0
 40
0.1000000000000316
 50
270
 51
0
  0
ARC
  8
1
 62
7
 10
-125.3
 20
16.2999999999999
 30
0
 40
0.09999999999999432
 50
0
 51
90
  0
ARC
  8
1
 62
7
 10
-74.10000000000002
 20
17.59999999999991
 30
0
 40
1.199999999999879
 50
270
 51
0
  0
ARC
  8
1
 62
7
 10
-70.90000000000001
 20
17.59999999999991
 30
0
 40
1.200000000000017
 50
180
 51
270
  0
ARC
  8
1
 62
7
 10
-74.10000000000002
 20
14.40000000000003
 30
0
 40
1.200000000000017
 50
0
 51
90
  0
ARC
  8
1
 62
7
 10
-70.90000000000001
 20
14.40000000000003
 30
0
 40
1.199999999999989
 50
90
 51
180
  0
ARC
  8
1
 62
7
 10
-72.80000000000001
 20
18.20000000000005
 30
0
 40
0.09999999999996234
 50
90
 51
180
  0
ARC
  8
1
 62
7
 10
-72.20000000000002
 20
18.20000000000005
 30
0
 40
0.09999999999999432
 50
0
 51
90
  0
ARC
  8
1
 62
7
 10
-74.70000000000002
 20
16.2999999999999
 30
0
 40
0.1000000000001293
 50
90
 51
180
  0
ARC
  8
1
 62
7
 10
-74.70000000000002
 20
15.70000000000005
 30
0
 40
0.09999999999999432
 50
180
 51
270
  0
ARC
  8
1
 62
7
 10
-72.80000000000001
 20
13.80000000000001
 30
0
 40
0.09999999999999432
 50
180
 51
270
  0
ARC
  8
1
 62
7
 10
-72.20000000000002
 20
13.80000000000001
 30
0
 40
0.09999999999995879
 50
270
 51
0
  0
ARC
  8
1
 62
7
 10
-70.30000000000001
 20
15.70000000000005
 30
0
 40
0.1000000000000316
 50
270
 51
0
  0
ARC
  8
1
 62
7
 10
-70.30000000000001
 20
16.2999999999999
 30
0
 40
0.09999999999999432
 50
0
 51
90
  0
ARC
  8
1
 62
7
 10
-101.6
 20
-30.40000000000009
 30
0
 40
1.199999999999879
 50
270
 51
0
  0
ARC
  8
1
 62
7
 10
-98.40000000000001
 20
-30.40000000000009
 30
0
 40
1.199999999999989
 50
180
 51
270
  0
ARC
  8
1
 62
7
 10
-101.6
 20
-33.59999999999997
 30
0
 40
1.199999999999989
 50
0
 51
90
  0
ARC
  8
1
 62
7
 10
-98.40000000000001
 20
-33.59999999999997
 30
0
 40
1.199999999999996
 50
90
 51
180
  0
ARC
  8
1
 62
7
 10
-100.3
 20
-29.79999999999995
 30
0
 40
0.09999999999996234
 50
90
 51
180
  0
ARC
  8
1
 62
7
 10
-99.7
 20
-29.79999999999995
 30
0
 40
0.1000000000000085
 50
0
 51
90
  0
ARC
  8
1
 62
7
 10
-102.2
 20
-31.7000000000001
 30
0
 40
0.1000000000001293
 50
90
 51
180
  0
ARC
  8
1
 62
7
 10
-102.2
 20
-32.29999999999995
 30
0
 40
0.09999999999999432
 50
180
 51
270
  0
ARC
  8
1
 62
7
 10
-100.3
 20
-34.19999999999999
 30
0
 40
0.1000000000000085
 50
180
 51
270
  0
ARC
  8
1
 62
7
 10
-99.7
 20
-34.19999999999999
 30
0
 40
0.09999999999995879
 50
270
 51
0
  0
ARC
  8
1
 62
7
 10
-97.8
 20
-32.29999999999995
 30
0
 40
0.1000000000000298
 50
270
 51
0
  0
ARC
  8
1
 62
7
 10
-97.8
 20
-31.7000000000001
 30
0
 40
0.09999999999999432
 50
0
 51
90
  0
ARC
  8
1
 62
7
 10
67.09999999999991
 20
-28.82771595625778
 30
0
 40
0.09999999999999733
 50
84.99999999998701
 51
180
  0
ARC
  8
1
 62
7
 10
67.09999999999991
 20
-37.6503805301908
 30
0
 40
0.09999999999990905
 50
180
 51
275.000000000013
  0
ARC
  8
1
 62
7
 10
67.09999999999991
 20
37.67228404374222
 30
0
 40
0.1000000000000256
 50
84.99999999998842
 51
180
  0
ARC
  8
1
 62
7
 10
67.09999999999991
 20
28.84961946980923
 30
0
 40
0.09999999999990905
 50
180
 51
275.00000000001
  0
ARC
  8
1
 62
7
 10
35.5
 20
-39.5
 30
0
 40
0.5
 50
180
 51
270
  0
ARC
  8
1
 62
7
 10
35.5
 20
-26.99999999999997
 30
0
 40
0.5
 50
90
 51
180
  0
ARC
  8
1
 62
7
 10
35.5
 20
27
 30
0
 40
0.5
 50
180
 51
270
  0
LINE
  8
1
 62
2
 10
31.11034870426496
 20
-66.34991020425775
 30
0
 11
92.46713648055496
 21
-66.34991020425775
 31
0
  0
LINE
  8
1
 62
2
 10
92.46713648055496
 20
-66.34991020425775
 30
0
 11
112.9005280905652
 21
-45.91651859424746
 31
0
  0
SOLID
  8
1
 62
2
 10
110.751477664727
 20
-48.71721563671505
 30
0
 11
110.0998310480976
 21
-48.0655690200857
 31
0
 12
112.9005280905652
 22
-45.91651859424746
 32
0
 13
112.9005280905652
 23
-45.91651859424746
 33
0
  0
LINE
  8
1
 62
2
 10
105.5523184975096
 20
31.99999999999999
 30
0
 11
81.72002336582766
 21
31.99999999999999
 31
0
  0
LINE
  8
1
 62
2
 10
81.72002336582766
 20
31.99999999999999
 30
0
 11
91.72002336582766
 21
22
 31
0
  0
SOLID
  8
1
 62
2
 10
88.91932632336007
 20
24.14905042583824
 30
0
 11
89.57097293998942
 21
24.80069704246759
 31
0
 12
91.72002336582766
 22
22
 32
0
 13
91.72002336582766
 23
22
 33
0
  0
LINE
  8
1
 62
2
 10
61.74899190571767
 20
50
 30
0
 11
37.65404299597858
 21
50
 31
0
  0
LINE
  8
1
 62
2
 10
37.65404299597858
 20
50
 30
0
 11
46.91448484411282
 21
40.73955815186577
 31
0
  0
SOLID
  8
1
 62
2
 10
44.11378780164522
 20
42.88860857770401
 30
0
 11
44.76543441827458
 21
43.54025519433336
 31
0
 12
46.91448484411282
 22
40.73955815186577
 32
0
 13
46.91448484411282
 23
40.73955815186577
 33
0
  0
LINE
  8
1
 62
2
 10
-8.310669097840219
 20
-50.09999999999999
 30
0
 11
7.380729048968762
 21
-50.09999999999999
 31
0
  0
LINE
  8
1
 62
2
 10
7.380729048968762
 20
-50.09999999999999
 30
0
 11
19.73072904896878
 21
-35.74999999999997
 31
0
  0
SOLID
  8
1
 62
2
 10
17.79688643513876
 20
-38.70340048104166
 30
0
 11
17.09838423198347
 21
-38.10225050132265
 31
0
 12
19.73072904896878
 22
-35.74999999999997
 32
0
 13
19.73072904896878
 23
-35.74999999999997
 33
0
  0
TEXT
  8
1
 62
2
 10
32.30671013148852
 20
-65.11594311103875
 30
0
 40
3.5
  1
UL1007 AWG22
 41
0.9
 73
2
 11
32.30671013148852
 21
-63.36594311103875
 31
0
  0
TEXT
  8
1
 62
2
 10
32.30671013148852
 20
-57.9506031044043
 30
0
 40
3.5
  1
LEAD WIRES (RED,BLACK)
 41
0.9
 73
2
 11
32.30671013148852
 21
-56.2006031044043
 31
0
  0
TEXT
  8
1
 62
2
 10
84.87210523109896
 20
32.82551303864307
 30
0
 40
3
  1
NAME PLATE
 41
0.6300000000000001
 72
1
 73
2
 11
94.32210523109896
 21
34.32551303864307
 31
0
  0
TEXT
  8
1
 62
2
 10
-142.5
 20
93.5
 30
0
 40
5
  1
DME44S8H
 41
0.9
 72
1
 73
2
 11
-124.5
 21
96
 31
0
  0
TEXT
  8
1
 62
2
 10
39.87210523109899
 20
50.82551303864307
 30
0
 40
3
  1
NAME PLATE
 41
0.6300000000000001
 72
1
 73
2
 11
49.32210523109899
 21
52.32551303864307
 31
0
  0
TEXT
  8
1
 62
2
 10
153.3243394475086
 20
-66.1181588103847
 30
0
 40
3.2
  1
(FROM MOTOR CASE)
 50
90
 41
0.6300000000000001
 72
1
 73
2
 11
151.7243394475086
 21
-48.9821588103847
 31
0
  0
TEXT
  8
1
 62
2
 10
149.0929951484042
 20
-60.0701588103847
 30
0
 40
3.2
  1
(5.906    )
 50
90
 41
0.6300000000000001
 72
1
 73
2
 11
147.4929951484042
 21
-48.9821588103847
 31
0
  0
TEXT
  8
1
 62
2
 10
137.1096923065292
 20
-69.11516907639204
 30
0
 40
3.2
  1
(0.118)
 50
90
 41
0.6300000000000001
 72
1
 73
2
 11
135.5096923065292
 21
-62.05916907639204
 31
0
  0
TEXT
  8
1
 62
2
 10
148.4929951484042
 20
-49.44885064204368
 30
0
 40
2
  1
%%p0.787
 50
90
 41
0.63
 72
1
 73
2
 11
147.4929951484042
 21
-44.40885064204368
 31
0
  0
TEXT
  8
1
 62
2
 10
149.0929951484042
 20
-11.088
 30
0
 40
3.2
  1
(1.732DIA.)
 50
90
 41
0.6300000000000001
 72
1
 73
2
 11
147.4929951484042
 21
0
 31
0
  0
TEXT
  8
1
 62
2
 10
-7.549209650292297
 20
-49.57872273017446
 30
0
 40
3.5
  1
BOLT
 41
0.9
 72
1
 73
2
 11
-1.249209650292297
 21
-47.82872273017446
 31
0
  0
TEXT
  8
1
 62
2
 10
-45.85146400447143
 20
-20.44280485470939
 30
0
 40
3.2
  1
(0.591    )
 50
90
 41
0.6300000000000001
 72
1
 73
2
 11
-47.45146400447143
 21
-9.354804854709386
 31
0
  0
TEXT
  8
1
 62
2
 10
-46.45146400447143
 20
-10.77737408525978
 30
0
 40
2
  1
%%p0.0197
 50
90
 41
0.63
 72
1
 73
2
 11
-47.45146400447143
 21
-5.10737408525978
 31
0
  0
TEXT
  8
1
 62
2
 10
-0.06124468329995914
 20
57.95831729467403
 30
0
 40
3.2
  1
(0.551)
 41
0.6300000000000001
 72
1
 73
2
 11
6.994755316700042
 21
59.55831729467403
 31
0
  0
TEXT
  8
1
 62
2
 10
-6.641695548160858
 20
28.94080602710259
 30
0
 40
2
  1
%%p0.0118
 50
90
 41
0.63
 72
1
 73
2
 11
-7.641695548160857
 21
34.61080602710259
 31
0
  0
TEXT
  8
1
 62
2
 10
-6.15522551623108
 20
18.98446225396089
 30
0
 40
3.2
  1
(0.276    )
 50
90
 41
0.6300000000000001
 72
1
 73
2
 11
-7.755225516231079
 21
30.07246225396089
 31
0
  0
TEXT
  8
1
 62
2
 10
-19.29999999999999
 20
35.3408060271026
 30
0
 40
2
  1
 0
 50
90
 41
0.63
  0
TEXT
  8
1
 62
2
 10
-16.89999999999999
 20
35.3408060271026
 30
0
 40
2
  1
-0.000787
 50
90
 41
0.63
  0
TEXT
  8
1
 62
2
 10
-17.49999999999999
 20
16.73646225396089
 30
0
 40
3.2
  1
(0.315DIA.      )
 50
90
 41
0.6300000000000001
 72
1
 73
2
 11
-19.09999999999999
 21
33.87246225396089
 31
0
  0
TEXT
  8
1
 62
2
 10
10.43875531670011
 20
69.9034957603677
 30
0
 40
3.2
  1
(1.378)
 41
0.6300000000000001
 72
1
 73
2
 11
17.49475531670011
 21
71.50349576036771
 31
0
  0
TEXT
  8
1
 62
2
 10
-110.08
 20
69.9088784191941
 30
0
 40
3.2
  1
(3.15SQU.)
 41
0.6300000000000001
 72
1
 73
2
 11
-100
 21
71.5088784191941
 31
0
  0
TEXT
  8
1
 62
2
 10
-111.088
 20
57.9088784191941
 30
0
 40
3.2
  1
(2.618    )
 41
0.6300000000000001
 72
1
 73
2
 11
-100
 21
59.5088784191941
 31
0
  0
TEXT
  8
1
 62
2
 10
-101.4384551780371
 20
58.5088784191941
 30
0
 40
2
  1
%%p0.0118
 41
0.63
 72
1
 73
2
 11
-95.7684551780371
 21
59.5088784191941
 31
0
  0
TEXT
  8
1
 62
2
 10
15.93875531670011
 20
57.97273642008272
 30
0
 40
3.2
  1
(0.197)
 41
0.6300000000000001
 72
1
 73
2
 11
22.99475531670011
 21
59.57273642008272
 31
0
  0
TEXT
  8
1
 62
2
 10
-33.85146400447143
 20
-10.94280485470939
 30
0
 40
3.2
  1
(2.618    )
 50
90
 41
0.6300000000000001
 72
1
 73
2
 11
-35.45146400447143
 21
0.1451951452906144
 31
0
  0
TEXT
  8
1
 62
2
 10
-34.45146400447143
 20
-1.277374085259778
 30
0
 40
2
  1
%%p0.0118
 50
90
 41
0.63
 72
1
 73
2
 11
-35.45146400447143
 21
4.392625914740222
 31
0
  0
TEXT
  8
1
 62
2
 10
-111.088
 20
45.9088784191941
 30
0
 40
3.2
  1
(1.339DIA.)
 41
0.6300000000000001
 72
1
 73
2
 11
-100
 21
47.5088784191941
 31
0
  0
DIMENSION
  8
1
  6
CONTINUOUS
 62
2
  2
*D0
  3
DMST_1
 10
133.01213367191
 20
-69.7823380118422
 30
0
 11
130.41213367191
 21
-61.54993385985932
 31
0
 12
0
 22
0
 32
0
 70
0
  1
(<>
 13
115.596882135101
 23
-72.7823380118422
 33
0
 14
115.8943369725351
 24
-69.7823380118422
 34
0
 50
90
 53
0
  0
DIMENSION
  8
1
  6
CONTINUOUS
 62
2
  2
*D1
  3
DMST_2
 10
145.010726840473
 20
-22
 30
0
 11
142.410726840473
 21
0
 31
0
 12
0
 22
0
 32
0
 70
0
  1
φ<>
 13
118.5000000000014
 23
22
 33
0
 14
118.4999999999999
 24
-22
 34
0
 50
90
 53
0
  0
DIMENSION
  8
1
  6
CONTINUOUS
 62
2
  2
*D2
  3
DMST_2
 10
125.1000000000004
 20
73.9617379356731
 30
0
 11
80.05000000000027
 21
76.56173793567309
 31
0
 12
0
 22
0
 32
0
 70
0
  1
L1
 13
35
 23
39.5
 33
0
 14
125.1000000000004
 24
10
 34
0
 53
0
  0
DIMENSION
  8
1
  6
CONTINUOUS
 62
2
  2
*D3
  3
DMST_2
 10
35
 20
62.033405063342
 30
0
 11
51
 21
64.633405063342
 31
0
 12
0
 22
0
 32
0
 70
0
  1
L2
 13
67
 23
40
 33
0
 14
35
 24
39.5
 34
0
 53
0
  0
DIMENSION
  8
1
  6
CONTINUOUS
 62
2
  2
*D4
  3
DMST_2
 10
30
 20
62.033405063342
 30
0
 11
22.9429955978459
 21
64.633405063342
 31
0
 12
0
 22
0
 32
0
 70
0
 13
35
 23
38.25
 33
0
 14
30
 24
28.63000000000002
 34
0
 53
0
  0
DIMENSION
  8
1
  6
CONTINUOUS
 62
2
  2
*D5
  3
DMST_3
 10
-22.39127610145023
 20
19
 30
0
 11
-25.79127610145023
 21
30.8191609770225
 31
0
 12
0
 22
0
 32
0
 70
0
  1
φ<>
 13
3.552713678800501e-015
 23
11
 33
0
 14
17
 24
19
 34
0
 50
90
 53
0
  0
DIMENSION
  8
1
  6
CONTINUOUS
 62
2
  2
*D6
  3
DMST_4
 10
-83.00000000000003
 20
50.05773237904651
 30
0
 11
-100
 21
52.65773237904651
 31
0
 12
0
 22
0
 32
0
 70
0
  1
φ<>
 13
-117
 23
15
 33
0
 14
-83.00000000000003
 24
15
 34
0
 53
0
  0
DIMENSION
  8
1
  6
CONTINUOUS
 62
2
  2
*D7
  3
DMST_5
 10
-10.43313521476973
 20
18
 30
0
 11
-13.03313521476973
 21
29.8623004105215
 31
0
 12
0
 22
0
 32
0
 70
0
 13
3.552713678800501e-015
 23
11
 33
0
 14
3.552713678800501e-015
 24
18
 34
0
 50
90
 53
0
  0
DIMENSION
  8
1
  6
CONTINUOUS
 62
2
  2
*D8
  3
DMST_2
 10
0
 20
73.97722490554651
 30
0
 11
17.5
 21
76.5772249055465
 31
0
 12
0
 22
0
 32
0
 70
0
 13
35
 23
39.5
 33
0
 14
3.552713678800501e-015
 24
18
 34
0
 53
0
  0
DIMENSION
  8
1
  6
CONTINUOUS
 62
2
  2
*D9
  3
DMST_2
 10
3.552713678800501e-015
 20
62.0201267850426
 30
0
 11
7.000000000000002
 21
64.6201267850426
 31
0
 12
0
 22
0
 32
0
 70
0
 13
14
 23
18
 33
0
 14
3.552713678800501e-015
 24
18
 34
0
 53
0
  0
DIMENSION
  8
1
  6
CONTINUOUS
 62
2
  2
*D10
  3
DMST_2
 10
-60
 20
74.10918551895651
 30
0
 11
-99.99999999999997
 21
76.7091855189565
 31
0
 12
0
 22
0
 32
0
 70
0
  1
□<>
 13
-140
 23
33.35000000000022
 33
0
 14
-60
 24
33.25
 34
0
 53
0
  0
DIMENSION
  8
1
  6
CONTINUOUS
 62
2
  2
*D11
  3
DMST_5
 10
-133.25
 20
62.14153071044151
 30
0
 11
-100.0000435882424
 21
64.74153071044151
 31
0
 12
0
 22
0
 32
0
 70
0
 13
-66.75008717648473
 23
40
 33
0
 14
-133.25
 24
40
 34
0
 53
0
  0
DIMENSION
  8
1
  6
CONTINUOUS
 62
2
  2
*D12
  3
DMST_6
 10
-50.0752728711181
 20
0
 30
0
 11
-52.6752728711181
 21
-9.52845957710446
 31
0
 12
0
 22
0
 32
0
 70
0
 13
-83.14508717648482
 23
15
 33
0
 14
-60.14508717648471
 24
0
 34
0
 50
90
 53
0
  0
DIMENSION
  8
1
  6
CONTINUOUS
 62
2
  2
*D13
  3
DMST_5
 10
-38.2103392172119
 20
33.25000000000001
 30
0
 11
-40.8103392172119
 21
1.4210854715202e-014
 31
0
 12
0
 22
0
 32
0
 70
0
 13
-60
 23
-33.25
 33
0
 14
-60
 24
33.25
 34
0
 50
90
 53
0
  0
INSERT
  8
0
  2
DME34B8H
 10
830.836246218818
 20
174.536560683823
 30
0
  0
INSERT
  8
0
  2
___R___O_______R
 10
0.5
 20
-3.75
 30
0
  0
INSERT
  8
1
  2
*D14
 10
0
 20
0
 30
0
  0
ENDSEC
  0
EOF
