  0
SECTION
  2
HEADER
  9
$ACADVER
  1
AC1009
  9
$INSBASE
 10
0
 20
0
  9
$EXTMIN
 10
-194.5
 20
-146
  9
$EXTMAX
 10
194.5
 20
146
  9
$LIMMIN
 10
-194.5
 20
-146
  9
$LIMMAX
 10
194.5
 20
146
  9
$VIEWCTR
 10
10
 20
10
  9
$VIEWSIZE
 40
10
  9
$SNAPMODE
 70
0
  9
$SNAPUNIT
 10
1
 20
1
  9
$SNAPBASE
 10
0
 20
0
  9
$SNAPANG
 50
0
  9
$SNAPSTYLE
 70
0
  9
$SNAPISOPAIR
 70
0
  9
$GRIDMODE
 70
0
  9
$GRIDUNIT
 10
0
 20
0
  9
$ORTHOMODE
 70
0
  9
$REGENMODE
 70
1
  9
$FILLMODE
 70
1
  9
$QTEXTMODE
 70
0
  9
$DRAGMODE
 70
2
  9
$LTSCALE
 40
1
  9
$OSMODE
 70
0
  9
$ATTMODE
 70
1
  9
$TEXTSIZE
 40
3.5
  9
$TRACEWID
 40
0.5
  9
$TEXTSTYLE
  7
STANDARD
  9
$CLAYER
  8
0
  9
$CELTYPE
  6
BYLAYER
  9
$CECOLOR
 62
256
  9
$DIMSCALE
 40
1
  9
$DIMASZ
 40
0.18
  9
$DIMEXO
 40
0.0625
  9
$DIMDLI
 40
0.38
  9
$DIMRND
 40
0
  9
$DIMDLE
 40
0
  9
$DIMEXE
 40
0.18
  9
$DIMTP
 40
0
  9
$DIMTM
 40
0
  9
$DIMTXT
 40
0.18
  9
$DIMCEN
 40
0.09
  9
$DIMTSZ
 40
0
  9
$DIMTOL
 70
0
  9
$DIMLIM
 70
0
  9
$DIMTIH
 70
1
  9
$DIMTOH
 70
1
  9
$DIMSE1
 70
0
  9
$DIMSE2
 70
0
  9
$DIMTAD
 70
0
  9
$DIMZIN
 70
0
  9
$DIMBLK
  1

  9
$DIMASO
 70
1
  9
$DIMSHO
 70
1
  9
$DIMPOST
  1

  9
$DIMAPOST
  1

  9
$DIMALT
 70
0
  9
$DIMALTD
 70
2
  9
$DIMALTF
 40
25.4
  9
$DIMLFAC
 40
1
  9
$DIMTOFL
 70
0
  9
$DIMTVP
 40
0
  9
$DIMTIX
 70
0
  9
$DIMSOXD
 70
0
  9
$DIMSAH
 70
0
  9
$DIMBLK1
  1

  9
$DIMBLK2
  1

  9
$DIMSTYLE
  2
*UNNAMED
  9
$DIMCLRD
 70
0
  9
$DIMCLRE
 70
0
  9
$DIMCLRT
 70
0
  9
$DIMTFAC
 40
1
  9
$DIMGAP
 40
0.09
  9
$LUNITS
 70
2
  9
$LUPREC
 70
4
  9
$AXISMODE
 70
0
  9
$AXISUNIT
 10
0
 20
0
  9
$SKETCHINC
 40
0.1
  9
$FILLETRAD
 40
2
  9
$AUNITS
 70
0
  9
$AUPREC
 70
0
  9
$MENU
  1
ACAD
  9
$ELEVATION
 40
0
  9
$THICKNESS
 40
0
  9
$VIEWDIR
 10
0
 20
0
 30
1
  9
$LIMCHECK
 70
0
  9
$BLIPMODE
 70
1
  9
$CHAMFERA
 40
0
  9
$CHAMFERB
 40
0
  9
$FASTZOOM
 70
1
  9
$SKPOLY
 70
0
  9
$ANGBASE
 50
0
  9
$ANGDIR
 70
0
  9
$PDMODE
 70
0
  9
$PDSIZE
 40
0
  9
$PLINEWID
 40
0
  9
$COORDS
 70
2
  0
ENDSEC
  0
SECTION
  2
TABLES
  0
TABLE
  2
DIMSTYLE
 70
6
  0
DIMSTYLE
  2
DMST_1
 70
0
  3

  4

  5

  6

  7

 40
1
 41
3.2
 42
1
 43
7
 44
1
 45
0
 46
0
 47
0
 48
0
140
3.2
141
0
142
0
143
25.4
144
1
145
0
146
1
147
0.09
 71
0
 72
0
 73
0
 74
0
 75
0
 76
0
 77
1
 78
9
170
0
171
2
172
0
173
0
174
0
175
0
176
2
177
2
178
2
  0
DIMSTYLE
  2
DMST_2
 70
0
  3

  4

  5

  6

  7

 40
1
 41
3.2
 42
1
 43
7
 44
1
 45
0
 46
0
 47
0
 48
0.02
140
3.2
141
0
142
0
143
25.4
144
1
145
0
146
0.6
147
0.09
 71
1
 72
0
 73
0
 74
0
 75
0
 76
0
 77
1
 78
9
170
0
171
2
172
0
173
0
174
0
175
0
176
2
177
2
178
2
  0
DIMSTYLE
  2
DMST_3
 70
0
  3

  4

  5

  6

  7

 40
1
 41
3.2
 42
1
 43
7
 44
1
 45
0
 46
0
 47
0.3
 48
0.3
140
3.2
141
0
142
0
143
25.4
144
1
145
0
146
0.6
147
0.09
 71
1
 72
0
 73
0
 74
0
 75
0
 76
0
 77
1
 78
9
170
0
171
2
172
0
173
0
174
0
175
0
176
2
177
2
178
2
  0
DIMSTYLE
  2
DMST_4
 70
0
  3

  4

  5

  6

  7

 40
1
 41
3.2
 42
1
 43
7
 44
1
 45
0
 46
0
 47
0.3
 48
0.3
140
3.2
141
0
142
0
143
25.4
144
1
145
0
146
0.5
147
0.09
 71
1
 72
0
 73
0
 74
0
 75
0
 76
0
 77
1
 78
9
170
0
171
2
172
0
173
0
174
0
175
0
176
2
177
2
178
2
  0
DIMSTYLE
  2
DMST_5
 70
0
  3

  4

  5

  6

  7

 40
1
 41
3.2
 42
1
 43
7
 44
1
 45
0
 46
0
 47
0.5
 48
0.5
140
3.2
141
0
142
0
143
25.4
144
1
145
0
146
0.6
147
0.09
 71
1
 72
0
 73
0
 74
0
 75
0
 76
0
 77
1
 78
9
170
0
171
2
172
0
173
0
174
0
175
0
176
2
177
2
178
2
  0
DIMSTYLE
  2
DMST_6
 70
0
  3
)
  4

  5

  6

  7

 40
1
 41
3.2
 42
1
 43
7
 44
1
 45
0
 46
0
 47
0
 48
0
140
3.2
141
0
142
0
143
25.4
144
1
145
0
146
1
147
0.09
 71
0
 72
0
 73
0
 74
0
 75
0
 76
0
 77
1
 78
9
170
0
171
2
172
0
173
0
174
0
175
0
176
2
177
2
178
2
  0
ENDTAB
  0
TABLE
  2
LTYPE
 70
9
  0
LTYPE
  2
CONTINUOUS
 70
64
  3
Solid line
 72
65
 73
0
 40
0
  0
LTYPE
  2
BORDER
 70
64
  3
__ __ . __ __ .
 72
65
 73
6
 40
17.91447368421053
 49
5.118421052631579
 49
-2.559210526315789
 49
5.118421052631579
 49
-2.559210526315789
 49
0
 49
-2.559210526315789
  0
LTYPE
  2
CENTER
 70
64
  3
____ _ ____ _
 72
65
 73
4
 40
20.47368421052632
 49
12.79605263157895
 49
-2.559210526315789
 49
2.559210526315789
 49
-2.559210526315789
  0
LTYPE
  2
DASHDOT
 70
64
  3
__ . __ . __ .
 72
65
 73
4
 40
10.23684210526316
 49
5.118421052631579
 49
-2.559210526315789
 49
0
 49
-2.559210526315789
  0
LTYPE
  2
DASHED
 70
64
  3
__ __ __ __ __
 72
65
 73
2
 40
7.677631578947368
 49
5.118421052631579
 49
-2.559210526315789
  0
LTYPE
  2
DIVIDE
 70
64
  3
__ . . __ . . 
 72
65
 73
6
 40
12.79605263157895
 49
5.118421052631579
 49
-2.559210526315789
 49
0
 49
-2.559210526315789
 49
0
 49
-2.559210526315789
  0
LTYPE
  2
DOT
 70
64
  3
..............
 72
65
 73
4
 40
5.118421052631579
 49
0
 49
-2.559210526315789
 49
0
 49
-2.559210526315789
  0
LTYPE
  2
HIDDEN
 70
64
  3
_ _ _ _ _ _ _
 72
65
 73
2
 40
3.838815789473684
 49
2.559210526315789
 49
-1.279605263157895
  0
LTYPE
  2
PHANTOM
 70
64
  3
_____ _ _ _____ _ _ 
 72
65
 73
6
 40
25.59210526315789
 49
12.79605263157895
 49
-2.559210526315789
 49
2.559210526315789
 49
-2.559210526315789
 49
2.559210526315789
 49
-2.559210526315789
  0
ENDTAB
  0
TABLE
  2
LAYER
 70
3
  0
LAYER
  2
1
 70
0
 62
7
  6
CONTINUOUS
  0
LAYER
  2
0
 70
0
 62
7
  6
CONTINUOUS
  0
ENDTAB
  0
TABLE
  2
STYLE
 70
4
  0
STYLE
  2
STANDARD
 70
0
 40
0
 41
1
 50
0
 71
0
 42
3.5
  3
txt
  4

  0
STYLE
  2
SIMPLEX
 70
0
 40
0
 41
1
 50
0
 71
0
 42
3.5
  3
simplex
  4

  0
STYLE
  2
COMPLEX
 70
0
 40
0
 41
1
 50
0
 71
0
 42
3.5
  3
complex
  4

  0
STYLE
  2
ITALIC
 70
0
 40
0
 41
1
 50
0
 71
0
 42
3.5
  3
italic
  4

  0
ENDTAB
  0
TABLE
  2
VIEW
 70
0
  0
ENDTAB
  0
ENDSEC
  0
SECTION
  2
BLOCKS
  0
BLOCK
  8
0
  2
___R___O_______R
 70
0
 10
0.5
 20
-3.75
 30
0
  0
LINE
  8
1
 62
4
  6
PHANTOM
 10
-194.5
 20
-146
 30
0
 11
194.5
 21
-146
 31
0
  0
LINE
  8
1
 62
4
  6
PHANTOM
 10
194.5
 20
146
 30
0
 11
-194.5
 21
146
 31
0
  0
LINE
  8
1
 62
4
  6
PHANTOM
 10
194.5
 20
146
 30
0
 11
194.5
 21
129
 31
0
  0
LINE
  8
1
 62
4
  6
PHANTOM
 10
-194.5
 20
-146
 30
0
 11
-194.5
 21
146
 31
0
  0
LINE
  8
1
 62
4
  6
PHANTOM
 10
194.5
 20
-136.5
 30
0
 11
194.5
 21
-146
 31
0
  0
TEXT
  8
1
 62
4
 10
178.746911898274
 20
-142.6071298819256
 30
0
 40
5
  1
A3
 41
0.9
 72
1
 73
2
 11
183.246911898274
 21
-140.1071298819256
 31
0
  0
ENDBLK
  8
0
  0
BLOCK
  8
1
  2
*D0
 70
1
 10
0
 20
0
 30
0
  0
LINE
  8
1
 62
2
 10
32.00000000000001
 20
52.4743656104027
 30
0
 11
76
 21
52.4743656104027
 31
0
  0
LINE
  8
1
 62
2
 10
76
 20
31
 30
0
 11
76
 21
53.4743656104027
 31
0
  0
LINE
  8
1
 62
2
 10
32.00000000000001
 20
30.5
 30
0
 11
32.00000000000001
 21
53.4743656104027
 31
0
  0
SOLID
  8
1
 62
2
 10
32.00000000000001
 20
52.4743656104027
 30
0
 11
35.20000000000002
 21
52.8903656104027
 31
0
 12
35.20000000000002
 22
52.0583656104027
 32
0
 13
35.20000000000002
 23
52.0583656104027
 33
0
  0
SOLID
  8
1
 62
2
 10
76
 20
52.4743656104027
 30
0
 11
72.8
 21
52.0583656104027
 31
0
 12
72.8
 22
52.8903656104027
 32
0
 13
72.8
 23
52.8903656104027
 33
0
  0
TEXT
  8
1
 62
2
 10
51.6
 20
53.4743656104027
 30
0
 40
3.2
  1
44
 41
0.9
  0
ENDBLK
  8
0
  0
BLOCK
  8
1
  2
*D1
 70
1
 10
0
 20
0
 30
0
  0
LINE
  8
1
 62
2
 10
27.00000000000002
 20
52.4743656104027
 30
0
 11
19.2768507062801
 21
52.4743656104027
 31
0
  0
LINE
  8
1
 62
2
 10
27.00000000000002
 20
52.4743656104027
 30
0
 11
32.00000000000001
 21
52.4743656104027
 31
0
  0
LINE
  8
1
 62
2
 10
38.40000000000001
 20
52.4743656104027
 30
0
 11
32.00000000000001
 21
52.4743656104027
 31
0
  0
LINE
  8
1
 62
2
 10
32.00000000000001
 20
30.5
 30
0
 11
32.00000000000001
 21
53.4743656104027
 31
0
  0
LINE
  8
1
 62
2
 10
27.00000000000002
 20
19.99981600930903
 30
0
 11
27.00000000000002
 21
53.4743656104027
 31
0
  0
SOLID
  8
1
 62
2
 10
27.00000000000002
 20
52.4743656104027
 30
0
 11
23.80000000000002
 21
52.0583656104027
 31
0
 12
23.80000000000002
 22
52.8903656104027
 32
0
 13
23.80000000000002
 23
52.8903656104027
 33
0
  0
SOLID
  8
1
 62
2
 10
32.00000000000001
 20
52.4743656104027
 30
0
 11
35.20000000000002
 21
52.8903656104027
 31
0
 12
35.20000000000002
 22
52.0583656104027
 32
0
 13
35.20000000000002
 23
52.0583656104027
 33
0
  0
TEXT
  8
1
 62
2
 10
19.2768507062801
 20
53.4743656104027
 30
0
 40
3.2
  1
5
 41
0.9
  0
ENDBLK
  8
0
  0
BLOCK
  8
1
  2
*D2
 70
1
 10
0
 20
0
 30
0
  0
LINE
  8
1
 62
2
 10
0
 20
52.4743656104027
 30
0
 11
13
 21
52.4743656104027
 31
0
  0
LINE
  8
1
 62
2
 10
13
 20
14
 30
0
 11
13
 21
53.4743656104027
 31
0
  0
LINE
  8
1
 62
2
 10
0
 20
14
 30
0
 11
0
 21
53.4743656104027
 31
0
  0
SOLID
  8
1
 62
2
 10
0
 20
52.4743656104027
 30
0
 11
3.200000000000001
 21
52.8903656104027
 31
0
 12
3.200000000000001
 22
52.0583656104027
 32
0
 13
3.200000000000001
 23
52.0583656104027
 33
0
  0
SOLID
  8
1
 62
2
 10
13
 20
52.4743656104027
 30
0
 11
9.799999999999999
 21
52.0583656104027
 31
0
 12
9.799999999999999
 22
52.8903656104027
 32
0
 13
9.799999999999999
 23
52.8903656104027
 33
0
  0
TEXT
  8
1
 62
2
 10
4.58
 20
53.4743656104027
 30
0
 40
3.2
  1
13
 41
0.9
  0
ENDBLK
  8
0
  0
BLOCK
  8
1
  2
*D3
 70
1
 10
0
 20
0
 30
0
  0
LINE
  8
1
 62
2
 10
0
 20
64.54665494709951
 30
0
 11
32.00000000000002
 21
64.54665494709951
 31
0
  0
LINE
  8
1
 62
2
 10
0
 20
13.99999999999999
 30
0
 11
0
 21
65.54665494709951
 31
0
  0
LINE
  8
1
 62
2
 10
32.00000000000002
 20
30.49999999999999
 30
0
 11
32.00000000000002
 21
65.54665494709951
 31
0
  0
SOLID
  8
1
 62
2
 10
0
 20
64.54665494709951
 30
0
 11
3.200000000000001
 21
64.96265494709951
 31
0
 12
3.200000000000001
 22
64.13065494709952
 32
0
 13
3.200000000000001
 23
64.13065494709952
 33
0
  0
SOLID
  8
1
 62
2
 10
32.00000000000002
 20
64.54665494709951
 30
0
 11
28.80000000000002
 21
64.13065494709952
 31
0
 12
28.80000000000002
 22
64.96265494709951
 32
0
 13
28.80000000000002
 23
64.96265494709951
 33
0
  0
TEXT
  8
1
 62
2
 10
13.60000000000001
 20
65.54665494709951
 30
0
 40
3.2
  1
32
 41
0.9
  0
ENDBLK
  8
0
  0
BLOCK
  8
1
  2
*D4
 70
1
 10
0
 20
0
 30
0
  0
LINE
  8
1
 62
2
 10
-33.9611928062272
 20
1.000183990691031
 30
0
 11
-33.9611928062272
 21
18.99981600930903
 31
0
  0
LINE
  8
1
 62
2
 10
-33.9611928062272
 20
18.99981600930903
 30
0
 11
-33.9611928062272
 21
32.35308191949012
 31
0
  0
LINE
  8
1
 62
2
 10
26.00000000000002
 20
1.000183990691031
 30
0
 11
-34.9611928062272
 21
1.000183990691031
 31
0
  0
LINE
  8
1
 62
2
 10
26.00000000000002
 20
18.99981600930903
 30
0
 11
-34.9611928062272
 21
18.99981600930903
 31
0
  0
SOLID
  8
1
 62
2
 10
-33.9611928062272
 20
18.99981600930903
 30
0
 11
-33.5451928062272
 21
15.79981600930903
 31
0
 12
-34.3771928062272
 22
15.79981600930903
 32
0
 13
-34.3771928062272
 23
15.79981600930903
 33
0
  0
SOLID
  8
1
 62
2
 10
-33.9611928062272
 20
1.000183990691031
 30
0
 11
-34.3771928062272
 21
4.200183990691032
 31
0
 12
-33.5451928062272
 22
4.200183990691032
 32
0
 13
-33.5451928062272
 23
4.200183990691032
 33
0
  0
TEXT
  8
1
 62
2
 10
-34.9611928062272
 20
28.51308191949012
 30
0
 40
3.2
  1
18
 50
90
 41
0.9
  0
TEXT
  8
1
 62
2
 10
-34.9611928062272
 20
24.86863747504568
 30
0
 40
3.2
  1
âË
 50
90
 41
0.9
  0
ENDBLK
  8
0
  0
BLOCK
  8
1
  2
*D5
 70
1
 10
0
 20
0
 30
0
  0
LINE
  8
1
 62
2
 10
-22.0240796354787
 20
-0.3999999999999986
 30
0
 11
-22.0240796354787
 21
6
 31
0
  0
LINE
  8
1
 62
2
 10
-22.0240796354787
 20
6
 30
0
 11
-22.0240796354787
 21
14.00024539811398
 31
0
  0
LINE
  8
1
 62
2
 10
-22.0240796354787
 20
14.00024539811398
 30
0
 11
-22.0240796354787
 21
38.14718495889362
 31
0
  0
LINE
  8
1
 62
2
 10
-1
 20
6
 30
0
 11
-23.0240796354787
 21
6
 31
0
  0
LINE
  8
1
 62
2
 10
17.38580273375917
 20
14.00024539811398
 30
0
 11
-23.0240796354787
 21
14.00024539811398
 31
0
  0
SOLID
  8
1
 62
2
 10
-22.0240796354787
 20
14.00024539811398
 30
0
 11
-22.4400796354787
 21
17.20024539811398
 31
0
 12
-21.60807963547871
 22
17.20024539811398
 32
0
 13
-21.60807963547871
 23
17.20024539811398
 33
0
  0
SOLID
  8
1
 62
2
 10
-22.0240796354787
 20
6
 30
0
 11
-21.6080796354787
 21
2.799999999999999
 31
0
 12
-22.4400796354787
 22
2.799999999999999
 32
0
 13
-22.4400796354787
 23
2.799999999999999
 33
0
  0
TEXT
  8
1
 62
2
 10
-23.8240796354787
 20
27.85918495889362
 30
0
 40
3.2
  1
8
 50
90
 41
0.9
  0
TEXT
  8
1
 62
2
 10
-25.9040796354787
 20
31.37918495889362
 30
0
 40
1.92
  1
 0
 50
90
 41
0.9
  0
TEXT
  8
1
 62
2
 10
-23.0240796354787
 20
31.37918495889362
 30
0
 40
1.92
  1
-0.02
 50
90
 41
0.9
  0
TEXT
  8
1
 62
2
 10
-23.8240796354787
 20
24.21474051444918
 30
0
 40
3.2
  1
âË
 50
90
 41
0.9
  0
ENDBLK
  8
0
  0
BLOCK
  8
1
  2
*D6
 70
1
 10
0
 20
0
 30
0
  0
LINE
  8
1
 62
2
 10
-9.9735644384611
 20
-0.4000000000000021
 30
0
 11
-9.9735644384611
 21
6
 31
0
  0
LINE
  8
1
 62
2
 10
-9.9735644384611
 20
6
 30
0
 11
-9.9735644384611
 21
13
 31
0
  0
LINE
  8
1
 62
2
 10
-9.9735644384611
 20
13
 30
0
 11
-9.9735644384611
 21
34.5082617235369
 31
0
  0
LINE
  8
1
 62
2
 10
-1
 20
6
 30
0
 11
-10.9735644384611
 21
6
 31
0
  0
LINE
  8
1
 62
2
 10
-1
 20
13
 30
0
 11
-10.9735644384611
 21
13
 31
0
  0
SOLID
  8
1
 62
2
 10
-9.9735644384611
 20
13
 30
0
 11
-10.3895644384611
 21
16.2
 31
0
 12
-9.557564438461101
 22
16.2
 32
0
 13
-9.557564438461101
 23
16.2
 33
0
  0
SOLID
  8
1
 62
2
 10
-9.9735644384611
 20
6
 30
0
 11
-9.557564438461101
 21
2.799999999999999
 31
0
 12
-10.3895644384611
 22
2.799999999999999
 32
0
 13
-10.3895644384611
 23
2.799999999999999
 33
0
  0
TEXT
  8
1
 62
2
 10
-10.9735644384611
 20
26.1402617235369
 30
0
 40
3.2
  1
7
 50
90
 41
0.9
  0
TEXT
  8
1
 62
2
 10
-11.6135644384611
 20
29.6602617235369
 30
0
 40
1.92
  1
%%p0.3
 50
90
 41
0.9
  0
ENDBLK
  8
0
  0
BLOCK
  8
1
  2
*D7
 70
1
 10
0
 20
0
 30
0
  0
LINE
  8
1
 62
2
 10
-46.9880333195256
 20
-24.75
 30
0
 11
-46.9880333195256
 21
24.75
 31
0
  0
LINE
  8
1
 62
2
 10
-67.99999999999987
 20
-24.75
 30
0
 11
-45.9880333195256
 21
-24.75
 31
0
  0
LINE
  8
1
 62
2
 10
-67.99999999999987
 20
24.75
 30
0
 11
-45.9880333195256
 21
24.75
 31
0
  0
SOLID
  8
1
 62
2
 10
-46.9880333195256
 20
-24.75
 30
0
 11
-47.4040333195256
 21
-21.55
 31
0
 12
-46.5720333195256
 22
-21.55
 32
0
 13
-46.5720333195256
 23
-21.55
 33
0
  0
SOLID
  8
1
 62
2
 10
-46.9880333195256
 20
24.75
 30
0
 11
-46.5720333195256
 21
21.55
 31
0
 12
-47.4040333195256
 22
21.55
 32
0
 13
-47.4040333195256
 23
21.55
 33
0
  0
TEXT
  8
1
 62
2
 10
-47.9880333195256
 20
-7.18
 30
0
 40
3.2
  1
49.5
 50
90
 41
0.9
  0
TEXT
  8
1
 62
2
 10
-48.7880333195256
 20
3.140000000000001
 30
0
 40
1.6
  1
%%p0.3
 50
90
 41
0.9
  0
ENDBLK
  8
0
  0
BLOCK
  8
1
  2
*D8
 70
1
 10
0
 20
0
 30
0
  0
LINE
  8
1
 62
2
 10
-124.2499999999999
 20
40.4412251103172
 30
0
 11
-74.74999999999987
 21
40.4412251103172
 31
0
  0
LINE
  8
1
 62
2
 10
-124.2499999999999
 20
31.5
 30
0
 11
-124.2499999999999
 21
41.4412251103172
 31
0
  0
LINE
  8
1
 62
2
 10
-74.74999999999987
 20
31.5
 30
0
 11
-74.74999999999987
 21
41.4412251103172
 31
0
  0
SOLID
  8
1
 62
2
 10
-124.2499999999999
 20
40.4412251103172
 30
0
 11
-121.0499999999999
 21
40.8572251103172
 31
0
 12
-121.0499999999999
 22
40.0252251103172
 32
0
 13
-121.0499999999999
 23
40.0252251103172
 33
0
  0
SOLID
  8
1
 62
2
 10
-74.74999999999987
 20
40.4412251103172
 30
0
 11
-77.94999999999988
 21
40.0252251103172
 31
0
 12
-77.94999999999988
 22
40.8572251103172
 32
0
 13
-77.94999999999988
 23
40.8572251103172
 33
0
  0
TEXT
  8
1
 62
2
 10
-106.6799999999999
 20
41.4412251103172
 30
0
 40
3.2
  1
49.5
 41
0.9
  0
TEXT
  8
1
 62
2
 10
-96.35999999999989
 20
42.2412251103172
 30
0
 40
1.6
  1
%%p0.3
 41
0.9
  0
ENDBLK
  8
0
  0
BLOCK
  8
1
  2
*D9
 70
1
 10
0
 20
0
 30
0
  0
LINE
  8
1
 62
2
 10
-58.9745585791949
 20
0
 30
0
 11
-58.9745585791949
 21
10
 31
0
  0
LINE
  8
1
 62
2
 10
-58.9745585791949
 20
0
 30
0
 11
-58.9745585791949
 21
-17.2370059486526
 31
0
  0
LINE
  8
1
 62
2
 10
-67.99999999999987
 20
0
 30
0
 11
-57.9745585791949
 21
0
 31
0
  0
LINE
  8
1
 62
2
 10
-89.5
 20
10
 30
0
 11
-57.9745585791949
 21
10
 31
0
  0
SOLID
  8
1
 62
2
 10
-58.9745585791949
 20
10
 30
0
 11
-58.5585585791949
 21
6.799999999999999
 31
0
 12
-59.3905585791949
 22
6.799999999999999
 32
0
 13
-59.3905585791949
 23
6.799999999999999
 33
0
  0
SOLID
  8
1
 62
2
 10
-58.9745585791949
 20
0
 30
0
 11
-59.3905585791949
 21
3.200000000000001
 31
0
 12
-58.5585585791949
 22
3.200000000000001
 32
0
 13
-58.5585585791949
 23
3.200000000000001
 33
0
  0
TEXT
  8
1
 62
2
 10
-59.9745585791949
 20
-17.2370059486526
 30
0
 40
3.2
  1
10
 50
90
 41
0.9
  0
TEXT
  8
1
 62
2
 10
-60.6145585791949
 20
-11.7970059486526
 30
0
 40
1.92
  1
%%p0.5
 50
90
 41
0.9
  0
ENDBLK
  8
0
  0
BLOCK
  8
1
  2
*D10
 70
1
 10
0
 20
0
 30
0
  0
LINE
  8
1
 62
2
 10
-130
 20
52.3764387316521
 30
0
 11
-69
 21
52.3764387316521
 31
0
  0
LINE
  8
1
 62
2
 10
-130
 20
26.5
 30
0
 11
-130
 21
53.3764387316521
 31
0
  0
LINE
  8
1
 62
2
 10
-69
 20
26.5
 30
0
 11
-69
 21
53.3764387316521
 31
0
  0
SOLID
  8
1
 62
2
 10
-130
 20
52.3764387316521
 30
0
 11
-126.8
 21
52.7924387316521
 31
0
 12
-126.8
 22
51.9604387316521
 32
0
 13
-126.8
 23
51.9604387316521
 33
0
  0
SOLID
  8
1
 62
2
 10
-69
 20
52.3764387316521
 30
0
 11
-72.2
 21
51.9604387316521
 31
0
 12
-72.2
 22
52.7924387316521
 32
0
 13
-72.2
 23
52.7924387316521
 33
0
  0
TEXT
  8
1
 62
2
 10
-99.33111111111111
 20
53.3764387316521
 30
0
 40
3.2
  1
61
 41
0.9
  0
TEXT
  8
1
 62
2
 10
-103.5088888888889
 20
53.3764387316521
 30
0
 40
3.2
  1
üá
 41
0.9
  0
ENDBLK
  8
0
  0
BLOCK
  8
1
  2
*D11
 70
1
 10
0
 20
0
 30
0
  0
LINE
  8
1
 62
2
 10
32.00000000000001
 20
64.5459719570546
 30
0
 11
133.6000000000005
 21
64.5459719570546
 31
0
  0
LINE
  8
1
 62
2
 10
133.6000000000005
 20
11
 30
0
 11
133.6000000000005
 21
65.5459719570546
 31
0
  0
LINE
  8
1
 62
2
 10
32.00000000000001
 20
30.5
 30
0
 11
32.00000000000001
 21
65.5459719570546
 31
0
  0
SOLID
  8
1
 62
2
 10
32.00000000000001
 20
64.5459719570546
 30
0
 11
35.20000000000001
 21
64.9619719570546
 31
0
 12
35.20000000000001
 22
64.12997195705461
 32
0
 13
35.20000000000001
 23
64.12997195705461
 33
0
  0
SOLID
  8
1
 62
2
 10
133.6000000000005
 20
64.5459719570546
 30
0
 11
130.4000000000005
 21
64.12997195705461
 31
0
 12
130.4000000000005
 22
64.9619719570546
 32
0
 13
130.4000000000005
 23
64.9619719570546
 33
0
  0
TEXT
  8
1
 62
2
 10
77.96000000000026
 20
65.5459719570546
 30
0
 40
3.2
  1
101.6
 41
0.9
  0
ENDBLK
  8
0
  0
BLOCK
  8
1
  2
*D12
 70
1
 10
0
 20
0
 30
0
  0
LINE
  8
1
 62
2
 10
153.5107268404731
 20
-22
 30
0
 11
153.5107268404731
 21
22
 31
0
  0
LINE
  8
1
 62
2
 10
128.0000000000015
 20
22
 30
0
 11
154.5107268404731
 21
22
 31
0
  0
LINE
  8
1
 62
2
 10
128
 20
-22
 30
0
 11
154.5107268404731
 21
-22
 31
0
  0
SOLID
  8
1
 62
2
 10
153.5107268404731
 20
22
 30
0
 11
153.9267268404731
 21
18.8
 31
0
 12
153.0947268404731
 22
18.8
 32
0
 13
153.0947268404731
 23
18.8
 33
0
  0
SOLID
  8
1
 62
2
 10
153.5107268404731
 20
-22
 30
0
 11
153.0947268404731
 21
-18.8
 31
0
 12
153.9267268404731
 22
-18.8
 32
0
 13
153.9267268404731
 23
-18.8
 33
0
  0
TEXT
  8
1
 62
2
 10
152.5107268404731
 20
-0.577777777777778
 30
0
 40
3.2
  1
44
 50
90
 41
0.9
  0
TEXT
  8
1
 62
2
 10
152.5107268404731
 20
-4.222222222222222
 30
0
 40
3.2
  1
âË
 50
90
 41
0.9
  0
ENDBLK
  8
0
  0
BLOCK
  8
1
  2
*D13
 70
1
 10
0
 20
0
 30
0
  0
LINE
  8
1
 62
2
 10
141.5121336719101
 20
-69.78233801184217
 30
0
 11
141.5121336719101
 21
-58.50993385985932
 31
0
  0
LINE
  8
1
 62
2
 10
141.5121336719101
 20
-72.78233801184217
 30
0
 11
141.5121336719101
 21
-69.78233801184217
 31
0
  0
LINE
  8
1
 62
2
 10
141.5121336719101
 20
-79.18233801184218
 30
0
 11
141.5121336719101
 21
-72.78233801184217
 31
0
  0
LINE
  8
1
 62
2
 10
125.3943369725352
 20
-69.78233801184217
 30
0
 11
142.5121336719101
 21
-69.78233801184217
 31
0
  0
LINE
  8
1
 62
2
 10
125.0968821351011
 20
-72.78233801184217
 30
0
 11
142.5121336719101
 21
-72.78233801184217
 31
0
  0
SOLID
  8
1
 62
2
 10
141.5121336719101
 20
-69.78233801184217
 30
0
 11
141.0961336719101
 21
-66.58233801184217
 31
0
 12
141.9281336719101
 22
-66.58233801184217
 32
0
 13
141.9281336719101
 23
-66.58233801184217
 33
0
  0
SOLID
  8
1
 62
2
 10
141.5121336719101
 20
-72.78233801184217
 30
0
 11
141.9281336719101
 21
-75.98233801184217
 31
0
 12
141.0961336719101
 22
-75.98233801184217
 32
0
 13
141.0961336719101
 23
-75.98233801184217
 33
0
  0
TEXT
  8
1
 62
2
 10
140.5121336719101
 20
-62.50993385985932
 30
0
 40
3.2
  1
3
 50
90
 41
0.9
  0
TEXT
  8
1
 62
2
 10
140.5121336719101
 20
-64.58993385985933
 30
0
 40
3.2
  1
(
 50
90
 41
0.9
  0
TEXT
  8
1
 62
2
 10
140.5121336719101
 20
-58.98993385985932
 30
0
 40
3.2
  1
)
 50
90
 41
0.9
  0
ENDBLK
  8
0
  0
BLOCK
  8
1
  2
*D14
 70
1
 10
0
 20
0
 30
0
  0
LINE
  8
1
 62
2
 10
153.5378928043181
 20
-72.78233801184217
 30
0
 11
153.5378928043181
 21
-42.620299896492
 31
0
  0
LINE
  8
1
 62
2
 10
125.0968821351011
 20
-72.78233801184217
 30
0
 11
154.5378928043181
 21
-72.78233801184217
 31
0
  0
SOLID
  8
1
 62
2
 10
153.5378928043181
 20
-72.78233801184217
 30
0
 11
153.1218928043181
 21
-69.58233801184217
 31
0
 12
153.9538928043181
 22
-69.58233801184217
 32
0
 13
153.9538928043181
 23
-69.58233801184217
 33
0
  0
TEXT
  8
1
 62
2
 10
152.5378928043181
 20
-55.164299896492
 30
0
 40
3.2
  1
150
 50
90
 41
0.9
  0
TEXT
  8
1
 62
2
 10
151.8978928043181
 20
-46.844299896492
 30
0
 40
1.92
  1
%%p20
 50
90
 41
0.9
  0
ENDBLK
  8
0
  0
BLOCK
  8
1
  2
*D15
 70
1
 10
0
 20
0
 30
0
  0
LINE
  8
1
 62
2
 10
-59.78824223255681
 20
-45.452804576917
 30
0
 11
-8.8282422325568
 21
-45.452804576917
 31
0
  0
LINE
  8
1
 62
2
 10
-73.57851814873257
 20
-26.37099669097482
 30
0
 11
-59.78824223255681
 21
-45.452804576917
 31
0
  0
SOLID
  8
1
 62
2
 10
-73.57851814873257
 20
-26.37099669097482
 30
0
 11
-71.36697987498212
 21
-28.72092317147094
 31
0
 12
-72.04131449842764
 22
-29.20825962159814
 32
0
 13
-72.04131449842764
 23
-29.20825962159814
 33
0
  0
TEXT
  8
1
 62
2
 10
-45.3082422325568
 20
-44.452804576917
 30
0
 40
3.2
  1
4
 41
0.9
  0
TEXT
  8
1
 62
2
 10
-54.58824223255679
 20
-44.452804576917
 30
0
 40
3.2
  1
4-M
 41
0.9
  0
TEXT
  8
1
 62
2
 10
-41.7882422325568
 20
-44.452804576917
 30
0
 40
3.2
  1
 DEPTH 6MAX
 41
0.9
  0
ENDBLK
  8
0
  0
ENDSEC
  0
SECTION
  2
ENTITIES
  0
LINE
  8
0
 62
3
 10
-83.2
 20
11.8
 30
0
 11
-76.2
 21
11.8
 31
0
  0
LINE
  8
0
 62
7
 10
-102.145751311064
 20
13
 30
0
 11
-96.8542486889351
 21
13
 31
0
  0
LINE
  8
0
 62
3
 10
-76.2
 20
11.8
 30
0
 11
-75.2
 21
11.8
 31
0
  0
LINE
  8
0
 62
3
 10
-123.8
 20
11.8
 30
0
 11
-115.8
 21
11.8
 31
0
  0
LINE
  8
0
 62
3
 10
-119.8
 20
15.8
 30
0
 11
-119.8
 21
7.800000000000002
 31
0
  0
LINE
  8
0
 62
3
 10
-79.2
 20
15.8
 30
0
 11
-79.2
 21
7.800000000000001
 31
0
  0
LINE
  8
0
 62
3
 10
-99.5
 20
34.5
 30
0
 11
-99.5
 21
-34.5
 31
0
  0
LINE
  8
1
 62
7
 10
-78.19411764705906
 20
12.09999999999995
 30
0
 11
-77.80000000000014
 21
12.09999999999995
 31
0
  0
LINE
  8
1
 62
7
 10
-78.19411764705906
 20
11.50000000000005
 30
0
 11
-77.80000000000014
 21
11.50000000000005
 31
0
  0
LINE
  8
1
 62
7
 10
-78.2
 20
12.09999999999995
 30
0
 11
-78.19411764705906
 21
12.09999999999995
 31
0
  0
LINE
  8
1
 62
7
 10
-78.2
 20
11.50000000000005
 30
0
 11
-78.19411764705906
 21
11.50000000000005
 31
0
  0
LINE
  8
1
 62
7
 10
-78.90000000000005
 20
10.8
 30
0
 11
-78.90000000000005
 21
10.40000000000002
 31
0
  0
LINE
  8
1
 62
7
 10
-79.40000000000005
 20
13.3
 30
0
 11
-78.99999999999996
 21
13.3
 31
0
  0
LINE
  8
1
 62
7
 10
-79.40000000000005
 20
10.3
 30
0
 11
-78.99999999999996
 21
10.3
 31
0
  0
LINE
  8
1
 62
7
 10
-77.7
 20
12.00000000000005
 30
0
 11
-77.7
 21
11.59999999999995
 31
0
  0
LINE
  8
1
 62
7
 10
-80.7
 20
12.00000000000005
 30
0
 11
-80.7
 21
11.59999999999995
 31
0
  0
LINE
  8
1
 62
7
 10
-80.60000000000009
 20
12.09999999999995
 30
0
 11
-80.2
 21
12.09999999999995
 31
0
  0
LINE
  8
1
 62
7
 10
-80.60000000000009
 20
11.50000000000005
 30
0
 11
-80.2
 21
11.50000000000005
 31
0
  0
LINE
  8
1
 62
7
 10
-79.49999999999996
 20
10.40000000000002
 30
0
 11
-79.49999999999996
 21
10.8
 31
0
  0
LINE
  8
1
 62
7
 10
-79.49999999999996
 20
13.19999999999998
 30
0
 11
-79.49999999999996
 21
12.8
 31
0
  0
LINE
  8
1
 62
7
 10
-78.90000000000005
 20
13.19999999999998
 30
0
 11
-78.90000000000005
 21
12.8
 31
0
  0
LINE
  8
1
 62
7
 10
-118.7941176470591
 20
12.09999999999995
 30
0
 11
-118.4
 21
12.09999999999995
 31
0
  0
LINE
  8
1
 62
7
 10
-118.7941176470591
 20
11.50000000000005
 30
0
 11
-118.4
 21
11.50000000000005
 31
0
  0
LINE
  8
1
 62
7
 10
-118.8
 20
12.09999999999995
 30
0
 11
-118.7941176470591
 21
12.09999999999995
 31
0
  0
LINE
  8
1
 62
7
 10
-118.8
 20
11.50000000000005
 30
0
 11
-118.7941176470591
 21
11.50000000000005
 31
0
  0
LINE
  8
1
 62
7
 10
-119.5
 20
10.8
 30
0
 11
-119.5
 21
10.40000000000002
 31
0
  0
LINE
  8
1
 62
7
 10
-120
 20
13.3
 30
0
 11
-119.6000000000001
 21
13.3
 31
0
  0
LINE
  8
1
 62
7
 10
-120
 20
10.3
 30
0
 11
-119.6000000000001
 21
10.3
 31
0
  0
LINE
  8
1
 62
7
 10
-118.3
 20
12.00000000000005
 30
0
 11
-118.3
 21
11.59999999999995
 31
0
  0
LINE
  8
1
 62
7
 10
-121.3
 20
12.00000000000005
 30
0
 11
-121.3
 21
11.59999999999995
 31
0
  0
LINE
  8
1
 62
7
 10
-121.2000000000001
 20
12.09999999999995
 30
0
 11
-120.8
 21
12.09999999999995
 31
0
  0
LINE
  8
1
 62
7
 10
-121.2000000000001
 20
11.50000000000005
 30
0
 11
-120.8
 21
11.50000000000005
 31
0
  0
LINE
  8
1
 62
7
 10
-120.1000000000001
 20
10.40000000000002
 30
0
 11
-120.1000000000001
 21
10.8
 31
0
  0
LINE
  8
1
 62
7
 10
-120.1000000000001
 20
13.19999999999998
 30
0
 11
-120.1000000000001
 21
12.8
 31
0
  0
LINE
  8
1
 62
7
 10
-119.5
 20
13.19999999999998
 30
0
 11
-119.5
 21
12.8
 31
0
  0
LINE
  8
1
 62
7
 10
-120.5
 20
30.5
 30
0
 11
-120.5
 21
25.5
 31
0
  0
LINE
  8
1
 62
7
 10
-130
 20
21
 30
0
 11
-125
 21
21
 31
0
  0
LINE
  8
1
 62
7
 10
-120.5
 20
-30.5
 30
0
 11
-120.5
 21
-25.5
 31
0
  0
LINE
  8
1
 62
7
 10
-69
 20
-21.00000000000001
 30
0
 11
-74
 21
-21.00000000000001
 31
0
  0
LINE
  8
1
 62
7
 10
-78.5
 20
30.49999999999999
 30
0
 11
-78.5
 21
25.49999999999999
 31
0
  0
LINE
  8
1
 62
7
 10
-130
 20
-21
 30
0
 11
-125
 21
-21
 31
0
  0
LINE
  8
1
 62
7
 10
-78.5
 20
-30.50000000000001
 30
0
 11
-78.5
 21
-25.50000000000001
 31
0
  0
LINE
  8
1
 62
7
 10
-69
 20
20.99999999999999
 30
0
 11
-74
 21
20.99999999999999
 31
0
  0
LINE
  8
0
 62
3
 10
-111.5
 20
10
 30
0
 11
-90.5
 21
10
 31
0
  0
LINE
  8
1
 62
7
 10
32.5
 20
-21
 30
0
 11
33
 21
-21
 31
0
  0
LINE
  8
1
 62
7
 10
33
 20
21
 30
0
 11
33
 21
-21
 31
0
  0
LINE
  8
1
 62
7
 10
33
 20
21
 30
0
 11
32.5
 21
21
 31
0
  0
LINE
  8
0
 62
7
 10
76
 20
-30
 30
0
 11
74
 21
-30
 31
0
  0
LINE
  8
0
 62
7
 10
74
 20
30
 30
0
 11
76
 21
30
 31
0
  0
LINE
  8
1
 62
7
 10
76
 20
-30
 30
0
 11
76
 21
30
 31
0
  0
LINE
  8
1
 62
7
 10
77.33360848093707
 20
-28.20403352100783
 30
0
 11
76.10871557427504
 21
-28.2496194698092
 31
0
  0
LINE
  8
1
 62
7
 10
77.33360848093707
 20
-21.29596647899217
 30
0
 11
76.10871557427504
 21
-21.2503805301908
 31
0
  0
LINE
  8
1
 62
7
 10
77.33360848093707
 20
21.29596647899228
 30
0
 11
76.10871557427504
 21
21.25038053019085
 31
0
  0
LINE
  8
1
 62
7
 10
77.33360848093707
 20
28.20403352100777
 30
0
 11
76.10871557427504
 21
28.2496194698092
 31
0
  0
LINE
  8
0
 62
7
 10
74
 20
30.5
 30
0
 11
74
 21
-30.5
 31
0
  0
LINE
  8
1
 62
7
 10
18.38580273375919
 20
14.00024539811398
 30
0
 11
27.00000000000002
 21
13.99965458923566
 31
0
  0
LINE
  8
1
 62
7
 10
27.00000000000002
 20
18.99981600930903
 30
0
 11
27.00000000000002
 21
1.000183990691028
 31
0
  0
LINE
  8
1
 62
7
 10
0
 20
13
 30
0
 11
13
 21
13
 31
0
  0
LINE
  8
0
 62
7
 10
0
 20
6
 30
0
 11
27.00000000000002
 21
6
 31
0
  0
LINE
  8
0
 62
7
 10
0
 20
6
 30
0
 11
0
 21
13
 31
0
  0
LINE
  8
0
 62
3
 10
28.00000000000002
 20
24.75
 30
0
 11
80
 21
24.75
 31
0
  0
LINE
  8
1
 62
7
 10
27.00000000000002
 20
18.99981600930903
 30
0
 11
33
 21
18.99981600930903
 31
0
  0
LINE
  8
1
 62
7
 10
27.00000000000002
 20
1.000183990691028
 30
0
 11
33
 21
1.000183990691028
 31
0
  0
LINE
  8
1
 62
7
 10
32.00000000000001
 20
-29.5
 30
0
 11
32
 21
-21.5
 31
0
  0
LINE
  8
1
 62
7
 10
74
 20
-30.5
 30
0
 11
33
 21
-30.5
 31
0
  0
LINE
  8
1
 62
7
 10
74
 20
30.5
 30
0
 11
33
 21
30.5
 31
0
  0
LINE
  8
1
 62
7
 10
32.00000000000001
 20
29.5
 30
0
 11
32
 21
21.5
 31
0
  0
LINE
  8
0
 62
3
 10
80
 20
-24.75
 30
0
 11
28.00000000000002
 21
-24.75
 31
0
  0
LINE
  8
0
 62
3
 10
-2.975952470580978
 20
10
 30
0
 11
36.19246060264798
 21
10
 31
0
  0
LINE
  8
1
 62
7
 10
42.82802146673812
 20
31.595538861926
 30
0
 11
61.55083723738899
 21
31.595538861926
 31
0
  0
LINE
  8
1
 62
3
 10
-124.2499999999999
 20
30.5
 30
0
 11
-124.2499999999999
 21
32.40783652817061
 31
0
  0
LINE
  8
1
 62
3
 10
-74.74999999999987
 20
30.5
 30
0
 11
-74.74999999999987
 21
18.99999999999999
 31
0
  0
LINE
  8
1
 62
3
 10
-68.99999999999987
 20
24.75
 30
0
 11
-80.5
 21
24.75
 31
0
  0
LINE
  8
1
 62
3
 10
-68.99999999999987
 20
-24.75
 30
0
 11
-80.5
 21
-24.75
 31
0
  0
LINE
  8
1
 62
3
 10
-87.94541850249919
 20
10
 30
0
 11
-90.5
 21
10
 31
0
  0
LINE
  8
1
 62
3
 10
-68.99999999999987
 20
0
 30
0
 11
-65
 21
0
 31
0
  0
LINE
  8
1
 62
2
 10
-59.385371360082
 20
-52.5
 30
0
 11
-8.448629677946315
 21
-52.5
 31
0
  0
LINE
  8
1
 62
7
 10
-69
 20
-25.5
 30
0
 11
-69
 21
25.5
 31
0
  0
LINE
  8
1
 62
3
 10
-67
 20
24.75
 30
0
 11
-68.99999999999987
 21
24.75
 31
0
  0
LINE
  8
1
 62
3
 10
-132
 20
24.75
 30
0
 11
-118.5
 21
24.75
 31
0
  0
LINE
  8
1
 62
3
 10
-118.5
 20
-24.75
 30
0
 11
-132
 21
-24.75
 31
0
  0
LINE
  8
1
 62
3
 10
-67
 20
-24.75
 30
0
 11
-68.99999999999987
 21
-24.75
 31
0
  0
LINE
  8
1
 62
3
 10
-124.2499999999999
 20
18.99999999999999
 30
0
 11
-124.2499999999999
 21
30.5
 31
0
  0
LINE
  8
1
 62
3
 10
-74.74999999999987
 20
-32.5
 30
0
 11
-74.74999999999987
 21
-19
 31
0
  0
LINE
  8
1
 62
7
 10
-74
 20
30.5
 30
0
 11
-125
 21
30.5
 31
0
  0
LINE
  8
1
 62
7
 10
-125
 20
-30.5
 30
0
 11
-74
 21
-30.5
 31
0
  0
LINE
  8
1
 62
3
 10
-103.4999999999999
 20
-23.5
 30
0
 11
-95.5000000000001
 21
-23.5
 31
0
  0
LINE
  8
1
 62
3
 10
-124.2499999999999
 20
-19
 30
0
 11
-124.2499999999999
 21
-32.5
 31
0
  0
LINE
  8
1
 62
3
 10
-74.74999999999987
 20
32.5
 30
0
 11
-74.74999999999987
 21
30.5
 31
0
  0
LINE
  8
1
 62
3
 10
-134
 20
0
 30
0
 11
-68.99999999999987
 21
0
 31
0
  0
LINE
  8
1
 62
7
 10
-130
 20
25.5
 30
0
 11
-130
 21
-25.5
 31
0
  0
LINE
  8
1
 62
7
 10
-98.4941176470589
 20
-23.19999999999999
 30
0
 11
-98.09999999999999
 21
-23.19999999999999
 31
0
  0
LINE
  8
1
 62
7
 10
-98.4941176470589
 20
-23.80000000000001
 30
0
 11
-98.09999999999999
 21
-23.80000000000001
 31
0
  0
LINE
  8
1
 62
7
 10
-98.5
 20
-23.19999999999999
 30
0
 11
-98.4941176470589
 21
-23.19999999999999
 31
0
  0
LINE
  8
1
 62
7
 10
-98.5
 20
-23.80000000000001
 30
0
 11
-98.4941176470589
 21
-23.80000000000001
 31
0
  0
LINE
  8
1
 62
7
 10
-99.2
 20
-24.5
 30
0
 11
-99.2
 21
-24.89999999999998
 31
0
  0
LINE
  8
1
 62
7
 10
-99.7
 20
-22
 30
0
 11
-99.3
 21
-22
 31
0
  0
LINE
  8
1
 62
7
 10
-99.7
 20
-25
 30
0
 11
-99.3
 21
-25
 31
0
  0
LINE
  8
1
 62
7
 10
-98
 20
-23.30000000000001
 30
0
 11
-98
 21
-23.69999999999999
 31
0
  0
LINE
  8
1
 62
7
 10
-101
 20
-23.30000000000001
 30
0
 11
-101
 21
-23.69999999999999
 31
0
  0
LINE
  8
1
 62
7
 10
-100.9
 20
-23.19999999999999
 30
0
 11
-100.5
 21
-23.19999999999999
 31
0
  0
LINE
  8
1
 62
7
 10
-100.9
 20
-23.80000000000001
 30
0
 11
-100.5
 21
-23.80000000000001
 31
0
  0
LINE
  8
1
 62
7
 10
-99.8
 20
-24.89999999999998
 30
0
 11
-99.8
 21
-24.5
 31
0
  0
LINE
  8
1
 62
7
 10
-99.8
 20
-22.09999999999997
 30
0
 11
-99.8
 21
-22.5
 31
0
  0
LINE
  8
1
 62
7
 10
-99.2
 20
-22.09999999999997
 30
0
 11
-99.2
 21
-22.5
 31
0
  0
LINE
  8
1
 62
3
 10
117.1000000000005
 20
24.16117345456985
 30
0
 11
117.1000000000005
 21
19.06946085579091
 31
0
  0
LINE
  8
1
 62
7
 10
114.1499999999998
 20
22.2509802037651
 30
0
 11
114.1499999999998
 21
22
 31
0
  0
LINE
  8
1
 62
7
 10
120.0499999999985
 20
22.2509802037651
 30
0
 11
120.0499999999985
 21
22
 31
0
  0
LINE
  8
1
 62
7
 10
115.6000000000005
 20
22
 30
0
 11
115.6000000000005
 21
20.89668601058099
 31
0
  0
LINE
  8
1
 62
7
 10
118.6000000000005
 20
20.89668601058099
 30
0
 11
118.6000000000005
 21
22
 31
0
  0
LINE
  8
1
 62
3
 10
117.1000000000005
 20
-23.87634983292821
 30
0
 11
117.1000000000005
 21
-21.5251315280579
 31
0
  0
LINE
  8
1
 62
7
 10
122.8943369725352
 20
-49.1521953523299
 30
0
 11
122.8943369725352
 21
-22
 31
0
  0
LINE
  8
1
 62
7
 10
80
 20
-22
 30
0
 11
127
 21
-22
 31
0
  0
LINE
  8
1
 62
7
 10
121.3943369725352
 20
-49.1521953523299
 30
0
 11
121.3943369725352
 21
-22
 31
0
  0
LINE
  8
1
 62
7
 10
124.3943369725352
 20
-22
 30
0
 11
124.3943369725352
 21
-49.1521953523299
 31
0
  0
LINE
  8
1
 62
7
 10
133.6000000000005
 20
10
 30
0
 11
133.6000000000005
 21
-10
 31
0
  0
LINE
  8
1
 62
7
 10
120
 20
22
 30
0
 11
120
 21
-22
 31
0
  0
LINE
  8
1
 62
7
 10
131.5
 20
10.5
 30
0
 11
133.1000000000005
 21
10.5
 31
0
  0
LINE
  8
1
 62
7
 10
120
 20
-5.423402264367894
 30
0
 11
127
 21
-5.423402264367894
 31
0
  0
LINE
  8
1
 62
7
 10
127
 20
-5.190748865207183
 30
0
 11
130.3056131734832
 21
-5.190748865207183
 31
0
  0
LINE
  8
1
 62
7
 10
120
 20
-19.00020593517104
 30
0
 11
127
 21
-19.00020593517104
 31
0
  0
LINE
  8
1
 62
7
 10
120
 20
-17.51713668286698
 30
0
 11
131.5
 21
-17.51713668286698
 31
0
  0
LINE
  8
1
 62
7
 10
127
 20
-18.73726491636808
 30
0
 11
129.935775363938
 21
-18.73726491636808
 31
0
  0
LINE
  8
1
 62
7
 10
127
 20
-21
 30
0
 11
129.5
 21
-21
 31
0
  0
LINE
  8
1
 62
7
 10
131.5
 20
-19.00020593517104
 30
0
 11
131.5
 21
-19
 31
0
  0
LINE
  8
1
 62
7
 10
131.4999999999992
 20
19
 30
0
 11
131.5
 21
-19
 31
0
  0
LINE
  8
1
 62
3
 10
126.5000362397034
 20
-11.88584670725311
 30
0
 11
131.4999999999999
 21
-11.88584670725311
 31
0
  0
LINE
  8
1
 62
3
 10
129
 20
-9.373806877512999
 30
0
 11
129
 21
-14.373806877513
 31
0
  0
LINE
  8
1
 62
7
 10
127
 20
-22
 30
0
 11
127
 21
-18.73726491636808
 31
0
  0
LINE
  8
1
 62
7
 10
127.0000000000015
 20
22
 30
0
 11
80
 21
22
 31
0
  0
LINE
  8
1
 62
7
 10
127
 20
-5.423402264367894
 30
0
 11
127.0000000000015
 21
22
 31
0
  0
LINE
  8
1
 62
7
 10
128.2221825406936
 20
-12.45153213220112
 30
0
 11
128.4343145750511
 21
-12.23940009784491
 31
0
  0
LINE
  8
1
 62
7
 10
128.4343145750511
 20
-11.53229331665909
 30
0
 11
128.2221825406936
 21
-11.32016128230418
 31
0
  0
LINE
  8
1
 62
7
 10
128.2221825406936
 20
-11.24945060418378
 30
0
 11
128.3636038969318
 21
-11.10802924794814
 31
0
  0
LINE
  8
1
 62
7
 10
128.4343145750511
 20
-11.10802924794814
 30
0
 11
128.6464466094069
 21
-11.32016128230418
 31
0
  0
LINE
  8
1
 62
7
 10
129.3535533905935
 20
-11.32016128230418
 30
0
 11
129.5656854249475
 21
-11.10802924794814
 31
0
  0
LINE
  8
1
 62
7
 10
129.6363961030685
 20
-11.10802924794814
 30
0
 11
129.7778174593052
 21
-11.24945060418378
 31
0
  0
LINE
  8
1
 62
7
 10
129.7778174593052
 20
-11.32016128230418
 30
0
 11
129.5656854249475
 21
-11.53229331665909
 31
0
  0
LINE
  8
1
 62
7
 10
129.5656854249475
 20
-12.23940009784491
 30
0
 11
129.7778174593052
 21
-12.45153213220112
 31
0
  0
LINE
  8
1
 62
7
 10
129.7778174593052
 20
-12.52224281032011
 30
0
 11
129.6363961030685
 21
-12.66366416655808
 31
0
  0
LINE
  8
1
 62
7
 10
129.5656854249475
 20
-12.66366416655808
 30
0
 11
129.3535533905935
 21
-12.45153213220112
 31
0
  0
LINE
  8
1
 62
7
 10
128.6464466094069
 20
-12.45153213220112
 30
0
 11
128.4343145750511
 21
-12.66366416655808
 31
0
  0
LINE
  8
1
 62
7
 10
128.3636038969318
 20
-12.66366416655808
 30
0
 11
128.2221825406952
 21
-12.52224281032011
 31
0
  0
LINE
  8
1
 62
7
 10
124.3943369725352
 20
-69.78233801184217
 30
0
 11
121.3943369725352
 21
-69.78233801184217
 31
0
  0
LINE
  8
1
 62
7
 10
121.3943369725352
 20
-69.78233801184217
 30
0
 11
124.3943369725352
 21
-69.78233801184217
 31
0
  0
LINE
  8
1
 62
7
 10
121.3943369725352
 20
-53.5041424912219
 30
0
 11
121.3943369725352
 21
-69.78233801184217
 31
0
  0
LINE
  8
1
 62
7
 10
122.8943369725352
 20
-53.5041424912219
 30
0
 11
122.8943369725352
 21
-69.78233801184217
 31
0
  0
LINE
  8
1
 62
7
 10
124.3943369725352
 20
-53.5041424912219
 30
0
 11
124.3943369725352
 21
-69.78233801184217
 31
0
  0
LINE
  8
1
 62
7
 10
122.566799646221
 20
-72.78233801184217
 30
0
 11
122.566799646221
 21
-69.78233801184217
 31
0
  0
LINE
  8
1
 62
7
 10
121.801758401781
 20
-69.78233801184217
 30
0
 11
121.801758401781
 21
-72.78233801184217
 31
0
  0
LINE
  8
1
 62
7
 10
124.0968821351011
 20
-72.78233801184217
 30
0
 11
124.0968821351011
 21
-69.78233801184217
 31
0
  0
LINE
  8
1
 62
7
 10
123.4103066593209
 20
-69.78233801184217
 30
0
 11
123.4103066593209
 21
-72.78233801184217
 31
0
  0
LINE
  8
1
 62
7
 10
133.1000000000005
 20
-10.5
 30
0
 11
131.5
 21
-10.5
 31
0
  0
LINE
  8
1
 62
2
 10
153.5
 20
-27.10002334769979
 30
0
 11
153.5
 21
-46.40321556867804
 31
0
  0
LINE
  8
1
 62
7
 10
76.5
 20
-21.20000000000005
 30
0
 11
76.40000000000001
 21
-21.20000000000005
 31
0
  0
LINE
  8
1
 62
7
 10
76.40000000000001
 20
21.20000000000005
 30
0
 11
76.5
 21
21.20000000000005
 31
0
  0
LINE
  8
1
 62
7
 10
-140.2131118013536
 20
-40.18066144535112
 30
0
 11
-128.400701073211
 21
-29.16541023770364
 31
0
  0
LINE
  8
1
 62
7
 10
-141.3179491446548
 20
-38.995868448728
 30
0
 11
-129.4121748945385
 21
-27.8935543483453
 31
0
  0
LINE
  8
1
 62
7
 10
-142.4227864879562
 20
-37.81107545210494
 30
0
 11
-129.9531394980201
 21
-26.18294151517853
 31
0
  0
LINE
  8
1
 62
3
 10
140.928308559621
 20
0
 30
0
 11
28.58987049028678
 21
0
 31
0
  0
LINE
  8
1
 62
7
 10
77
 20
-20.69999999999999
 30
0
 11
77
 21
20.70000000000005
 31
0
  0
LINE
  8
1
 62
7
 10
127.0000000000015
 20
21
 30
0
 11
129.4999999999992
 21
21
 31
0
  0
LINE
  8
1
 62
2
 10
39.61034870426496
 20
-59.34991020425775
 30
0
 11
107.9671364805551
 21
-59.34991020425775
 31
0
  0
LINE
  8
1
 62
7
 10
108.2200233658277
 20
13.54455245716452
 30
0
 11
108.2200233658277
 21
22
 31
0
  0
LINE
  8
1
 62
7
 10
88.2200233658277
 20
13.54455245716452
 30
0
 11
108.2200233658277
 21
13.54455245716452
 31
0
  0
LINE
  8
1
 62
7
 10
88.2200233658277
 20
22
 30
0
 11
88.2200233658277
 21
13.54455245716452
 31
0
  0
ARC
  8
1
 62
7
 10
-80.20294117647104
 20
12.80294117647059
 30
0
 40
0.7029473295325626
 50
270.2397298961177
 51
359.7602701039193
  0
ARC
  8
1
 62
7
 10
-78.19705882352896
 20
12.80294117647059
 30
0
 40
0.7029473295330065
 50
180.2397298960808
 51
270.239729896025
  0
ARC
  8
1
 62
7
 10
-78.19705882352896
 20
10.79705882352941
 30
0
 40
0.7029473295325579
 50
89.76027010397498
 51
179.7602701039191
  0
ARC
  8
1
 62
7
 10
-80.20294117647104
 20
10.79705882352941
 30
0
 40
0.7029473295330065
 50
0.239729896080899
 51
89.76027010388232
  0
ARC
  8
1
 62
7
 10
-120.802941176471
 20
12.80294117647059
 30
0
 40
0.7029473295325623
 50
270.2397298961142
 51
359.7602701039192
  0
ARC
  8
1
 62
7
 10
-118.7970588235291
 20
12.80294117647059
 30
0
 40
0.7029473295328218
 50
180.2397298960808
 51
270.2397298960331
  0
ARC
  8
1
 62
7
 10
-118.7970588235291
 20
10.79705882352941
 30
0
 40
0.7029473295325583
 50
89.76027010396687
 51
179.760270103919
  0
ARC
  8
1
 62
7
 10
-120.802941176471
 20
10.79705882352941
 30
0
 40
0.7029473295328218
 50
0.239729896080962
 51
89.76027010388579
  0
ARC
  8
1
 62
7
 10
79.47500000000014
 20
-24.75
 30
0
 40
0.9250000000000037
 50
161.0753555839481
 51
198.9246444160519
  0
ARC
  8
1
 62
7
 10
70.60507042253516
 20
-24.76521753674308
 30
0
 40
8.000000000000144
 50
338.4952052003297
 51
357.9599648354465
  0
ARC
  8
1
 62
7
 10
70.60507042253516
 20
-24.73478246325698
 30
0
 40
8.000000000000185
 50
2.040035164553946
 51
21.50479479967072
  0
ARC
  8
1
 62
7
 10
79.47500000000014
 20
24.75
 30
0
 40
0.9250000000000037
 50
161.0753555839481
 51
198.9246444160519
  0
ARC
  8
1
 62
7
 10
70.60507042253516
 20
24.73478246325698
 30
0
 40
8.000000000000149
 50
338.4952052003296
 51
357.9599648354461
  0
ARC
  8
1
 62
7
 10
70.60507042253516
 20
24.76521753674308
 30
0
 40
8.000000000000183
 50
2.040035164553513
 51
21.50479479967032
  0
ARC
  8
1
 62
7
 10
13
 20
27.99999999999682
 30
0
 40
14.99999999999682
 50
270
 51
291.0420805544337
  0
ARC
  8
1
 62
7
 10
-100.5029411764706
 20
-22.49705882352936
 30
0
 40
0.7029473295325484
 50
270.2397298960818
 51
359.7602701039151
  0
ARC
  8
1
 62
7
 10
-98.4970588235294
 20
-22.49705882352936
 30
0
 40
0.7029473295325237
 50
180.239729896085
 51
270.2397298960736
  0
ARC
  8
1
 62
7
 10
-98.4970588235294
 20
-24.50294117647059
 30
0
 40
0.7029473295324982
 50
89.76027010392632
 51
179.7602701039191
  0
ARC
  8
1
 62
7
 10
-100.5029411764706
 20
-24.50294117647059
 30
0
 40
0.7029473295325234
 50
0.239729896080919
 51
89.76027010391822
  0
ARC
  8
1
 62
7
 10
117.1000000000005
 20
19.70000000000005
 30
0
 40
3.899999999998637
 50
40.85125210332764
 51
139.1487478966983
  0
ARC
  8
1
 62
7
 10
117.1000000000005
 20
20.89668601058099
 30
0
 40
1.5
 50
180
 51
0
  0
ARC
  8
1
 62
7
 10
117.1000000000005
 20
-19.04558675661798
 30
0
 40
3.900000000001207
 50
229.2479700672901
 51
310.7520299326909
  0
ARC
  8
1
 62
7
 10
76.40000000000001
 20
-21.60000000000002
 30
0
 40
0.3999999999999702
 50
90
 51
120.0505497029032
  0
ARC
  8
1
 62
7
 10
76.5
 20
-20.70000000000005
 30
0
 40
0.5
 50
270
 51
0
  0
ARC
  8
1
 62
7
 10
76.5
 20
20.70000000000005
 30
0
 40
0.5
 50
0
 51
90
  0
ARC
  8
1
 62
7
 10
76.40000000000001
 20
21.60000000000002
 30
0
 40
0.3999999999999413
 50
239.9494502970784
 51
270
  0
CIRCLE
  8
0
 62
7
 10
-99.5
 20
10
 30
0
 40
9
  0
CIRCLE
  8
0
 62
7
 10
-119.8
 20
11.8
 30
0
 40
3
  0
CIRCLE
  8
0
 62
7
 10
-79.2
 20
11.8
 30
0
 40
3
  0
CIRCLE
  8
1
 62
7
 10
-99.5
 20
10
 30
0
 40
6.75
  0
CIRCLE
  8
1
 62
7
 10
-99.5
 20
-23.5
 30
0
 40
2.999999999999901
  0
CIRCLE
  8
1
 62
3
 10
-74.74999999999987
 20
24.75
 30
0
 40
2
  0
CIRCLE
  8
1
 62
7
 10
-74.74999999999987
 20
24.75
 30
0
 40
1.625
  0
CIRCLE
  8
1
 62
3
 10
-124.2499999999999
 20
24.75
 30
0
 40
2
  0
CIRCLE
  8
1
 62
7
 10
-124.2499999999999
 20
24.75
 30
0
 40
1.625
  0
CIRCLE
  8
1
 62
3
 10
-124.2499999999999
 20
-24.75
 30
0
 40
2
  0
CIRCLE
  8
1
 62
7
 10
-124.2499999999999
 20
-24.75
 30
0
 40
1.625
  0
CIRCLE
  8
1
 62
7
 10
-74.74999999999987
 20
-24.75
 30
0
 40
1.625
  0
CIRCLE
  8
1
 62
3
 10
-74.74999999999987
 20
-24.75
 30
0
 40
2
  0
CIRCLE
  8
0
 62
7
 10
-99.5
 20
10
 30
0
 40
4.000000000000203
  0
CIRCLE
  8
1
 62
7
 10
129
 20
-11.873806877513
 30
0
 40
2
  0
POLYLINE
  8
1
 62
7
 66
1
  0
VERTEX
  8
1
 10
130.3056131734832
 20
-5.190748865207183
 30
0
 42
0.002271026600345075
  0
VERTEX
  8
1
 10
130.4183173729505
 20
-5.182240875692031
 30
0
 42
0.006843212418012696
  0
VERTEX
  8
1
 10
130.5304832881812
 20
-5.171714218711214
 30
0
 42
0.01154903310223806
  0
VERTEX
  8
1
 10
130.6415726349389
 20
-5.15715022679907
 30
0
 42
0.01636043009980144
  0
VERTEX
  8
1
 10
130.7510471289869
 20
-5.136530232489932
 30
0
 42
0.02118775621011938
  0
VERTEX
  8
1
 10
130.8583684860888
 20
-5.107835568318137
 30
0
 42
0.01333203921698375
  0
VERTEX
  8
1
 10
130.917862521291
 20
-5.087437974912763
 30
0
 42
0.009175496568880443
  0
VERTEX
  8
1
 10
130.9765634975527
 20
-5.064311037455706
 30
0
 42
0.009389970364642133
  0
VERTEX
  8
1
 10
131.0345371101251
 20
-5.038945902167537
 30
0
 42
0.005326531553610904
  0
VERTEX
  8
1
 10
131.0918490542593
 20
-5.011833715268823
 30
0
 42
0.005635101821036457
  0
VERTEX
  8
1
 10
131.1485650252064
 20
-4.983465622980134
 30
0
 42
0.002934225036271169
  0
VERTEX
  8
1
 10
131.2198793713739
 20
-4.946254382151646
 30
0
 42
0.004491887137850805
  0
VERTEX
  8
1
 10
131.2905088167355
 20
-4.908055387287336
 30
0
 42
0.001093985513859958
  0
VERTEX
  8
1
 10
131.3606245864928
 20
-4.869115576896157
 30
0
 42
0.002636924427489981
  0
VERTEX
  8
1
 10
131.4303979058471
 20
-4.829681889487069
 30
0
 42
0.0004670070721720599
  0
VERTEX
  8
1
 10
131.5
 20
-4.790001263569025
 30
0
  0
SEQEND
  8
1
  0
POLYLINE
  8
1
 62
7
 66
1
  0
VERTEX
  8
1
 10
129.935775363938
 20
-18.73726491636808
 30
0
 42
0.000646923133294566
  0
VERTEX
  8
1
 10
130.1178106954387
 20
-18.71329038042008
 30
0
 42
0.001939430959971907
  0
VERTEX
  8
1
 10
130.299814705339
 20
-18.68836152534762
 30
0
 42
0.00322483891224263
  0
VERTEX
  8
1
 10
130.4817560720381
 20
-18.66152403202627
 30
0
 42
0.004498484598671481
  0
VERTEX
  8
1
 10
130.6636034739358
 20
-18.63182358133157
 30
0
 42
0.005750739773338182
  0
VERTEX
  8
1
 10
130.8453255894314
 20
-18.59830585413908
 30
0
 42
0.004409538470456798
  0
VERTEX
  8
1
 10
130.9359975193968
 20
-18.57966927383599
 30
0
 42
0.008155476055312829
  0
VERTEX
  8
1
 10
131.0260890328572
 20
-18.55877963030342
 30
0
 42
0.01073214353244958
  0
VERTEX
  8
1
 10
131.1150588284074
 20
-18.5345756349018
 30
0
 42
0.01463651226177348
  0
VERTEX
  8
1
 10
131.202365604642
 20
-18.50599599899152
 30
0
 42
0.01731903604990768
  0
VERTEX
  8
1
 10
131.2874680601555
 20
-18.47197943393303
 30
0
 42
0.01021451201353538
  0
VERTEX
  8
1
 10
131.3308721841294
 20
-18.45179312381417
 30
0
 42
0.005813929582129521
  0
VERTEX
  8
1
 10
131.3736778174333
 20
-18.43019033227923
 30
0
 42
0.006163535980122979
  0
VERTEX
  8
1
 10
131.4160345827347
 20
-18.40752517968225
 30
0
 42
0.001793105058742575
  0
VERTEX
  8
1
 10
131.4580921027011
 20
-18.38415178637724
 30
0
 42
0.002175212296192049
  0
VERTEX
  8
1
 10
131.5
 20
-18.36042427271821
 30
0
  0
SEQEND
  8
1
  0
POLYLINE
  8
1
 62
2
 66
1
  0
VERTEX
  8
1
 10
121.3943369725352
 20
-49.1521953523299
 30
0
 42
-0.004786202196927917
  0
VERTEX
  8
1
 10
121.546441073648
 20
-48.95217829990288
 30
0
 42
-0.01597734592674029
  0
VERTEX
  8
1
 10
121.6982011172338
 20
-48.76850803998666
 30
0
 42
-0.03316329143441715
  0
VERTEX
  8
1
 10
121.8492730457659
 20
-48.61753136509208
 30
0
 42
-0.06442596484461205
  0
VERTEX
  8
1
 10
121.9993128017173
 20
-48.51559506772995
 30
0
 42
-0.1161597955861113
  0
VERTEX
  8
1
 10
122.1479763275612
 20
-48.47904594041108
 30
0
 42
-0.1160531622143454
  0
VERTEX
  8
1
 10
122.2944518364142
 20
-48.5182966000561
 30
0
 42
-0.06337138659148556
  0
VERTEX
  8
1
 10
122.4407755535122
 20
-48.62182207936404
 30
0
 42
-0.03075748353542241
  0
VERTEX
  8
1
 10
122.5884975806811
 20
-48.77303717004133
 30
0
 42
-0.01233166728927466
  0
VERTEX
  8
1
 10
122.7391680197468
 20
-48.95535666379448
 30
0
 42
0.0002860134757652935
  0
VERTEX
  8
1
 10
122.8943369725352
 20
-49.1521953523299
 30
0
 42
0.01116960157006366
  0
VERTEX
  8
1
 10
123.0725677995876
 20
-49.36793396265936
 30
0
 42
0.02014715011169183
  0
VERTEX
  8
1
 10
123.2544784425238
 20
-49.56198936906961
 30
0
 42
0.03859983460180873
  0
VERTEX
  8
1
 10
123.4363106297701
 20
-49.71521898029262
 30
0
 42
0.07034189392686141
  0
VERTEX
  8
1
 10
123.614306089753
 20
-49.80848020506041
 30
0
 42
0.1303926716603874
  0
VERTEX
  8
1
 10
123.7847065508987
 20
-49.82263045210493
 30
0
 42
0.1148326588780296
  0
VERTEX
  8
1
 10
123.9156381703368
 20
-49.76647921041382
 30
0
 42
0.03979547205381665
  0
VERTEX
  8
1
 10
124.040566099701
 20
-49.65837078321344
 30
0
 42
0.04593415206493327
  0
VERTEX
  8
1
 10
124.1609912615098
 20
-49.51129446688113
 30
0
 42
0.01530954315353785
  0
VERTEX
  8
1
 10
124.2784145782817
 20
-49.33823955779417
 30
0
 42
0.00416525448562783
  0
VERTEX
  8
1
 10
124.3943369725352
 20
-49.1521953523299
 30
0
  0
SEQEND
  8
1
  0
POLYLINE
  8
1
 62
2
 66
1
  0
VERTEX
  8
1
 10
121.3943369725352
 20
-53.5041424912219
 30
0
 42
-0.004934078636104178
  0
VERTEX
  8
1
 10
121.5453470727625
 20
-53.31823622454745
 30
0
 42
-0.01634587272627494
  0
VERTEX
  8
1
 10
121.6962866156843
 20
-53.14741098073306
 30
0
 42
-0.03331015729468631
  0
VERTEX
  8
1
 10
121.847085043995
 20
-53.00674778263881
 30
0
 42
-0.06243861218604407
  0
VERTEX
  8
1
 10
121.9976718003891
 20
-52.91132765312477
 30
0
 42
-0.1069941638610101
  0
VERTEX
  8
1
 10
122.1479763275612
 20
-52.87623161505098
 30
0
 42
-0.1070085680456647
  0
VERTEX
  8
1
 10
122.29712195733
 20
-52.91116350201633
 30
0
 42
-0.06296447185960059
  0
VERTEX
  8
1
 10
122.4461248200802
 20
-53.00603272771699
 30
0
 42
-0.0337300787770226
  0
VERTEX
  8
1
 10
122.5951909324435
 20
-53.14622709755207
 30
0
 42
-0.01666255219672769
  0
VERTEX
  8
1
 10
122.7445263110513
 20
-53.31713441692067
 30
0
 42
-0.005266270714973697
  0
VERTEX
  8
1
 10
122.8943369725352
 20
-53.5041424912219
 30
0
 42
0.00463367495211868
  0
VERTEX
  8
1
 10
123.0540326012401
 20
-53.70404846438354
 30
0
 42
0.01574387385466296
  0
VERTEX
  8
1
 10
123.2138212384853
 20
-53.88815817456893
 30
0
 42
0.03306298376936312
  0
VERTEX
  8
1
 10
123.3730274954931
 20
-54.03899649986511
 30
0
 42
0.06382794567250703
  0
VERTEX
  8
1
 10
123.5309759834855
 20
-54.13908831835914
 30
0
 42
0.1184715252694871
  0
VERTEX
  8
1
 10
123.6869913136847
 20
-54.17095850813803
 30
0
 42
0.1277305739099242
  0
VERTEX
  8
1
 10
123.8312173763402
 20
-54.12816682116954
 30
0
 42
0.04228886383278257
  0
VERTEX
  8
1
 10
123.9736054850721
 20
-54.0249941232579
 30
0
 42
0.04982109643811747
  0
VERTEX
  8
1
 10
124.1146151283613
 20
-53.87653566713888
 30
0
 42
0.01598923890372724
  0
VERTEX
  8
1
 10
124.2547057946887
 20
-53.69788670554829
 30
0
 42
0.004276663101183601
  0
VERTEX
  8
1
 10
124.3943369725352
 20
-53.5041424912219
 30
0
  0
SEQEND
  8
1
  0
POLYLINE
  8
1
 62
2
 66
1
  0
VERTEX
  8
1
 10
-142.4227864879562
 20
-37.81107545210494
 30
0
 42
0.00510212242539965
  0
VERTEX
  8
1
 10
-142.4138633387301
 20
-38.03200418940153
 30
0
 42
0.01606637972576479
  0
VERTEX
  8
1
 10
-142.3962478393198
 20
-38.24451938865389
 30
0
 42
0.0310870904183244
  0
VERTEX
  8
1
 10
-142.3612476395408
 20
-38.44020751181774
 30
0
 42
0.05251856945869786
  0
VERTEX
  8
1
 10
-142.3001703892091
 20
-38.61065502084885
 30
0
 42
0.08125437472200996
  0
VERTEX
  8
1
 10
-142.2043237381401
 20
-38.74744837770299
 30
0
 42
0.08485033053515351
  0
VERTEX
  8
1
 10
-142.0745678378308
 20
-38.84169308308151
 30
0
 42
0.04133592999767528
  0
VERTEX
  8
1
 10
-141.9130146682599
 20
-38.90551896675977
 30
0
 42
0.03655890767432825
  0
VERTEX
  8
1
 10
-141.7277019894951
 20
-38.94706450485127
 30
0
 42
0.005990695832401666
  0
VERTEX
  8
1
 10
-141.5266675616041
 20
-38.97446817346951
 30
0
 42
0.01066155707579778
  0
VERTEX
  8
1
 10
-141.3179491446548
 20
-38.995868448728
 30
0
 42
-0.00728382320763785
  0
VERTEX
  8
1
 10
-141.1050230146043
 20
-39.01974059944456
 30
0
 42
-0.01781062613257614
  0
VERTEX
  8
1
 10
-140.9006684173799
 20
-39.0529437461688
 30
0
 42
-0.03178172545257067
  0
VERTEX
  8
1
 10
-140.7130874488915
 20
-39.10257925509836
 30
0
 42
-0.05138225866241952
  0
VERTEX
  8
1
 10
-140.550482205049
 20
-39.17574849243088
 30
0
 42
-0.07533925343508742
  0
VERTEX
  8
1
 10
-140.421054781762
 20
-39.27955282436398
 30
0
 42
-0.07368280993768799
  0
VERTEX
  8
1
 10
-140.3314746152381
 20
-39.41600858257281
 30
0
 42
-0.04967281548845758
  0
VERTEX
  8
1
 10
-140.273888829009
 20
-39.58164165144071
 30
0
 42
-0.03006130296752202
  0
VERTEX
  8
1
 10
-140.240298828001
 20
-39.7691577033029
 30
0
 42
-0.01590120516246409
  0
VERTEX
  8
1
 10
-140.2227060171404
 20
-39.97126241049462
 30
0
 42
-0.004963902394918191
  0
VERTEX
  8
1
 10
-140.2131118013536
 20
-40.18066144535112
 30
0
  0
SEQEND
  8
1
  0
ARC
  8
1
 62
7
 10
-80.60000000000009
 20
12.00000000000005
 30
0
 40
0.09999999999990017
 50
90
 51
180
  0
ARC
  8
1
 62
7
 10
-80.60000000000009
 20
11.59999999999995
 30
0
 40
0.09999999999990905
 50
180
 51
270
  0
ARC
  8
1
 62
7
 10
-79.40000000000005
 20
10.40000000000002
 30
0
 40
0.09999999999990905
 50
180
 51
270
  0
ARC
  8
1
 62
7
 10
-78.99999999999996
 20
10.40000000000002
 30
0
 40
0.1000000000000192
 50
270
 51
0
  0
ARC
  8
1
 62
7
 10
-77.80000000000014
 20
11.59999999999995
 30
0
 40
0.09999999999990017
 50
270
 51
0
  0
ARC
  8
1
 62
7
 10
-77.80000000000014
 20
12.00000000000005
 30
0
 40
0.1000000000001364
 50
0
 51
90
  0
ARC
  8
1
 62
7
 10
-78.99999999999996
 20
13.19999999999998
 30
0
 40
0.09999999999990905
 50
0
 51
90
  0
ARC
  8
1
 62
7
 10
-79.40000000000005
 20
13.19999999999998
 30
0
 40
0.100000000000021
 50
90
 51
180
  0
ARC
  8
1
 62
7
 10
-121.2000000000001
 20
12.00000000000005
 30
0
 40
0.09999999999990017
 50
90
 51
180
  0
ARC
  8
1
 62
7
 10
-121.2000000000001
 20
11.59999999999995
 30
0
 40
0.09999999999989484
 50
180
 51
270
  0
ARC
  8
1
 62
7
 10
-120
 20
10.40000000000002
 30
0
 40
0.1000000000000938
 50
180
 51
270
  0
ARC
  8
1
 62
7
 10
-119.6000000000001
 20
10.40000000000002
 30
0
 40
0.1000000000000192
 50
270
 51
0
  0
ARC
  8
1
 62
7
 10
-118.4
 20
11.59999999999995
 30
0
 40
0.09999999999990017
 50
270
 51
0
  0
ARC
  8
1
 62
7
 10
-118.4
 20
12.00000000000005
 30
0
 40
0.1000000000000085
 50
0
 51
90
  0
ARC
  8
1
 62
7
 10
-119.6000000000001
 20
13.19999999999998
 30
0
 40
0.1000000000000938
 50
0
 51
90
  0
ARC
  8
1
 62
7
 10
-120
 20
13.19999999999998
 30
0
 40
0.100000000000021
 50
90
 51
180
  0
ARC
  8
1
 62
7
 10
-125
 20
25.5
 30
0
 40
5
 50
90
 51
180
  0
ARC
  8
1
 62
7
 10
-74
 20
25.5
 30
0
 40
5
 50
0
 51
90
  0
ARC
  8
1
 62
7
 10
-74
 20
-25.5
 30
0
 40
5
 50
270
 51
0
  0
ARC
  8
1
 62
7
 10
-125
 20
-25.5
 30
0
 40
5
 50
180
 51
270
  0
ARC
  8
1
 62
7
 10
-125
 20
25.5
 30
0
 40
4.5
 50
270
 51
0
  0
ARC
  8
1
 62
7
 10
-125
 20
-25.5
 30
0
 40
4.5
 50
0
 51
90
  0
ARC
  8
1
 62
7
 10
-74
 20
-25.5
 30
0
 40
4.499999999999989
 50
90
 51
180
  0
ARC
  8
1
 62
7
 10
-74
 20
25.5
 30
0
 40
4.5
 50
180
 51
270
  0
ARC
  8
1
 62
7
 10
32.5
 20
-21.5
 30
0
 40
0.5
 50
90
 51
180
  0
ARC
  8
1
 62
7
 10
32.5
 20
21.5
 30
0
 40
0.5
 50
180
 51
270
  0
ARC
  8
1
 62
7
 10
76.10000000000014
 20
-21.34999999999997
 30
0
 40
0.1000000000000072
 50
84.99999999992211
 51
180
  0
ARC
  8
1
 62
7
 10
76.10000000000014
 20
-28.15000000000003
 30
0
 40
0.1000000000001364
 50
180
 51
275.0000000000779
  0
ARC
  8
1
 62
7
 10
77.3038560597231
 20
-27.40458696655151
 30
0
 40
0.80000000000011
 50
272.1313517246224
 51
338.4952052003221
  0
ARC
  8
1
 62
7
 10
77.3038560597231
 20
-22.09541303344838
 30
0
 40
0.7999999999999183
 50
21.5047947996706
 51
87.86864827537735
  0
ARC
  8
1
 62
7
 10
76.10000000000014
 20
28.15000000000003
 30
0
 40
0.1000000000000072
 50
84.99999999992211
 51
180
  0
ARC
  8
1
 62
7
 10
76.10000000000014
 20
21.35000000000002
 30
0
 40
0.1000000000001364
 50
180
 51
275.0000000000779
  0
ARC
  8
1
 62
7
 10
77.3038560597231
 20
22.09541303344849
 30
0
 40
0.7999999999999999
 50
272.1313517246227
 51
338.4952052003254
  0
ARC
  8
1
 62
7
 10
77.3038560597231
 20
27.40458696655156
 30
0
 40
0.7999999999999405
 50
21.50479479967462
 51
87.86864827537735
  0
ARC
  8
1
 62
7
 10
33
 20
-29.5
 30
0
 40
0.9999999999999929
 50
180
 51
270
  0
ARC
  8
1
 62
7
 10
33
 20
29.5
 30
0
 40
1
 50
90
 51
180
  0
ARC
  8
1
 62
7
 10
-100.9
 20
-23.30000000000001
 30
0
 40
0.1000000000000227
 50
90
 51
180
  0
ARC
  8
1
 62
7
 10
-100.9
 20
-23.69999999999999
 30
0
 40
0.09999999999999432
 50
180
 51
270
  0
ARC
  8
1
 62
7
 10
-99.7
 20
-24.89999999999998
 30
0
 40
0.09999999999999432
 50
180
 51
270
  0
ARC
  8
1
 62
7
 10
-99.3
 20
-24.89999999999998
 30
0
 40
0.1000000000000192
 50
270
 51
0
  0
ARC
  8
1
 62
7
 10
-98.09999999999999
 20
-23.69999999999999
 30
0
 40
0.1000000000000227
 50
270
 51
0
  0
ARC
  8
1
 62
7
 10
-98.09999999999999
 20
-23.30000000000001
 30
0
 40
0.09999999999999432
 50
0
 51
90
  0
ARC
  8
1
 62
7
 10
-99.3
 20
-22.09999999999997
 30
0
 40
0.09999999999999432
 50
0
 51
90
  0
ARC
  8
1
 62
7
 10
-99.7
 20
-22.09999999999997
 30
0
 40
0.09999999999996945
 50
90
 51
180
  0
ARC
  8
1
 62
7
 10
133.1000000000005
 20
10
 30
0
 40
0.5
 50
0
 51
90
  0
ARC
  8
1
 62
7
 10
129.5
 20
-19
 30
0
 40
2
 50
270
 51
0
  0
ARC
  8
1
 62
7
 10
133.1000000000005
 20
-10
 30
0
 40
0.5
 50
270
 51
0
  0
ARC
  8
1
 62
7
 10
129.4999999999992
 20
19
 30
0
 40
2
 50
0
 51
90
  0
ARC
  8
1
 62
7
 10
129
 20
-10.96660789171
 30
0
 40
0.5000000000005228
 50
225.0000000000871
 51
314.9999999999452
  0
ARC
  8
1
 62
7
 10
128.080761184457
 20
-11.88584670725311
 30
0
 40
0.4999999999995431
 50
315.0000000001865
 51
44.99999999999353
  0
ARC
  8
1
 62
7
 10
129
 20
-12.80508552279514
 30
0
 40
0.5000000000006911
 50
45.00000000004189
 51
134.9999999999259
  0
ARC
  8
1
 62
7
 10
129.9192388155418
 20
-11.88584670725311
 30
0
 40
0.5000000000012539
 50
135.0000000000226
 51
224.9999999997975
  0
ARC
  8
1
 62
7
 10
128.257537879754
 20
-11.28480594324412
 30
0
 40
0.05000000000147579
 50
135.0000000000504
 51
224.9999999997236
  0
ARC
  8
1
 62
7
 10
128.3989592359915
 20
-11.14338458700598
 30
0
 40
0.04999999999914451
 50
44.99999999856784
 51
135.0000000015012
  0
ARC
  8
1
 62
7
 10
129.6010407640081
 20
-11.14338458700598
 30
0
 40
0.04999999999970724
 50
44.99999999792301
 51
135.0000000022382
  0
ARC
  8
1
 62
7
 10
129.7424621202455
 20
-11.28480594324412
 30
0
 40
0.05000000000077616
 50
314.9999999997007
 51
45.00000000052536
  0
ARC
  8
1
 62
7
 10
129.6010407640081
 20
-12.62830882749898
 30
0
 40
0.05000000000073973
 50
224.9999999987838
 51
315.000000001055
  0
ARC
  8
1
 62
7
 10
129.7424621202455
 20
-12.48688747126209
 30
0
 40
0.04999999999933293
 50
315.0000000013544
 51
45.00000000103633
  0
ARC
  8
1
 62
7
 10
128.3989592359915
 20
-12.62830882749898
 30
0
 40
0.05000000000009661
 50
224.9999999995207
 51
315.0000000004102
  0
ARC
  8
1
 62
7
 10
128.257537879754
 20
-12.48688747126209
 30
0
 40
0.0500000000019217
 50
134.9999999995394
 51
224.9999999993595
  0
ARC
  8
1
 62
7
 10
80
 20
19
 30
0
 40
3
 50
90
 51
180
  0
ARC
  8
1
 62
7
 10
80
 20
-19
 30
0
 40
3
 50
180
 51
270
  0
ARC
  8
1
 62
7
 10
76.10000000000014
 20
21.35000000000002
 30
0
 40
0.1000000000001364
 50
180
 51
275.0000000000779
  0
ARC
  8
1
 62
7
 10
76.10000000000014
 20
-21.34999999999997
 30
0
 40
0.1000000000000072
 50
84.99999999992211
 51
180
  0
LINE
  8
1
 62
2
 10
65.60904257613518
 20
40.5
 30
0
 11
42.19686789242004
 21
40.5
 31
0
  0
LINE
  8
1
 62
2
 10
42.19686789242004
 20
40.5
 30
0
 11
51.10132903049401
 21
31.595538861926
 31
0
  0
SOLID
  8
1
 62
2
 10
48.30063198802642
 20
33.74458928776424
 30
0
 11
48.95227860465577
 21
34.39623590439359
 31
0
 12
51.10132903049401
 22
31.595538861926
 32
0
 13
51.10132903049401
 23
31.595538861926
 33
0
  0
LINE
  8
1
 62
2
 10
39.61034870426496
 20
-66.34991020425775
 30
0
 11
100.967136480555
 21
-66.34991020425775
 31
0
  0
LINE
  8
1
 62
2
 10
100.967136480555
 20
-66.34991020425775
 30
0
 11
121.4005280905653
 21
-45.91651859424746
 31
0
  0
SOLID
  8
1
 62
2
 10
119.2514776647271
 20
-48.71721563671505
 30
0
 11
118.5998310480977
 21
-48.0655690200857
 31
0
 12
121.4005280905653
 22
-45.91651859424746
 32
0
 13
121.4005280905653
 23
-45.91651859424746
 33
0
  0
LINE
  8
1
 62
2
 10
114.0523184975097
 20
31.99999999999999
 30
0
 11
90.2200233658277
 21
31.99999999999999
 31
0
  0
LINE
  8
1
 62
2
 10
90.2200233658277
 20
31.99999999999999
 30
0
 11
100.2200233658277
 21
22
 31
0
  0
SOLID
  8
1
 62
2
 10
97.41932632336011
 20
24.14905042583824
 30
0
 11
98.07097293998946
 21
24.80069704246759
 31
0
 12
100.2200233658277
 22
22
 32
0
 13
100.2200233658277
 23
22
 33
0
  0
TEXT
  8
1
 62
2
 10
13.1284834649849
 20
48.29584876068578
 30
0
 40
3.2
  1
(0.197)
 41
0.6300000000000001
 72
1
 73
2
 11
20.1844834649849
 21
49.89584876068578
 31
0
  0
TEXT
  8
1
 62
2
 10
-29.8
 20
17.89181598352308
 30
0
 40
3.2
  1
(0.709DIA.)
 50
90
 41
0.6300000000000001
 72
1
 73
2
 11
-31.4
 21
28.97981598352308
 31
0
  0
TEXT
  8
1
 62
2
 10
-6.385153786072598
 20
29.55317535685259
 30
0
 40
2
  1
%%p0.0118
 50
90
 41
0.63
 72
1
 73
2
 11
-7.385153786072598
 21
35.22317535685259
 31
0
  0
TEXT
  8
1
 62
2
 10
-5.785153786072599
 20
19.39181598352308
 30
0
 40
3.2
  1
(0.276    )
 50
90
 41
0.6300000000000001
 72
1
 73
2
 11
-7.385153786072598
 21
30.47981598352308
 31
0
  0
TEXT
  8
1
 62
2
 10
9.770866181486898
 20
60.39525967283628
 30
0
 40
3.2
  1
(1.26)
 41
0.6300000000000001
 72
1
 73
2
 11
15.8188661814869
 21
61.99525967283628
 31
0
  0
TEXT
  8
1
 62
2
 10
-0.871516535015104
 20
48.29584876068578
 30
0
 40
3.2
  1
(0.512)
 41
0.6300000000000001
 72
1
 73
2
 11
6.184483464984897
 21
49.89584876068578
 31
0
  0
TEXT
  8
1
 62
2
 10
47.1284834649849
 20
48.29584876068578
 30
0
 40
3.2
  1
(1.732)
 41
0.6300000000000001
 72
1
 73
2
 11
54.18448346498489
 21
49.89584876068578
 31
0
  0
TEXT
  8
1
 62
2
 10
44.87210523109899
 20
41.22551303864307
 30
0
 40
3
  1
NAME PLATE
 41
0.6300000000000001
 72
1
 73
2
 11
54.32210523109899
 21
42.72551303864307
 31
0
  0
TEXT
  8
1
 62
2
 10
-17
 20
16.34381598352308
 30
0
 40
3.2
  1
(0.315DIA.      )
 50
90
 41
0.6300000000000001
 72
1
 73
2
 11
-18.6
 21
33.47981598352308
 31
0
  0
TEXT
  8
1
 62
2
 10
-18.8
 20
34.86579333503109
 30
0
 40
2
  1
 0
 50
90
 41
0.63
  0
TEXT
  8
1
 62
2
 10
-16.4
 20
34.86579333503109
 30
0
 40
2
  1
-0.000787
 50
90
 41
0.63
  0
TEXT
  8
1
 62
2
 10
-42.89576323616478
 20
-11.20994335653754
 30
0
 40
3.2
  1
(1.949    )
 50
90
 41
0.6300000000000001
 72
1
 73
2
 11
-44.49576323616478
 21
-0.1219433565375372
 31
0
  0
TEXT
  8
1
 62
2
 10
-43.49576323616478
 20
-1.644512587087958
 30
0
 40
2
  1
%%p0.0118
 50
90
 41
0.63
 72
1
 73
2
 11
-44.49576323616478
 21
4.025487412912042
 31
0
  0
TEXT
  8
1
 62
2
 10
-55.28286461228479
 20
-51.48481685313685
 30
0
 40
3.5
  1
(4-M4 DEPTH 0.236MAX)
 41
0.675
 73
2
 11
-55.28286461228479
 21
-49.73481685313685
 31
0
  0
TEXT
  8
1
 62
2
 10
-110.3574226886887
 20
48.20495267828698
 30
0
 40
3.2
  1
(2.402SQU.)
 41
0.6300000000000001
 72
1
 73
2
 11
-99.26942268868874
 21
49.80495267828698
 31
0
  0
TEXT
  8
1
 62
2
 10
-109.8574226886887
 20
36.20495267828698
 30
0
 40
3.2
  1
(1.949    )
 41
0.6300000000000001
 72
1
 73
2
 11
-98.76942268868871
 21
37.80495267828698
 31
0
  0
TEXT
  8
1
 62
2
 10
-54.89576323616478
 20
-22.75789543257154
 30
0
 40
3.2
  1
(0.394ü@   )
 50
90
 41
0.6300000000000001
 72
1
 73
2
 11
-56.49576323616478
 21
-10.66189543257154
 31
0
  0
TEXT
  8
1
 62
2
 10
-100.4078778667258
 20
36.80495267828698
 30
0
 40
2
  1
%%p0.0118
 41
0.63
 72
1
 73
2
 11
-94.7378778667258
 21
37.80495267828698
 31
0
  0
TEXT
  8
1
 62
2
 10
-55.49576323616478
 20
-11.88446466312196
 30
0
 40
2
  1
%%p0.0197
 50
90
 41
0.63
 72
1
 73
2
 11
-56.49576323616478
 21
-6.21446466312196
 31
0
  0
TEXT
  8
1
 62
2
 10
161.8243394475085
 20
-66.1181588103847
 30
0
 40
3.2
  1
(FROM MOTOR CASE)
 50
90
 41
0.6300000000000001
 72
1
 73
2
 11
160.2243394475085
 21
-48.9821588103847
 31
0
  0
TEXT
  8
1
 62
2
 10
157.5929951484043
 20
-11.088
 30
0
 40
3.2
  1
(1.732DIA.)
 50
90
 41
0.6300000000000001
 72
1
 73
2
 11
155.9929951484043
 21
0
 31
0
  0
TEXT
  8
1
 62
2
 10
157.5929951484043
 20
-60.0701588103847
 30
0
 40
3.2
  1
(5.906    )
 50
90
 41
0.6300000000000001
 72
1
 73
2
 11
155.9929951484043
 21
-48.9821588103847
 31
0
  0
TEXT
  8
1
 62
2
 10
145.6096923065293
 20
-68.71516907639203
 30
0
 40
3.2
  1
(0.118)
 50
90
 41
0.6300000000000001
 72
1
 73
2
 11
144.0096923065293
 21
-61.65916907639203
 31
0
  0
TEXT
  8
1
 62
2
 10
156.9929951484043
 20
-49.44885064204368
 30
0
 40
2
  1
%%p0.787
 50
90
 41
0.63
 72
1
 73
2
 11
155.9929951484043
 21
-44.40885064204368
 31
0
  0
TEXT
  8
1
 62
2
 10
40.80671013148852
 20
-65.11594311103875
 30
0
 40
3.5
  1
UL1007 AWG22
 41
0.9
 73
2
 11
40.80671013148852
 21
-63.36594311103875
 31
0
  0
TEXT
  8
1
 62
2
 10
40.80671013148852
 20
-57.9506031044043
 30
0
 40
3.5
  1
LEAD WIRES (RED,BLACK)
 41
0.9
 73
2
 11
40.80671013148852
 21
-56.2006031044043
 31
0
  0
TEXT
  8
1
 62
2
 10
78.27886618148689
 20
60.50275744857978
 30
0
 40
3.2
  1
(4.0)
 41
0.6300000000000001
 72
1
 73
2
 11
83.3188661814869
 21
62.10275744857978
 31
0
  0
TEXT
  8
1
 62
2
 10
93.372105231099
 20
32.82551303864307
 30
0
 40
3
  1
NAME PLATE
 41
0.6300000000000001
 72
1
 73
2
 11
102.822105231099
 21
34.32551303864307
 31
0
  0
TEXT
  8
1
 62
2
 10
-144.75
 20
93.5
 30
0
 40
5
  1
DME44S6HF
 41
0.9
 72
1
 73
2
 11
-124.5
 21
96
 31
0
  0
DIMENSION
  8
1
  6
CONTINUOUS
 62
2
  2
*D0
  3
DMST_1
 10
32.00000000000001
 20
52.4743656104027
 30
0
 11
54
 21
55.0743656104027
 31
0
 12
0
 22
0
 32
0
 70
0
 13
76
 23
30
 33
0
 14
32.00000000000001
 24
29.5
 34
0
 53
0
  0
DIMENSION
  8
1
  6
CONTINUOUS
 62
2
  2
*D1
  3
DMST_1
 10
27.00000000000002
 20
52.4743656104027
 30
0
 11
20.2368507062801
 21
55.0743656104027
 31
0
 12
0
 22
0
 32
0
 70
0
 13
32.00000000000001
 23
29.5
 33
0
 14
27.00000000000002
 24
18.99981600930903
 34
0
 53
0
  0
DIMENSION
  8
1
  6
CONTINUOUS
 62
2
  2
*D2
  3
DMST_1
 10
13
 20
52.4743656104027
 30
0
 11
6.5
 21
55.0743656104027
 31
0
 12
0
 22
0
 32
0
 70
0
 13
0
 23
13
 33
0
 14
13
 24
13
 34
0
 53
0
  0
DIMENSION
  8
1
  6
CONTINUOUS
 62
2
  2
*D3
  3
DMST_1
 10
0
 20
64.54665494709951
 30
0
 11
16.00000000000001
 21
67.14665494709951
 31
0
 12
0
 22
0
 32
0
 70
0
 13
32.00000000000001
 23
29.5
 33
0
 14
0
 24
13
 34
0
 53
0
  0
DIMENSION
  8
1
  6
CONTINUOUS
 62
2
  2
*D4
  3
DMST_1
 10
-33.9611928062272
 20
18.99981600930903
 30
0
 11
-36.5611928062272
 21
28.6108596972679
 31
0
 12
0
 22
0
 32
0
 70
0
  1
âË<>
 13
27.00000000000002
 23
1.000183990691028
 33
0
 14
27.00000000000002
 24
18.99981600930903
 34
0
 50
90
 53
0
  0
DIMENSION
  8
1
  6
CONTINUOUS
 62
2
  2
*D5
  3
DMST_2
 10
-22.0240796354787
 20
14.00024539811398
 30
0
 11
-25.4240796354787
 21
31.1809627366714
 31
0
 12
0
 22
0
 32
0
 70
0
  1
âË<>
 13
0
 23
6
 33
0
 14
18.38580273375919
 24
14.00024539811398
 34
0
 50
90
 53
0
  0
DIMENSION
  8
1
  6
CONTINUOUS
 62
2
  2
*D6
  3
DMST_3
 10
-9.9735644384611
 20
13
 30
0
 11
-12.5735644384611
 21
30.3242617235369
 31
0
 12
0
 22
0
 32
0
 70
1
 13
0
 23
6
 33
0
 14
0
 24
13
 34
0
 53
0
  0
DIMENSION
  8
1
  6
CONTINUOUS
 62
2
  2
*D7
  3
DMST_4
 10
-46.9880333195256
 20
-24.75
 30
0
 11
-49.5880333195256
 21
0
 31
0
 12
0
 22
0
 32
0
 70
0
 13
-68.99999999999987
 23
24.75
 33
0
 14
-68.99999999999987
 24
-24.75
 34
0
 50
90
 53
0
  0
DIMENSION
  8
1
  6
CONTINUOUS
 62
2
  2
*D8
  3
DMST_4
 10
-124.2499999999999
 20
40.4412251103172
 30
0
 11
-99.49999999999989
 21
43.0412251103172
 31
0
 12
0
 22
0
 32
0
 70
0
 13
-74.74999999999987
 23
30.5
 33
0
 14
-124.2499999999999
 24
30.5
 34
0
 53
0
  0
DIMENSION
  8
1
  6
CONTINUOUS
 62
2
  2
*D9
  3
DMST_5
 10
-58.9745585791949
 20
0
 30
0
 11
-61.5745585791949
 21
-12.0930059486526
 31
0
 12
0
 22
0
 32
0
 70
0
 13
-90.5
 23
10
 33
0
 14
-68.99999999999987
 24
0
 34
0
 50
90
 53
0
  0
DIMENSION
  8
1
  6
CONTINUOUS
 62
2
  2
*D10
  3
DMST_1
 10
-130
 20
52.3764387316521
 30
0
 11
-99.5
 21
54.9764387316521
 31
0
 12
0
 22
0
 32
0
 70
0
  1
üá<>
 13
-69
 23
25.5
 33
0
 14
-130
 24
25.5
 34
0
 53
0
  0
DIMENSION
  8
1
  6
CONTINUOUS
 62
2
  2
*D11
  3
DMST_1
 10
133.6000000000005
 20
64.5459719570546
 30
0
 11
82.80000000000027
 21
67.1459719570546
 31
0
 12
0
 22
0
 32
0
 70
0
 13
32.00000000000001
 23
29.5
 33
0
 14
133.6000000000005
 24
10
 34
0
 53
0
  0
DIMENSION
  8
1
  6
CONTINUOUS
 62
2
  2
*D12
  3
DMST_1
 10
153.5107268404731
 20
22
 30
0
 11
150.9107268404731
 21
0
 31
0
 12
0
 22
0
 32
0
 70
0
  1
âË<>
 13
127
 23
-22
 33
0
 14
127.0000000000015
 24
22
 34
0
 50
90
 53
0
  0
DIMENSION
  8
1
  6
CONTINUOUS
 62
2
  2
*D13
  3
DMST_6
 10
141.5121336719101
 20
-69.78233801184217
 30
0
 11
138.9121336719101
 21
-61.54993385985932
 31
0
 12
0
 22
0
 32
0
 70
0
  1
(<>
 13
124.0968821351011
 23
-72.78233801184217
 33
0
 14
124.3943369725352
 24
-69.78233801184217
 34
0
 50
90
 53
0
  0
INSERT
  8
0
  2
___R___O_______R
 10
0.5
 20
-3.75
 30
0
  0
INSERT
  8
1
  2
*D14
 10
0
 20
0
 30
0
  0
INSERT
  8
1
  2
*D15
 10
0
 20
0
 30
0
  0
ENDSEC
  0
EOF
