  0
SECTION
  2
HEADER
  9
$ACADVER
  1
AC1009
  9
$INSBASE
 10
0
 20
0
  9
$EXTMIN
 10
-194.5
 20
-146
  9
$EXTMAX
 10
194.5
 20
146
  9
$LIMMIN
 10
-194.5
 20
-146
  9
$LIMMAX
 10
194.5
 20
146
  9
$VIEWCTR
 10
10
 20
10
  9
$VIEWSIZE
 40
10
  9
$SNAPMODE
 70
0
  9
$SNAPUNIT
 10
1
 20
1
  9
$SNAPBASE
 10
0
 20
0
  9
$SNAPANG
 50
0
  9
$SNAPSTYLE
 70
0
  9
$SNAPISOPAIR
 70
0
  9
$GRIDMODE
 70
0
  9
$GRIDUNIT
 10
0
 20
0
  9
$ORTHOMODE
 70
0
  9
$REGENMODE
 70
1
  9
$FILLMODE
 70
1
  9
$QTEXTMODE
 70
0
  9
$DRAGMODE
 70
2
  9
$LTSCALE
 40
1
  9
$OSMODE
 70
0
  9
$ATTMODE
 70
1
  9
$TEXTSIZE
 40
3.5
  9
$TRACEWID
 40
0.5
  9
$TEXTSTYLE
  7
STANDARD
  9
$CLAYER
  8
0
  9
$CELTYPE
  6
BYLAYER
  9
$CECOLOR
 62
256
  9
$DIMSCALE
 40
1
  9
$DIMASZ
 40
0.18
  9
$DIMEXO
 40
0.0625
  9
$DIMDLI
 40
0.38
  9
$DIMRND
 40
0
  9
$DIMDLE
 40
0
  9
$DIMEXE
 40
0.18
  9
$DIMTP
 40
0
  9
$DIMTM
 40
0
  9
$DIMTXT
 40
0.18
  9
$DIMCEN
 40
0.09
  9
$DIMTSZ
 40
0
  9
$DIMTOL
 70
0
  9
$DIMLIM
 70
0
  9
$DIMTIH
 70
1
  9
$DIMTOH
 70
1
  9
$DIMSE1
 70
0
  9
$DIMSE2
 70
0
  9
$DIMTAD
 70
0
  9
$DIMZIN
 70
0
  9
$DIMBLK
  1

  9
$DIMASO
 70
1
  9
$DIMSHO
 70
1
  9
$DIMPOST
  1

  9
$DIMAPOST
  1

  9
$DIMALT
 70
0
  9
$DIMALTD
 70
2
  9
$DIMALTF
 40
25.4
  9
$DIMLFAC
 40
1
  9
$DIMTOFL
 70
0
  9
$DIMTVP
 40
0
  9
$DIMTIX
 70
0
  9
$DIMSOXD
 70
0
  9
$DIMSAH
 70
0
  9
$DIMBLK1
  1

  9
$DIMBLK2
  1

  9
$DIMSTYLE
  2
*UNNAMED
  9
$DIMCLRD
 70
0
  9
$DIMCLRE
 70
0
  9
$DIMCLRT
 70
0
  9
$DIMTFAC
 40
1
  9
$DIMGAP
 40
0.09
  9
$LUNITS
 70
2
  9
$LUPREC
 70
4
  9
$AXISMODE
 70
0
  9
$AXISUNIT
 10
0
 20
0
  9
$SKETCHINC
 40
0.1
  9
$FILLETRAD
 40
2
  9
$AUNITS
 70
0
  9
$AUPREC
 70
0
  9
$MENU
  1
ACAD
  9
$ELEVATION
 40
0
  9
$THICKNESS
 40
0
  9
$VIEWDIR
 10
0
 20
0
 30
1
  9
$LIMCHECK
 70
0
  9
$BLIPMODE
 70
1
  9
$CHAMFERA
 40
0
  9
$CHAMFERB
 40
0
  9
$FASTZOOM
 70
1
  9
$SKPOLY
 70
0
  9
$ANGBASE
 50
0
  9
$ANGDIR
 70
0
  9
$PDMODE
 70
0
  9
$PDSIZE
 40
0
  9
$PLINEWID
 40
0
  9
$COORDS
 70
2
  0
ENDSEC
  0
SECTION
  2
TABLES
  0
TABLE
  2
DIMSTYLE
 70
6
  0
DIMSTYLE
  2
DMST_1
 70
0
  3

  4

  5

  6

  7

 40
1
 41
3.2
 42
1
 43
7
 44
1
 45
0
 46
0
 47
0.1
 48
0.1
140
3.2
141
0
142
0
143
25.4
144
1
145
0
146
0.6
147
0.09
 71
1
 72
0
 73
0
 74
0
 75
0
 76
0
 77
1
 78
9
170
0
171
2
172
0
173
0
174
0
175
0
176
2
177
2
178
2
  0
DIMSTYLE
  2
DMST_2
 70
0
  3

  4

  5

  6

  7

 40
1
 41
3.2
 42
1
 43
7
 44
1
 45
0
 46
0
 47
0
 48
0.02
140
3.2
141
0
142
0
143
25.4
144
1
145
0
146
0.6
147
0.09
 71
1
 72
0
 73
0
 74
0
 75
0
 76
0
 77
1
 78
9
170
0
171
2
172
0
173
0
174
0
175
0
176
2
177
2
178
2
  0
DIMSTYLE
  2
DMST_3
 70
0
  3

  4

  5

  6

  7

 40
1
 41
3.2
 42
1
 43
7
 44
1
 45
0
 46
0
 47
0.2
 48
0.2
140
3.2
141
0
142
0
143
25.4
144
1
145
0
146
0.6
147
0.09
 71
1
 72
0
 73
0
 74
0
 75
0
 76
0
 77
1
 78
9
170
0
171
2
172
0
173
0
174
0
175
0
176
2
177
2
178
2
  0
DIMSTYLE
  2
DMST_4
 70
0
  3

  4

  5

  6

  7

 40
1
 41
3.2
 42
1
 43
7
 44
1
 45
0
 46
0
 47
0
 48
0
140
3.2
141
0
142
0
143
25.4
144
1
145
0
146
1
147
0.09
 71
0
 72
0
 73
0
 74
0
 75
0
 76
0
 77
1
 78
9
170
0
171
2
172
0
173
0
174
0
175
0
176
2
177
2
178
2
  0
DIMSTYLE
  2
DMST_5
 70
0
  3
)
  4

  5

  6

  7

 40
1
 41
3.2
 42
1
 43
7
 44
1
 45
0
 46
0
 47
0
 48
0
140
3.2
141
0
142
0
143
25.4
144
1
145
0
146
1
147
0.09
 71
0
 72
0
 73
0
 74
0
 75
0
 76
0
 77
1
 78
9
170
0
171
2
172
0
173
0
174
0
175
0
176
2
177
2
178
2
  0
DIMSTYLE
  2
DMST_6
 70
0
  3

  4

  5

  6

  7

 40
1
 41
3.2
 42
1
 43
7
 44
1
 45
0
 46
0
 47
0
 48
0
140
3.2
141
0
142
0
143
25.4
144
1
145
0
146
1
147
0.09
 71
0
 72
0
 73
1
 74
1
 75
0
 76
0
 77
1
 78
9
170
0
171
2
172
0
173
0
174
0
175
0
176
2
177
2
178
2
  0
ENDTAB
  0
TABLE
  2
LTYPE
 70
9
  0
LTYPE
  2
CONTINUOUS
 70
64
  3
Solid line
 72
65
 73
0
 40
0
  0
LTYPE
  2
BORDER
 70
64
  3
__ __ . __ __ .
 72
65
 73
6
 40
17.91447368421053
 49
5.118421052631579
 49
-2.559210526315789
 49
5.118421052631579
 49
-2.559210526315789
 49
0
 49
-2.559210526315789
  0
LTYPE
  2
CENTER
 70
64
  3
____ _ ____ _
 72
65
 73
4
 40
20.47368421052632
 49
12.79605263157895
 49
-2.559210526315789
 49
2.559210526315789
 49
-2.559210526315789
  0
LTYPE
  2
DASHDOT
 70
64
  3
__ . __ . __ .
 72
65
 73
4
 40
10.23684210526316
 49
5.118421052631579
 49
-2.559210526315789
 49
0
 49
-2.559210526315789
  0
LTYPE
  2
DASHED
 70
64
  3
__ __ __ __ __
 72
65
 73
2
 40
7.677631578947368
 49
5.118421052631579
 49
-2.559210526315789
  0
LTYPE
  2
DIVIDE
 70
64
  3
__ . . __ . . 
 72
65
 73
6
 40
12.79605263157895
 49
5.118421052631579
 49
-2.559210526315789
 49
0
 49
-2.559210526315789
 49
0
 49
-2.559210526315789
  0
LTYPE
  2
DOT
 70
64
  3
..............
 72
65
 73
4
 40
5.118421052631579
 49
0
 49
-2.559210526315789
 49
0
 49
-2.559210526315789
  0
LTYPE
  2
HIDDEN
 70
64
  3
_ _ _ _ _ _ _
 72
65
 73
2
 40
3.838815789473684
 49
2.559210526315789
 49
-1.279605263157895
  0
LTYPE
  2
PHANTOM
 70
64
  3
_____ _ _ _____ _ _ 
 72
65
 73
6
 40
25.59210526315789
 49
12.79605263157895
 49
-2.559210526315789
 49
2.559210526315789
 49
-2.559210526315789
 49
2.559210526315789
 49
-2.559210526315789
  0
ENDTAB
  0
TABLE
  2
LAYER
 70
3
  0
LAYER
  2
1
 70
0
 62
7
  6
CONTINUOUS
  0
LAYER
  2
0
 70
0
 62
7
  6
CONTINUOUS
  0
ENDTAB
  0
TABLE
  2
STYLE
 70
4
  0
STYLE
  2
STANDARD
 70
0
 40
0
 41
1
 50
0
 71
0
 42
3.5
  3
txt
  4

  0
STYLE
  2
SIMPLEX
 70
0
 40
0
 41
1
 50
0
 71
0
 42
3.5
  3
simplex
  4

  0
STYLE
  2
COMPLEX
 70
0
 40
0
 41
1
 50
0
 71
0
 42
3.5
  3
complex
  4

  0
STYLE
  2
ITALIC
 70
0
 40
0
 41
1
 50
0
 71
0
 42
3.5
  3
italic
  4

  0
ENDTAB
  0
TABLE
  2
VIEW
 70
0
  0
ENDTAB
  0
ENDSEC
  0
SECTION
  2
BLOCKS
  0
BLOCK
  8
0
  2
___R___O_______R
 70
0
 10
0.5000000000000568
 20
-3.75
 30
0
  0
LINE
  8
1
 62
4
  6
PHANTOM
 10
-194.5
 20
-146
 30
0
 11
194.5
 21
-146
 31
0
  0
LINE
  8
1
 62
4
  6
PHANTOM
 10
194.5
 20
146
 30
0
 11
-194.5
 21
146
 31
0
  0
LINE
  8
1
 62
4
  6
PHANTOM
 10
194.5
 20
146
 30
0
 11
194.5
 21
129
 31
0
  0
LINE
  8
1
 62
4
  6
PHANTOM
 10
-194.5
 20
-146
 30
0
 11
-194.5
 21
146
 31
0
  0
LINE
  8
1
 62
4
  6
PHANTOM
 10
194.5
 20
-136.5
 30
0
 11
194.5
 21
-146
 31
0
  0
TEXT
  8
1
 62
4
 10
178.746911898274
 20
-142.6071298819256
 30
0
 40
5
  1
A3
 41
0.9
 72
1
 73
2
 11
183.246911898274
 21
-140.1071298819256
 31
0
  0
ENDBLK
  8
0
  0
BLOCK
  8
1
  2
*D0
 70
1
 10
0
 20
0
 30
0
  0
LINE
  8
1
 62
2
 10
-31.05998642250194
 20
2
 30
0
 11
-31.05998642250194
 21
14
 31
0
  0
LINE
  8
1
 62
2
 10
-31.05998642250194
 20
14
 30
0
 11
-31.05998642250194
 21
33.96464184746022
 31
0
  0
LINE
  8
1
 62
2
 10
19.99999999999996
 20
2
 30
0
 11
-32.05998642250194
 21
2
 31
0
  0
LINE
  8
1
 62
2
 10
19.99999999999996
 20
14
 30
0
 11
-32.05998642250194
 21
14
 31
0
  0
SOLID
  8
1
 62
2
 10
-31.05998642250194
 20
2
 30
0
 11
-31.47598642250194
 21
5.200000000000001
 31
0
 12
-30.64398642250194
 22
5.200000000000001
 32
0
 13
-30.64398642250194
 23
5.200000000000001
 33
0
  0
SOLID
  8
1
 62
2
 10
-31.05998642250194
 20
14
 30
0
 11
-30.64398642250194
 21
10.8
 31
0
 12
-31.47598642250194
 22
10.8
 32
0
 13
-31.47598642250194
 23
10.8
 33
0
  0
TEXT
  8
1
 62
2
 10
-32.05998642250194
 20
24.25264184746023
 30
0
 40
3.2
  1
12
 50
90
 41
0.9
  0
TEXT
  8
1
 62
2
 10
-32.69998642250194
 20
29.69264184746022
 30
0
 40
1.92
  1
%%p0.1
 50
90
 41
0.9
  0
TEXT
  8
1
 62
2
 10
-32.05998642250194
 20
20.60819740301578
 30
0
 40
3.2
  1
ƒÓ
 50
90
 41
0.9
  0
ENDBLK
  8
0
  0
BLOCK
  8
1
  2
*D1
 70
1
 10
0
 20
0
 30
0
  0
LINE
  8
1
 62
2
 10
-19.03917257805634
 20
-1.400000000000002
 30
0
 11
-19.03917257805634
 21
5
 31
0
  0
LINE
  8
1
 62
2
 10
-19.03917257805634
 20
5
 30
0
 11
-19.03917257805634
 21
11
 31
0
  0
LINE
  8
1
 62
2
 10
-19.03917257805634
 20
11
 30
0
 11
-19.03917257805634
 21
35.55738764332602
 31
0
  0
LINE
  8
1
 62
2
 10
-1
 20
5
 30
0
 11
-20.03917257805634
 21
5
 31
0
  0
LINE
  8
1
 62
2
 10
10.99999999999996
 20
11
 30
0
 11
-20.03917257805634
 21
11
 31
0
  0
SOLID
  8
1
 62
2
 10
-19.03917257805634
 20
5
 30
0
 11
-18.62317257805634
 21
1.799999999999999
 31
0
 12
-19.45517257805634
 22
1.799999999999999
 32
0
 13
-19.45517257805634
 23
1.799999999999999
 33
0
  0
SOLID
  8
1
 62
2
 10
-19.03917257805634
 20
11
 30
0
 11
-19.45517257805634
 21
14.2
 31
0
 12
-18.62317257805634
 22
14.2
 32
0
 13
-18.62317257805634
 23
14.2
 33
0
  0
TEXT
  8
1
 62
2
 10
-20.83917257805634
 20
25.26938764332602
 30
0
 40
3.2
  1
6
 50
90
 41
0.9
  0
TEXT
  8
1
 62
2
 10
-22.91917257805634
 20
28.78938764332602
 30
0
 40
1.92
  1
 0
 50
90
 41
0.9
  0
TEXT
  8
1
 62
2
 10
-20.03917257805634
 20
28.78938764332602
 30
0
 40
1.92
  1
-0.02
 50
90
 41
0.9
  0
TEXT
  8
1
 62
2
 10
-20.83917257805634
 20
21.62494319888158
 30
0
 40
3.2
  1
ƒÓ
 50
90
 41
0.9
  0
ENDBLK
  8
0
  0
BLOCK
  8
1
  2
*D2
 70
1
 10
0
 20
0
 30
0
  0
LINE
  8
1
 62
2
 10
-8.008116081803099
 20
10.5
 30
0
 11
-8.008116081803099
 21
31.0851861039751
 31
0
  0
LINE
  8
1
 62
2
 10
-8.008116081803099
 20
5
 30
0
 11
-8.008116081803099
 21
10.5
 31
0
  0
LINE
  8
1
 62
2
 10
-8.008116081803099
 20
-1.400000000000002
 30
0
 11
-8.008116081803099
 21
5
 31
0
  0
LINE
  8
1
 62
2
 10
-1
 20
10.5
 30
0
 11
-9.008116081803099
 21
10.5
 31
0
  0
LINE
  8
1
 62
2
 10
-1
 20
5
 30
0
 11
-9.008116081803099
 21
5
 31
0
  0
SOLID
  8
1
 62
2
 10
-8.008116081803099
 20
5
 30
0
 11
-7.592116081803099
 21
1.799999999999999
 31
0
 12
-8.424116081803099
 22
1.799999999999999
 32
0
 13
-8.424116081803099
 23
1.799999999999999
 33
0
  0
SOLID
  8
1
 62
2
 10
-8.008116081803099
 20
10.5
 30
0
 11
-8.424116081803099
 21
13.7
 31
0
 12
-7.5921160818031
 22
13.7
 32
0
 13
-7.5921160818031
 23
13.7
 33
0
  0
TEXT
  8
1
 62
2
 10
-9.008116081803101
 20
18.7971861039751
 30
0
 40
3.2
  1
5.5
 50
90
 41
0.9
  0
TEXT
  8
1
 62
2
 10
-9.648116081803099
 20
26.2371861039751
 30
0
 40
1.92
  1
%%p0.2
 50
90
 41
0.9
  0
ENDBLK
  8
0
  0
BLOCK
  8
1
  2
*D3
 70
1
 10
0
 20
0
 30
0
  0
LINE
  8
1
 62
2
 10
31.40000000000016
 20
35.0091931483056
 30
0
 11
25.00000000000016
 21
35.0091931483056
 31
0
  0
LINE
  8
1
 62
2
 10
20.99999999999996
 20
35.0091931483056
 30
0
 11
25.00000000000016
 21
35.0091931483056
 31
0
  0
LINE
  8
1
 62
2
 10
20.99999999999996
 20
35.0091931483056
 30
0
 11
14.59999999999996
 21
35.0091931483056
 31
0
  0
LINE
  8
1
 62
2
 10
20.99999999999996
 20
15
 30
0
 11
20.99999999999996
 21
36.0091931483056
 31
0
  0
LINE
  8
1
 62
2
 10
25.00000000000016
 20
26
 30
0
 11
25.00000000000016
 21
36.0091931483056
 31
0
  0
SOLID
  8
1
 62
2
 10
20.99999999999996
 20
35.0091931483056
 30
0
 11
17.79999999999996
 21
34.5931931483056
 31
0
 12
17.79999999999996
 22
35.4251931483056
 32
0
 13
17.79999999999996
 23
35.4251931483056
 33
0
  0
SOLID
  8
1
 62
2
 10
25.00000000000016
 20
35.0091931483056
 30
0
 11
28.20000000000016
 21
35.4251931483056
 31
0
 12
28.20000000000016
 22
34.5931931483056
 32
0
 13
28.20000000000016
 23
34.5931931483056
 33
0
  0
TEXT
  8
1
 62
2
 10
15.5808400928022
 20
36.0091931483056
 30
0
 40
3.2
  1
4
 41
0.9
  0
ENDBLK
  8
0
  0
BLOCK
  8
1
  2
*D4
 70
1
 10
0
 20
0
 30
0
  0
LINE
  8
1
 62
2
 10
-1.776356839400251e-015
 20
35.0286347652978
 30
0
 11
11.99999999999996
 21
35.0286347652978
 31
0
  0
LINE
  8
1
 62
2
 10
11.99999999999996
 20
11.5
 30
0
 11
11.99999999999996
 21
36.0286347652978
 31
0
  0
LINE
  8
1
 62
2
 10
-1.776356839400251e-015
 20
11.5
 30
0
 11
-1.776356839400251e-015
 21
36.0286347652978
 31
0
  0
SOLID
  8
1
 62
2
 10
-1.776356839400251e-015
 20
35.0286347652978
 30
0
 11
3.199999999999999
 21
35.44463476529779
 31
0
 12
3.199999999999999
 22
34.6126347652978
 32
0
 13
3.199999999999999
 23
34.6126347652978
 33
0
  0
SOLID
  8
1
 62
2
 10
11.99999999999996
 20
35.0286347652978
 30
0
 11
8.799999999999955
 21
34.6126347652978
 31
0
 12
8.799999999999955
 22
35.44463476529779
 32
0
 13
8.799999999999955
 23
35.44463476529779
 33
0
  0
TEXT
  8
1
 62
2
 10
4.079999999999977
 20
36.0286347652978
 30
0
 40
3.2
  1
12
 41
0.9
  0
ENDBLK
  8
0
  0
BLOCK
  8
1
  2
*D5
 70
1
 10
0
 20
0
 30
0
  0
LINE
  8
1
 62
2
 10
-64.58021846900411
 20
7.999999999999888
 30
0
 11
-64.58021846900411
 21
23.443530727469
 31
0
  0
LINE
  8
1
 62
2
 10
-64.58021846900411
 20
0
 30
0
 11
-64.58021846900411
 21
7.999999999999888
 31
0
  0
LINE
  8
1
 62
2
 10
-64.58021846900411
 20
-6.400000000000002
 30
0
 11
-64.58021846900411
 21
0
 31
0
  0
LINE
  8
1
 62
2
 10
-92.5
 20
7.999999999999888
 30
0
 11
-63.58021846900411
 21
7.999999999999888
 31
0
  0
LINE
  8
1
 62
2
 10
-73.5
 20
0
 30
0
 11
-63.58021846900411
 21
0
 31
0
  0
SOLID
  8
1
 62
2
 10
-64.58021846900411
 20
0
 30
0
 11
-64.16421846900411
 21
-3.200000000000001
 31
0
 12
-64.99621846900411
 22
-3.200000000000001
 32
0
 13
-64.99621846900411
 23
-3.200000000000001
 33
0
  0
SOLID
  8
1
 62
2
 10
-64.58021846900411
 20
7.999999999999888
 30
0
 11
-64.99621846900411
 21
11.19999999999989
 31
0
 12
-64.16421846900411
 22
11.19999999999989
 32
0
 13
-64.16421846900411
 23
11.19999999999989
 33
0
  0
TEXT
  8
1
 62
2
 10
-65.58021846900411
 20
15.075530727469
 30
0
 40
3.2
  1
8
 50
90
 41
0.9
  0
TEXT
  8
1
 62
2
 10
-66.22021846900411
 20
18.595530727469
 30
0
 40
1.92
  1
%%p0.2
 50
90
 41
0.9
  0
ENDBLK
  8
0
  0
BLOCK
  8
1
  2
*D6
 70
1
 10
0
 20
0
 30
0
  0
LINE
  8
1
 62
2
 10
-52.53292283532405
 20
9.99999999999989
 30
0
 11
-52.53292283532405
 21
23.3863022135852
 31
0
  0
LINE
  8
1
 62
2
 10
-52.53292283532405
 20
0
 30
0
 11
-52.53292283532405
 21
9.99999999999989
 31
0
  0
LINE
  8
1
 62
2
 10
-79.5
 20
9.99999999999989
 30
0
 11
-51.53292283532405
 21
9.99999999999989
 31
0
  0
LINE
  8
1
 62
2
 10
-73.5
 20
0
 30
0
 11
-51.53292283532405
 21
0
 31
0
  0
SOLID
  8
1
 62
2
 10
-52.53292283532405
 20
0
 30
0
 11
-52.94892283532406
 21
3.200000000000001
 31
0
 12
-52.11692283532405
 22
3.200000000000001
 32
0
 13
-52.11692283532405
 23
3.200000000000001
 33
0
  0
SOLID
  8
1
 62
2
 10
-52.53292283532405
 20
9.99999999999989
 30
0
 11
-52.11692283532405
 21
6.799999999999889
 31
0
 12
-52.94892283532406
 22
6.799999999999889
 32
0
 13
-52.94892283532406
 23
6.799999999999889
 33
0
  0
TEXT
  8
1
 62
2
 10
-53.53292283532405
 20
13.0983022135852
 30
0
 40
3.2
  1
10
 50
90
 41
0.9
  0
TEXT
  8
1
 62
2
 10
-54.17292283532405
 20
18.5383022135852
 30
0
 40
1.92
  1
%%p0.2
 50
90
 41
0.9
  0
ENDBLK
  8
0
  0
BLOCK
  8
1
  2
*D7
 70
1
 10
0
 20
0
 30
0
  0
LINE
  8
1
 62
2
 10
-52.53292283532405
 20
-20.00000000000012
 30
0
 11
-52.53292283532405
 21
0
 31
0
  0
LINE
  8
1
 62
2
 10
-73.5
 20
0
 30
0
 11
-51.53292283532405
 21
0
 31
0
  0
LINE
  8
1
 62
2
 10
-96.5
 20
-20.00000000000012
 30
0
 11
-51.53292283532405
 21
-20.00000000000012
 31
0
  0
SOLID
  8
1
 62
2
 10
-52.53292283532405
 20
0
 30
0
 11
-52.11692283532405
 21
-3.200000000000001
 31
0
 12
-52.94892283532406
 22
-3.200000000000001
 32
0
 13
-52.94892283532406
 23
-3.200000000000001
 33
0
  0
SOLID
  8
1
 62
2
 10
-52.53292283532405
 20
-20.00000000000012
 30
0
 11
-52.94892283532406
 21
-16.80000000000012
 31
0
 12
-52.11692283532405
 22
-16.80000000000012
 32
0
 13
-52.11692283532405
 23
-16.80000000000012
 33
0
  0
TEXT
  8
1
 62
2
 10
-53.53292283532405
 20
-15.62400000000006
 30
0
 40
3.2
  1
20
 50
90
 41
0.9
  0
TEXT
  8
1
 62
2
 10
-54.17292283532405
 20
-9.224000000000061
 30
0
 40
1.92
  1
%%p0.2
 50
90
 41
0.9
  0
ENDBLK
  8
0
  0
BLOCK
  8
1
  2
*D8
 70
1
 10
0
 20
0
 30
0
  0
LINE
  8
1
 62
2
 10
-116.5
 20
34.9787577640941
 30
0
 11
-99.5
 21
34.9787577640941
 31
0
  0
LINE
  8
1
 62
2
 10
-99.5
 20
25.99999999999988
 30
0
 11
-99.5
 21
35.9787577640941
 31
0
  0
LINE
  8
1
 62
2
 10
-116.5
 20
12.99999999999989
 30
0
 11
-116.5
 21
35.9787577640941
 31
0
  0
SOLID
  8
1
 62
2
 10
-116.5
 20
34.9787577640941
 30
0
 11
-113.3
 21
35.3947577640941
 31
0
 12
-113.3
 22
34.5627577640941
 32
0
 13
-113.3
 23
34.5627577640941
 33
0
  0
SOLID
  8
1
 62
2
 10
-99.5
 20
34.9787577640941
 30
0
 11
-102.7
 21
34.5627577640941
 31
0
 12
-102.7
 22
35.3947577640941
 32
0
 13
-102.7
 23
35.3947577640941
 33
0
  0
TEXT
  8
1
 62
2
 10
-113.144
 20
35.9787577640941
 30
0
 40
3.2
  1
17
 41
0.9
  0
TEXT
  8
1
 62
2
 10
-107.704
 20
36.6187577640941
 30
0
 40
1.92
  1
%%p0.2
 41
0.9
  0
ENDBLK
  8
0
  0
BLOCK
  8
1
  2
*D9
 70
1
 10
0
 20
0
 30
0
  0
LINE
  8
1
 62
2
 10
-99.5
 20
34.9787577640941
 30
0
 11
-82.5
 21
34.9787577640941
 31
0
  0
LINE
  8
1
 62
2
 10
-82.5
 20
12.99999999999989
 30
0
 11
-82.5
 21
35.9787577640941
 31
0
  0
LINE
  8
1
 62
2
 10
-99.5
 20
25.99999999999988
 30
0
 11
-99.5
 21
35.9787577640941
 31
0
  0
SOLID
  8
1
 62
2
 10
-99.5
 20
34.9787577640941
 30
0
 11
-96.3
 21
35.3947577640941
 31
0
 12
-96.3
 22
34.5627577640941
 32
0
 13
-96.3
 23
34.5627577640941
 33
0
  0
SOLID
  8
1
 62
2
 10
-82.5
 20
34.9787577640941
 30
0
 11
-85.7
 21
34.5627577640941
 31
0
 12
-85.7
 22
35.3947577640941
 32
0
 13
-85.7
 23
35.3947577640941
 33
0
  0
TEXT
  8
1
 62
2
 10
-96.14400000000001
 20
35.9787577640941
 30
0
 40
3.2
  1
17
 41
0.9
  0
TEXT
  8
1
 62
2
 10
-90.70400000000001
 20
36.6187577640941
 30
0
 40
1.92
  1
%%p0.2
 41
0.9
  0
ENDBLK
  8
0
  0
BLOCK
  8
1
  2
*D10
 70
1
 10
0
 20
0
 30
0
  0
LINE
  8
1
 62
2
 10
-124.5
 20
46.9975727345427
 30
0
 11
-74.5
 21
46.9975727345427
 31
0
  0
LINE
  8
1
 62
2
 10
-124.5
 20
0.9999999999998934
 30
0
 11
-124.5
 21
47.9975727345427
 31
0
  0
LINE
  8
1
 62
2
 10
-74.5
 20
1
 30
0
 11
-74.5
 21
47.9975727345427
 31
0
  0
SOLID
  8
1
 62
2
 10
-124.5
 20
46.9975727345427
 30
0
 11
-121.3
 21
47.4135727345427
 31
0
 12
-121.3
 22
46.5815727345427
 32
0
 13
-121.3
 23
46.5815727345427
 33
0
  0
SOLID
  8
1
 62
2
 10
-74.5
 20
46.9975727345427
 30
0
 11
-77.7
 21
46.5815727345427
 31
0
 12
-77.7
 22
47.4135727345427
 32
0
 13
-77.7
 23
47.4135727345427
 33
0
  0
TEXT
  8
1
 62
2
 10
-100.0777777777778
 20
47.9975727345427
 30
0
 40
3.2
  1
50
 41
0.9
  0
TEXT
  8
1
 62
2
 10
-103.7222222222222
 20
47.9975727345427
 30
0
 40
3.2
  1
ƒÓ
 41
0.9
  0
ENDBLK
  8
0
  0
BLOCK
  8
1
  2
*D11
 70
1
 10
0
 20
0
 30
0
  0
LINE
  8
1
 62
2
 10
0
 20
47.0581296371928
 30
0
 11
25.00000000000016
 21
47.0581296371928
 31
0
  0
LINE
  8
1
 62
2
 10
25.00000000000016
 20
26
 30
0
 11
25.00000000000016
 21
48.0581296371928
 31
0
  0
LINE
  8
1
 62
2
 10
0
 20
11.5
 30
0
 11
0
 21
48.0581296371928
 31
0
  0
SOLID
  8
1
 62
2
 10
0
 20
47.0581296371928
 30
0
 11
3.200000000000001
 21
47.4741296371928
 31
0
 12
3.200000000000001
 22
46.6421296371928
 32
0
 13
3.200000000000001
 23
46.6421296371928
 33
0
  0
SOLID
  8
1
 62
2
 10
25.00000000000016
 20
47.0581296371928
 30
0
 11
21.80000000000016
 21
46.6421296371928
 31
0
 12
21.80000000000016
 22
47.4741296371928
 32
0
 13
21.80000000000016
 23
47.4741296371928
 33
0
  0
TEXT
  8
1
 62
2
 10
10.10000000000008
 20
48.0581296371928
 30
0
 40
3.2
  1
25
 41
0.9
  0
ENDBLK
  8
0
  0
BLOCK
  8
1
  2
*D12
 70
1
 10
0
 20
0
 30
0
  0
LINE
  8
1
 62
2
 10
120.11213367191
 20
-79.18233801184221
 30
0
 11
120.11213367191
 21
-72.7823380118422
 31
0
  0
LINE
  8
1
 62
2
 10
120.11213367191
 20
-72.7823380118422
 30
0
 11
120.11213367191
 21
-69.7823380118422
 31
0
  0
LINE
  8
1
 62
2
 10
120.11213367191
 20
-69.7823380118422
 30
0
 11
120.11213367191
 21
-58.50993385985932
 31
0
  0
LINE
  8
1
 62
2
 10
103.696882135101
 20
-72.7823380118422
 30
0
 11
121.11213367191
 21
-72.7823380118422
 31
0
  0
LINE
  8
1
 62
2
 10
103.9943369725351
 20
-69.7823380118422
 30
0
 11
121.11213367191
 21
-69.7823380118422
 31
0
  0
SOLID
  8
1
 62
2
 10
120.11213367191
 20
-69.7823380118422
 30
0
 11
119.69613367191
 21
-66.5823380118422
 31
0
 12
120.52813367191
 22
-66.5823380118422
 32
0
 13
120.52813367191
 23
-66.5823380118422
 33
0
  0
SOLID
  8
1
 62
2
 10
120.11213367191
 20
-72.7823380118422
 30
0
 11
120.52813367191
 21
-75.9823380118422
 31
0
 12
119.69613367191
 22
-75.9823380118422
 32
0
 13
119.69613367191
 23
-75.9823380118422
 33
0
  0
TEXT
  8
1
 62
2
 10
119.11213367191
 20
-62.50993385985932
 30
0
 40
3.2
  1
3
 50
90
 41
0.9
  0
TEXT
  8
1
 62
2
 10
119.11213367191
 20
-64.58993385985933
 30
0
 40
3.2
  1
(
 50
90
 41
0.9
  0
TEXT
  8
1
 62
2
 10
119.11213367191
 20
-58.98993385985932
 30
0
 40
3.2
  1
)
 50
90
 41
0.9
  0
ENDBLK
  8
0
  0
BLOCK
  8
1
  2
*D13
 70
1
 10
0
 20
0
 30
0
  0
LINE
  8
1
 62
2
 10
132.110726840473
 20
-22
 30
0
 11
132.110726840473
 21
22
 31
0
  0
LINE
  8
1
 62
2
 10
106.6
 20
-22
 30
0
 11
133.110726840473
 21
-22
 31
0
  0
LINE
  8
1
 62
2
 10
106.6000000000015
 20
22
 30
0
 11
133.110726840473
 21
22
 31
0
  0
SOLID
  8
1
 62
2
 10
132.110726840473
 20
22
 30
0
 11
132.526726840473
 21
18.8
 31
0
 12
131.694726840473
 22
18.8
 32
0
 13
131.694726840473
 23
18.8
 33
0
  0
SOLID
  8
1
 62
2
 10
132.110726840473
 20
-22
 30
0
 11
131.694726840473
 21
-18.8
 31
0
 12
132.526726840473
 22
-18.8
 32
0
 13
132.526726840473
 23
-18.8
 33
0
  0
TEXT
  8
1
 62
2
 10
131.110726840473
 20
-0.577777777777778
 30
0
 40
3.2
  1
44
 50
90
 41
0.9
  0
TEXT
  8
1
 62
2
 10
131.110726840473
 20
-4.222222222222222
 30
0
 40
3.2
  1
ƒÓ
 50
90
 41
0.9
  0
ENDBLK
  8
0
  0
BLOCK
  8
1
  2
*D14
 70
1
 10
0
 20
0
 30
0
  0
LINE
  8
1
 62
2
 10
25.00000000000016
 20
35.0195941870415
 30
0
 11
55.60000000000004
 21
35.0195941870415
 31
0
  0
LINE
  8
1
 62
2
 10
55.60000000000004
 20
18.3778068896783
 30
0
 11
55.60000000000004
 21
36.0195941870415
 31
0
  0
LINE
  8
1
 62
2
 10
25.00000000000016
 20
26
 30
0
 11
25.00000000000016
 21
36.0195941870415
 31
0
  0
SOLID
  8
1
 62
2
 10
25.00000000000016
 20
35.0195941870415
 30
0
 11
28.20000000000016
 21
35.4355941870415
 31
0
 12
28.20000000000016
 22
34.6035941870415
 32
0
 13
28.20000000000016
 23
34.6035941870415
 33
0
  0
SOLID
  8
1
 62
2
 10
55.60000000000004
 20
35.0195941870415
 30
0
 11
52.40000000000003
 21
34.6035941870415
 31
0
 12
52.40000000000003
 22
35.4355941870415
 32
0
 13
52.40000000000003
 23
35.4355941870415
 33
0
  0
TEXT
  8
1
 62
2
 10
35.9400000000001
 20
36.0195941870415
 30
0
 40
3.2
  1
30.6
 41
0.9
  0
ENDBLK
  8
0
  0
BLOCK
  8
1
  2
*D15
 70
1
 10
0
 20
0
 30
0
  0
LINE
  8
1
 62
2
 10
25.00000000000016
 20
47.0066500860634
 30
0
 11
112.2
 21
47.0066500860634
 31
0
  0
LINE
  8
1
 62
2
 10
25.00000000000016
 20
26
 30
0
 11
25.00000000000016
 21
48.0066500860634
 31
0
  0
LINE
  8
1
 62
2
 10
112.2
 20
11
 30
0
 11
112.2
 21
48.0066500860634
 31
0
  0
SOLID
  8
1
 62
2
 10
25.00000000000016
 20
47.0066500860634
 30
0
 11
28.20000000000016
 21
47.42265008606339
 31
0
 12
28.20000000000016
 22
46.5906500860634
 32
0
 13
28.20000000000016
 23
46.5906500860634
 33
0
  0
SOLID
  8
1
 62
2
 10
112.2
 20
47.0066500860634
 30
0
 11
109
 21
46.5906500860634
 31
0
 12
109
 22
47.42265008606339
 32
0
 13
109
 23
47.42265008606339
 33
0
  0
TEXT
  8
1
 62
2
 10
64.24000000000008
 20
48.0066500860634
 30
0
 40
3.2
  1
87.2
 41
0.9
  0
ENDBLK
  8
0
  0
BLOCK
  8
1
  2
*D16
 70
1
 10
0
 20
0
 30
0
  0
LINE
  8
1
 62
2
 10
132.076125582722
 20
-72.78233801184217
 30
0
 11
132.076125582722
 21
-43.6843801334476
 31
0
  0
LINE
  8
1
 62
2
 10
103.696882135101
 20
-72.78233801184217
 30
0
 11
133.076125582722
 21
-72.78233801184217
 31
0
  0
SOLID
  8
1
 62
2
 10
132.076125582722
 20
-72.78233801184217
 30
0
 11
131.660125582722
 21
-69.58233801184217
 31
0
 12
132.492125582722
 22
-69.58233801184217
 32
0
 13
132.492125582722
 23
-69.58233801184217
 33
0
  0
TEXT
  8
1
 62
2
 10
131.076125582722
 20
-56.2283801334476
 30
0
 40
3.2
  1
150
 50
90
 41
0.9
  0
TEXT
  8
1
 62
2
 10
130.436125582722
 20
-47.9083801334476
 30
0
 40
1.92
  1
%%p20
 50
90
 41
0.9
  0
ENDBLK
  8
0
  0
BLOCK
  8
1
  2
*D17
 70
1
 10
0
 20
0
 30
0
  0
LINE
  8
1
 62
2
 10
-82.63851792798413
 20
-34.74582965817501
 30
0
 11
-32.95851792798407
 21
-34.74582965817501
 31
0
  0
LINE
  8
1
 62
2
 10
-97.99449413169418
 20
-21.31660627390915
 30
0
 11
-82.63851792798413
 21
-34.74582965817501
 31
0
  0
SOLID
  8
1
 62
2
 10
-97.99449413169418
 20
-21.31660627390915
 30
0
 11
-95.31183063743175
 21
-23.11003109155602
 31
0
 12
-95.85953884737792
 22
-23.73632153277125
 32
0
 13
-95.85953884737792
 23
-23.73632153277125
 33
0
  0
TEXT
  8
1
 62
2
 10
-77.43851792798408
 20
-33.74582965817501
 30
0
 40
3.2
  1
3-M4 DEPTH 5MAX
 41
0.9
  0
ENDBLK
  8
0
  0
ENDSEC
  0
SECTION
  2
ENTITIES
  0
LINE
  8
1
 62
7
 10
-131.8794738009033
 20
-27.97927731356305
 30
0
 11
-118.8502522084172
 21
-15.82933161793795
 31
0
  0
LINE
  8
1
 62
7
 10
-130.7746364576021
 20
-29.1640703101859
 30
0
 11
-117.7890960828886
 21
-17.05485800911465
 31
0
  0
LINE
  8
1
 62
7
 10
-129.6573454163491
 20
-30.33725004558879
 30
0
 11
-116.6405775218142
 21
-18.19891761118364
 31
0
  0
LINE
  8
1
 62
7
 10
20.99999999999996
 20
2
 30
0
 11
25.00000000000016
 21
2
 31
0
  0
LINE
  8
1
 62
7
 10
25.00000000000016
 20
14
 30
0
 11
20.99999999999996
 21
14
 31
0
  0
LINE
  8
1
 62
7
 10
20.99999999999996
 20
14
 30
0
 11
20.99999999999996
 21
2
 31
0
  0
LINE
  8
1
 62
7
 10
25.00000000000016
 20
25
 30
0
 11
25.00000000000016
 21
-25
 31
0
  0
LINE
  8
1
 62
7
 10
25.00000000000016
 20
-25
 30
0
 11
46.60000000000005
 21
-24.99999999999999
 31
0
  0
LINE
  8
1
 62
7
 10
29.00000000000016
 20
-24.99999999999999
 30
0
 11
29.00000000000016
 21
25
 31
0
  0
LINE
  8
1
 62
7
 10
46.60000000000005
 20
25
 30
0
 11
29.00000000000016
 21
25
 31
0
  0
LINE
  8
1
 62
7
 10
20.99999999999996
 20
11
 30
0
 11
11.99999999999996
 21
11
 31
0
  0
LINE
  8
1
 62
7
 10
11.99999999999996
 20
10.5
 30
0
 11
-3.552713678800501e-015
 21
10.5
 31
0
  0
LINE
  8
1
 62
7
 10
-3.552713678800501e-015
 20
10.5
 30
0
 11
0
 21
5
 31
0
  0
LINE
  8
1
 62
7
 10
11.99999999999996
 20
11
 30
0
 11
11.99999999999996
 21
10.5
 31
0
  0
LINE
  8
1
 62
7
 10
0
 20
5
 30
0
 11
20.99999999999996
 21
5
 31
0
  0
LINE
  8
1
 62
3
 10
-99.5
 20
24.99999999999988
 30
0
 11
-99.5
 21
27.99999999999988
 31
0
  0
LINE
  8
1
 62
2
 10
-116.5
 20
11.99999999999989
 30
0
 11
-116.5
 21
12.99999999999989
 31
0
  0
LINE
  8
1
 62
2
 10
-82.5
 20
11.99999999999989
 30
0
 11
-82.5
 21
12.99999999999989
 31
0
  0
LINE
  8
1
 62
2
 10
-74.5
 20
0
 30
0
 11
-71.5
 21
-1.101341240428155e-013
 31
0
  0
LINE
  8
1
 62
2
 10
-80.5
 20
9.99999999999989
 30
0
 11
-79.5
 21
9.99999999999989
 31
0
  0
LINE
  8
1
 62
2
 10
-93.5
 20
8
 30
0
 11
-91.5
 21
7.99999999999989
 31
0
  0
LINE
  8
1
 62
2
 10
-97.5
 20
-20.00000000000011
 30
0
 11
-96.5
 21
-20.00000000000011
 31
0
  0
LINE
  8
1
 62
7
 10
-101.1583123951777
 20
10.5
 30
0
 11
-97.841687604822
 21
10.49999999999989
 31
0
  0
LINE
  8
1
 62
3
 10
-127.5
 20
-1.101341240428155e-013
 30
0
 11
-74.5
 21
0
 31
0
  0
LINE
  8
1
 62
3
 10
-85
 20
-19
 30
0
 11
-85
 21
-10
 31
0
  0
LINE
  8
1
 62
3
 10
-89.5
 20
-14.5
 30
0
 11
-80.5
 21
-14.50000000000011
 31
0
  0
LINE
  8
1
 62
3
 10
-85.5
 20
10
 30
0
 11
-80.5
 21
9.99999999999989
 31
0
  0
LINE
  8
1
 62
3
 10
-86
 20
11.5
 30
0
 11
-86
 21
20.49999999999989
 31
0
  0
LINE
  8
1
 62
3
 10
-90.5
 20
15.99999999999989
 30
0
 11
-81.5
 21
15.99999999999989
 31
0
  0
LINE
  8
1
 62
3
 10
-99.5
 20
-28.00000000000012
 30
0
 11
-99.5
 21
24.99999999999988
 31
0
  0
LINE
  8
1
 62
3
 10
-2.76540038581294
 20
8
 30
0
 11
32.03861503488627
 21
8
 31
0
  0
LINE
  8
1
 62
3
 10
-82.5
 20
7
 30
0
 11
-82.5
 21
11.99999999999989
 31
0
  0
LINE
  8
1
 62
3
 10
-116.5
 20
6.99999999999989
 30
0
 11
-116.5
 21
11.99999999999989
 31
0
  0
LINE
  8
1
 62
3
 10
-119.5
 20
10
 30
0
 11
-113.5
 21
9.99999999999989
 31
0
  0
LINE
  8
1
 62
3
 10
-102.5
 20
-20.00000000000011
 30
0
 11
-97.5
 21
-20.00000000000011
 31
0
  0
LINE
  8
1
 62
3
 10
-107.5
 20
7.99999999999989
 30
0
 11
-93.5
 21
8
 31
0
  0
LINE
  8
1
 62
7
 10
-84.99411764705883
 20
16.3
 30
0
 11
-84.59999999999999
 21
16.3
 31
0
  0
LINE
  8
1
 62
7
 10
-84.99411764705883
 20
15.7
 30
0
 11
-84.59999999999999
 21
15.7
 31
0
  0
LINE
  8
1
 62
7
 10
-85
 20
16.2999999999999
 30
0
 11
-84.99411764705883
 21
16.3
 31
0
  0
LINE
  8
1
 62
7
 10
-85
 20
15.69999999999988
 30
0
 11
-84.99411764705883
 21
15.7
 31
0
  0
LINE
  8
1
 62
7
 10
-85.69999999999999
 20
15
 30
0
 11
-85.69999999999999
 21
14.6
 31
0
  0
LINE
  8
1
 62
7
 10
-86.19999999999999
 20
17.5
 30
0
 11
-85.80000000000001
 21
17.5
 31
0
  0
LINE
  8
1
 62
7
 10
-86.19999999999999
 20
14.5
 30
0
 11
-85.80000000000001
 21
14.5
 31
0
  0
LINE
  8
1
 62
7
 10
-84.5
 20
16.2
 30
0
 11
-84.5
 21
15.8
 31
0
  0
LINE
  8
1
 62
7
 10
-87.5
 20
16.2
 30
0
 11
-87.5
 21
15.8
 31
0
  0
LINE
  8
1
 62
7
 10
-87.40000000000001
 20
16.3
 30
0
 11
-87
 21
16.3
 31
0
  0
LINE
  8
1
 62
7
 10
-87.40000000000001
 20
15.7
 30
0
 11
-87
 21
15.7
 31
0
  0
LINE
  8
1
 62
7
 10
-86.30000000000001
 20
14.6
 30
0
 11
-86.30000000000001
 21
15
 31
0
  0
LINE
  8
1
 62
7
 10
-86.30000000000001
 20
17.4
 30
0
 11
-86.30000000000001
 21
17
 31
0
  0
LINE
  8
1
 62
7
 10
-85.69999999999999
 20
17.4
 30
0
 11
-85.69999999999999
 21
17
 31
0
  0
LINE
  8
1
 62
3
 10
-119.5
 20
4.47181675659499
 30
0
 11
-119.5
 21
-4.32100537872128
 31
0
  0
LINE
  8
1
 62
7
 10
-118.4941176470588
 20
0.3000000000000007
 30
0
 11
-118.1
 21
0.3000000000000007
 31
0
  0
LINE
  8
1
 62
7
 10
-118.4941176470588
 20
-0.2999999999999989
 30
0
 11
-118.1
 21
-0.2999999999999989
 31
0
  0
LINE
  8
1
 62
7
 10
-118.5
 20
0.2999999999999012
 30
0
 11
-118.4941176470588
 21
0.3000000000000007
 31
0
  0
LINE
  8
1
 62
7
 10
-118.5
 20
-0.3000000000001215
 30
0
 11
-118.4941176470588
 21
-0.2999999999999989
 31
0
  0
LINE
  8
1
 62
7
 10
-119.2
 20
-0.9999999999999982
 30
0
 11
-119.2
 21
-1.399999999999999
 31
0
  0
LINE
  8
1
 62
7
 10
-119.7
 20
1.5
 30
0
 11
-119.3
 21
1.5
 31
0
  0
LINE
  8
1
 62
7
 10
-119.7
 20
-1.499999999999998
 30
0
 11
-119.3
 21
-1.499999999999998
 31
0
  0
LINE
  8
1
 62
7
 10
-118
 20
0.1999999999998785
 30
0
 11
-118
 21
-0.1999999999999993
 31
0
  0
LINE
  8
1
 62
7
 10
-121
 20
0.2000000000000028
 30
0
 11
-121
 21
-0.1999999999999993
 31
0
  0
LINE
  8
1
 62
7
 10
-120.9
 20
0.3000000000000007
 30
0
 11
-120.5
 21
0.3000000000000007
 31
0
  0
LINE
  8
1
 62
7
 10
-120.9
 20
-0.2999999999999989
 30
0
 11
-120.5
 21
-0.2999999999999989
 31
0
  0
LINE
  8
1
 62
7
 10
-119.8
 20
-1.399999999999999
 30
0
 11
-119.8
 21
-0.9999999999999982
 31
0
  0
LINE
  8
1
 62
7
 10
-119.8
 20
1.400000000000002
 30
0
 11
-119.8
 21
1
 31
0
  0
LINE
  8
1
 62
7
 10
-119.2
 20
1.400000000000002
 30
0
 11
-119.2
 21
1
 31
0
  0
LINE
  8
1
 62
7
 10
-83.99411764705883
 20
-14.2
 30
0
 11
-83.59999999999999
 21
-14.2
 31
0
  0
LINE
  8
1
 62
7
 10
-83.99411764705883
 20
-14.8
 30
0
 11
-83.59999999999999
 21
-14.8
 31
0
  0
LINE
  8
1
 62
7
 10
-84
 20
-14.2000000000001
 30
0
 11
-83.99411764705883
 21
-14.2
 31
0
  0
LINE
  8
1
 62
7
 10
-84
 20
-14.80000000000012
 30
0
 11
-83.99411764705883
 21
-14.8
 31
0
  0
LINE
  8
1
 62
7
 10
-84.69999999999999
 20
-15.5
 30
0
 11
-84.69999999999999
 21
-15.9
 31
0
  0
LINE
  8
1
 62
7
 10
-85.19999999999999
 20
-13
 30
0
 11
-84.80000000000001
 21
-13
 31
0
  0
LINE
  8
1
 62
7
 10
-85.19999999999999
 20
-16
 30
0
 11
-84.80000000000001
 21
-16
 31
0
  0
LINE
  8
1
 62
7
 10
-83.5
 20
-14.3
 30
0
 11
-83.5
 21
-14.7
 31
0
  0
LINE
  8
1
 62
7
 10
-86.5
 20
-14.3
 30
0
 11
-86.5
 21
-14.7
 31
0
  0
LINE
  8
1
 62
7
 10
-86.40000000000001
 20
-14.2
 30
0
 11
-86
 21
-14.2
 31
0
  0
LINE
  8
1
 62
7
 10
-86.40000000000001
 20
-14.8
 30
0
 11
-86
 21
-14.8
 31
0
  0
LINE
  8
1
 62
7
 10
-85.30000000000001
 20
-15.9
 30
0
 11
-85.30000000000001
 21
-15.5
 31
0
  0
LINE
  8
1
 62
7
 10
-85.30000000000001
 20
-13.1
 30
0
 11
-85.30000000000001
 21
-13.5
 31
0
  0
LINE
  8
1
 62
7
 10
-84.69999999999999
 20
-13.1
 30
0
 11
-84.69999999999999
 21
-13.5
 31
0
  0
LINE
  8
1
 62
2
 10
-82.69950134497412
 20
-42.2309568476085
 30
0
 11
-32.70476177140404
 21
-42.2309568476085
 31
0
  0
LINE
  8
1
 62
7
 10
66.82002336582774
 20
22
 30
0
 11
66.82002336582774
 21
13.54455245716451
 31
0
  0
LINE
  8
1
 62
7
 10
66.82002336582774
 20
13.54455245716451
 30
0
 11
86.82002336582769
 21
13.54455245716451
 31
0
  0
LINE
  8
1
 62
7
 10
86.82002336582769
 20
13.54455245716451
 30
0
 11
86.82002336582769
 21
22
 31
0
  0
LINE
  8
1
 62
2
 10
132.1
 20
-27.10002334769979
 30
0
 11
132.1
 21
-46.40321556867804
 31
0
  0
LINE
  8
1
 62
2
 10
18.21034870426499
 20
-59.34991020425775
 30
0
 11
86.56713648055509
 21
-59.34991020425775
 31
0
  0
LINE
  8
1
 62
7
 10
111.7
 20
-10.50000000000011
 30
0
 11
110.1
 21
-10.50000000000011
 31
0
  0
LINE
  8
1
 62
7
 10
102.0103066593208
 20
-69.78233801184223
 30
0
 11
102.0103066593208
 21
-72.78233801184223
 31
0
  0
LINE
  8
1
 62
7
 10
102.696882135101
 20
-72.78233801184223
 30
0
 11
102.696882135101
 21
-69.78233801184223
 31
0
  0
LINE
  8
1
 62
7
 10
100.401758401781
 20
-69.78233801184223
 30
0
 11
100.401758401781
 21
-72.78233801184217
 31
0
  0
LINE
  8
1
 62
7
 10
101.166799646221
 20
-72.78233801184223
 30
0
 11
101.166799646221
 21
-69.78233801184223
 31
0
  0
LINE
  8
1
 62
7
 10
102.9943369725351
 20
-53.5041424912219
 30
0
 11
102.9943369725351
 21
-69.78233801184223
 31
0
  0
LINE
  8
1
 62
7
 10
101.4943369725351
 20
-53.5041424912219
 30
0
 11
101.4943369725351
 21
-69.78233801184223
 31
0
  0
LINE
  8
1
 62
7
 10
99.9943369725351
 20
-53.5041424912219
 30
0
 11
99.99433697253512
 21
-69.78233801184223
 31
0
  0
LINE
  8
1
 62
3
 10
116.5283085596209
 20
0
 30
0
 11
19.77371598660719
 21
0
 31
0
  0
LINE
  8
1
 62
7
 10
58.60000000000004
 20
-22
 30
0
 11
105.6
 21
-22
 31
0
  0
LINE
  8
1
 62
7
 10
99.99433697253512
 20
-69.78233801184223
 30
0
 11
102.9943369725351
 21
-69.78233801184223
 31
0
  0
LINE
  8
1
 62
7
 10
102.9943369725351
 20
-69.78233801184223
 30
0
 11
99.99433697253512
 21
-69.78233801184223
 31
0
  0
LINE
  8
1
 62
7
 10
106.9636038969321
 20
-12.66366416655808
 30
0
 11
106.822182540695
 21
-12.52224281032102
 31
0
  0
LINE
  8
1
 62
7
 10
107.2464466094071
 20
-12.45153213220203
 30
0
 11
107.034314575051
 21
-12.66366416655808
 31
0
  0
LINE
  8
1
 62
7
 10
108.1656854249475
 20
-12.66366416655808
 30
0
 11
107.9535533905931
 21
-12.45153213220203
 31
0
  0
LINE
  8
1
 62
7
 10
108.3778174593052
 20
-12.52224281032102
 30
0
 11
108.2363961030681
 21
-12.66366416655808
 31
0
  0
LINE
  8
1
 62
7
 10
108.1656854249475
 20
-12.23940009784491
 30
0
 11
108.3778174593052
 21
-12.45153213220203
 31
0
  0
LINE
  8
1
 62
7
 10
108.3778174593052
 20
-11.32016128230413
 30
0
 11
108.1656854249475
 21
-11.53229331665909
 31
0
  0
LINE
  8
1
 62
7
 10
108.2363961030681
 20
-11.10802924794802
 30
0
 11
108.3778174593051
 21
-11.24945060418378
 31
0
  0
LINE
  8
1
 62
7
 10
107.9535533905931
 20
-11.32016128230413
 30
0
 11
108.1656854249475
 21
-11.10802924794808
 31
0
  0
LINE
  8
1
 62
7
 10
107.034314575051
 20
-11.10802924794802
 30
0
 11
107.2464466094071
 21
-11.32016128230413
 31
0
  0
LINE
  8
1
 62
7
 10
106.8221825406935
 20
-11.24945060418378
 30
0
 11
106.9636038969321
 21
-11.10802924794802
 31
0
  0
LINE
  8
1
 62
7
 10
107.034314575051
 20
-11.53229331666
 30
0
 11
106.8221825406941
 21
-11.32016128230413
 31
0
  0
LINE
  8
1
 62
7
 10
106.8221825406941
 20
-12.45153213220203
 30
0
 11
107.034314575051
 21
-12.23940009784491
 31
0
  0
LINE
  8
1
 62
7
 10
98.60000000000004
 20
22
 30
0
 11
98.60000000000004
 21
-22
 31
0
  0
LINE
  8
1
 62
7
 10
105.6
 20
-5.423402264367894
 30
0
 11
105.5999999999995
 21
22
 31
0
  0
LINE
  8
1
 62
7
 10
105.6000000000011
 20
22
 30
0
 11
58.60000000000002
 21
22
 31
0
  0
LINE
  8
1
 62
7
 10
105.6
 20
-22
 30
0
 11
105.6
 21
-18.73726491636808
 31
0
  0
LINE
  8
1
 62
3
 10
107.6
 20
-9.373806877512999
 30
0
 11
107.6
 21
-14.373806877513
 31
0
  0
LINE
  8
1
 62
3
 10
105.1000362397034
 20
-11.88584670725311
 30
0
 11
110.0999999999998
 21
-11.88584670725311
 31
0
  0
LINE
  8
1
 62
7
 10
110.0999999999991
 20
19
 30
0
 11
110.1
 21
-19
 31
0
  0
LINE
  8
1
 62
7
 10
110.1
 20
-19.00020593517098
 30
0
 11
110.1
 21
-19
 31
0
  0
LINE
  8
1
 62
7
 10
105.6
 20
-21
 30
0
 11
108.1
 21
-21
 31
0
  0
LINE
  8
1
 62
7
 10
105.6
 20
-18.73726491636808
 30
0
 11
108.535775363938
 21
-18.73726491636808
 31
0
  0
LINE
  8
1
 62
7
 10
98.59999999999998
 20
-17.51713668286698
 30
0
 11
110.1
 21
-17.51713668286698
 31
0
  0
LINE
  8
1
 62
7
 10
98.59999999999998
 20
-19.00020593517104
 30
0
 11
105.6
 21
-19.00020593517104
 31
0
  0
LINE
  8
1
 62
7
 10
105.6
 20
-5.190748865208093
 30
0
 11
108.9056131734831
 21
-5.19074886520724
 31
0
  0
LINE
  8
1
 62
7
 10
98.59999999999998
 20
-5.423402264367894
 30
0
 11
105.6
 21
-5.423402264367894
 31
0
  0
LINE
  8
1
 62
7
 10
110.1
 20
10.5
 30
0
 11
111.7
 21
10.5
 31
0
  0
LINE
  8
1
 62
7
 10
105.6
 20
21
 30
0
 11
108.0999999999991
 21
21
 31
0
  0
LINE
  8
1
 62
7
 10
102.9943369725351
 20
-22
 30
0
 11
102.9943369725351
 21
-49.1521953523299
 31
0
  0
LINE
  8
1
 62
7
 10
99.9943369725351
 20
-49.1521953523299
 30
0
 11
99.99433697253512
 21
-22
 31
0
  0
LINE
  8
1
 62
7
 10
101.4943369725351
 20
-49.1521953523299
 30
0
 11
101.4943369725351
 21
-22
 31
0
  0
LINE
  8
1
 62
3
 10
95.70000000000051
 20
-23.87634983292821
 30
0
 11
95.70000000000051
 21
-21.5251315280579
 31
0
  0
LINE
  8
1
 62
7
 10
97.20000000000053
 20
20.89668601058099
 30
0
 11
97.20000000000053
 21
22
 31
0
  0
LINE
  8
1
 62
7
 10
94.2
 20
22
 30
0
 11
94.20000000000051
 21
20.89668601058099
 31
0
  0
LINE
  8
1
 62
7
 10
98.64999999999853
 20
22.2509802037651
 30
0
 11
98.64999999999853
 21
22
 31
0
  0
LINE
  8
1
 62
7
 10
92.74999999999969
 20
22.2509802037651
 30
0
 11
92.75
 21
22
 31
0
  0
LINE
  8
1
 62
3
 10
95.70000000000051
 20
24.16117345456985
 30
0
 11
95.70000000000051
 21
19.06946085579091
 31
0
  0
LINE
  8
1
 62
7
 10
112.2
 20
10
 30
0
 11
112.2
 21
-10.00000000000011
 31
0
  0
LINE
  8
1
 62
7
 10
55.60000000000004
 20
19
 30
0
 11
55.60000000000004
 21
-20.22514344369849
 31
0
  0
LINE
  8
1
 62
7
 10
25.00000000000016
 20
25
 30
0
 11
29.00000000000016
 21
25
 31
0
  0
LINE
  8
1
 62
7
 10
48.10000000000005
 20
25
 30
0
 11
49.69999999999996
 21
25
 31
0
  0
LINE
  8
1
 62
7
 10
49.70000000000005
 20
-24.99999999999999
 30
0
 11
48.10000000000005
 21
-25
 31
0
  0
LINE
  8
1
 62
7
 10
48.10000000000005
 20
-25
 30
0
 11
48.10000000000005
 21
25
 31
0
  0
LINE
  8
1
 62
7
 10
49.70000000000005
 20
-24.99999999999999
 30
0
 11
49.69999999999996
 21
25
 31
0
  0
LINE
  8
1
 62
7
 10
53.60000000000005
 20
-22.22514344369848
 30
0
 11
51.69999999999996
 21
-22.22514344369848
 31
0
  0
LINE
  8
1
 62
7
 10
51.69999999999996
 20
19.3778068896783
 30
0
 11
53.60000000000004
 21
19.3778068896783
 31
0
  0
ARC
  8
1
 62
7
 10
-99.5
 20
-1.101341240428155e-013
 30
0
 40
25
 50
2.524088195209447e-013
 51
180
  0
ARC
  8
1
 62
7
 10
-99.5
 20
-1.101341240428155e-013
 30
0
 40
25
 50
180
 51
2.524088195209447e-013
  0
ARC
  8
1
 62
7
 10
-87.00294117647059
 20
17.00294117647059
 30
0
 40
0.7029473295325092
 50
270.2397298960806
 51
359.760270103919
  0
ARC
  8
1
 62
7
 10
-84.99705882352941
 20
17.00294117647059
 30
0
 40
0.702947329532495
 50
180.239729896081
 51
270.2397298960806
  0
ARC
  8
1
 62
7
 10
-84.99705882352941
 20
14.99705882352941
 30
0
 40
0.7029473295325092
 50
89.76027010391938
 51
179.7602701039191
  0
ARC
  8
1
 62
7
 10
-87.00294117647059
 20
14.99705882352941
 30
0
 40
0.702947329532495
 50
0.2397298960809287
 51
89.76027010391938
  0
ARC
  8
1
 62
7
 10
-120.5029411764706
 20
1.002941176470593
 30
0
 40
0.7029473295325133
 50
270.2397298960818
 51
359.7602701039187
  0
ARC
  8
1
 62
7
 10
-118.4970588235294
 20
1.002941176470593
 30
0
 40
0.7029473295325234
 50
180.2397298960812
 51
270.2397298960818
  0
ARC
  8
1
 62
7
 10
-118.4970588235294
 20
-1.002941176470589
 30
0
 40
0.7029473295325108
 50
89.76027010391822
 51
179.760270103919
  0
ARC
  8
1
 62
7
 10
-120.5029411764706
 20
-1.002941176470589
 30
0
 40
0.7029473295325234
 50
0.2397298960810457
 51
89.76027010391822
  0
ARC
  8
1
 62
7
 10
-86.00294117647059
 20
-13.49705882352941
 30
0
 40
0.7029473295325092
 50
270.2397298960806
 51
359.760270103919
  0
ARC
  8
1
 62
7
 10
-83.99705882352941
 20
-13.49705882352941
 30
0
 40
0.702947329532495
 50
180.239729896081
 51
270.2397298960806
  0
ARC
  8
1
 62
7
 10
-83.99705882352941
 20
-15.50294117647059
 30
0
 40
0.7029473295325092
 50
89.76027010391938
 51
179.7602701039191
  0
ARC
  8
1
 62
7
 10
-86.00294117647059
 20
-15.50294117647059
 30
0
 40
0.702947329532495
 50
0.2397298960809287
 51
89.76027010391938
  0
ARC
  8
1
 62
7
 10
95.70000000000051
 20
-19.04558675661798
 30
0
 40
3.900000000001215
 50
229.2479700672899
 51
310.75202993269
  0
ARC
  8
1
 62
7
 10
95.70000000000051
 20
20.89668601058099
 30
0
 40
1.5
 50
180
 51
0
  0
ARC
  8
1
 62
7
 10
95.70000000000053
 20
19.70000000000005
 30
0
 40
3.899999999998637
 50
40.85125210332764
 51
139.1487478966997
  0
CIRCLE
  8
1
 62
7
 10
-99.5
 20
7.99999999999989
 30
0
 40
6
  0
CIRCLE
  8
1
 62
7
 10
-85
 20
-14.5
 30
0
 40
3
  0
CIRCLE
  8
1
 62
7
 10
-86
 20
16
 30
0
 40
3
  0
CIRCLE
  8
1
 62
7
 10
-99.5
 20
-20.00000000000011
 30
0
 40
1.5
  0
CIRCLE
  8
1
 62
7
 10
-82.5
 20
9.99999999999989
 30
0
 40
1.500000000000043
  0
CIRCLE
  8
1
 62
2
 10
-82.5
 20
9.99999999999989
 30
0
 40
2
  0
CIRCLE
  8
1
 62
2
 10
-99.5
 20
-20.00000000000011
 30
0
 40
2
  0
CIRCLE
  8
1
 62
7
 10
-116.5
 20
9.99999999999989
 30
0
 40
1.5
  0
CIRCLE
  8
1
 62
2
 10
-116.5
 20
9.99999999999989
 30
0
 40
1.999999999999901
  0
CIRCLE
  8
1
 62
7
 10
-119.5
 20
0
 30
0
 40
3
  0
CIRCLE
  8
1
 62
7
 10
-86
 20
16
 30
0
 40
2.75
  0
CIRCLE
  8
1
 62
7
 10
-119.5
 20
0
 30
0
 40
2.75
  0
CIRCLE
  8
1
 62
7
 10
-85
 20
-14.5
 30
0
 40
2.75
  0
CIRCLE
  8
1
 62
7
 10
-99.5
 20
7.99999999999989
 30
0
 40
3
  0
CIRCLE
  8
1
 62
7
 10
107.6
 20
-11.873806877513
 30
0
 40
2
  0
POLYLINE
  8
1
 62
2
 66
1
  0
VERTEX
  8
1
 10
99.9943369725351
 20
-53.5041424912219
 30
0
 42
-0.004934078636104178
  0
VERTEX
  8
1
 10
100.1453470727624
 20
-53.31823622454745
 30
0
 42
-0.01634587272625006
  0
VERTEX
  8
1
 10
100.2962866156842
 20
-53.14741098073306
 30
0
 42
-0.03331015729456361
  0
VERTEX
  8
1
 10
100.4470850439949
 20
-53.0067477826388
 30
0
 42
-0.06243861218592571
  0
VERTEX
  8
1
 10
100.597671800389
 20
-52.91132765312476
 30
0
 42
-0.106994163861099
  0
VERTEX
  8
1
 10
100.7479763275611
 20
-52.87623161505098
 30
0
 42
-0.1070085680456238
  0
VERTEX
  8
1
 10
100.8971219573299
 20
-52.91116350201633
 30
0
 42
-0.06296447185965544
  0
VERTEX
  8
1
 10
101.0461248200801
 20
-53.00603272771699
 30
0
 42
-0.0337300787770226
  0
VERTEX
  8
1
 10
101.1951909324434
 20
-53.14622709755207
 30
0
 42
-0.0166625521966112
  0
VERTEX
  8
1
 10
101.3445263110512
 20
-53.31713441692068
 30
0
 42
-0.005266270714992348
  0
VERTEX
  8
1
 10
101.4943369725351
 20
-53.5041424912219
 30
0
 42
0.004633674952031859
  0
VERTEX
  8
1
 10
101.65403260124
 20
-53.70404846438354
 30
0
 42
0.01574387385477196
  0
VERTEX
  8
1
 10
101.8138212384852
 20
-53.88815817456893
 30
0
 42
0.03306298376918745
  0
VERTEX
  8
1
 10
101.973027495493
 20
-54.03899649986511
 30
0
 42
0.06382794567274834
  0
VERTEX
  8
1
 10
102.1309759834854
 20
-54.13908831835914
 30
0
 42
0.1184715252692245
  0
VERTEX
  8
1
 10
102.2869913136846
 20
-54.17095850813803
 30
0
 42
0.1277305739101821
  0
VERTEX
  8
1
 10
102.4312173763401
 20
-54.12816682116954
 30
0
 42
0.04228886383255112
  0
VERTEX
  8
1
 10
102.573605485072
 20
-54.0249941232579
 30
0
 42
0.04982109643829789
  0
VERTEX
  8
1
 10
102.7146151283612
 20
-53.87653566713888
 30
0
 42
0.01598923890353023
  0
VERTEX
  8
1
 10
102.8547057946886
 20
-53.69788670554829
 30
0
 42
0.004276663101403874
  0
VERTEX
  8
1
 10
102.9943369725351
 20
-53.5041424912219
 30
0
  0
SEQEND
  8
1
  0
POLYLINE
  8
1
 62
2
 66
1
  0
VERTEX
  8
1
 10
99.9943369725351
 20
-49.1521953523299
 30
0
 42
-0.004786202196837766
  0
VERTEX
  8
1
 10
100.1464410736479
 20
-48.95217829990288
 30
0
 42
-0.01597734592667522
  0
VERTEX
  8
1
 10
100.2982011172337
 20
-48.76850803998666
 30
0
 42
-0.03316329143446361
  0
VERTEX
  8
1
 10
100.4492730457658
 20
-48.61753136509208
 30
0
 42
-0.06442596484473802
  0
VERTEX
  8
1
 10
100.5993128017173
 20
-48.51559506772995
 30
0
 42
-0.116159795586152
  0
VERTEX
  8
1
 10
100.7479763275611
 20
-48.47904594041108
 30
0
 42
-0.1160531622143976
  0
VERTEX
  8
1
 10
100.8944518364141
 20
-48.5182966000561
 30
0
 42
-0.06337138659155321
  0
VERTEX
  8
1
 10
101.0407755535121
 20
-48.62182207936404
 30
0
 42
-0.03075748353544597
  0
VERTEX
  8
1
 10
101.188497580681
 20
-48.77303717004134
 30
0
 42
-0.01233166728920127
  0
VERTEX
  8
1
 10
101.3391680197467
 20
-48.95535666379448
 30
0
 42
0.0002860134758452851
  0
VERTEX
  8
1
 10
101.4943369725351
 20
-49.1521953523299
 30
0
 42
0.01116960157000598
  0
VERTEX
  8
1
 10
101.6725677995875
 20
-49.36793396265936
 30
0
 42
0.02014715011174947
  0
VERTEX
  8
1
 10
101.8544784425237
 20
-49.56198936906961
 30
0
 42
0.03859983460175066
  0
VERTEX
  8
1
 10
102.03631062977
 20
-49.71521898029262
 30
0
 42
0.0703418939269187
  0
VERTEX
  8
1
 10
102.2143060897529
 20
-49.80848020506041
 30
0
 42
0.1303926716603315
  0
VERTEX
  8
1
 10
102.3847065508986
 20
-49.82263045210493
 30
0
 42
0.1148326588780666
  0
VERTEX
  8
1
 10
102.5156381703367
 20
-49.76647921041382
 30
0
 42
0.03979547205382088
  0
VERTEX
  8
1
 10
102.6405660997009
 20
-49.65837078321344
 30
0
 42
0.04593415206493227
  0
VERTEX
  8
1
 10
102.7609912615097
 20
-49.51129446688113
 30
0
 42
0.01530954315342847
  0
VERTEX
  8
1
 10
102.8784145782816
 20
-49.33823955779417
 30
0
 42
0.004165254485819347
  0
VERTEX
  8
1
 10
102.9943369725351
 20
-49.1521953523299
 30
0
  0
SEQEND
  8
1
  0
POLYLINE
  8
1
 62
7
 66
1
  0
VERTEX
  8
1
 10
108.535775363938
 20
-18.73726491636808
 30
0
 42
0.0006469231332751926
  0
VERTEX
  8
1
 10
108.7178106954387
 20
-18.71329038042009
 30
0
 42
0.001939430960030693
  0
VERTEX
  8
1
 10
108.8998147053389
 20
-18.68836152534765
 30
0
 42
0.00322483891218462
  0
VERTEX
  8
1
 10
109.0817560720381
 20
-18.6615240320263
 30
0
 42
0.004498484598768684
  0
VERTEX
  8
1
 10
109.2636034739357
 20
-18.6318235813316
 30
0
 42
0.005750739773283335
  0
VERTEX
  8
1
 10
109.4453255894313
 20
-18.59830585413908
 30
0
 42
0.00440953847055239
  0
VERTEX
  8
1
 10
109.5359975193967
 20
-18.57966927383597
 30
0
 42
0.008155476055199968
  0
VERTEX
  8
1
 10
109.6260890328572
 20
-18.55877963030338
 30
0
 42
0.01073214353260131
  0
VERTEX
  8
1
 10
109.7150588284073
 20
-18.53457563490174
 30
0
 42
0.01463651226152524
  0
VERTEX
  8
1
 10
109.8023656046418
 20
-18.50599599899146
 30
0
 42
0.01731903605005566
  0
VERTEX
  8
1
 10
109.8874680601554
 20
-18.47197943393297
 30
0
 42
0.0102145120133846
  0
VERTEX
  8
1
 10
109.9308721841293
 20
-18.45179312381411
 30
0
 42
0.00581392958218359
  0
VERTEX
  8
1
 10
109.9736778174332
 20
-18.43019033227919
 30
0
 42
0.006163535979858402
  0
VERTEX
  8
1
 10
110.0160345827346
 20
-18.40752517968222
 30
0
 42
0.001793105059152693
  0
VERTEX
  8
1
 10
110.0580921027011
 20
-18.38415178637722
 30
0
 42
0.002175212295814571
  0
VERTEX
  8
1
 10
110.1
 20
-18.36042427271821
 30
0
  0
SEQEND
  8
1
  0
POLYLINE
  8
1
 62
7
 66
1
  0
VERTEX
  8
1
 10
108.9056131734831
 20
-5.19074886520724
 30
0
 42
0.00227102660029406
  0
VERTEX
  8
1
 10
109.0183173729504
 20
-5.182240875692053
 30
0
 42
0.006843212418035068
  0
VERTEX
  8
1
 10
109.1304832881811
 20
-5.171714218711204
 30
0
 42
0.01154903310221185
  0
VERTEX
  8
1
 10
109.2415726349388
 20
-5.157150226799034
 30
0
 42
0.01636043009976523
  0
VERTEX
  8
1
 10
109.3510471289868
 20
-5.136530232489879
 30
0
 42
0.02118775621012382
  0
VERTEX
  8
1
 10
109.4583684860887
 20
-5.10783556831808
 30
0
 42
0.01333203921687298
  0
VERTEX
  8
1
 10
109.5178625212909
 20
-5.087437974912712
 30
0
 42
0.009175496568983258
  0
VERTEX
  8
1
 10
109.5765634975526
 20
-5.064311037455666
 30
0
 42
0.009389970364529937
  0
VERTEX
  8
1
 10
109.634537110125
 20
-5.03894590216751
 30
0
 42
0.005326531553662976
  0
VERTEX
  8
1
 10
109.6918490542592
 20
-5.01183371526881
 30
0
 42
0.005635101821138379
  0
VERTEX
  8
1
 10
109.7485650252063
 20
-4.983465622980134
 30
0
 42
0.002934225036062668
  0
VERTEX
  8
1
 10
109.8198793713738
 20
-4.94625438215165
 30
0
 42
0.004491887138108604
  0
VERTEX
  8
1
 10
109.8905088167354
 20
-4.908055387287341
 30
0
 42
0.001093985513655011
  0
VERTEX
  8
1
 10
109.9606245864927
 20
-4.869115576896163
 30
0
 42
0.002636924427578799
  0
VERTEX
  8
1
 10
110.0303979058471
 20
-4.829681889487071
 30
0
 42
0.0004670070722694265
  0
VERTEX
  8
1
 10
110.1
 20
-4.790001263569025
 30
0
  0
SEQEND
  8
1
  0
POLYLINE
  8
1
 62
2
 66
1
  0
VERTEX
  8
1
 10
-131.8794738009033
 20
-27.97927731356305
 30
0
 42
0.04907291013799446
  0
VERTEX
  8
1
 10
-131.9389849510114
 20
-28.34617517385891
 30
0
 42
0.0762029025144163
  0
VERTEX
  8
1
 10
-131.9095857730969
 20
-28.62132480595322
 30
0
 42
0.09919604528465485
  0
VERTEX
  8
1
 10
-131.8050612915278
 20
-28.81970628496354
 30
0
 42
0.0892264815620082
  0
VERTEX
  8
1
 10
-131.6391965306718
 20
-28.95629968600747
 30
0
 42
0.05738008837181174
  0
VERTEX
  8
1
 10
-131.4257765148968
 20
-29.04608508420258
 30
0
 42
0.02995937204896756
  0
VERTEX
  8
1
 10
-131.1785862685705
 20
-29.10404255466645
 30
0
 42
0.01050612230943417
  0
VERTEX
  8
1
 10
-130.9114108160608
 20
-29.14515217251667
 30
0
 42
-0.005192785542461722
  0
VERTEX
  8
1
 10
-130.63099604925
 20
-29.1854232268985
 30
0
 42
-0.01898688805973459
  0
VERTEX
  8
1
 10
-130.3519928883884
 20
-29.23923494644771
 30
0
 42
-0.03660531032841104
  0
VERTEX
  8
1
 10
-130.0968654787425
 20
-29.3185909848049
 30
0
 42
-0.06149482747673382
  0
VERTEX
  8
1
 10
-129.8810204724231
 20
-29.43637510674126
 30
0
 42
-0.09024333690957856
  0
VERTEX
  8
1
 10
-129.7198645215408
 20
-29.60547107702801
 30
0
 42
-0.100933142964309
  0
VERTEX
  8
1
 10
-129.6288042782064
 20
-29.83876266043635
 30
0
 42
-0.08118743791000059
  0
VERTEX
  8
1
 10
-129.6232463945305
 20
-30.14913362173744
 30
0
  0
VERTEX
  8
1
 10
-129.6573454163491
 20
-30.33725004558879
 30
0
  0
SEQEND
  8
1
  0
ARC
  8
1
 62
7
 10
-87.40000000000001
 20
16.2
 30
0
 40
0.1000000000000014
 50
90
 51
180
  0
ARC
  8
1
 62
7
 10
-87.40000000000001
 20
15.8
 30
0
 40
0.09999999999999432
 50
180
 51
270
  0
ARC
  8
1
 62
7
 10
-86.19999999999999
 20
14.6
 30
0
 40
0.1000000000000227
 50
180
 51
270
  0
ARC
  8
1
 62
7
 10
-85.80000000000001
 20
14.6
 30
0
 40
0.09999999999999965
 50
270
 51
0
  0
ARC
  8
1
 62
7
 10
-84.59999999999999
 20
15.8
 30
0
 40
0.1000000000000014
 50
270
 51
0
  0
ARC
  8
1
 62
7
 10
-84.60000000000001
 20
16.2
 30
0
 40
0.1000000000000085
 50
0
 51
90
  0
ARC
  8
1
 62
7
 10
-85.80000000000001
 20
17.4
 30
0
 40
0.1000000000000227
 50
0
 51
90
  0
ARC
  8
1
 62
7
 10
-86.19999999999999
 20
17.4
 30
0
 40
0.1000000000000014
 50
90
 51
180
  0
ARC
  8
1
 62
7
 10
-120.9
 20
0.2000000000000028
 30
0
 40
0.09999999999999792
 50
90
 51
180
  0
ARC
  8
1
 62
7
 10
-120.9
 20
-0.1999999999999993
 30
0
 40
0.09999999999999432
 50
180
 51
270
  0
ARC
  8
1
 62
7
 10
-119.7
 20
-1.399999999999999
 30
0
 40
0.09999999999999432
 50
180
 51
270
  0
ARC
  8
1
 62
7
 10
-119.3
 20
-1.399999999999999
 30
0
 40
0.09999999999999898
 50
270
 51
0
  0
ARC
  8
1
 62
7
 10
-118.1
 20
-0.1999999999999993
 30
0
 40
0.09999999999999959
 50
270
 51
0
  0
ARC
  8
1
 62
7
 10
-118.1000000000001
 20
0.1999999999998785
 30
0
 40
0.1000000000000938
 50
0
 51
90
  0
ARC
  8
1
 62
7
 10
-119.3
 20
1.400000000000002
 30
0
 40
0.09999999999999432
 50
0
 51
90
  0
ARC
  8
1
 62
7
 10
-119.7
 20
1.400000000000002
 30
0
 40
0.09999999999999809
 50
90
 51
180
  0
ARC
  8
1
 62
7
 10
-86.40000000000001
 20
-14.3
 30
0
 40
0.1000000000000014
 50
90
 51
180
  0
ARC
  8
1
 62
7
 10
-86.40000000000001
 20
-14.7
 30
0
 40
0.09999999999999432
 50
180
 51
270
  0
ARC
  8
1
 62
7
 10
-85.19999999999999
 20
-15.9
 30
0
 40
0.1000000000000227
 50
180
 51
270
  0
ARC
  8
1
 62
7
 10
-84.80000000000001
 20
-15.9
 30
0
 40
0.09999999999999965
 50
270
 51
0
  0
ARC
  8
1
 62
7
 10
-83.59999999999999
 20
-14.7
 30
0
 40
0.1000000000000014
 50
270
 51
0
  0
ARC
  8
1
 62
7
 10
-83.60000000000001
 20
-14.3
 30
0
 40
0.1000000000000085
 50
0
 51
90
  0
ARC
  8
1
 62
7
 10
-84.80000000000001
 20
-13.1
 30
0
 40
0.1000000000000227
 50
0
 51
90
  0
ARC
  8
1
 62
7
 10
-85.2
 20
-13.1
 30
0
 40
0.09999999999999965
 50
90
 51
180
  0
ARC
  8
1
 62
7
 10
58.60000000000004
 20
-19
 30
0
 40
3
 50
180
 51
270
  0
ARC
  8
1
 62
7
 10
106.8575378797541
 20
-12.48688747126209
 30
0
 40
0.05000000000099722
 50
134.999999999954
 51
224.9999999998546
  0
ARC
  8
1
 62
7
 10
106.998959235991
 20
-12.62830882749898
 30
0
 40
0.0499999999995339
 50
225.0000000001656
 51
315.0000000007327
  0
ARC
  8
1
 62
7
 10
108.3424621202461
 20
-12.48688747126209
 30
0
 40
0.04999999999956405
 50
315.0000000001454
 51
45.00000000077149
  0
ARC
  8
1
 62
7
 10
108.201040764008
 20
-12.62830882749898
 30
0
 40
0.05000000000066938
 50
224.9999999988644
 51
315.0000000008133
  0
ARC
  8
1
 62
7
 10
108.3424621202461
 20
-11.28480594324503
 30
0
 40
0.04999999999968589
 50
315.0000000000057
 51
45.00000000181503
  0
ARC
  8
1
 62
7
 10
108.201040764008
 20
-11.14338458700701
 30
0
 40
0.05000000000031015
 50
44.99999999909753
 51
135.0000000012738
  0
ARC
  8
1
 62
7
 10
106.998959235991
 20
-11.14338458700701
 30
0
 40
0.05000000000023982
 50
44.99999999917814
 51
134.9999999999237
  0
ARC
  8
1
 62
7
 10
106.8575378797541
 20
-11.28480594324503
 30
0
 40
0.05000000000225958
 50
134.9999999994746
 51
224.9999999992688
  0
ARC
  8
1
 62
7
 10
108.5192388155417
 20
-11.88584670725311
 30
0
 40
0.5000000000011835
 50
135.0000000000145
 51
224.9999999998056
  0
ARC
  8
1
 62
7
 10
107.6
 20
-12.80508552279605
 30
0
 40
0.5000000000004098
 50
45.00000000007412
 51
134.9999999999086
  0
ARC
  8
1
 62
7
 10
106.680761184457
 20
-11.88584670725311
 30
0
 40
0.4999999999994727
 50
315.0000000001783
 51
44.99999999992775
  0
ARC
  8
1
 62
7
 10
107.6
 20
-10.96660789171
 30
0
 40
0.5000000000003368
 50
225.0000000001004
 51
314.999999999917
  0
ARC
  8
1
 62
7
 10
111.7
 20
-10.00000000000011
 30
0
 40
0.5
 50
270
 51
0
  0
ARC
  8
1
 62
7
 10
108.1
 20
-19
 30
0
 40
2
 50
270
 51
0
  0
ARC
  8
1
 62
7
 10
111.7
 20
10
 30
0
 40
0.5
 50
0
 51
90
  0
ARC
  8
1
 62
7
 10
108.0999999999999
 20
19
 30
0
 40
1.999999999999204
 50
0
 51
90.00000000002279
  0
ARC
  8
1
 62
7
 10
58.60000000000004
 20
19
 30
0
 40
3
 50
90
 51
180
  0
ARC
  8
1
 62
7
 10
46.60000000000005
 20
23.50000000000001
 30
0
 40
1.5
 50
0
 51
90
  0
ARC
  8
1
 62
7
 10
46.60000000000005
 20
-23.49999999999999
 30
0
 40
1.5
 50
270
 51
0
  0
ARC
  8
1
 62
7
 10
51.69999999999996
 20
-24.22514344369848
 30
0
 40
2
 50
90
 51
180
  0
ARC
  8
1
 62
7
 10
53.60000000000004
 20
-20.22514344369848
 30
0
 40
2
 50
270
 51
0
  0
ARC
  8
1
 62
7
 10
51.69999999999996
 20
21.3778068896783
 30
0
 40
2
 50
180
 51
270
  0
ARC
  8
1
 62
7
 10
53.60000000000004
 20
17.3778068896783
 30
0
 40
2
 50
0
 51
90
  0
LINE
  8
1
 62
2
 10
88.6523184975097
 20
32
 30
0
 11
64.82002336582774
 21
32
 31
0
  0
LINE
  8
1
 62
2
 10
64.82002336582774
 20
32
 30
0
 11
74.82002336582769
 21
22
 31
0
  0
SOLID
  8
1
 62
2
 10
72.0193263233601
 20
24.14905042583825
 30
0
 11
72.67097293998945
 21
24.8006970424676
 31
0
 12
74.82002336582769
 22
22
 32
0
 13
74.82002336582769
 23
22
 33
0
  0
LINE
  8
1
 62
2
 10
18.21034870426499
 20
-66.34991020425775
 30
0
 11
79.56713648055499
 21
-66.34991020425775
 31
0
  0
LINE
  8
1
 62
2
 10
79.56713648055499
 20
-66.34991020425775
 30
0
 11
100.0005280905653
 21
-45.91651859424746
 31
0
  0
SOLID
  8
1
 62
2
 10
97.85147766472706
 20
-48.71721563671505
 30
0
 11
97.19983104809771
 21
-48.0655690200857
 31
0
 12
100.0005280905653
 22
-45.91651859424746
 32
0
 13
100.0005280905653
 23
-45.91651859424746
 33
0
  0
TEXT
  8
1
 62
2
 10
5.444000000000029
 20
42.45579117726857
 30
0
 40
3.2
  1
(0.984)
 41
0.6300000000000001
 72
1
 73
2
 11
12.50000000000003
 21
44.05579117726857
 31
0
  0
TEXT
  8
1
 62
2
 10
-26.80061352122412
 20
11.99446225396086
 30
0
 40
3.2
  1
(0.472DIA.     )
 50
90
 41
0.6300000000000001
 72
1
 73
2
 11
-28.40061352122412
 21
28.12246225396086
 31
0
  0
TEXT
  8
1
 62
2
 10
-27.28708355315391
 20
29.0608060271026
 30
0
 40
2
  1
%%p0.00394
 50
90
 41
0.63
 72
1
 73
2
 11
-28.28708355315391
 21
35.3608060271026
 31
0
  0
TEXT
  8
1
 62
2
 10
-1.056000000000044
 20
30.46162126422188
 30
0
 40
3.2
  1
(0.472)
 41
0.6300000000000001
 72
1
 73
2
 11
5.999999999999957
 21
32.06162126422188
 31
0
  0
TEXT
  8
1
 62
2
 10
-4.287083553153892
 20
21.63080602710259
 30
0
 40
2
  1
 %%p0.00787
 50
90
 41
0.63
 72
1
 73
2
 11
-5.287083553153892
 21
28.56080602710259
 31
0
  0
TEXT
  8
1
 62
2
 10
-3.800613521224113
 20
13.02646225396086
 30
0
 40
3.2
  1
(0.217     )
 50
90
 41
0.6300000000000001
 72
1
 73
2
 11
-5.400613521224113
 21
25.12246225396086
 31
0
  0
TEXT
  8
1
 62
2
 10
-13.99999999999985
 20
11.98646225396086
 30
0
 40
3.2
  1
(0.236DIA.      )
 50
90
 41
0.6300000000000001
 72
1
 73
2
 11
-15.59999999999985
 21
29.12246225396086
 31
0
  0
TEXT
  8
1
 62
2
 10
-15.68647003192962
 20
30.99080602710261
 30
0
 40
2
  1
 0
 50
90
 41
0.63
  0
TEXT
  8
1
 62
2
 10
-13.28647003192962
 20
30.99080602710261
 30
0
 40
2
  1
-0.000787
 50
90
 41
0.63
  0
TEXT
  8
1
 62
2
 10
-111.5341215108481
 20
31.06162126422188
 30
0
 40
2
  1
 %%p0.00787
 41
0.4950000000000001
 72
1
 73
2
 11
-106.0891215108481
 21
32.06162126422188
 31
0
  0
TEXT
  8
1
 62
2
 10
-116.8394652839911
 20
30.46162126422188
 30
0
 40
3.2
  1
(0.67     )
 41
0.4949999999999999
 72
1
 73
2
 11
-108.1274652839911
 21
32.06162126422188
 31
0
  0
TEXT
  8
1
 62
2
 10
-48.78647003193009
 20
-12.86919397289739
 30
0
 40
2
  1
 %%p0.00787
 50
90
 41
0.63
 72
1
 73
2
 11
-49.78647003193009
 21
-5.939193972897389
 31
0
  0
TEXT
  8
1
 62
2
 10
-48.30000000000009
 20
-20.7095377460392
 30
0
 40
3.2
  1
(0.787     )
 50
90
 41
0.5850000000000001
 72
1
 73
2
 11
-49.90000000000009
 21
-9.477537746039193
 31
0
  0
TEXT
  8
1
 62
2
 10
-48.78647003193009
 20
17.73080602710259
 30
0
 40
2
  1
 %%p0.00787
 50
90
 41
0.63
 72
1
 73
2
 11
-49.78647003193009
 21
24.66080602710259
 31
0
  0
TEXT
  8
1
 62
2
 10
-48.30000000000009
 20
8.426462253960809
 30
0
 40
3.2
  1
(0.394     )
 50
90
 41
0.6300000000000001
 72
1
 73
2
 11
-49.90000000000009
 21
20.52246225396081
 31
0
  0
TEXT
  8
1
 62
2
 10
-60.90000000000009
 20
17.3308060271026
 30
0
 40
2
  1
 %%p0.00787
 50
90
 41
0.63
 72
1
 73
2
 11
-61.90000000000009
 21
24.2608060271026
 31
0
  0
TEXT
  8
1
 62
2
 10
-60.30000000000009
 20
8.426462253960809
 30
0
 40
3.2
  1
(0.315     )
 50
90
 41
0.6300000000000001
 72
1
 73
2
 11
-61.90000000000009
 21
20.52246225396081
 31
0
  0
TEXT
  8
1
 62
2
 10
-110.588
 20
42.80000000000001
 30
0
 40
3.2
  1
(1.969DIA.)
 41
0.6300000000000001
 72
1
 73
2
 11
-99.5
 21
44.40000000000001
 31
0
  0
TEXT
  8
1
 62
2
 10
11.11301805154431
 20
30.46162126422188
 30
0
 40
3.2
  1
(0.157)
 41
0.4949999999999999
 72
1
 73
2
 11
16.65701805154431
 21
32.06162126422188
 31
0
  0
TEXT
  8
1
 62
2
 10
-78.39834903357701
 20
-41.21577370074542
 30
0
 40
3.5
  1
(3-M4 DEPTH 0.197MAX)
 41
0.666
 73
2
 11
-78.39834903357701
 21
-39.46577370074542
 31
0
  0
TEXT
  8
1
 62
2
 10
-94.53412151084811
 20
31.06162126422188
 30
0
 40
2
  1
 %%p0.00787
 41
0.4950000000000001
 72
1
 73
2
 11
-89.0891215108481
 21
32.06162126422188
 31
0
  0
TEXT
  8
1
 62
2
 10
-99.8394652839911
 20
30.46162126422188
 30
0
 40
3.2
  1
(0.67     )
 41
0.4949999999999999
 72
1
 73
2
 11
-91.1274652839911
 21
32.06162126422188
 31
0
  0
TEXT
  8
1
 62
2
 10
67.97210523109899
 20
32.82551303864307
 30
0
 40
3
  1
NAME PLATE
 41
0.6300000000000001
 72
1
 73
2
 11
77.422105231099
 21
34.32551303864307
 31
0
  0
TEXT
  8
1
 62
2
 10
135.5929951484042
 20
-49.84885064204369
 30
0
 40
2
  1
%%p0.787
 50
90
 41
0.63
 72
1
 73
2
 11
134.5929951484042
 21
-44.80885064204369
 31
0
  0
TEXT
  8
1
 62
2
 10
124.2096923065293
 20
-68.11516907639204
 30
0
 40
3.2
  1
(0.118)
 50
90
 41
0.6300000000000001
 72
1
 73
2
 11
122.6096923065293
 21
-61.05916907639204
 31
0
  0
TEXT
  8
1
 62
2
 10
136.0929951484042
 20
-59.37715881038471
 30
0
 40
3
  1
(5.906    )
 50
90
 41
0.6300000000000001
 72
1
 73
2
 11
134.5929951484042
 21
-48.9821588103847
 31
0
  0
TEXT
  8
1
 62
2
 10
136.0929951484042
 20
-10.395
 30
0
 40
3
  1
(1.732DIA.)
 50
90
 41
0.6300000000000001
 72
1
 73
2
 11
134.5929951484042
 21
0
 31
0
  0
TEXT
  8
1
 62
2
 10
19.40671013148855
 20
-57.95060310440431
 30
0
 40
3.5
  1
LEAD WIRES (RED,BLACK)
 41
0.9
 73
2
 11
19.40671013148855
 21
-56.20060310440431
 31
0
  0
TEXT
  8
1
 62
2
 10
19.40671013148855
 20
-65.11594311103875
 30
0
 40
3.5
  1
UL1007 AWG22
 41
0.9
 73
2
 11
19.40671013148855
 21
-63.36594311103875
 31
0
  0
TEXT
  8
1
 62
2
 10
140.4243394475085
 20
-66.1181588103847
 30
0
 40
3.2
  1
(FROM MOTOR CASE)
 50
90
 41
0.6300000000000001
 72
1
 73
2
 11
138.8243394475085
 21
-48.9821588103847
 31
0
  0
TEXT
  8
1
 62
2
 10
-144.75
 20
93.50000000000001
 30
0
 40
5
  1
DME44S50G
 41
0.9
 72
1
 73
2
 11
-124.5
 21
96.00000000000001
 31
0
  0
TEXT
  8
1
 62
2
 10
61.44400000000003
 20
42.45579117726857
 30
0
 40
3.2
  1
(3.433)
 41
0.6300000000000001
 72
1
 73
2
 11
68.50000000000003
 21
44.05579117726857
 31
0
  0
TEXT
  8
1
 62
2
 10
33.44400000000003
 20
30.46162126422188
 30
0
 40
3.2
  1
(0.957)
 41
0.6300000000000001
 72
1
 73
2
 11
40.50000000000003
 21
32.06162126422188
 31
0
  0
DIMENSION
  8
1
  6
CONTINUOUS
 62
2
  2
*D0
  3
DMST_1
 10
-31.05998642250194
 20
14
 30
0
 11
-33.65998642250194
 21
27.286419625238
 31
0
 12
0
 22
0
 32
0
 70
0
  1
ƒÓ<>
 13
20.99999999999996
 23
2
 33
0
 14
20.99999999999996
 24
14
 34
0
 50
90
 53
0
  0
DIMENSION
  8
1
  6
CONTINUOUS
 62
2
  2
*D1
  3
DMST_2
 10
-19.03917257805634
 20
11
 30
0
 11
-22.43917257805634
 21
28.5911654211038
 31
0
 12
0
 22
0
 32
0
 70
0
  1
ƒÓ<>
 13
0
 23
5
 33
0
 14
11.99999999999996
 24
11
 34
0
 50
90
 53
0
  0
DIMENSION
  8
1
  6
CONTINUOUS
 62
2
  2
*D2
  3
DMST_3
 10
-8.008116081803099
 20
10.5
 30
0
 11
-10.6081160818031
 21
24.9411861039751
 31
0
 12
0
 22
0
 32
0
 70
0
 13
0
 23
5
 33
0
 14
-3.552713678800501e-015
 24
10.5
 34
0
 50
90
 53
0
  0
DIMENSION
  8
1
  6
CONTINUOUS
 62
2
  2
*D3
  3
DMST_4
 10
20.99999999999996
 20
35.0091931483056
 30
0
 11
16.5408400928022
 21
37.6091931483056
 31
0
 12
0
 22
0
 32
0
 70
0
 13
25.00000000000016
 23
25
 33
0
 14
20.99999999999996
 24
14
 34
0
 53
0
  0
DIMENSION
  8
1
  6
CONTINUOUS
 62
2
  2
*D4
  3
DMST_4
 10
11.99999999999996
 20
35.0286347652978
 30
0
 11
5.999999999999977
 21
37.6286347652978
 31
0
 12
0
 22
0
 32
0
 70
0
 13
-3.552713678800501e-015
 23
10.5
 33
0
 14
11.99999999999996
 24
10.5
 34
0
 53
0
  0
DIMENSION
  8
1
  6
CONTINUOUS
 62
2
  2
*D5
  3
DMST_3
 10
-64.58021846900411
 20
7.999999999999888
 30
0
 11
-67.1802184690041
 21
19.259530727469
 31
0
 12
0
 22
0
 32
0
 70
0
 13
-74.5
 23
0
 33
0
 14
-93.5
 24
8
 34
0
 50
90
 53
0
  0
DIMENSION
  8
1
  6
CONTINUOUS
 62
2
  2
*D6
  3
DMST_3
 10
-52.53292283532405
 20
9.99999999999989
 30
0
 11
-55.13292283532405
 21
18.2423022135852
 31
0
 12
0
 22
0
 32
0
 70
0
 13
-74.5
 23
0
 33
0
 14
-80.5
 24
9.99999999999989
 34
0
 50
90
 53
0
  0
DIMENSION
  8
1
  6
CONTINUOUS
 62
2
  2
*D7
  3
DMST_3
 10
-52.53292283532405
 20
0
 30
0
 11
-55.13292283532405
 21
-10.00000000000006
 31
0
 12
0
 22
0
 32
0
 70
0
 13
-97.5
 23
-20.00000000000011
 33
0
 14
-74.5
 24
0
 34
0
 50
90
 53
0
  0
DIMENSION
  8
1
  6
CONTINUOUS
 62
2
  2
*D8
  3
DMST_3
 10
-116.5
 20
34.9787577640941
 30
0
 11
-108
 21
37.5787577640941
 31
0
 12
0
 22
0
 32
0
 70
0
 13
-99.5
 23
24.99999999999988
 33
0
 14
-116.5
 24
11.99999999999989
 34
0
 53
0
  0
DIMENSION
  8
1
  6
CONTINUOUS
 62
2
  2
*D9
  3
DMST_3
 10
-82.5
 20
34.9787577640941
 30
0
 11
-91
 21
37.5787577640941
 31
0
 12
0
 22
0
 32
0
 70
0
 13
-99.5
 23
24.99999999999988
 33
0
 14
-82.5
 24
11.99999999999989
 34
0
 53
0
  0
DIMENSION
  8
1
  6
CONTINUOUS
 62
2
  2
*D10
  3
DMST_4
 10
-124.5
 20
46.9975727345427
 30
0
 11
-99.5
 21
49.5975727345427
 31
0
 12
0
 22
0
 32
0
 70
0
  1
ƒÓ<>
 13
-74.5
 23
0
 33
0
 14
-124.5
 24
-1.101341240428155e-013
 34
0
 53
0
  0
DIMENSION
  8
1
  6
CONTINUOUS
 62
2
  2
*D11
  3
DMST_4
 10
25.00000000000016
 20
47.0581296371928
 30
0
 11
12.50000000000008
 21
49.6581296371928
 31
0
 12
0
 22
0
 32
0
 70
0
 13
-3.552713678800501e-015
 23
10.5
 33
0
 14
25.00000000000016
 24
25
 34
0
 53
0
  0
DIMENSION
  8
1
  6
CONTINUOUS
 62
2
  2
*D12
  3
DMST_5
 10
120.11213367191
 20
-69.7823380118422
 30
0
 11
117.51213367191
 21
-61.54993385985932
 31
0
 12
0
 22
0
 32
0
 70
0
  1
(<>
 13
102.696882135101
 23
-72.78233801184223
 33
0
 14
102.9943369725351
 24
-69.78233801184223
 34
0
 50
90
 53
0
  0
DIMENSION
  8
1
  6
CONTINUOUS
 62
2
  2
*D13
  3
DMST_4
 10
132.110726840473
 20
-22
 30
0
 11
129.510726840473
 21
0
 31
0
 12
0
 22
0
 32
0
 70
0
  1
ƒÓ<>
 13
105.6000000000011
 23
22
 33
0
 14
105.6
 24
-22
 34
0
 50
90
 53
0
  0
DIMENSION
  8
1
  6
CONTINUOUS
 62
2
  2
*D14
  3
DMST_6
 10
55.60000000000004
 20
35.0195941870415
 30
0
 11
40.3000000000001
 21
37.6195941870415
 31
0
 12
0
 22
0
 32
0
 70
0
 13
25.00000000000016
 23
25
 33
0
 14
55.60000000000004
 24
17.3778068896783
 34
0
 53
0
  0
DIMENSION
  8
1
  6
CONTINUOUS
 62
2
  2
*D15
  3
DMST_4
 10
25.00000000000016
 20
47.0066500860634
 30
0
 11
68.60000000000008
 21
49.6066500860634
 31
0
 12
0
 22
0
 32
0
 70
0
 13
112.2
 23
10
 33
0
 14
25.00000000000016
 24
25
 34
0
 53
0
  0
INSERT
  8
0
  2
___R___O_______R
 10
0.5000000000000568
 20
-3.75
 30
0
  0
INSERT
  8
1
  2
*D16
 10
0
 20
0
 30
0
  0
INSERT
  8
1
  2
*D17
 10
0
 20
0
 30
0
  0
ENDSEC
  0
EOF
