  0
SECTION
  2
HEADER
  9
$ACADVER
  1
AC1009
  9
$INSBASE
 10
0
 20
0
  9
$EXTMIN
 10
-194.5
 20
-146
  9
$EXTMAX
 10
194.5
 20
146
  9
$LIMMIN
 10
-194.5
 20
-146
  9
$LIMMAX
 10
194.5
 20
146
  9
$VIEWCTR
 10
10
 20
10
  9
$VIEWSIZE
 40
10
  9
$SNAPMODE
 70
0
  9
$SNAPUNIT
 10
1
 20
1
  9
$SNAPBASE
 10
0
 20
0
  9
$SNAPANG
 50
0
  9
$SNAPSTYLE
 70
0
  9
$SNAPISOPAIR
 70
0
  9
$GRIDMODE
 70
0
  9
$GRIDUNIT
 10
0
 20
0
  9
$ORTHOMODE
 70
0
  9
$REGENMODE
 70
1
  9
$FILLMODE
 70
1
  9
$QTEXTMODE
 70
0
  9
$DRAGMODE
 70
2
  9
$LTSCALE
 40
1
  9
$OSMODE
 70
0
  9
$ATTMODE
 70
1
  9
$TEXTSIZE
 40
3.5
  9
$TRACEWID
 40
0.5
  9
$TEXTSTYLE
  7
STANDARD
  9
$CLAYER
  8
0
  9
$CELTYPE
  6
BYLAYER
  9
$CECOLOR
 62
256
  9
$DIMSCALE
 40
1
  9
$DIMASZ
 40
0.18
  9
$DIMEXO
 40
0.0625
  9
$DIMDLI
 40
0.38
  9
$DIMRND
 40
0
  9
$DIMDLE
 40
0
  9
$DIMEXE
 40
0.18
  9
$DIMTP
 40
0
  9
$DIMTM
 40
0
  9
$DIMTXT
 40
0.18
  9
$DIMCEN
 40
0.09
  9
$DIMTSZ
 40
0
  9
$DIMTOL
 70
0
  9
$DIMLIM
 70
0
  9
$DIMTIH
 70
1
  9
$DIMTOH
 70
1
  9
$DIMSE1
 70
0
  9
$DIMSE2
 70
0
  9
$DIMTAD
 70
0
  9
$DIMZIN
 70
0
  9
$DIMBLK
  1

  9
$DIMASO
 70
1
  9
$DIMSHO
 70
1
  9
$DIMPOST
  1

  9
$DIMAPOST
  1

  9
$DIMALT
 70
0
  9
$DIMALTD
 70
2
  9
$DIMALTF
 40
25.4
  9
$DIMLFAC
 40
1
  9
$DIMTOFL
 70
0
  9
$DIMTVP
 40
0
  9
$DIMTIX
 70
0
  9
$DIMSOXD
 70
0
  9
$DIMSAH
 70
0
  9
$DIMBLK1
  1

  9
$DIMBLK2
  1

  9
$DIMSTYLE
  2
*UNNAMED
  9
$DIMCLRD
 70
0
  9
$DIMCLRE
 70
0
  9
$DIMCLRT
 70
0
  9
$DIMTFAC
 40
1
  9
$DIMGAP
 40
0.09
  9
$LUNITS
 70
2
  9
$LUPREC
 70
4
  9
$AXISMODE
 70
0
  9
$AXISUNIT
 10
0
 20
0
  9
$SKETCHINC
 40
0.1
  9
$FILLETRAD
 40
2
  9
$AUNITS
 70
0
  9
$AUPREC
 70
0
  9
$MENU
  1
ACAD
  9
$ELEVATION
 40
0
  9
$THICKNESS
 40
0
  9
$VIEWDIR
 10
0
 20
0
 30
1
  9
$LIMCHECK
 70
0
  9
$BLIPMODE
 70
1
  9
$CHAMFERA
 40
0
  9
$CHAMFERB
 40
0
  9
$FASTZOOM
 70
1
  9
$SKPOLY
 70
0
  9
$ANGBASE
 50
0
  9
$ANGDIR
 70
0
  9
$PDMODE
 70
0
  9
$PDSIZE
 40
0
  9
$PLINEWID
 40
0
  9
$COORDS
 70
2
  0
ENDSEC
  0
SECTION
  2
TABLES
  0
TABLE
  2
DIMSTYLE
 70
5
  0
DIMSTYLE
  2
DMST_1
 70
0
  3

  4

  5

  6

  7

 40
1
 41
3.2
 42
1
 43
7
 44
1
 45
0
 46
0
 47
0
 48
0
140
3.2
141
0
142
0
143
25.4
144
1
145
0
146
1
147
0.09
 71
0
 72
0
 73
0
 74
0
 75
0
 76
0
 77
1
 78
9
170
0
171
2
172
0
173
0
174
0
175
0
176
2
177
2
178
2
  0
DIMSTYLE
  2
DMST_2
 70
0
  3

  4

  5

  6

  7

 40
1
 41
3.2
 42
1
 43
7
 44
1
 45
0
 46
0
 47
0.1
 48
0.1
140
3.2
141
0
142
0
143
25.4
144
1
145
0
146
0.6
147
0.09
 71
1
 72
0
 73
0
 74
0
 75
0
 76
0
 77
1
 78
9
170
0
171
2
172
0
173
0
174
0
175
0
176
2
177
2
178
2
  0
DIMSTYLE
  2
DMST_3
 70
0
  3

  4

  5

  6

  7

 40
1
 41
3.2
 42
1
 43
7
 44
1
 45
0
 46
0
 47
0
 48
0.1
140
3.2
141
0
142
0
143
25.4
144
1
145
0
146
0.6
147
0.09
 71
1
 72
0
 73
0
 74
0
 75
0
 76
0
 77
1
 78
9
170
0
171
2
172
0
173
0
174
0
175
0
176
2
177
2
178
2
  0
DIMSTYLE
  2
DMST_4
 70
0
  3
)
  4

  5

  6

  7

 40
1
 41
3.2
 42
1
 43
7
 44
1
 45
0
 46
0
 47
0
 48
0
140
3.2
141
0
142
0
143
25.4
144
1
145
0
146
1
147
0.09
 71
0
 72
0
 73
0
 74
0
 75
0
 76
0
 77
1
 78
9
170
0
171
2
172
0
173
0
174
0
175
0
176
2
177
2
178
2
  0
DIMSTYLE
  2
DMST_5
 70
0
  3

  4

  5

  6

  7

 40
1
 41
3.2
 42
1
 43
7
 44
1
 45
0
 46
0
 47
-0.002
 48
0.01
140
3.2
141
0
142
0
143
25.4
144
1
145
0
146
0.6
147
0.09
 71
1
 72
0
 73
0
 74
0
 75
0
 76
0
 77
1
 78
9
170
0
171
2
172
0
173
0
174
0
175
0
176
2
177
2
178
2
  0
ENDTAB
  0
TABLE
  2
LTYPE
 70
9
  0
LTYPE
  2
CONTINUOUS
 70
64
  3
Solid line
 72
65
 73
0
 40
0
  0
LTYPE
  2
BORDER
 70
64
  3
__ __ . __ __ .
 72
65
 73
6
 40
17.91447368421053
 49
5.118421052631579
 49
-2.559210526315789
 49
5.118421052631579
 49
-2.559210526315789
 49
0
 49
-2.559210526315789
  0
LTYPE
  2
CENTER
 70
64
  3
____ _ ____ _
 72
65
 73
4
 40
20.47368421052632
 49
12.79605263157895
 49
-2.559210526315789
 49
2.559210526315789
 49
-2.559210526315789
  0
LTYPE
  2
DASHDOT
 70
64
  3
__ . __ . __ .
 72
65
 73
4
 40
10.23684210526316
 49
5.118421052631579
 49
-2.559210526315789
 49
0
 49
-2.559210526315789
  0
LTYPE
  2
DASHED
 70
64
  3
__ __ __ __ __
 72
65
 73
2
 40
7.677631578947368
 49
5.118421052631579
 49
-2.559210526315789
  0
LTYPE
  2
DIVIDE
 70
64
  3
__ . . __ . . 
 72
65
 73
6
 40
12.79605263157895
 49
5.118421052631579
 49
-2.559210526315789
 49
0
 49
-2.559210526315789
 49
0
 49
-2.559210526315789
  0
LTYPE
  2
DOT
 70
64
  3
..............
 72
65
 73
4
 40
5.118421052631579
 49
0
 49
-2.559210526315789
 49
0
 49
-2.559210526315789
  0
LTYPE
  2
HIDDEN
 70
64
  3
_ _ _ _ _ _ _
 72
65
 73
2
 40
3.838815789473684
 49
2.559210526315789
 49
-1.279605263157895
  0
LTYPE
  2
PHANTOM
 70
64
  3
_____ _ _ _____ _ _ 
 72
65
 73
6
 40
25.59210526315789
 49
12.79605263157895
 49
-2.559210526315789
 49
2.559210526315789
 49
-2.559210526315789
 49
2.559210526315789
 49
-2.559210526315789
  0
ENDTAB
  0
TABLE
  2
LAYER
 70
3
  0
LAYER
  2
1
 70
0
 62
7
  6
CONTINUOUS
  0
LAYER
  2
0
 70
0
 62
7
  6
CONTINUOUS
  0
ENDTAB
  0
TABLE
  2
STYLE
 70
4
  0
STYLE
  2
STANDARD
 70
0
 40
0
 41
1
 50
0
 71
0
 42
3.5
  3
txt
  4

  0
STYLE
  2
SIMPLEX
 70
0
 40
0
 41
1
 50
0
 71
0
 42
3.5
  3
simplex
  4

  0
STYLE
  2
COMPLEX
 70
0
 40
0
 41
1
 50
0
 71
0
 42
3.5
  3
complex
  4

  0
STYLE
  2
ITALIC
 70
0
 40
0
 41
1
 50
0
 71
0
 42
3.5
  3
italic
  4

  0
ENDTAB
  0
TABLE
  2
VIEW
 70
0
  0
ENDTAB
  0
ENDSEC
  0
SECTION
  2
BLOCKS
  0
BLOCK
  8
0
  2
___R___O_______R
 70
0
 10
0.5
 20
-3.75
 30
0
  0
LINE
  8
1
 62
4
  6
PHANTOM
 10
-194.5
 20
-146
 30
0
 11
194.5
 21
-146
 31
0
  0
LINE
  8
1
 62
4
  6
PHANTOM
 10
194.5
 20
146
 30
0
 11
-194.5
 21
146
 31
0
  0
LINE
  8
1
 62
4
  6
PHANTOM
 10
194.5
 20
146
 30
0
 11
194.5
 21
129
 31
0
  0
LINE
  8
1
 62
4
  6
PHANTOM
 10
-194.5
 20
-146
 30
0
 11
-194.5
 21
146
 31
0
  0
LINE
  8
1
 62
4
  6
PHANTOM
 10
194.5
 20
-136.5
 30
0
 11
194.5
 21
-146
 31
0
  0
TEXT
  8
1
 62
4
 10
178.746911898274
 20
-142.6071298819256
 30
0
 40
5
  1
A3
 41
0.9
 72
1
 73
2
 11
183.246911898274
 21
-140.1071298819256
 31
0
  0
ENDBLK
  8
0
  0
BLOCK
  8
1
  2
*D0
 70
1
 10
0
 20
0
 30
0
  0
LINE
  8
1
 62
2
 10
13
 20
32.0084110440441
 30
0
 11
20.4961036183945
 21
32.0084110440441
 31
0
  0
LINE
  8
1
 62
2
 10
10
 20
32.0084110440441
 30
0
 11
13
 21
32.0084110440441
 31
0
  0
LINE
  8
1
 62
2
 10
3.6
 20
32.0084110440441
 30
0
 11
10
 21
32.0084110440441
 31
0
  0
LINE
  8
1
 62
2
 10
13
 20
20
 30
0
 11
13
 21
33.0084110440441
 31
0
  0
LINE
  8
1
 62
2
 10
10
 20
11
 30
0
 11
10
 21
33.0084110440441
 31
0
  0
SOLID
  8
1
 62
2
 10
10
 20
32.0084110440441
 30
0
 11
6.799999999999999
 21
31.5924110440441
 31
0
 12
6.799999999999999
 22
32.42441104404409
 32
0
 13
6.799999999999999
 23
32.42441104404409
 33
0
  0
SOLID
  8
1
 62
2
 10
13
 20
32.0084110440441
 30
0
 11
16.2
 21
32.42441104404409
 31
0
 12
16.2
 22
31.5924110440441
 32
0
 13
16.2
 23
31.5924110440441
 33
0
  0
TEXT
  8
1
 62
2
 10
18.5761036183945
 20
33.0084110440441
 30
0
 40
3.2
  1
3
 41
0.9
  0
ENDBLK
  8
0
  0
BLOCK
  8
1
  2
*D1
 70
1
 10
0
 20
0
 30
0
  0
LINE
  8
1
 62
2
 10
-108.9
 20
32.0693114022219
 30
0
 11
-102.5
 21
32.0693114022219
 31
0
  0
LINE
  8
1
 62
2
 10
-102.5
 20
32.0693114022219
 30
0
 11
-98.5
 21
32.0693114022219
 31
0
  0
LINE
  8
1
 62
2
 10
-98.5
 20
32.0693114022219
 30
0
 11
-85.0159638038857
 21
32.0693114022219
 31
0
  0
LINE
  8
1
 62
2
 10
-102.5
 20
1
 30
0
 11
-102.5
 21
33.0693114022219
 31
0
  0
LINE
  8
1
 62
2
 10
-98.5
 20
3
 30
0
 11
-98.5
 21
33.0693114022219
 31
0
  0
SOLID
  8
1
 62
2
 10
-102.5
 20
32.0693114022219
 30
0
 11
-105.7
 21
31.6533114022219
 31
0
 12
-105.7
 22
32.4853114022219
 32
0
 13
-105.7
 23
32.4853114022219
 33
0
  0
SOLID
  8
1
 62
2
 10
-98.5
 20
32.0693114022219
 30
0
 11
-95.3
 21
32.4853114022219
 31
0
 12
-95.3
 22
31.6533114022219
 32
0
 13
-95.3
 23
31.6533114022219
 33
0
  0
TEXT
  8
1
 62
2
 10
-92.8079638038857
 20
33.0693114022219
 30
0
 40
3.2
  1
4
 41
0.9
  0
TEXT
  8
1
 62
2
 10
-89.2879638038857
 20
33.7093114022219
 30
0
 40
1.92
  1
%%p0.1
 41
0.9
  0
ENDBLK
  8
0
  0
BLOCK
  8
1
  2
*D2
 70
1
 10
0
 20
0
 30
0
  0
LINE
  8
1
 62
2
 10
-26.0675607104026
 20
-10
 30
0
 11
-26.0675607104026
 21
9.999999999999998
 31
0
  0
LINE
  8
1
 62
2
 10
-26.0675607104026
 20
9.999999999999998
 30
0
 11
-26.0675607104026
 21
30.96613072369222
 31
0
  0
LINE
  8
1
 62
2
 10
9
 20
-10
 30
0
 11
-27.0675607104026
 21
-10
 31
0
  0
LINE
  8
1
 62
2
 10
9
 20
9.999999999999998
 30
0
 11
-27.0675607104026
 21
9.999999999999998
 31
0
  0
SOLID
  8
1
 62
2
 10
-26.0675607104026
 20
-10
 30
0
 11
-26.4835607104026
 21
-6.799999999999999
 31
0
 12
-25.65156071040261
 22
-6.799999999999999
 32
0
 13
-25.65156071040261
 23
-6.799999999999999
 33
0
  0
SOLID
  8
1
 62
2
 10
-26.0675607104026
 20
9.999999999999998
 30
0
 11
-25.6515607104026
 21
6.799999999999997
 31
0
 12
-26.4835607104026
 22
6.799999999999997
 32
0
 13
-26.4835607104026
 23
6.799999999999997
 33
0
  0
TEXT
  8
1
 62
2
 10
-27.8675607104026
 20
20.10213072369222
 30
0
 40
3.2
  1
20
 50
90
 41
0.9
  0
TEXT
  8
1
 62
2
 10
-29.9475607104026
 20
26.50213072369222
 30
0
 40
1.92
  1
 0
 50
90
 41
0.9
  0
TEXT
  8
1
 62
2
 10
-27.0675607104026
 20
26.50213072369222
 30
0
 40
1.92
  1
-0.1
 50
90
 41
0.9
  0
TEXT
  8
1
 62
2
 10
-27.8675607104026
 20
16.45768627924778
 30
0
 40
3.2
  1
âË
 50
90
 41
0.9
  0
ENDBLK
  8
0
  0
BLOCK
  8
1
  2
*D3
 70
1
 10
0
 20
0
 30
0
  0
LINE
  8
1
 62
2
 10
89.51072684047298
 20
-22
 30
0
 11
89.51072684047298
 21
22
 31
0
  0
LINE
  8
1
 62
2
 10
64
 20
-22
 30
0
 11
90.51072684047298
 21
-22
 31
0
  0
LINE
  8
1
 62
2
 10
64.00000000000151
 20
22
 30
0
 11
90.51072684047298
 21
22
 31
0
  0
SOLID
  8
1
 62
2
 10
89.51072684047298
 20
22
 30
0
 11
89.92672684047298
 21
18.8
 31
0
 12
89.09472684047299
 22
18.8
 32
0
 13
89.09472684047299
 23
18.8
 33
0
  0
SOLID
  8
1
 62
2
 10
89.51072684047298
 20
-22
 30
0
 11
89.09472684047299
 21
-18.8
 31
0
 12
89.92672684047298
 22
-18.8
 32
0
 13
89.92672684047298
 23
-18.8
 33
0
  0
TEXT
  8
1
 62
2
 10
88.51072684047298
 20
-0.5777777777777811
 30
0
 40
3.2
  1
44
 50
90
 41
0.9
  0
TEXT
  8
1
 62
2
 10
88.51072684047298
 20
-4.222222222222225
 30
0
 40
3.2
  1
âË
 50
90
 41
0.9
  0
ENDBLK
  8
0
  0
BLOCK
  8
1
  2
*D4
 70
1
 10
0
 20
0
 30
0
  0
LINE
  8
1
 62
2
 10
13
 20
43.99828058460398
 30
0
 11
69.60000000000051
 21
43.99828058460398
 31
0
  0
LINE
  8
1
 62
2
 10
69.60000000000051
 20
11
 30
0
 11
69.60000000000051
 21
44.99828058460398
 31
0
  0
LINE
  8
1
 62
2
 10
13
 20
20
 30
0
 11
13
 21
44.99828058460398
 31
0
  0
SOLID
  8
1
 62
2
 10
13
 20
43.99828058460398
 30
0
 11
16.2
 21
44.41428058460397
 31
0
 12
16.2
 22
43.58228058460398
 32
0
 13
16.2
 23
43.58228058460398
 33
0
  0
SOLID
  8
1
 62
2
 10
69.60000000000051
 20
43.99828058460398
 30
0
 11
66.4000000000005
 21
43.58228058460398
 31
0
 12
66.4000000000005
 22
44.41428058460397
 32
0
 13
66.4000000000005
 23
44.41428058460397
 33
0
  0
TEXT
  8
1
 62
2
 10
36.94000000000023
 20
44.99828058460398
 30
0
 40
3.2
  1
56.6
 41
0.9
  0
ENDBLK
  8
0
  0
BLOCK
  8
1
  2
*D5
 70
1
 10
0
 20
0
 30
0
  0
LINE
  8
1
 62
2
 10
77.51213367190999
 20
-79.18233801184221
 30
0
 11
77.51213367190999
 21
-72.7823380118422
 31
0
  0
LINE
  8
1
 62
2
 10
77.51213367190999
 20
-72.7823380118422
 30
0
 11
77.51213367190999
 21
-69.7823380118422
 31
0
  0
LINE
  8
1
 62
2
 10
77.51213367190999
 20
-69.7823380118422
 30
0
 11
77.51213367190999
 21
-58.50993385985932
 31
0
  0
LINE
  8
1
 62
2
 10
61.096882135101
 20
-72.7823380118422
 30
0
 11
78.51213367190999
 21
-72.7823380118422
 31
0
  0
LINE
  8
1
 62
2
 10
61.3943369725351
 20
-69.7823380118422
 30
0
 11
78.51213367190999
 21
-69.7823380118422
 31
0
  0
SOLID
  8
1
 62
2
 10
77.51213367190999
 20
-69.7823380118422
 30
0
 11
77.09613367191
 21
-66.5823380118422
 31
0
 12
77.92813367190999
 22
-66.5823380118422
 32
0
 13
77.92813367190999
 23
-66.5823380118422
 33
0
  0
SOLID
  8
1
 62
2
 10
77.51213367190999
 20
-72.7823380118422
 30
0
 11
77.92813367190999
 21
-75.9823380118422
 31
0
 12
77.09613367191
 22
-75.9823380118422
 32
0
 13
77.09613367191
 23
-75.9823380118422
 33
0
  0
TEXT
  8
1
 62
2
 10
76.51213367190999
 20
-62.50993385985932
 30
0
 40
3.2
  1
3
 50
90
 41
0.9
  0
TEXT
  8
1
 62
2
 10
76.51213367190999
 20
-64.58993385985933
 30
0
 40
3.2
  1
(
 50
90
 41
0.9
  0
TEXT
  8
1
 62
2
 10
76.51213367190999
 20
-58.98993385985932
 30
0
 40
3.2
  1
)
 50
90
 41
0.9
  0
ENDBLK
  8
0
  0
BLOCK
  8
1
  2
*D6
 70
1
 10
0
 20
0
 30
0
  0
LINE
  8
1
 62
2
 10
-12.0661612500506
 20
-8.900000000000002
 30
0
 11
-12.0661612500506
 21
-2.5
 31
0
  0
LINE
  8
1
 62
2
 10
-12.0661612500506
 20
-2.5
 30
0
 11
-12.0661612500506
 21
2.5
 31
0
  0
LINE
  8
1
 62
2
 10
-12.0661612500506
 20
2.5
 30
0
 11
-12.0661612500506
 21
30.1507207925578
 31
0
  0
LINE
  8
1
 62
2
 10
-1
 20
-2.5
 30
0
 11
-13.0661612500506
 21
-2.5
 31
0
  0
LINE
  8
1
 62
2
 10
-1
 20
2.5
 30
0
 11
-13.0661612500506
 21
2.5
 31
0
  0
SOLID
  8
1
 62
2
 10
-12.0661612500506
 20
2.5
 30
0
 11
-12.4821612500506
 21
5.700000000000001
 31
0
 12
-11.6501612500506
 22
5.700000000000001
 32
0
 13
-11.6501612500506
 23
5.700000000000001
 33
0
  0
SOLID
  8
1
 62
2
 10
-12.0661612500506
 20
-2.5
 30
0
 11
-11.6501612500506
 21
-5.700000000000001
 31
0
 12
-12.4821612500506
 22
-5.700000000000001
 32
0
 13
-12.4821612500506
 23
-5.700000000000001
 33
0
  0
TEXT
  8
1
 62
2
 10
-13.8661612500506
 20
18.1347207925578
 30
0
 40
3.2
  1
5
 50
90
 41
0.9
  0
TEXT
  8
1
 62
2
 10
-15.9461612500506
 20
21.6547207925578
 30
0
 40
1.92
  1
-0.002
 50
90
 41
0.9
  0
TEXT
  8
1
 62
2
 10
-13.0661612500506
 20
21.6547207925578
 30
0
 40
1.92
  1
-0.01
 50
90
 41
0.9
  0
ENDBLK
  8
0
  0
BLOCK
  8
1
  2
*D7
 70
1
 10
0
 20
0
 30
0
  0
LINE
  8
1
 62
2
 10
0
 20
43.9592160112475
 30
0
 11
13
 21
43.9592160112475
 31
0
  0
LINE
  8
1
 62
2
 10
0
 20
3.5
 30
0
 11
0
 21
44.9592160112475
 31
0
  0
LINE
  8
1
 62
2
 10
13
 20
20
 30
0
 11
13
 21
44.9592160112475
 31
0
  0
SOLID
  8
1
 62
2
 10
0
 20
43.9592160112475
 30
0
 11
3.200000000000001
 21
44.3752160112475
 31
0
 12
3.200000000000001
 22
43.5432160112475
 32
0
 13
3.200000000000001
 23
43.5432160112475
 33
0
  0
SOLID
  8
1
 62
2
 10
13
 20
43.9592160112475
 30
0
 11
9.799999999999999
 21
43.5432160112475
 31
0
 12
9.799999999999999
 22
44.3752160112475
 32
0
 13
9.799999999999999
 23
44.3752160112475
 33
0
  0
TEXT
  8
1
 62
2
 10
4.58
 20
44.9592160112475
 30
0
 40
3.2
  1
13
 41
0.9
  0
ENDBLK
  8
0
  0
BLOCK
  8
1
  2
*D8
 70
1
 10
0
 20
0
 30
0
  0
LINE
  8
1
 62
2
 10
89.48732725836359
 20
-72.7823380118422
 30
0
 11
89.48732725836359
 21
-42.9089938788985
 31
0
  0
LINE
  8
1
 62
2
 10
61.09688213510098
 20
-72.7823380118422
 30
0
 11
90.48732725836359
 21
-72.7823380118422
 31
0
  0
SOLID
  8
1
 62
2
 10
89.48732725836359
 20
-72.7823380118422
 30
0
 11
89.0713272583636
 21
-69.5823380118422
 31
0
 12
89.90332725836359
 22
-69.5823380118422
 32
0
 13
89.90332725836359
 23
-69.5823380118422
 33
0
  0
TEXT
  8
1
 62
2
 10
88.48732725836359
 20
-55.4529938788985
 30
0
 40
3.2
  1
150
 50
90
 41
0.9
  0
TEXT
  8
1
 62
2
 10
87.84732725836359
 20
-47.1329938788985
 30
0
 40
1.92
  1
%%p20
 50
90
 41
0.9
  0
ENDBLK
  8
0
  0
BLOCK
  8
1
  2
*D9
 70
1
 10
0
 20
0
 30
0
  0
LINE
  8
1
 62
2
 10
-125.4289827429611
 20
-46.12011807447743
 30
0
 11
-69.50898274296111
 21
-46.12011807447743
 31
0
  0
LINE
  8
1
 62
2
 10
-100.9963023068608
 20
-18.62133033194673
 30
0
 11
-125.4289827429611
 21
-46.12011807447743
 31
0
  0
SOLID
  8
1
 62
2
 10
-100.9963023068608
 20
-18.62133033194673
 30
0
 11
-102.8107649494374
 21
-21.28980954653581
 31
0
 12
-103.4327295068906
 22
-20.73719386699699
 32
0
 13
-103.4327295068906
 23
-20.73719386699699
 33
0
  0
TEXT
  8
1
 62
2
 10
-110.9489827429611
 20
-45.12011807447743
 30
0
 40
3.2
  1
3
 41
0.9
  0
TEXT
  8
1
 62
2
 10
-120.2289827429611
 20
-45.12011807447743
 30
0
 40
3.2
  1
3-M
 41
0.9
  0
TEXT
  8
1
 62
2
 10
-107.4289827429611
 20
-45.12011807447743
 30
0
 40
3.2
  1
 DEPTH 3.5MAX.
 41
0.9
  0
ENDBLK
  8
0
  0
ENDSEC
  0
SECTION
  2
ENTITIES
  0
LINE
  8
1
 62
2
 10
-125.4618834329087
 20
-53.00000000000001
 30
0
 11
-69.32694240941898
 21
-53.00000000000001
 31
0
  0
LINE
  8
1
 62
2
 10
-125.4618834329087
 20
-60.00000000000001
 30
0
 11
-69.32694240941895
 21
-60.00000000000001
 31
0
  0
LINE
  8
1
 62
2
 10
-125.4618834329087
 20
-67
 30
0
 11
-69.32694240941898
 21
-67
 31
0
  0
LINE
  8
1
 62
7
 10
-112.3719995338206
 20
-19.057377247017
 30
0
 11
-111.9188061023906
 21
-18.6347675352699
 31
0
  0
LINE
  8
1
 62
7
 10
-114.3541725306885
 20
-16.8038010866351
 30
0
 11
-115.3842848726589
 21
-17.7643963859401
 31
0
  0
LINE
  8
1
 62
7
 10
-117.7641643310006
 20
-13.14703257853912
 30
0
 11
-118.7942766729719
 21
-14.107627877845
 31
0
  0
LINE
  8
1
 62
7
 10
-119.4207880630782
 20
-10.58987681746012
 30
0
 11
-119.8739814945073
 21
-11.0124865292058
 31
0
  0
LINE
  8
1
 62
7
 10
-130.1573454163491
 20
-30.33725004558879
 30
0
 11
-114.9412628745466
 21
-16.1480235234429
 31
0
  0
LINE
  8
1
 62
7
 10
-131.2746364576021
 20
-29.1640703101859
 30
0
 11
-116.0897814356211
 21
-15.00396392137392
 31
0
  0
LINE
  8
1
 62
7
 10
-132.3794738009033
 20
-27.97927731356305
 30
0
 11
-117.1509375611496
 21
-13.77843753019722
 31
0
  0
LINE
  8
1
 62
3
 10
-112.404986000898
 20
7.162022006913077
 30
0
 11
-118.1920594225665
 21
10.50319040473289
 31
0
  0
LINE
  8
1
 62
3
 10
-87.9132952264937
 20
6.978262254599429
 30
0
 11
-81.9204201287866
 21
10.43825030548178
 31
0
  0
LINE
  8
1
 62
3
 10
-100
 20
23.99999999999999
 30
0
 11
-100
 21
-24.00000000000001
 31
0
  0
LINE
  8
1
 62
3
 10
-75.99999999999999
 20
0
 30
0
 11
-124
 21
0
 31
0
  0
LINE
  8
1
 62
7
 10
-98.5
 20
2
 30
0
 11
-98.5
 21
-2
 31
0
  0
LINE
  8
1
 62
7
 10
10
 20
-10
 30
0
 11
10
 21
9.999999999999996
 31
0
  0
LINE
  8
1
 62
3
 10
53.10000000000049
 20
24.16117345456984
 30
0
 11
53.10000000000049
 21
19.06946085579091
 31
0
  0
LINE
  8
1
 62
7
 10
50.14999999999969
 20
22.2509802037651
 30
0
 11
50.15
 21
22
 31
0
  0
LINE
  8
1
 62
7
 10
56.04999999999849
 20
22.2509802037651
 30
0
 11
56.04999999999849
 21
22
 31
0
  0
LINE
  8
1
 62
7
 10
51.59999999999999
 20
22
 30
0
 11
51.60000000000049
 21
20.896686010581
 31
0
  0
LINE
  8
1
 62
7
 10
54.60000000000049
 20
20.896686010581
 30
0
 11
54.60000000000049
 21
22
 31
0
  0
LINE
  8
1
 62
3
 10
53.10000000000049
 20
-23.87634983292821
 30
0
 11
53.10000000000049
 21
-21.52513152805792
 31
0
  0
LINE
  8
1
 62
7
 10
58.89433697253509
 20
-49.15219535232989
 30
0
 11
58.89433697253509
 21
-22
 31
0
  0
LINE
  8
1
 62
7
 10
16
 20
-22
 30
0
 11
62.99999999999999
 21
-22
 31
0
  0
LINE
  8
1
 62
7
 10
57.39433697253509
 20
-49.15219535232989
 30
0
 11
57.39433697253509
 21
-22
 31
0
  0
LINE
  8
1
 62
7
 10
60.39433697253509
 20
-22
 30
0
 11
60.39433697253509
 21
-49.15219535232989
 31
0
  0
LINE
  8
1
 62
7
 10
69.59999999999999
 20
9.999999999999996
 30
0
 11
69.59999999999999
 21
-10.00000000000011
 31
0
  0
LINE
  8
1
 62
7
 10
63.00000000000109
 20
21
 30
0
 11
63.00000000000109
 21
22
 31
0
  0
LINE
  8
1
 62
7
 10
67.5
 20
10.5
 30
0
 11
69.09999999999999
 21
10.5
 31
0
  0
LINE
  8
1
 62
7
 10
55.99999999999999
 20
-5.423402264367922
 30
0
 11
62.99999999999999
 21
-5.423402264367922
 31
0
  0
LINE
  8
1
 62
7
 10
62.99999999999999
 20
-5.190748865208093
 30
0
 11
66.3056131734831
 21
-5.190748865207212
 31
0
  0
LINE
  8
1
 62
7
 10
55.99999999999999
 20
-19.00020593517101
 30
0
 11
62.99999999999999
 21
-19.00020593517101
 31
0
  0
LINE
  8
1
 62
7
 10
55.99999999999999
 20
-17.517136682867
 30
0
 11
67.5
 21
-17.517136682867
 31
0
  0
LINE
  8
1
 62
7
 10
62.99999999999999
 20
-18.7372649163681
 30
0
 11
65.93577536393799
 21
-18.7372649163681
 31
0
  0
LINE
  8
1
 62
7
 10
62.99999999999999
 20
-21
 30
0
 11
65.5
 21
-21
 31
0
  0
LINE
  8
1
 62
7
 10
67.5
 20
-19.00020593517101
 30
0
 11
67.5
 21
-19
 31
0
  0
LINE
  8
1
 62
7
 10
67.50309555901458
 20
19
 30
0
 11
67.5
 21
-19
 31
0
  0
LINE
  8
1
 62
3
 10
62.50003623970326
 20
-11.8858467072531
 30
0
 11
67.5005795337199
 21
-11.8858467072531
 31
0
  0
LINE
  8
1
 62
3
 10
64.99999999999994
 20
-9.373806877512942
 30
0
 11
64.99999999999994
 21
-14.37380687751306
 31
0
  0
LINE
  8
1
 62
7
 10
62.99999999999999
 20
-22
 30
0
 11
62.99999999999999
 21
-18.7372649163681
 31
0
  0
LINE
  8
1
 62
7
 10
62.99999999999999
 20
21
 30
0
 11
65.50309555901458
 21
21
 31
0
  0
LINE
  8
1
 62
7
 10
63.00000000000109
 20
22
 30
0
 11
15.99999999999999
 21
22
 31
0
  0
LINE
  8
1
 62
7
 10
62.99999999999999
 20
-5.423402264367922
 30
0
 11
62.99999999999999
 21
21
 31
0
  0
LINE
  8
1
 62
7
 10
55.99999999999999
 20
22
 30
0
 11
55.99999999999999
 21
-22
 31
0
  0
LINE
  8
1
 62
7
 10
64.22218254069411
 20
-12.45153213220203
 30
0
 11
64.43431457505099
 21
-12.2394000978449
 31
0
  0
LINE
  8
1
 62
7
 10
64.43431457505101
 20
-11.53229331666
 30
0
 11
64.22218254069411
 21
-11.32016128230412
 31
0
  0
LINE
  8
1
 62
7
 10
64.22218254069348
 20
-11.2494506041838
 30
0
 11
64.36360389693211
 21
-11.10802924794802
 31
0
  0
LINE
  8
1
 62
7
 10
64.43431457505101
 20
-11.10802924794802
 30
0
 11
64.64644660940711
 21
-11.32016128230412
 31
0
  0
LINE
  8
1
 62
7
 10
65.35355339059311
 20
-11.32016128230412
 30
0
 11
65.56568542494749
 21
-11.10802924794811
 31
0
  0
LINE
  8
1
 62
7
 10
65.63639610306809
 20
-11.10802924794802
 30
0
 11
65.77781745930508
 21
-11.2494506041838
 31
0
  0
LINE
  8
1
 62
7
 10
65.7778174593052
 20
-11.32016128230412
 30
0
 11
65.56568542494749
 21
-11.53229331665912
 31
0
  0
LINE
  8
1
 62
7
 10
65.56568542494749
 20
-12.2394000978449
 30
0
 11
65.7778174593052
 21
-12.45153213220203
 31
0
  0
LINE
  8
1
 62
7
 10
65.7778174593052
 20
-12.52224281032101
 30
0
 11
65.63639610306809
 21
-12.66366416655807
 31
0
  0
LINE
  8
1
 62
7
 10
65.56568542494749
 20
-12.6636641665581
 30
0
 11
65.35355339059311
 21
-12.45153213220203
 31
0
  0
LINE
  8
1
 62
7
 10
64.64644660940711
 20
-12.45153213220203
 30
0
 11
64.43431457505101
 21
-12.66366416655807
 31
0
  0
LINE
  8
1
 62
7
 10
64.36360389693211
 20
-12.66366416655807
 30
0
 11
64.22218254069499
 21
-12.52224281032101
 31
0
  0
LINE
  8
1
 62
7
 10
60.39433697253509
 20
-69.7823380118422
 30
0
 11
57.39433697253509
 21
-69.7823380118422
 31
0
  0
LINE
  8
1
 62
7
 10
57.39433697253509
 20
-69.7823380118422
 30
0
 11
60.39433697253509
 21
-69.7823380118422
 31
0
  0
LINE
  8
1
 62
7
 10
10
 20
9.999999999999996
 30
0
 11
13
 21
9.999999999999996
 31
0
  0
LINE
  8
1
 62
7
 10
10
 20
-10
 30
0
 11
13
 21
-10
 31
0
  0
LINE
  8
1
 62
7
 10
13
 20
19
 30
0
 11
13
 21
-19
 31
0
  0
LINE
  8
1
 62
3
 10
73.92830855962089
 20
0
 30
0
 11
-3.826284013392847
 21
0
 31
0
  0
LINE
  8
1
 62
7
 10
57.39433697253509
 20
-53.50414249122189
 30
0
 11
57.39433697253509
 21
-69.7823380118422
 31
0
  0
LINE
  8
1
 62
7
 10
58.89433697253509
 20
-53.50414249122189
 30
0
 11
58.89433697253509
 21
-69.7823380118422
 31
0
  0
LINE
  8
1
 62
7
 10
60.39433697253509
 20
-53.50414249122189
 30
0
 11
60.39433697253509
 21
-69.7823380118422
 31
0
  0
LINE
  8
1
 62
7
 10
58.56679964622099
 20
-72.7823380118422
 30
0
 11
58.56679964622099
 21
-69.7823380118422
 31
0
  0
LINE
  8
1
 62
7
 10
57.80175840178099
 20
-69.7823380118422
 30
0
 11
57.80175840178099
 21
-72.7823380118422
 31
0
  0
LINE
  8
1
 62
7
 10
60.09688213510098
 20
-72.7823380118422
 30
0
 11
60.09688213510098
 21
-69.7823380118422
 31
0
  0
LINE
  8
1
 62
7
 10
59.41030665932078
 20
-69.7823380118422
 30
0
 11
59.41030665932078
 21
-72.7823380118422
 31
0
  0
LINE
  8
1
 62
7
 10
69.09999999999999
 20
-10.50000000000011
 30
0
 11
67.5
 21
-10.50000000000011
 31
0
  0
LINE
  8
1
 62
7
 10
0
 20
2.5
 30
0
 11
0
 21
-2.5
 31
0
  0
LINE
  8
1
 62
2
 10
-24.38965129573505
 20
-59.34991020425775
 30
0
 11
43.967136480555
 21
-59.34991020425775
 31
0
  0
LINE
  8
1
 62
2
 10
89.5
 20
-27.10002334769979
 30
0
 11
89.5
 21
-46.40321556867804
 31
0
  0
LINE
  8
1
 62
7
 10
44.22002336582769
 20
13.54455245716452
 30
0
 11
44.22002336582769
 21
22
 31
0
  0
LINE
  8
1
 62
7
 10
24.22002336582769
 20
13.54455245716452
 30
0
 11
44.22002336582769
 21
13.54455245716452
 31
0
  0
LINE
  8
1
 62
7
 10
24.22002336582769
 20
22
 30
0
 11
24.22002336582769
 21
13.54455245716452
 31
0
  0
LINE
  8
1
 62
2
 10
0
 20
2
 30
0
 11
10
 21
-2
 31
0
  0
LINE
  8
1
 62
2
 10
0
 20
-2
 30
0
 11
10
 21
2
 31
0
  0
LINE
  8
1
 62
7
 10
0
 20
-2
 30
0
 11
10
 21
-2
 31
0
  0
LINE
  8
1
 62
7
 10
0
 20
2
 30
0
 11
10
 21
2
 31
0
  0
LINE
  8
1
 62
7
 10
0
 20
2.5
 30
0
 11
10
 21
2.5
 31
0
  0
LINE
  8
1
 62
7
 10
0
 20
-2.5
 30
0
 11
10
 21
-2.5
 31
0
  0
ARC
  8
1
 62
7
 10
-100
 20
0
 30
0
 40
23.49999999999916
 50
226.9528866498835
 51
234.5369590328173
  0
ARC
  8
1
 62
7
 10
-100
 20
0
 30
0
 40
23.49999999999923
 50
211.4630409671843
 51
219.047113350115
  0
ARC
  8
1
 62
7
 10
53.10000000000049
 20
19.70000000000005
 30
0
 40
3.899999999998637
 50
40.85125210332764
 51
139.1487478966993
  0
ARC
  8
1
 62
7
 10
53.10000000000049
 20
20.896686010581
 30
0
 40
1.5
 50
180
 51
0
  0
ARC
  8
1
 62
7
 10
53.10000000000049
 20
-19.045586756618
 30
0
 40
3.900000000001185
 50
229.24797006729
 51
310.7520299326901
  0
CIRCLE
  8
1
 62
7
 10
-100
 20
0
 30
0
 40
10.00000000000001
  0
CIRCLE
  8
1
 62
2
 10
-100
 20
-17.5
 30
0
 40
1.5
  0
CIRCLE
  8
1
 62
7
 10
-100
 20
-17.5
 30
0
 40
1
  0
CIRCLE
  8
1
 62
7
 10
-115.1554445662276
 20
8.75
 30
0
 40
1
  0
CIRCLE
  8
1
 62
2
 10
-115.1554445662276
 20
8.75
 30
0
 40
1.5
  0
CIRCLE
  8
1
 62
7
 10
-84.84455543377219
 20
8.75
 30
0
 40
1
  0
CIRCLE
  8
1
 62
2
 10
-84.84455543377219
 20
8.75
 30
0
 40
1.5
  0
CIRCLE
  8
1
 62
7
 10
-100
 20
0
 30
0
 40
12.50000000000001
  0
CIRCLE
  8
1
 62
7
 10
-100
 20
0
 30
0
 40
6.500000000000014
  0
CIRCLE
  8
1
 62
3
  6
CENTER
 10
-100
 20
0
 30
0
 40
17.5
  0
CIRCLE
  8
1
 62
7
 10
-100
 20
0
 30
0
 40
2.5
  0
CIRCLE
  8
1
 62
7
 10
64.99999999999994
 20
-11.873806877513
 30
0
 40
2.000000000000057
  0
CIRCLE
  8
1
 62
7
 10
-100
 20
0
 30
0
 40
22.00000000000001
  0
POLYLINE
  8
1
 62
7
 66
1
  0
VERTEX
  8
1
 10
66.3056131734831
 20
-5.190748865207212
 30
0
 42
0.002271026600338968
  0
VERTEX
  8
1
 10
66.41831737295036
 20
-5.182240875692046
 30
0
 42
0.006843212417987215
  0
VERTEX
  8
1
 10
66.53048328818109
 20
-5.171714218711217
 30
0
 42
0.01154903310229219
  0
VERTEX
  8
1
 10
66.64157263493874
 20
-5.157150226799059
 30
0
 42
0.01636043009970965
  0
VERTEX
  8
1
 10
66.7510471289868
 20
-5.136530232489912
 30
0
 42
0.021187756210237
  0
VERTEX
  8
1
 10
66.85836848608869
 20
-5.107835568318109
 30
0
 42
0.01333203921684728
  0
VERTEX
  8
1
 10
66.91786252129086
 20
-5.087437974912731
 30
0
 42
0.009175496568992528
  0
VERTEX
  8
1
 10
66.97656349755258
 20
-5.064311037455672
 30
0
 42
0.009389970364473643
  0
VERTEX
  8
1
 10
67.03453711012499
 20
-5.038945902167503
 30
0
 42
0.005326531553807641
  0
VERTEX
  8
1
 10
67.09184905425919
 20
-5.011833715268792
 30
0
 42
0.005635101820881686
  0
VERTEX
  8
1
 10
67.1485650252063
 20
-4.983465622980106
 30
0
 42
0.00293422503635588
  0
VERTEX
  8
1
 10
67.21987937137375
 20
-4.946254382151619
 30
0
 42
0.004491887137750551
  0
VERTEX
  8
1
 10
67.29050881673538
 20
-4.908055387287313
 30
0
 42
0.001093985513897262
  0
VERTEX
  8
1
 10
67.36062458649269
 20
-4.869115576896141
 30
0
 42
0.002636924427451789
  0
VERTEX
  8
1
 10
67.43039790584706
 20
-4.82968188948706
 30
0
 42
0.0004670070721912668
  0
VERTEX
  8
1
 10
67.5
 20
-4.790001263569025
 30
0
  0
SEQEND
  8
1
  0
POLYLINE
  8
1
 62
7
 66
1
  0
VERTEX
  8
1
 10
65.93577536393799
 20
-18.7372649163681
 30
0
 42
0.0006469231333630113
  0
VERTEX
  8
1
 10
66.11781069543869
 20
-18.71329038042011
 30
0
 42
0.001939430959918672
  0
VERTEX
  8
1
 10
66.29981470533889
 20
-18.68836152534767
 30
0
 42
0.003224838912291092
  0
VERTEX
  8
1
 10
66.48175607203807
 20
-18.66152403202633
 30
0
 42
0.004498484598693076
  0
VERTEX
  8
1
 10
66.66360347393569
 20
-18.63182358133162
 30
0
 42
0.005750739773317531
  0
VERTEX
  8
1
 10
66.8453255894313
 20
-18.59830585413911
 30
0
 42
0.004409538470524468
  0
VERTEX
  8
1
 10
66.93599751939669
 20
-18.579669273836
 30
0
 42
0.008155476055244823
  0
VERTEX
  8
1
 10
67.02608903285713
 20
-18.55877963030342
 30
0
 42
0.01073214353253802
  0
VERTEX
  8
1
 10
67.1150588284073
 20
-18.53457563490177
 30
0
 42
0.01463651226162518
  0
VERTEX
  8
1
 10
67.20236560464183
 20
-18.50599599899149
 30
0
 42
0.017319036049936
  0
VERTEX
  8
1
 10
67.28746806015539
 20
-18.471979433933
 30
0
 42
0.01021451201357069
  0
VERTEX
  8
1
 10
67.33087218412928
 20
-18.45179312381414
 30
0
 42
0.005813929581895256
  0
VERTEX
  8
1
 10
67.37367781743319
 20
-18.43019033227921
 30
0
 42
0.006163535980312723
  0
VERTEX
  8
1
 10
67.41603458273461
 20
-18.40752517968224
 30
0
 42
0.001793105058627889
  0
VERTEX
  8
1
 10
67.45809210270105
 20
-18.38415178637723
 30
0
 42
0.002175212296266545
  0
VERTEX
  8
1
 10
67.5
 20
-18.36042427271821
 30
0
  0
SEQEND
  8
1
  0
POLYLINE
  8
1
 62
2
 66
1
  0
VERTEX
  8
1
 10
57.39433697253509
 20
-49.15219535232989
 30
0
 42
-0.004786202196888171
  0
VERTEX
  8
1
 10
57.54644107364786
 20
-48.95217829990288
 30
0
 42
-0.01597734592664967
  0
VERTEX
  8
1
 10
57.69820111723371
 20
-48.76850803998668
 30
0
 42
-0.0331632914344905
  0
VERTEX
  8
1
 10
57.8492730457658
 20
-48.61753136509211
 30
0
 42
-0.06442596484474003
  0
VERTEX
  8
1
 10
57.99931280171722
 20
-48.51559506772998
 30
0
 42
-0.1161597955862209
  0
VERTEX
  8
1
 10
58.14797632756108
 20
-48.47904594041111
 30
0
 42
-0.1160531622144005
  0
VERTEX
  8
1
 10
58.29445183641412
 20
-48.51829660005612
 30
0
 42
-0.0633713865914228
  0
VERTEX
  8
1
 10
58.44077555351213
 20
-48.62182207936405
 30
0
 42
-0.0307574835354223
  0
VERTEX
  8
1
 10
58.58849758068102
 20
-48.77303717004135
 30
0
 42
-0.01233166728920826
  0
VERTEX
  8
1
 10
58.73916801974671
 20
-48.95535666379448
 30
0
 42
0.0002860134758276048
  0
VERTEX
  8
1
 10
58.89433697253509
 20
-49.15219535232989
 30
0
 42
0.0111696015700132
  0
VERTEX
  8
1
 10
59.07256779958748
 20
-49.36793396265934
 30
0
 42
0.02014715011175377
  0
VERTEX
  8
1
 10
59.25447844252367
 20
-49.56198936906959
 30
0
 42
0.03859983460173704
  0
VERTEX
  8
1
 10
59.43631062977003
 20
-49.71521898029261
 30
0
 42
0.07034189392693151
  0
VERTEX
  8
1
 10
59.61430608975289
 20
-49.80848020506039
 30
0
 42
0.1303926716602731
  0
VERTEX
  8
1
 10
59.78470655089859
 20
-49.82263045210493
 30
0
 42
0.1148326588782092
  0
VERTEX
  8
1
 10
59.91563817033664
 20
-49.76647921041382
 30
0
 42
0.03979547205360638
  0
VERTEX
  8
1
 10
60.04056609970085
 20
-49.65837078321344
 30
0
 42
0.04593415206515879
  0
VERTEX
  8
1
 10
60.16099126150971
 20
-49.51129446688113
 30
0
 42
0.01530954315334996
  0
VERTEX
  8
1
 10
60.27841457828163
 20
-49.33823955779416
 30
0
 42
0.004165254485847547
  0
VERTEX
  8
1
 10
60.39433697253509
 20
-49.15219535232989
 30
0
  0
SEQEND
  8
1
  0
POLYLINE
  8
1
 62
2
 66
1
  0
VERTEX
  8
1
 10
57.39433697253509
 20
-53.50414249122189
 30
0
 42
-0.004934078636081085
  0
VERTEX
  8
1
 10
57.54534707276238
 20
-53.31823622454746
 30
0
 42
-0.01634587272620676
  0
VERTEX
  8
1
 10
57.69628661568414
 20
-53.14741098073307
 30
0
 42
-0.03331015729450137
  0
VERTEX
  8
1
 10
57.84708504399486
 20
-53.00674778263883
 30
0
 42
-0.06243861218591055
  0
VERTEX
  8
1
 10
57.99767180038901
 20
-52.91132765312479
 30
0
 42
-0.1069941638609892
  0
VERTEX
  8
1
 10
58.14797632756108
 20
-52.87623161505101
 30
0
 42
-0.1070085680456452
  0
VERTEX
  8
1
 10
58.29712195732987
 20
-52.91116350201635
 30
0
 42
-0.06296447185962334
  0
VERTEX
  8
1
 10
58.44612482008011
 20
-53.00603272771701
 30
0
 42
-0.0337300787770505
  0
VERTEX
  8
1
 10
58.59519093244337
 20
-53.14622709755208
 30
0
 42
-0.01666255219663752
  0
VERTEX
  8
1
 10
58.74452631105118
 20
-53.31713441692068
 30
0
 42
-0.005266270714997344
  0
VERTEX
  8
1
 10
58.89433697253509
 20
-53.50414249122189
 30
0
 42
0.004633674952057838
  0
VERTEX
  8
1
 10
59.05403260123995
 20
-53.70404846438353
 30
0
 42
0.01574387385475883
  0
VERTEX
  8
1
 10
59.2138212384852
 20
-53.88815817456892
 30
0
 42
0.03306298376924444
  0
VERTEX
  8
1
 10
59.37302749549299
 20
-54.0389964998651
 30
0
 42
0.06382794567262681
  0
VERTEX
  8
1
 10
59.53097598348541
 20
-54.13908831835913
 30
0
 42
0.1184715252693555
  0
VERTEX
  8
1
 10
59.68699131368459
 20
-54.17095850813802
 30
0
 42
0.1277305739100693
  0
VERTEX
  8
1
 10
59.83121737634009
 20
-54.12816682116954
 30
0
 42
0.04228886383264866
  0
VERTEX
  8
1
 10
59.97360548507199
 20
-54.02499412325788
 30
0
 42
0.04982109643822265
  0
VERTEX
  8
1
 10
60.11461512836119
 20
-53.87653566713887
 30
0
 42
0.01598923890357621
  0
VERTEX
  8
1
 10
60.25470579468859
 20
-53.69788670554828
 30
0
 42
0.004276663101367569
  0
VERTEX
  8
1
 10
60.39433697253509
 20
-53.50414249122189
 30
0
  0
SEQEND
  8
1
  0
POLYLINE
  8
1
 62
2
 66
1
  0
VERTEX
  8
1
 10
-132.3794738009033
 20
-27.97927731356305
 30
0
 42
0.04907291013793136
  0
VERTEX
  8
1
 10
-132.4389849510113
 20
-28.34617517385891
 30
0
 42
0.07620290251469518
  0
VERTEX
  8
1
 10
-132.4095857730969
 20
-28.62132480595322
 30
0
 42
0.09919604528454436
  0
VERTEX
  8
1
 10
-132.3050612915278
 20
-28.81970628496354
 30
0
 42
0.08922648156209126
  0
VERTEX
  8
1
 10
-132.1391965306718
 20
-28.95629968600747
 30
0
 42
0.05738008837181174
  0
VERTEX
  8
1
 10
-131.9257765148968
 20
-29.04608508420258
 30
0
 42
0.02995937204894207
  0
VERTEX
  8
1
 10
-131.6785862685705
 20
-29.10404255466645
 30
0
 42
0.01050612230939965
  0
VERTEX
  8
1
 10
-131.4114108160608
 20
-29.14515217251667
 30
0
 42
-0.005192785542461384
  0
VERTEX
  8
1
 10
-131.1309960492499
 20
-29.1854232268985
 30
0
 42
-0.01898688805971976
  0
VERTEX
  8
1
 10
-130.8519928883884
 20
-29.23923494644771
 30
0
 42
-0.03660531032846554
  0
VERTEX
  8
1
 10
-130.5968654787425
 20
-29.3185909848049
 30
0
 42
-0.06149482747663846
  0
VERTEX
  8
1
 10
-130.3810204724231
 20
-29.43637510674126
 30
0
 42
-0.09024333690957856
  0
VERTEX
  8
1
 10
-130.2198645215408
 20
-29.60547107702801
 30
0
 42
-0.1009331429646188
  0
VERTEX
  8
1
 10
-130.1288042782064
 20
-29.83876266043635
 30
0
 42
-0.08118743790990995
  0
VERTEX
  8
1
 10
-130.1232463945305
 20
-30.14913362173744
 30
0
  0
VERTEX
  8
1
 10
-130.1573454163491
 20
-30.33725004558879
 30
0
  0
SEQEND
  8
1
  0
ARC
  8
1
 62
7
 10
-111.5778069223596
 20
-19.00044438608001
 30
0
 40
0.4999999999994833
 50
118.0851022474226
 51
132.9999999999388
  0
ARC
  8
1
 62
7
 10
-113.0539978938832
 20
-18.3260235453979
 30
0
 40
0.9999999999988969
 50
234.5369590329023
 51
313.0000000000072
  0
ARC
  8
1
 62
7
 10
-119.1919831344447
 20
-11.74384023082612
 30
0
 40
1.000000000000915
 50
132.9999999999597
 51
211.463040967162
  0
ARC
  8
1
 62
7
 10
-119.7617872431091
 20
-10.22419996665113
 30
0
 40
0.4999999999993208
 50
313.0000000000165
 51
327.9148977527201
  0
ARC
  8
1
 62
7
 10
69.09999999999999
 20
9.999999999999996
 30
0
 40
0.5
 50
0
 51
90
  0
ARC
  8
1
 62
7
 10
65.50309555901453
 20
19
 30
0
 40
2.000000000000057
 50
0
 51
90
  0
ARC
  8
1
 62
7
 10
65.49999999999994
 20
-19
 30
0
 40
2
 50
270
 51
0
  0
ARC
  8
1
 62
7
 10
69.09999999999999
 20
-10.00000000000011
 30
0
 40
0.5
 50
270
 51
0
  0
ARC
  8
1
 62
7
 10
65
 20
-10.96660789171002
 30
0
 40
0.5000000000003155
 50
225.0000000000979
 51
314.9999999999194
  0
ARC
  8
1
 62
7
 10
64.080761184457
 20
-11.8858467072531
 30
0
 40
0.4999999999994627
 50
315.0000000001772
 51
44.99999999992689
  0
ARC
  8
1
 62
7
 10
65
 20
-12.80508552279604
 30
0
 40
0.5000000000004021
 50
45.00000000007326
 51
134.9999999999095
  0
ARC
  8
1
 62
7
 10
65.91923881554169
 20
-11.8858467072531
 30
0
 40
0.5000000000011545
 50
135.0000000000179
 51
224.9999999998056
  0
ARC
  8
1
 62
7
 10
64.2575378797541
 20
-11.28480594324503
 30
0
 40
0.0500000000022558
 50
134.999999999502
 51
224.9999999992717
  0
ARC
  8
1
 62
7
 10
64.39895923599099
 20
-11.143384587007
 30
0
 40
0.05000000000024359
 50
44.99999999915941
 51
134.9999999999194
  0
ARC
  8
1
 62
7
 10
65.60104076400801
 20
-11.143384587007
 30
0
 40
0.05000000000029382
 50
44.99999999910184
 51
135.000000001317
  0
ARC
  8
1
 62
7
 10
65.742462120246
 20
-11.28480594324503
 30
0
 40
0.04999999999973864
 50
315.0000000000835
 51
45.00000000174163
  0
ARC
  8
1
 62
7
 10
65.60104076400801
 20
-12.62830882749898
 30
0
 40
0.05000000000069326
 50
224.9999999988687
 51
315.0000000008104
  0
ARC
  8
1
 62
7
 10
65.742462120246
 20
-12.48688747126209
 30
0
 40
0.04999999999961806
 50
315.0000000002217
 51
45.0000000007024
  0
ARC
  8
1
 62
7
 10
64.39895923599099
 20
-12.62830882749898
 30
0
 40
0.04999999999951631
 50
225.0000000001684
 51
315.0000000007528
  0
ARC
  8
1
 62
7
 10
64.2575378797541
 20
-12.48688747126209
 30
0
 40
0.05000000000098718
 50
134.9999999999424
 51
224.9999999998474
  0
ARC
  8
1
 62
7
 10
16
 20
19
 30
0
 40
3
 50
90
 51
180
  0
ARC
  8
1
 62
7
 10
16
 20
-19
 30
0
 40
3
 50
180
 51
270
  0
LINE
  8
1
 62
2
 10
-24.38965129573505
 20
-66.34991020425775
 30
0
 11
36.96713648055497
 21
-66.34991020425775
 31
0
  0
LINE
  8
1
 62
2
 10
36.96713648055497
 20
-66.34991020425775
 30
0
 11
57.40052809056529
 21
-45.91651859424746
 31
0
  0
SOLID
  8
1
 62
2
 10
55.25147766472705
 20
-48.71721563671505
 30
0
 11
54.5998310480977
 21
-48.0655690200857
 31
0
 12
57.40052809056529
 22
-45.91651859424746
 32
0
 13
57.40052809056529
 23
-45.91651859424746
 33
0
  0
LINE
  8
1
 62
2
 10
50.0523184975097
 20
31.99999999999999
 30
0
 11
26.22002336582769
 21
31.99999999999999
 31
0
  0
LINE
  8
1
 62
2
 10
26.22002336582769
 20
31.99999999999999
 30
0
 11
36.22002336582769
 21
22
 31
0
  0
SOLID
  8
1
 62
2
 10
33.4193263233601
 20
24.14905042583824
 30
0
 11
34.07097293998945
 21
24.80069704246759
 31
0
 12
36.22002336582769
 22
22
 32
0
 13
36.22002336582769
 23
22
 33
0
  0
TEXT
  8
1
 62
2
 10
-121.7558975468381
 20
-52.00304781296149
 30
0
 40
3.5
  1
(3-M3 DEPTH 0.138MAX)
 41
0.765
 73
2
 11
-121.7558975468381
 21
-50.25304781296149
 31
0
  0
TEXT
  8
1
 62
2
 10
-121.7558975468381
 20
-66.00348330781738
 30
0
 40
3.5
  1
(P.C.D=1.378DIA.     )
 41
0.8550000000000001
 73
2
 11
-121.7558975468381
 21
-64.25348330781738
 31
0
  0
TEXT
  8
1
 62
2
 10
-120.2558975468381
 20
-59.00304781296149
 30
0
 40
3.5
  1
P=120%%d P.C.D=âË35
 41
0.8100000000000001
 73
2
 11
-120.2558975468381
 21
-57.25304781296149
 31
0
  0
TEXT
  8
1
 62
2
 10
-90.96250313197085
 20
28.50431944720204
 30
0
 40
2
  1
%%p0.00394
 41
0.54
 72
1
 73
2
 11
-85.56250313197084
 21
29.50431944720204
 31
0
  0
TEXT
  8
1
 62
2
 10
-99.28054853507875
 20
27.90431944720204
 30
0
 40
3.2
  1
(0.157     )
 41
0.54
 72
1
 73
2
 11
-88.91254853507876
 21
29.50431944720204
 31
0
  0
TEXT
  8
1
 62
2
 10
-82.49995420472096
 20
-58.50304781296149
 30
0
 40
2.5
  1
%%p0.2
 41
0.7200000000000001
 72
1
 73
2
 11
-77.09995420472096
 21
-57.25304781296149
 31
0
  0
TEXT
  8
1
 62
2
 10
-87.89089393652277
 20
-65.50348330781738
 30
0
 40
2.5
  1
%%p0.00787
 41
0.7200000000000001
 72
1
 73
2
 11
-78.89089393652277
 21
-64.25348330781738
 31
0
  0
TEXT
  8
1
 62
2
 10
-8.800000000000001
 20
21.74613523089394
 30
0
 40
2
  1
-0.0000787
 50
90
 41
0.63
  0
TEXT
  8
1
 62
2
 10
-6.4
 20
21.74613523089394
 30
0
 40
2
  1
-0.000394
 50
90
 41
0.63
  0
TEXT
  8
1
 62
2
 10
-22.8
 20
27.10613523089394
 30
0
 40
2
  1
 0
 50
90
 41
0.63
  0
TEXT
  8
1
 62
2
 10
-20.4
 20
27.10613523089394
 30
0
 40
2
  1
-0.00394
 50
90
 41
0.63
  0
TEXT
  8
1
 62
2
 10
12.526658102762
 20
27.90116106407875
 30
0
 40
3.2
  1
(0.118)
 41
0.6300000000000001
 72
1
 73
2
 11
19.582658102762
 21
29.50116106407875
 31
0
  0
TEXT
  8
1
 62
2
 10
-7.000000000000001
 20
9.878157879385977
 30
0
 40
3.2
  1
(0.197       )
 50
90
 41
0.6300000000000001
 72
1
 73
2
 11
-8.6
 21
23.99015787938598
 31
0
  0
TEXT
  8
1
 62
2
 10
-21
 20
7.854157879385976
 30
0
 40
3.2
  1
(0.787DIA. ü@   )
 50
90
 41
0.6300000000000001
 72
1
 73
2
 11
-22.6
 21
24.99015787938598
 31
0
  0
TEXT
  8
1
 62
2
 10
97.82433944750845
 20
-66.1181588103847
 30
0
 40
3.2
  1
(FROM MOTOR CASE)
 50
90
 41
0.6300000000000001
 72
1
 73
2
 11
96.22433944750844
 21
-48.9821588103847
 31
0
  0
TEXT
  8
1
 62
2
 10
-23.19328986851149
 20
-65.11594311103875
 30
0
 40
3.5
  1
UL1007 AWG22
 41
0.9
 73
2
 11
-23.19328986851149
 21
-63.36594311103875
 31
0
  0
TEXT
  8
1
 62
2
 10
-23.19328986851149
 20
-57.9506031044043
 30
0
 40
3.5
  1
LEAD WIRES (RED,BLACK)
 41
0.9
 73
2
 11
-23.19328986851149
 21
-56.2006031044043
 31
0
  0
TEXT
  8
1
 62
2
 10
93.5929951484042
 20
-11.088
 30
0
 40
3.2
  1
(1.732DIA.)
 50
90
 41
0.6300000000000001
 72
1
 73
2
 11
91.99299514840419
 21
0
 31
0
  0
TEXT
  8
1
 62
2
 10
93.5929951484042
 20
-60.0701588103847
 30
0
 40
3.2
  1
(5.906    )
 50
90
 41
0.6300000000000001
 72
1
 73
2
 11
91.99299514840419
 21
-48.9821588103847
 31
0
  0
TEXT
  8
1
 62
2
 10
81.50969230652922
 20
-68.67416907639203
 30
0
 40
3
  1
(0.118)
 50
90
 41
0.6300000000000001
 72
1
 73
2
 11
80.00969230652922
 21
-62.05916907639204
 31
0
  0
TEXT
  8
1
 62
2
 10
92.99299514840419
 20
-49.84885064204369
 30
0
 40
2
  1
%%p0.787
 50
90
 41
0.63
 72
1
 73
2
 11
91.99299514840419
 21
-44.80885064204369
 31
0
  0
TEXT
  8
1
 62
2
 10
0.1326129259712694
 20
39.90275744857979
 30
0
 40
3.2
  1
(0.512)
 41
0.6300000000000001
 72
1
 73
2
 11
7.18861292597127
 21
41.50275744857979
 31
0
  0
TEXT
  8
1
 62
2
 10
34.26286618148689
 20
39.90275744857979
 30
0
 40
3.2
  1
(2.228)
 41
0.6300000000000001
 72
1
 73
2
 11
41.31886618148688
 21
41.50275744857979
 31
0
  0
TEXT
  8
1
 62
2
 10
29.37210523109898
 20
32.82551303864307
 30
0
 40
3
  1
NAME PLATE
 41
0.6300000000000001
 72
1
 73
2
 11
38.82210523109898
 21
34.32551303864307
 31
0
  0
TEXT
  8
1
 62
2
 10
-138
 20
93.5
 30
0
 40
5
  1
DME44S
 41
0.9
 72
1
 73
2
 11
-124.5
 21
96
 31
0
  0
DIMENSION
  8
1
  6
CONTINUOUS
 62
2
  2
*D0
  3
DMST_1
 10
13
 20
32.0084110440441
 30
0
 11
19.5361036183945
 21
34.6084110440441
 31
0
 12
0
 22
0
 32
0
 70
0
 13
10
 23
9.999999999999996
 33
0
 14
13
 24
19
 34
0
 53
0
  0
DIMENSION
  8
1
  6
CONTINUOUS
 62
2
  2
*D1
  3
DMST_2
 10
-98.5
 20
32.0693114022219
 30
0
 11
-88.9119638038857
 21
34.6693114022219
 31
0
 12
0
 22
0
 32
0
 70
0
 13
-102.5
 23
0
 33
0
 14
-98.5
 24
2
 34
0
 53
0
  0
DIMENSION
  8
1
  6
CONTINUOUS
 62
2
  2
*D2
  3
DMST_3
 10
-26.0675607104026
 20
10
 30
0
 11
-29.4675607104026
 21
23.71190850147
 31
0
 12
0
 22
0
 32
0
 70
0
  1
âË<>
 13
10
 23
-10
 33
0
 14
10
 24
9.999999999999996
 34
0
 50
90
 53
0
  0
DIMENSION
  8
1
  6
CONTINUOUS
 62
2
  2
*D3
  3
DMST_1
 10
89.51072684047298
 20
-22
 30
0
 11
86.91072684047299
 21
-3.108624468950438e-015
 31
0
 12
0
 22
0
 32
0
 70
0
  1
âË<>
 13
63.00000000000109
 23
22
 33
0
 14
62.99999999999999
 24
-22
 34
0
 50
90
 53
0
  0
DIMENSION
  8
1
  6
CONTINUOUS
 62
2
  2
*D4
  3
DMST_1
 10
13
 20
43.99828058460398
 30
0
 11
41.30000000000023
 21
46.59828058460398
 31
0
 12
0
 22
0
 32
0
 70
0
 13
69.59999999999999
 23
9.999999999999996
 33
0
 14
13
 24
19
 34
0
 53
0
  0
DIMENSION
  8
1
  6
CONTINUOUS
 62
2
  2
*D5
  3
DMST_4
 10
77.51213367190999
 20
-69.7823380118422
 30
0
 11
74.91213367191
 21
-61.54993385985932
 31
0
 12
0
 22
0
 32
0
 70
0
  1
(<>
 13
60.09688213510098
 23
-72.7823380118422
 33
0
 14
60.39433697253509
 24
-69.7823380118422
 34
0
 50
90
 53
0
  0
DIMENSION
  8
1
  6
CONTINUOUS
 62
2
  2
*D6
  3
DMST_5
 10
-12.0661612500506
 20
2.5
 30
0
 11
-15.4661612500506
 21
24.1427207925578
 31
0
 12
0
 22
0
 32
0
 70
0
 13
0
 23
-2.5
 33
0
 14
0
 24
2.5
 34
0
 50
90
 53
0
  0
DIMENSION
  8
1
  6
CONTINUOUS
 62
2
  2
*D7
  3
DMST_1
 10
0
 20
43.9592160112475
 30
0
 11
6.5
 21
46.5592160112475
 31
0
 12
0
 22
0
 32
0
 70
0
 13
13
 23
19
 33
0
 14
0
 24
2.5
 34
0
 53
0
  0
INSERT
  8
0
  2
___R___O_______R
 10
0.5
 20
-3.75
 30
0
  0
INSERT
  8
1
  2
*D8
 10
0
 20
0
 30
0
  0
INSERT
  8
1
  2
*D9
 10
0
 20
0
 30
0
  0
ENDSEC
  0
EOF
