  0
SECTION
  2
HEADER
  9
$ACADVER
  1
AC1009
  9
$INSBASE
 10
0
 20
0
  9
$EXTMIN
 10
-194.5
 20
-146
  9
$EXTMAX
 10
194.5
 20
146
  9
$LIMMIN
 10
-194.5
 20
-146
  9
$LIMMAX
 10
194.5
 20
146
  9
$VIEWCTR
 10
10
 20
10
  9
$VIEWSIZE
 40
10
  9
$SNAPMODE
 70
0
  9
$SNAPUNIT
 10
1
 20
1
  9
$SNAPBASE
 10
0
 20
0
  9
$SNAPANG
 50
0
  9
$SNAPSTYLE
 70
0
  9
$SNAPISOPAIR
 70
0
  9
$GRIDMODE
 70
0
  9
$GRIDUNIT
 10
0
 20
0
  9
$ORTHOMODE
 70
0
  9
$REGENMODE
 70
1
  9
$FILLMODE
 70
1
  9
$QTEXTMODE
 70
0
  9
$DRAGMODE
 70
2
  9
$LTSCALE
 40
1
  9
$OSMODE
 70
0
  9
$ATTMODE
 70
1
  9
$TEXTSIZE
 40
3.5
  9
$TRACEWID
 40
0.5
  9
$TEXTSTYLE
  7
STANDARD
  9
$CLAYER
  8
0
  9
$CELTYPE
  6
BYLAYER
  9
$CECOLOR
 62
256
  9
$DIMSCALE
 40
1
  9
$DIMASZ
 40
0.18
  9
$DIMEXO
 40
0.0625
  9
$DIMDLI
 40
0.38
  9
$DIMRND
 40
0
  9
$DIMDLE
 40
0
  9
$DIMEXE
 40
0.18
  9
$DIMTP
 40
0
  9
$DIMTM
 40
0
  9
$DIMTXT
 40
0.18
  9
$DIMCEN
 40
0.09
  9
$DIMTSZ
 40
0
  9
$DIMTOL
 70
0
  9
$DIMLIM
 70
0
  9
$DIMTIH
 70
1
  9
$DIMTOH
 70
1
  9
$DIMSE1
 70
0
  9
$DIMSE2
 70
0
  9
$DIMTAD
 70
0
  9
$DIMZIN
 70
0
  9
$DIMBLK
  1

  9
$DIMASO
 70
1
  9
$DIMSHO
 70
1
  9
$DIMPOST
  1

  9
$DIMAPOST
  1

  9
$DIMALT
 70
0
  9
$DIMALTD
 70
2
  9
$DIMALTF
 40
25.4
  9
$DIMLFAC
 40
1
  9
$DIMTOFL
 70
0
  9
$DIMTVP
 40
0
  9
$DIMTIX
 70
0
  9
$DIMSOXD
 70
0
  9
$DIMSAH
 70
0
  9
$DIMBLK1
  1

  9
$DIMBLK2
  1

  9
$DIMSTYLE
  2
*UNNAMED
  9
$DIMCLRD
 70
0
  9
$DIMCLRE
 70
0
  9
$DIMCLRT
 70
0
  9
$DIMTFAC
 40
1
  9
$DIMGAP
 40
0.09
  9
$LUNITS
 70
2
  9
$LUPREC
 70
4
  9
$AXISMODE
 70
0
  9
$AXISUNIT
 10
0
 20
0
  9
$SKETCHINC
 40
0.1
  9
$FILLETRAD
 40
2
  9
$AUNITS
 70
0
  9
$AUPREC
 70
0
  9
$MENU
  1
ACAD
  9
$ELEVATION
 40
0
  9
$THICKNESS
 40
0
  9
$VIEWDIR
 10
0
 20
0
 30
1
  9
$LIMCHECK
 70
0
  9
$BLIPMODE
 70
1
  9
$CHAMFERA
 40
0
  9
$CHAMFERB
 40
0
  9
$FASTZOOM
 70
1
  9
$SKPOLY
 70
0
  9
$ANGBASE
 50
0
  9
$ANGDIR
 70
0
  9
$PDMODE
 70
0
  9
$PDSIZE
 40
0
  9
$PLINEWID
 40
0
  9
$COORDS
 70
2
  0
ENDSEC
  0
SECTION
  2
TABLES
  0
TABLE
  2
DIMSTYLE
 70
5
  0
DIMSTYLE
  2
DMST_1
 70
0
  3

  4

  5

  6

  7

 40
1
 41
3.2
 42
1
 43
7
 44
1
 45
0
 46
0
 47
-0.002
 48
0.01
140
3.2
141
0
142
0
143
25.4
144
1
145
0
146
0.6
147
0.09
 71
1
 72
0
 73
0
 74
0
 75
0
 76
0
 77
1
 78
9
170
0
171
2
172
0
173
0
174
0
175
0
176
2
177
2
178
2
  0
DIMSTYLE
  2
DMST_2
 70
0
  3

  4

  5

  6

  7

 40
1
 41
3.2
 42
1
 43
7
 44
1
 45
0
 46
0
 47
0
 48
0.1
140
3.2
141
0
142
0
143
25.4
144
1
145
0
146
0.6
147
0.09
 71
1
 72
0
 73
0
 74
0
 75
0
 76
0
 77
1
 78
9
170
0
171
2
172
0
173
0
174
0
175
0
176
2
177
2
178
2
  0
DIMSTYLE
  2
DMST_3
 70
0
  3

  4

  5

  6

  7

 40
1
 41
3.2
 42
1
 43
7
 44
1
 45
0
 46
0
 47
0.2
 48
0.2
140
3.2
141
0
142
0
143
25.4
144
1
145
0
146
0.6
147
0.09
 71
1
 72
0
 73
0
 74
0
 75
0
 76
0
 77
1
 78
9
170
0
171
2
172
0
173
0
174
0
175
0
176
2
177
2
178
2
  0
DIMSTYLE
  2
DMST_4
 70
0
  3

  4

  5

  6

  7

 40
1
 41
3.2
 42
1
 43
7
 44
1
 45
0
 46
0
 47
0
 48
0
140
3.2
141
0
142
0
143
25.4
144
1
145
0
146
1
147
0.09
 71
0
 72
0
 73
0
 74
0
 75
0
 76
0
 77
1
 78
9
170
0
171
2
172
0
173
0
174
0
175
0
176
2
177
2
178
2
  0
DIMSTYLE
  2
DMST_5
 70
0
  3
)
  4

  5

  6

  7

 40
1
 41
3.2
 42
1
 43
7
 44
1
 45
0
 46
0
 47
0
 48
0
140
3.2
141
0
142
0
143
25.4
144
1
145
0
146
1
147
0.09
 71
0
 72
0
 73
0
 74
0
 75
0
 76
0
 77
1
 78
9
170
0
171
2
172
0
173
0
174
0
175
0
176
2
177
2
178
2
  0
ENDTAB
  0
TABLE
  2
LTYPE
 70
9
  0
LTYPE
  2
CONTINUOUS
 70
64
  3
Solid line
 72
65
 73
0
 40
0
  0
LTYPE
  2
BORDER
 70
64
  3
__ __ . __ __ .
 72
65
 73
6
 40
17.91447368421053
 49
5.118421052631579
 49
-2.559210526315789
 49
5.118421052631579
 49
-2.559210526315789
 49
0
 49
-2.559210526315789
  0
LTYPE
  2
CENTER
 70
64
  3
____ _ ____ _
 72
65
 73
4
 40
20.47368421052632
 49
12.79605263157895
 49
-2.559210526315789
 49
2.559210526315789
 49
-2.559210526315789
  0
LTYPE
  2
DASHDOT
 70
64
  3
__ . __ . __ .
 72
65
 73
4
 40
10.23684210526316
 49
5.118421052631579
 49
-2.559210526315789
 49
0
 49
-2.559210526315789
  0
LTYPE
  2
DASHED
 70
64
  3
__ __ __ __ __
 72
65
 73
2
 40
7.677631578947368
 49
5.118421052631579
 49
-2.559210526315789
  0
LTYPE
  2
DIVIDE
 70
64
  3
__ . . __ . . 
 72
65
 73
6
 40
12.79605263157895
 49
5.118421052631579
 49
-2.559210526315789
 49
0
 49
-2.559210526315789
 49
0
 49
-2.559210526315789
  0
LTYPE
  2
DOT
 70
64
  3
..............
 72
65
 73
4
 40
5.118421052631579
 49
0
 49
-2.559210526315789
 49
0
 49
-2.559210526315789
  0
LTYPE
  2
HIDDEN
 70
64
  3
_ _ _ _ _ _ _
 72
65
 73
2
 40
3.838815789473684
 49
2.559210526315789
 49
-1.279605263157895
  0
LTYPE
  2
PHANTOM
 70
64
  3
_____ _ _ _____ _ _ 
 72
65
 73
6
 40
25.59210526315789
 49
12.79605263157895
 49
-2.559210526315789
 49
2.559210526315789
 49
-2.559210526315789
 49
2.559210526315789
 49
-2.559210526315789
  0
ENDTAB
  0
TABLE
  2
LAYER
 70
3
  0
LAYER
  2
1
 70
0
 62
7
  6
CONTINUOUS
  0
LAYER
  2
0
 70
0
 62
7
  6
CONTINUOUS
  0
ENDTAB
  0
TABLE
  2
STYLE
 70
4
  0
STYLE
  2
STANDARD
 70
0
 40
0
 41
1
 50
0
 71
0
 42
3.5
  3
txt
  4

  0
STYLE
  2
SIMPLEX
 70
0
 40
0
 41
1
 50
0
 71
0
 42
3.5
  3
simplex
  4

  0
STYLE
  2
COMPLEX
 70
0
 40
0
 41
1
 50
0
 71
0
 42
3.5
  3
complex
  4

  0
STYLE
  2
ITALIC
 70
0
 40
0
 41
1
 50
0
 71
0
 42
3.5
  3
italic
  4

  0
ENDTAB
  0
TABLE
  2
VIEW
 70
0
  0
ENDTAB
  0
ENDSEC
  0
SECTION
  2
BLOCKS
  0
BLOCK
  8
0
  2
___R___O_______R
 70
0
 10
0.5
 20
-3.75
 30
0
  0
LINE
  8
1
 62
4
  6
PHANTOM
 10
194.5
 20
-136.5
 30
0
 11
194.5
 21
-146
 31
0
  0
LINE
  8
1
 62
4
  6
PHANTOM
 10
-194.5
 20
-146
 30
0
 11
-194.5
 21
146
 31
0
  0
LINE
  8
1
 62
4
  6
PHANTOM
 10
194.5
 20
146
 30
0
 11
194.5
 21
129
 31
0
  0
LINE
  8
1
 62
4
  6
PHANTOM
 10
194.5
 20
146
 30
0
 11
-194.5
 21
146
 31
0
  0
LINE
  8
1
 62
4
  6
PHANTOM
 10
-194.5
 20
-146
 30
0
 11
194.5
 21
-146
 31
0
  0
TEXT
  8
1
 62
4
 10
178.746911898274
 20
-142.6071298819256
 30
0
 40
5
  1
A3
 41
0.9
 72
1
 73
2
 11
183.246911898274
 21
-140.1071298819256
 31
0
  0
ENDBLK
  8
0
  0
BLOCK
  8
1
  2
*D0
 70
1
 10
0
 20
0
 30
0
  0
LINE
  8
1
 62
2
 10
9.103065690358898
 20
1.10000000000003
 30
0
 11
9.103065690358898
 21
7.500000000000032
 31
0
  0
LINE
  8
1
 62
2
 10
9.103065690358898
 20
7.500000000000032
 30
0
 11
9.103065690358898
 21
12.50000000000003
 31
0
  0
LINE
  8
1
 62
2
 10
9.103065690358898
 20
12.50000000000003
 30
0
 11
9.103065690358898
 21
43.34612088821552
 31
0
  0
LINE
  8
1
 62
2
 10
19.9999999999999
 20
7.500000000000032
 30
0
 11
8.103065690358898
 21
7.500000000000032
 31
0
  0
LINE
  8
1
 62
2
 10
19.9999999999999
 20
12.50000000000003
 30
0
 11
8.103065690358898
 21
12.50000000000003
 31
0
  0
SOLID
  8
1
 62
2
 10
9.103065690358898
 20
12.50000000000003
 30
0
 11
8.687065690358898
 21
15.70000000000003
 31
0
 12
9.519065690358897
 22
15.70000000000003
 32
0
 13
9.519065690358897
 23
15.70000000000003
 33
0
  0
SOLID
  8
1
 62
2
 10
9.103065690358898
 20
7.500000000000032
 30
0
 11
9.519065690358897
 21
4.300000000000031
 31
0
 12
8.687065690358898
 22
4.300000000000031
 32
0
 13
8.687065690358898
 23
4.300000000000031
 33
0
  0
TEXT
  8
1
 62
2
 10
7.303065690358897
 20
31.33012088821554
 30
0
 40
3.2
  1
5
 50
90
 41
0.9
  0
TEXT
  8
1
 62
2
 10
5.223065690358897
 20
34.85012088821554
 30
0
 40
1.92
  1
-0.002
 50
90
 41
0.9
  0
TEXT
  8
1
 62
2
 10
8.103065690358898
 20
34.85012088821554
 30
0
 40
1.92
  1
-0.01
 50
90
 41
0.9
  0
TEXT
  8
1
 62
2
 10
7.303065690358897
 20
27.68567644377109
 30
0
 40
3.2
  1
âË
 50
90
 41
0.9
  0
ENDBLK
  8
0
  0
BLOCK
  8
1
  2
*D1
 70
1
 10
0
 20
0
 30
0
  0
LINE
  8
1
 62
2
 10
-5.944105059063304
 20
20.00000000000001
 30
0
 11
-5.944105059063304
 21
42.20056660136124
 31
0
  0
LINE
  8
1
 62
2
 10
-5.944105059063304
 20
1.4210854715202e-014
 30
0
 11
-5.944105059063304
 21
20.00000000000001
 31
0
  0
LINE
  8
1
 62
2
 10
40.00000000000001
 20
20.00000000000001
 30
0
 11
-6.944105059063304
 21
20.00000000000001
 31
0
  0
LINE
  8
1
 62
2
 10
40.00000000000001
 20
1.4210854715202e-014
 30
0
 11
-6.944105059063304
 21
1.4210854715202e-014
 31
0
  0
SOLID
  8
1
 62
2
 10
-5.944105059063304
 20
1.4210854715202e-014
 30
0
 11
-6.360105059063305
 21
3.200000000000015
 31
0
 12
-5.528105059063305
 22
3.200000000000015
 32
0
 13
-5.528105059063305
 23
3.200000000000015
 33
0
  0
SOLID
  8
1
 62
2
 10
-5.944105059063304
 20
20.00000000000001
 30
0
 11
-5.528105059063305
 21
16.80000000000002
 31
0
 12
-6.360105059063304
 22
16.80000000000002
 32
0
 13
-6.360105059063304
 23
16.80000000000002
 33
0
  0
TEXT
  8
1
 62
2
 10
-7.744105059063303
 20
31.33656660136123
 30
0
 40
3.2
  1
20
 50
90
 41
0.9
  0
TEXT
  8
1
 62
2
 10
-9.824105059063303
 20
37.73656660136123
 30
0
 40
1.92
  1
 0
 50
90
 41
0.9
  0
TEXT
  8
1
 62
2
 10
-6.944105059063302
 20
37.73656660136123
 30
0
 40
1.92
  1
-0.1
 50
90
 41
0.9
  0
TEXT
  8
1
 62
2
 10
-7.744105059063303
 20
27.69212215691679
 30
0
 40
3.2
  1
âË
 50
90
 41
0.9
  0
ENDBLK
  8
0
  0
BLOCK
  8
1
  2
*D2
 70
1
 10
0
 20
0
 30
0
  0
LINE
  8
1
 62
2
 10
-82
 20
42.06931140222191
 30
0
 11
-66.26796380388569
 21
42.06931140222191
 31
0
  0
LINE
  8
1
 62
2
 10
-86.5
 20
42.06931140222191
 30
0
 11
-82
 21
42.06931140222191
 31
0
  0
LINE
  8
1
 62
2
 10
-92.90000000000001
 20
42.06931140222191
 30
0
 11
-86.5
 21
42.06931140222191
 31
0
  0
LINE
  8
1
 62
2
 10
-82
 20
12.50000000000005
 30
0
 11
-82
 21
43.06931140222191
 31
0
  0
LINE
  8
1
 62
2
 10
-86.5
 20
11.00000000000001
 30
0
 11
-86.5
 21
43.06931140222191
 31
0
  0
SOLID
  8
1
 62
2
 10
-86.5
 20
42.06931140222191
 30
0
 11
-89.7
 21
41.65331140222191
 31
0
 12
-89.7
 22
42.4853114022219
 32
0
 13
-89.7
 23
42.4853114022219
 33
0
  0
SOLID
  8
1
 62
2
 10
-82
 20
42.06931140222191
 30
0
 11
-78.8
 21
42.4853114022219
 31
0
 12
-78.8
 22
41.65331140222191
 32
0
 13
-78.8
 23
41.65331140222191
 33
0
  0
TEXT
  8
1
 62
2
 10
-78.5559638038857
 20
43.06931140222191
 30
0
 40
3.2
  1
4.5
 41
0.9
  0
TEXT
  8
1
 62
2
 10
-71.11596380388569
 20
43.70931140222191
 30
0
 40
1.92
  1
%%p0.2
 41
0.9
  0
ENDBLK
  8
0
  0
BLOCK
  8
1
  2
*D3
 70
1
 10
0
 20
0
 30
0
  0
LINE
  8
1
 62
2
 10
43.9999999999999
 20
54.09440105180303
 30
0
 11
51.67570164892041
 21
54.09440105180303
 31
0
  0
LINE
  8
1
 62
2
 10
41.00000000000001
 20
54.09440105180303
 30
0
 11
43.9999999999999
 21
54.09440105180303
 31
0
  0
LINE
  8
1
 62
2
 10
34.60000000000001
 20
54.09440105180303
 30
0
 11
41.00000000000001
 21
54.09440105180303
 31
0
  0
LINE
  8
1
 62
2
 10
43.9999999999999
 20
30.00000000000005
 30
0
 11
43.9999999999999
 21
55.09440105180303
 31
0
  0
LINE
  8
1
 62
2
 10
41.00000000000001
 20
21.00000000000001
 30
0
 11
41.00000000000001
 21
55.09440105180303
 31
0
  0
SOLID
  8
1
 62
2
 10
41.00000000000001
 20
54.09440105180303
 30
0
 11
37.8
 21
53.67840105180303
 31
0
 12
37.8
 22
54.51040105180302
 32
0
 13
37.8
 23
54.51040105180302
 33
0
  0
SOLID
  8
1
 62
2
 10
43.9999999999999
 20
54.09440105180303
 30
0
 11
47.1999999999999
 21
54.51040105180302
 31
0
 12
47.1999999999999
 22
53.67840105180303
 32
0
 13
47.1999999999999
 23
53.67840105180303
 33
0
  0
TEXT
  8
1
 62
2
 10
49.75570164892041
 20
55.09440105180303
 30
0
 40
3.2
  1
3
 41
0.9
  0
ENDBLK
  8
0
  0
BLOCK
  8
1
  2
*D4
 70
1
 10
0
 20
0
 30
0
  0
LINE
  8
1
 62
2
 10
43.99999999999989
 20
65.99747601871792
 30
0
 11
124.1999999999996
 21
65.99747601871792
 31
0
  0
LINE
  8
1
 62
2
 10
43.99999999999989
 20
30.00000000000004
 30
0
 11
43.99999999999989
 21
66.99747601871792
 31
0
  0
LINE
  8
1
 62
2
 10
124.1999999999996
 20
33.50000000000004
 30
0
 11
124.1999999999996
 21
66.99747601871792
 31
0
  0
SOLID
  8
1
 62
2
 10
43.99999999999989
 20
65.99747601871792
 30
0
 11
47.19999999999989
 21
66.41347601871792
 31
0
 12
47.19999999999989
 22
65.58147601871792
 32
0
 13
47.19999999999989
 23
65.58147601871792
 33
0
  0
SOLID
  8
1
 62
2
 10
124.1999999999996
 20
65.99747601871792
 30
0
 11
120.9999999999996
 21
65.58147601871792
 31
0
 12
120.9999999999996
 22
66.41347601871792
 32
0
 13
120.9999999999996
 23
66.41347601871792
 33
0
  0
TEXT
  8
1
 62
2
 10
79.73999999999974
 20
66.99747601871792
 30
0
 40
3.2
  1
80.2
 41
0.9
  0
ENDBLK
  8
0
  0
BLOCK
  8
1
  2
*D5
 70
1
 10
0
 20
0
 30
0
  0
LINE
  8
1
 62
2
 10
134.1999999999995
 20
-76.72501808427235
 30
0
 11
134.1999999999995
 21
-64.40345881872877
 31
0
  0
LINE
  8
1
 62
2
 10
134.1999999999995
 20
-79.72501808427235
 30
0
 11
134.1999999999995
 21
-76.72501808427235
 31
0
  0
LINE
  8
1
 62
2
 10
134.1999999999995
 20
-86.12501808427236
 30
0
 11
134.1999999999995
 21
-79.72501808427235
 31
0
  0
LINE
  8
1
 62
2
 10
104.405152364405
 20
-76.72501808427235
 30
0
 11
135.1999999999995
 21
-76.72501808427235
 31
0
  0
LINE
  8
1
 62
2
 10
103.9551523644049
 20
-79.72501808427235
 30
0
 11
135.1999999999995
 21
-79.72501808427235
 31
0
  0
SOLID
  8
1
 62
2
 10
134.1999999999995
 20
-76.72501808427235
 30
0
 11
133.7839999999995
 21
-73.52501808427235
 31
0
 12
134.6159999999995
 22
-73.52501808427235
 32
0
 13
134.6159999999995
 23
-73.52501808427235
 33
0
  0
SOLID
  8
1
 62
2
 10
134.1999999999995
 20
-79.72501808427235
 30
0
 11
134.6159999999995
 21
-82.92501808427235
 31
0
 12
133.7839999999995
 22
-82.92501808427235
 32
0
 13
133.7839999999995
 23
-82.92501808427235
 33
0
  0
TEXT
  8
1
 62
2
 10
133.1999999999995
 20
-68.40345881872875
 30
0
 40
3.2
  1
3
 50
90
 41
0.9
  0
TEXT
  8
1
 62
2
 10
133.1999999999995
 20
-70.48345881872876
 30
0
 40
3.2
  1
(
 50
90
 41
0.9
  0
TEXT
  8
1
 62
2
 10
133.1999999999995
 20
-64.88345881872876
 30
0
 40
3.2
  1
)
 50
90
 41
0.9
  0
ENDBLK
  8
0
  0
BLOCK
  8
1
  2
*D6
 70
1
 10
0
 20
0
 30
0
  0
LINE
  8
1
 62
2
 10
146.126386258749
 20
-12.99999999999996
 30
0
 11
146.126386258749
 21
33.00000000000004
 31
0
  0
LINE
  8
1
 62
2
 10
124.6999999999996
 20
33.00000000000004
 30
0
 11
147.126386258749
 21
33.00000000000004
 31
0
  0
LINE
  8
1
 62
2
 10
124.6999999999996
 20
-12.99999999999996
 30
0
 11
147.126386258749
 21
-12.99999999999996
 31
0
  0
SOLID
  8
1
 62
2
 10
146.126386258749
 20
33.00000000000004
 30
0
 11
146.542386258749
 21
29.80000000000004
 31
0
 12
145.710386258749
 22
29.80000000000004
 32
0
 13
145.710386258749
 23
29.80000000000004
 33
0
  0
SOLID
  8
1
 62
2
 10
146.126386258749
 20
-12.99999999999996
 30
0
 11
145.710386258749
 21
-9.799999999999958
 31
0
 12
146.542386258749
 22
-9.799999999999958
 32
0
 13
146.542386258749
 23
-9.799999999999958
 33
0
  0
TEXT
  8
1
 62
2
 10
145.126386258749
 20
9.422222222222263
 30
0
 40
3.2
  1
46
 50
90
 41
0.9
  0
TEXT
  8
1
 62
2
 10
145.126386258749
 20
5.777777777777819
 30
0
 40
3.2
  1
âË
 50
90
 41
0.9
  0
ENDBLK
  8
0
  0
BLOCK
  8
1
  2
*D7
 70
1
 10
0
 20
0
 30
0
  0
LINE
  8
1
 62
2
 10
-106
 20
53.9780695478966
 30
0
 11
-61.99999999999999
 21
53.9780695478966
 31
0
  0
LINE
  8
1
 62
2
 10
-106
 20
11
 30
0
 11
-106
 21
54.9780695478966
 31
0
  0
LINE
  8
1
 62
2
 10
-61.99999999999999
 20
11
 30
0
 11
-61.99999999999999
 21
54.9780695478966
 31
0
  0
SOLID
  8
1
 62
2
 10
-61.99999999999999
 20
53.9780695478966
 30
0
 11
-65.19999999999999
 21
53.5620695478966
 31
0
 12
-65.19999999999999
 22
54.39406954789659
 32
0
 13
-65.19999999999999
 23
54.39406954789659
 33
0
  0
SOLID
  8
1
 62
2
 10
-106
 20
53.9780695478966
 30
0
 11
-102.8
 21
54.39406954789659
 31
0
 12
-102.8
 22
53.5620695478966
 32
0
 13
-102.8
 23
53.5620695478966
 33
0
  0
TEXT
  8
1
 62
2
 10
-84.57777777777775
 20
54.9780695478966
 30
0
 40
3.2
  1
44
 41
0.9
  0
TEXT
  8
1
 62
2
 10
-88.2222222222222
 20
54.9780695478966
 30
0
 40
3.2
  1
âË
 41
0.9
  0
ENDBLK
  8
0
  0
BLOCK
  8
1
  2
*D8
 70
1
 10
0
 20
0
 30
0
  0
LINE
  8
1
 62
2
 10
20.99999999999989
 20
65.99747601871792
 30
0
 11
43.99999999999989
 21
65.99747601871792
 31
0
  0
LINE
  8
1
 62
2
 10
43.99999999999989
 20
30.00000000000004
 30
0
 11
43.99999999999989
 21
66.99747601871792
 31
0
  0
LINE
  8
1
 62
2
 10
20.99999999999989
 20
13.50000000000004
 30
0
 11
20.99999999999989
 21
66.99747601871792
 31
0
  0
SOLID
  8
1
 62
2
 10
20.99999999999989
 20
65.99747601871792
 30
0
 11
24.19999999999989
 21
66.41347601871792
 31
0
 12
24.19999999999989
 22
65.58147601871792
 32
0
 13
24.19999999999989
 23
65.58147601871792
 33
0
  0
SOLID
  8
1
 62
2
 10
43.99999999999989
 20
65.99747601871792
 30
0
 11
40.79999999999989
 21
65.58147601871792
 31
0
 12
40.79999999999989
 22
66.41347601871792
 32
0
 13
40.79999999999989
 23
66.41347601871792
 33
0
  0
TEXT
  8
1
 62
2
 10
30.0999999999999
 20
66.99747601871792
 30
0
 40
3.2
  1
23
 41
0.9
  0
ENDBLK
  8
0
  0
BLOCK
  8
1
  2
*D9
 70
1
 10
0
 20
0
 30
0
  0
LINE
  8
1
 62
2
 10
20.99999999999989
 20
41.94613220187301
 30
0
 11
37.99999999999989
 21
41.94613220187301
 31
0
  0
LINE
  8
1
 62
2
 10
37.99999999999989
 20
13.00000000000003
 30
0
 11
37.99999999999989
 21
42.94613220187301
 31
0
  0
LINE
  8
1
 62
2
 10
20.99999999999989
 20
13.50000000000003
 30
0
 11
20.99999999999989
 21
42.94613220187301
 31
0
  0
SOLID
  8
1
 62
2
 10
20.99999999999989
 20
41.94613220187301
 30
0
 11
24.19999999999989
 21
42.362132201873
 31
0
 12
24.19999999999989
 22
41.53013220187301
 32
0
 13
24.19999999999989
 23
41.53013220187301
 33
0
  0
SOLID
  8
1
 62
2
 10
37.99999999999989
 20
41.94613220187301
 30
0
 11
34.79999999999988
 21
41.53013220187301
 31
0
 12
34.79999999999988
 22
42.362132201873
 32
0
 13
34.79999999999988
 23
42.362132201873
 33
0
  0
TEXT
  8
1
 62
2
 10
27.57999999999989
 20
42.94613220187301
 30
0
 40
3.2
  1
17
 41
0.9
  0
ENDBLK
  8
0
  0
BLOCK
  8
1
  2
*D10
 70
1
 10
0
 20
0
 30
0
  0
LINE
  8
1
 62
2
 10
146.126386258749
 20
-79.72501808427235
 30
0
 11
146.126386258749
 21
-36.93264026708187
 31
0
  0
LINE
  8
1
 62
2
 10
103.9551523644049
 20
-79.72501808427235
 30
0
 11
147.126386258749
 21
-79.72501808427235
 31
0
  0
SOLID
  8
1
 62
2
 10
146.126386258749
 20
-79.72501808427235
 30
0
 11
145.710386258749
 21
-76.52501808427235
 31
0
 12
146.542386258749
 22
-76.52501808427235
 32
0
 13
146.542386258749
 23
-76.52501808427235
 33
0
  0
TEXT
  8
1
 62
2
 10
145.126386258749
 20
-49.47664026708187
 30
0
 40
3.2
  1
150
 50
90
 41
0.9
  0
TEXT
  8
1
 62
2
 10
144.486386258749
 20
-41.15664026708187
 30
0
 40
1.92
  1
%%p20
 50
90
 41
0.9
  0
ENDBLK
  8
0
  0
BLOCK
  8
1
  2
*D11
 70
1
 10
0
 20
0
 30
0
  0
LINE
  8
1
 62
2
 10
-84.99630230686084
 20
-8.621330331946719
 30
0
 11
-109.4289827429611
 21
-36.12011807447741
 31
0
  0
LINE
  8
1
 62
2
 10
-109.4289827429611
 20
-36.12011807447741
 30
0
 11
-53.50898274296111
 21
-36.12011807447741
 31
0
  0
SOLID
  8
1
 62
2
 10
-84.99630230686084
 20
-8.621330331946719
 30
0
 11
-86.81076494943744
 21
-11.2898095465358
 31
0
 12
-87.43272950689055
 22
-10.73719386699698
 32
0
 13
-87.43272950689055
 23
-10.73719386699698
 33
0
  0
TEXT
  8
1
 62
2
 10
-94.94898274296111
 20
-35.12011807447741
 30
0
 40
3.2
  1
3
 41
0.9
  0
TEXT
  8
1
 62
2
 10
-104.2289827429611
 20
-35.12011807447741
 30
0
 40
3.2
  1
3-M
 41
0.9
  0
TEXT
  8
1
 62
2
 10
-91.42898274296111
 20
-35.12011807447741
 30
0
 40
3.2
  1
 DEPTH 3.5MAX.
 41
0.9
  0
ENDBLK
  8
0
  0
ENDSEC
  0
SECTION
  2
ENTITIES
  0
LINE
  8
1
 62
7
 10
20.9999999999999
 20
7.500000000000035
 30
0
 11
41.00000000000001
 21
7.500000000000011
 31
0
  0
LINE
  8
1
 62
7
 10
20.9999999999999
 20
12.50000000000004
 30
0
 11
41.00000000000001
 21
12.50000000000001
 31
0
  0
LINE
  8
1
 62
7
 10
20.9999999999999
 20
12.00000000000001
 30
0
 11
37.99999999999989
 21
12.00000000000004
 31
0
  0
LINE
  8
1
 62
7
 10
20.9999999999999
 20
8.000000000000011
 30
0
 11
37.99999999999989
 21
7.999999999999987
 31
0
  0
LINE
  8
1
 62
2
 10
20.9999999999999
 20
8.000000000000011
 30
0
 11
37.99999999999989
 21
12.00000000000004
 31
0
  0
LINE
  8
1
 62
2
 10
20.9999999999999
 20
12.00000000000001
 30
0
 11
37.99999999999989
 21
7.999999999999987
 31
0
  0
LINE
  8
1
 62
7
 10
41.00000000000001
 20
1.06581410364015e-014
 30
0
 11
41.00000000000001
 21
20.00000000000001
 31
0
  0
LINE
  8
1
 62
2
 10
85.38415017735721
 20
-49.19752078129527
 30
0
 11
0.1651523644049284
 21
-49.19752078129527
 31
0
  0
LINE
  8
1
 62
2
 10
78.38415017735721
 20
-56.19752078129527
 30
0
 11
0.1651523644049284
 21
-56.19752078129527
 31
0
  0
LINE
  8
1
 62
2
 10
146.1999999999996
 20
-17.10002334769978
 30
0
 11
146.1999999999996
 21
-36.40321556867804
 31
0
  0
LINE
  8
1
 62
3
 10
115.9283085596209
 20
10.00000000000001
 30
0
 11
17.17371598660707
 21
10.00000000000001
 31
0
  0
LINE
  8
1
 62
7
 10
41.00000000000001
 20
1.06581410364015e-014
 30
0
 11
44.00000000000001
 21
1.06581410364015e-014
 31
0
  0
LINE
  8
1
 62
7
 10
43.99999999999989
 20
20.00000000000001
 30
0
 11
41.00000000000001
 21
20.00000000000001
 31
0
  0
LINE
  8
1
 62
7
 10
-82
 20
11.50000000000005
 30
0
 11
-82
 21
8.499999999999968
 31
0
  0
LINE
  8
1
 62
3
 10
-58.99999999999999
 20
10.00000000000001
 30
0
 11
-109
 21
10.00000000000001
 31
0
  0
LINE
  8
1
 62
3
 10
-84
 20
35
 30
0
 11
-84
 21
-15
 31
0
  0
LINE
  8
1
 62
3
 10
-71.9132952264937
 20
16.97826225459944
 30
0
 11
-65.9204201287866
 21
20.43825030548179
 31
0
  0
LINE
  8
1
 62
3
 10
-96.40498600089801
 20
17.16202200691309
 30
0
 11
-102.1920594225665
 21
20.5031904047329
 31
0
  0
LINE
  8
1
 62
2
 10
-109.4618834329087
 20
-56.99999999999999
 30
0
 11
-53.32694240941898
 21
-56.99999999999999
 31
0
  0
LINE
  8
1
 62
2
 10
-109.4618834329087
 20
-50
 30
0
 11
-53.32694240941895
 21
-50
 31
0
  0
LINE
  8
1
 62
2
 10
-109.4618834329087
 20
-43
 30
0
 11
-53.32694240941898
 21
-43
 31
0
  0
LINE
  8
1
 62
3
 10
95.09999999999997
 20
34.16117345456883
 30
0
 11
95.09999999999997
 21
29.06946085579103
 31
0
  0
LINE
  8
1
 62
3
 10
95.09999999999985
 20
-13.87634983292806
 30
0
 11
95.09999999999985
 21
-11.52513152805798
 31
0
  0
LINE
  8
1
 62
7
 10
98.0499999999999
 20
32.25044495978503
 30
0
 11
98.0499999999999
 21
31.99946475602002
 31
0
  0
LINE
  8
1
 62
7
 10
96.59999999999985
 20
30.89615076659994
 30
0
 11
96.59999999999985
 21
31.81091160757302
 31
0
  0
LINE
  8
1
 62
7
 10
93.59999999999985
 20
31.81091160757302
 30
0
 11
93.59999999999985
 21
30.89615076659994
 31
0
  0
LINE
  8
1
 62
7
 10
98
 20
31.99087221682505
 30
0
 11
98
 21
-11.99999999999997
 31
0
  0
LINE
  8
1
 62
7
 10
46.99999999999989
 20
-11.99999999999997
 30
0
 11
98
 21
-11.99999999999997
 31
0
  0
LINE
  8
1
 62
7
 10
43.99999999999989
 20
29.00000000000003
 30
0
 11
43.99999999999989
 21
-8.99907009323217
 31
0
  0
LINE
  8
1
 62
7
 10
46.99999999999989
 20
32.00000000000003
 30
0
 11
92.14999999999969
 21
32.00000000000003
 31
0
  0
LINE
  8
1
 62
7
 10
92.14999999999969
 20
32.25044495978503
 30
0
 11
92.14999999999969
 21
31.99946475602002
 31
0
  0
LINE
  8
1
 62
7
 10
97.9999999999996
 20
-12.99999999999997
 30
0
 11
97.9999999999996
 21
33.00000000000003
 31
0
  0
LINE
  8
1
 62
7
 10
123.6999999999996
 20
-12.99999999999997
 30
0
 11
97.9999999999996
 21
-12.99999999999997
 31
0
  0
LINE
  8
1
 62
7
 10
124.1999999999996
 20
32.50000000000003
 30
0
 11
124.1999999999996
 21
-12.49999999999997
 31
0
  0
LINE
  8
1
 62
7
 10
97.9999999999996
 20
33.00000000000003
 30
0
 11
123.6999999999996
 21
33.00000000000003
 31
0
  0
LINE
  8
1
 62
7
 10
103.4051523644049
 20
-53.41615973273994
 30
0
 11
103.4051523644049
 21
-76.72501808427235
 31
0
  0
LINE
  8
1
 62
7
 10
101.9051523644049
 20
-53.60507058459004
 30
0
 11
101.9051523644049
 21
-76.72501808427235
 31
0
  0
LINE
  8
1
 62
7
 10
100.2851523644049
 20
-53.22965819731493
 30
0
 11
100.2851523644049
 21
-76.72501808427235
 31
0
  0
LINE
  8
1
 62
7
 10
98.665152364405
 20
-53.69115937863992
 30
0
 11
98.665152364405
 21
-76.72501808427235
 31
0
  0
LINE
  8
1
 62
7
 10
102.9551523644049
 20
-76.72501808427235
 30
0
 11
103.4051523644049
 21
-76.72501808427235
 31
0
  0
LINE
  8
1
 62
7
 10
102.9551523644049
 20
-76.72501808427235
 30
0
 11
102.9551523644049
 21
-79.72501808427235
 31
0
  0
LINE
  8
1
 62
7
 10
102.355152364405
 20
-76.72501808427235
 30
0
 11
102.9551523644049
 21
-76.72501808427235
 31
0
  0
LINE
  8
1
 62
7
 10
102.355152364405
 20
-76.72501808427235
 30
0
 11
102.355152364405
 21
-79.72501808427235
 31
0
  0
LINE
  8
1
 62
7
 10
101.395152364405
 20
-76.72501808427235
 30
0
 11
101.9051523644049
 21
-76.72501808427235
 31
0
  0
LINE
  8
1
 62
7
 10
101.395152364405
 20
-76.72501808427235
 30
0
 11
101.395152364405
 21
-79.72501808427235
 31
0
  0
LINE
  8
1
 62
7
 10
100.795152364405
 20
-76.72501808427235
 30
0
 11
101.395152364405
 21
-76.72501808427235
 31
0
  0
LINE
  8
1
 62
7
 10
100.795152364405
 20
-76.72501808427235
 30
0
 11
100.795152364405
 21
-79.72501808427235
 31
0
  0
LINE
  8
1
 62
7
 10
99.7751523644049
 20
-76.72501808427235
 30
0
 11
100.2851523644049
 21
-76.72501808427235
 31
0
  0
LINE
  8
1
 62
7
 10
99.7751523644049
 20
-76.72501808427235
 30
0
 11
99.7751523644049
 21
-79.72501808427235
 31
0
  0
LINE
  8
1
 62
7
 10
99.17515236440499
 20
-76.72501808427235
 30
0
 11
99.7751523644049
 21
-76.72501808427235
 31
0
  0
LINE
  8
1
 62
7
 10
99.17515236440499
 20
-76.72501808427235
 30
0
 11
99.17515236440499
 21
-79.72501808427235
 31
0
  0
LINE
  8
1
 62
7
 10
100.2851523644049
 20
-76.72501808427235
 30
0
 11
100.795152364405
 21
-76.72501808427235
 31
0
  0
LINE
  8
1
 62
7
 10
101.9051523644049
 20
-76.72501808427235
 30
0
 11
102.355152364405
 21
-76.72501808427235
 31
0
  0
LINE
  8
1
 62
7
 10
98.665152364405
 20
-76.72501808427235
 30
0
 11
99.17515236440499
 21
-76.72501808427235
 31
0
  0
LINE
  8
1
 62
7
 10
103.4051523644049
 20
-17.48201508801295
 30
0
 11
103.4051523644049
 21
-51.41615973273994
 31
0
  0
LINE
  8
1
 62
7
 10
101.9051523644049
 20
-17.48201508801295
 30
0
 11
101.9051523644049
 21
-51.60507058459004
 31
0
  0
LINE
  8
1
 62
7
 10
100.2851523644049
 20
-17.48201508801295
 30
0
 11
100.2851523644049
 21
-51.22965819731503
 31
0
  0
LINE
  8
1
 62
7
 10
98.665152364405
 20
-17.48201508801295
 30
0
 11
98.665152364405
 21
-51.69115937863991
 31
0
  0
LINE
  8
1
 62
7
 10
101.9051523644049
 20
-12.99999999999997
 30
0
 11
101.9051523644049
 21
-14.98201508801295
 31
0
  0
LINE
  8
1
 62
7
 10
100.2851523644049
 20
-12.99999999999997
 30
0
 11
100.2851523644049
 21
-14.98201508801295
 31
0
  0
LINE
  8
1
 62
7
 10
98.665152364405
 20
-12.99999999999997
 30
0
 11
98.665152364405
 21
-14.98201508801295
 31
0
  0
LINE
  8
1
 62
7
 10
103.666522129881
 20
-17.48201508801295
 30
0
 11
97.9651523644049
 21
-17.48201508801295
 31
0
  0
LINE
  8
1
 62
7
 10
97.665152364405
 20
-15.28201508801296
 30
0
 11
97.665152364405
 21
-17.18201508801297
 31
0
  0
LINE
  8
1
 62
7
 10
103.666522129881
 20
-14.98201508801295
 30
0
 11
97.9651523644049
 21
-14.98201508801295
 31
0
  0
LINE
  8
1
 62
7
 10
103.666522129881
 20
-14.19271130062256
 30
0
 11
103.666522129881
 21
-18.27131887540326
 31
0
  0
LINE
  8
1
 62
7
 10
103.876932707833
 20
-18.47104774128577
 30
0
 11
105.7825485747589
 21
-18.37172027331857
 31
0
  0
LINE
  8
1
 62
7
 10
106.2565221298808
 20
-17.87239810861225
 30
0
 11
106.2565221298808
 21
-14.59163206741365
 31
0
  0
LINE
  8
1
 62
7
 10
105.7825485747589
 20
-14.09230990270736
 30
0
 11
103.876932707833
 21
-13.99298243474015
 31
0
  0
LINE
  8
1
 62
3
 10
130.6381927524945
 20
9.99999999999995
 30
0
 11
18.29837311273089
 21
10.00000000000004
 31
0
  0
LINE
  8
1
 62
7
 10
-103.4207880630785
 20
-0.58987681746048
 30
0
 11
-103.8739814945077
 21
-1.0124865292069
 31
0
  0
LINE
  8
1
 62
7
 10
-96.3719995338203
 20
-9.057377247017698
 30
0
 11
-95.918806102391
 21
-8.634767535271401
 31
0
  0
LINE
  8
1
 62
7
 10
-98.3541725306883
 20
-6.80380108663617
 30
0
 11
-99.38428487266
 21
-7.764396385941289
 31
0
  0
LINE
  8
1
 62
7
 10
-101.7641643310008
 20
-3.14703257854028
 30
0
 11
-102.7942766729725
 21
-4.10762787784539
 31
0
  0
LINE
  8
1
 62
7
 10
-101.1509375611495
 20
-3.77843753019728
 30
0
 11
-104.8513872870189
 21
-7.22916272506437
 31
0
  0
LINE
  8
1
 62
7
 10
-98.94126287454699
 20
-6.148023523443371
 30
0
 11
-102.6417126004164
 21
-9.598748718310489
 31
0
  0
LINE
  8
1
 62
7
 10
-100.0897814356218
 20
-5.003963921374879
 30
0
 11
-103.7465499437176
 21
-8.41395572168738
 31
0
  0
LINE
  8
1
 62
7
 10
-104.040437887625
 20
-11.76449745048679
 30
0
 11
-104.3075726071558
 21
-11.47803053590069
 31
0
  0
LINE
  8
1
 62
7
 10
-105.7527917575671
 20
-6.702408531463981
 30
0
 11
-107.1423637906435
 21
-7.998205415582689
 31
0
  0
LINE
  8
1
 62
7
 10
-102.212053633577
 20
-10.05950155033058
 30
0
 11
-102.4791883531079
 21
-9.773034635744399
 31
0
  0
LINE
  8
1
 62
7
 10
-101.634793386967
 20
-9.52119766173918
 30
0
 11
-104.6176981342349
 21
-12.30280133907808
 31
0
  0
LINE
  8
1
 62
7
 10
-104.6202709105151
 20
-12.59290065311219
 30
0
 11
-103.2480005029923
 21
-13.9188387009899
 31
0
  0
LINE
  8
1
 62
7
 10
-102.5595702022277
 20
-13.92494411752528
 30
0
 11
-100.1601698138507
 21
-11.68746705767918
 31
0
  0
LINE
  8
1
 62
7
 10
-100.1182378876984
 20
-11.00028784619859
 30
0
 11
-101.3452212724806
 21
-9.538867457795298
 31
0
  0
LINE
  8
1
 62
7
 10
-102.4791883531079
 20
-9.773034635744399
 30
0
 11
-104.8513872870189
 21
-7.22916272506437
 31
0
  0
LINE
  8
1
 62
7
 10
-104.8513872870189
 20
-7.22916272506437
 30
0
 11
-105.3287861390626
 21
-6.717215133930878
 31
0
  0
LINE
  8
1
 62
7
 10
-106.6797715410668
 20
-8.934158625220579
 30
0
 11
-118.8396337764843
 21
-20.27341360510299
 31
0
  0
LINE
  8
1
 62
7
 10
-106.6797715410668
 20
-8.934158625220579
 30
0
 11
-107.1571703931106
 21
-8.422211034087198
 31
0
  0
LINE
  8
1
 62
7
 10
-105.5749341977655
 20
-10.1189516218437
 30
0
 11
-117.734796433183
 21
-21.45820660172609
 31
0
  0
LINE
  8
1
 62
7
 10
-105.5749341977655
 20
-10.1189516218437
 30
0
 11
-106.6797715410668
 21
-8.934158625220579
 31
0
  0
LINE
  8
1
 62
7
 10
-104.4700968544643
 20
-11.3037446184667
 30
0
 11
-116.6299590898818
 21
-22.64299959834918
 31
0
  0
LINE
  8
1
 62
7
 10
-104.4700968544643
 20
-11.3037446184667
 30
0
 11
-105.5749341977655
 21
-10.1189516218437
 31
0
  0
LINE
  8
1
 62
7
 10
-104.3075726071558
 20
-11.47803053590069
 30
0
 11
-116.4674348425733
 21
-22.81728551578309
 31
0
  0
LINE
  8
1
 62
7
 10
-104.3075726071558
 20
-11.47803053590069
 30
0
 11
-104.4700968544643
 21
-11.3037446184667
 31
0
  0
LINE
  8
1
 62
3
 10
95.09999999999997
 20
34.16117345456883
 30
0
 11
95.09999999999997
 21
29.06946085579103
 31
0
  0
LINE
  8
1
 62
7
 10
79.41705453434327
 20
32.00000000000003
 30
0
 11
79.41705453434352
 21
23.00000000000003
 31
0
  0
LINE
  8
1
 62
7
 10
59.41705453434351
 20
23.00000000000003
 30
0
 11
79.41705453434352
 21
23.00000000000003
 31
0
  0
LINE
  8
1
 62
7
 10
59.41705453434351
 20
23.00000000000003
 30
0
 11
59.41705453434351
 21
32.00000000000003
 31
0
  0
LINE
  8
1
 62
7
 10
37.99999999999989
 20
12.00000000000004
 30
0
 11
37.99999999999989
 21
7.999999999999987
 31
0
  0
LINE
  8
1
 62
7
 10
20.9999999999999
 20
7.500000000000035
 30
0
 11
20.9999999999999
 21
12.50000000000004
 31
0
  0
ARC
  8
1
 62
7
 10
95.09999999999985
 20
-9.045586756619048
 30
0
 40
3.899999999999761
 50
229.24797006729
 51
310.7520299327126
  0
ARC
  8
1
 62
7
 10
95.09999999999985
 20
29.69946475602004
 30
0
 40
3.900000000000146
 50
40.8512521033073
 51
139.1487478966938
  0
ARC
  8
1
 62
7
 10
95.09999999999985
 20
30.89615076659994
 30
0
 40
1.5
 50
180
 51
0
  0
ARC
  8
1
 62
7
 10
95.09999999999985
 20
49.01574839561002
 30
0
 40
17.27010158924895
 50
260.1647661718483
 51
279.8352338281513
  0
ARC
  8
1
 62
7
 10
95.09999999999985
 20
47.26976677318882
 30
0
 40
15.30629046289753
 50
258.8877819708923
 51
281.1122180291074
  0
ARC
  8
1
 62
7
 10
-83.99999999999999
 20
10.00000000000001
 30
0
 40
23.49999999999988
 50
229.3909792154898
 51
234.5369590328153
  0
ARC
  8
1
 62
7
 10
-83.99999999999999
 20
10.00000000000001
 30
0
 40
22.99999999999999
 50
0
 51
209.2816961815805
  0
ARC
  8
1
 62
7
 10
-83.99999999999999
 20
10.00000000000001
 30
0
 40
23.00000000000002
 50
236.718303818419
 51
0
  0
ARC
  8
1
 62
7
 10
-83.99999999999999
 20
10.00000000000001
 30
0
 40
21.99999999999994
 50
227.2228750269381
 51
237.5228269979347
  0
ARC
  8
1
 62
7
 10
-83.99999999999999
 20
10.00000000000001
 30
0
 40
21.99999999999998
 50
237.5228269979347
 51
0
  0
ARC
  8
1
 62
7
 10
-83.99999999999999
 20
10.00000000000001
 30
0
 40
22.00000000000001
 50
180
 51
208.4771730020647
  0
ARC
  8
1
 62
7
 10
-83.99999999999999
 20
10.00000000000001
 30
0
 40
22
 50
208.4771730020647
 51
218.777124973062
  0
ARC
  8
1
 62
7
 10
-83.99999999999999
 20
10.00000000000001
 30
0
 40
21.99999999999996
 50
218.777124973062
 51
227.2228750269381
  0
ARC
  8
1
 62
7
 10
-83.99999999999999
 20
10.00000000000001
 30
0
 40
23.5
 50
217.505817735472
 51
219.0471133501154
  0
ARC
  8
1
 62
7
 10
-83.99999999999999
 20
10.00000000000001
 30
0
 40
23.49999999999995
 50
226.9528866498842
 51
229.3909792154898
  0
ARC
  8
1
 62
7
 10
-83.99999999999999
 20
10.00000000000001
 30
0
 40
23.50000000000001
 50
211.4630409671846
 51
217.505817735472
  0
ARC
  8
1
 62
7
 10
-83.99999999999999
 20
10.00000000000001
 30
0
 40
21.99999999999999
 50
0
 51
180
  0
CIRCLE
  8
1
 62
7
 10
-83.99999999999999
 20
10.00000000000001
 30
0
 40
2.500000000000028
  0
CIRCLE
  8
1
 62
3
  6
CENTER
 10
-83.99999999999999
 20
10.00000000000001
 30
0
 40
17.50000000000001
  0
CIRCLE
  8
1
 62
7
 10
-83.99999999999999
 20
10.00000000000001
 30
0
 40
6.5
  0
CIRCLE
  8
1
 62
7
 10
-83.99999999999999
 20
10.00000000000001
 30
0
 40
12.49999999999997
  0
CIRCLE
  8
1
 62
2
 10
-68.84455543377229
 20
18.75000000000001
 30
0
 40
1.5000000000001
  0
CIRCLE
  8
1
 62
7
 10
-68.84455543377229
 20
18.75000000000001
 30
0
 40
1.0000000000001
  0
CIRCLE
  8
1
 62
2
 10
-99.1554445662276
 20
18.75000000000001
 30
0
 40
1.5
  0
CIRCLE
  8
1
 62
7
 10
-99.1554445662276
 20
18.75000000000001
 30
0
 40
1
  0
CIRCLE
  8
1
 62
7
 10
-84
 20
-7.499999999999989
 30
0
 40
1
  0
CIRCLE
  8
1
 62
2
 10
-84
 20
-7.499999999999989
 30
0
 40
1.5
  0
CIRCLE
  8
1
 62
7
 10
-83.99999999999999
 20
10.00000000000001
 30
0
 40
10
  0
POLYLINE
  8
1
 62
2
 66
1
  0
VERTEX
  8
1
 10
98.665152364405
 20
-53.69115937863992
 30
0
 42
-0.005741291917640831
  0
VERTEX
  8
1
 10
98.88453843004507
 20
-53.47776341740215
 30
0
 42
-0.01871628237798745
  0
VERTEX
  8
1
 10
99.10457797927509
 20
-53.28334149073643
 30
0
 42
-0.03661427606479689
  0
VERTEX
  8
1
 10
99.3259244956851
 20
-53.12686763321479
 30
0
 42
-0.06301418143505427
  0
VERTEX
  8
1
 10
99.54923146286504
 20
-53.02731587940928
 30
0
 42
-0.09379985442505465
  0
VERTEX
  8
1
 10
99.7751523644049
 20
-53.00366026389193
 30
0
 42
-0.1008313723748479
  0
VERTEX
  8
1
 10
100.0946683428434
 20
-53.1113890145318
 30
0
 42
-0.03511203745497623
  0
VERTEX
  8
1
 10
100.418472612316
 20
-53.32539833451885
 30
0
 42
0.005474580852516321
  0
VERTEX
  8
1
 10
100.7445188925694
 20
-53.56804317295567
 30
0
 42
0.04662449111782446
  0
VERTEX
  8
1
 10
101.0707609033502
 20
-53.76167847894485
 30
0
 42
0.1199957498014947
  0
VERTEX
  8
1
 10
101.395152364405
 20
-53.82865920158892
 30
0
 42
0.1205723122193569
  0
VERTEX
  8
1
 10
101.6435678833315
 20
-53.75851116740188
 30
0
 42
0.0059788085240624
  0
VERTEX
  8
1
 10
101.8917178800348
 20
-53.61406109302014
 30
0
 42
0.03080024829293615
  0
VERTEX
  8
1
 10
102.1416601172748
 20
-53.44281011540464
 30
0
 42
-0.03450643078449791
  0
VERTEX
  8
1
 10
102.3954523578115
 20
-53.29225937151628
 30
0
 42
-0.08238517047753846
  0
VERTEX
  8
1
 10
102.6551523644049
 20
-53.20990999831596
 30
0
 42
-0.05438523440338886
  0
VERTEX
  8
1
 10
102.8022173269436
 20
-53.20852734639436
 30
0
 42
-0.03989026302415358
  0
VERTEX
  8
1
 10
102.9512389811231
 20
-53.23556642701035
 30
0
 42
-0.02615921155711704
  0
VERTEX
  8
1
 10
103.1017281540333
 20
-53.28392180702954
 30
0
 42
-0.01460085277485529
  0
VERTEX
  8
1
 10
103.253195672764
 20
-53.34648805331754
 30
0
 42
-0.004677241814864147
  0
VERTEX
  8
1
 10
103.4051523644049
 20
-53.41615973273994
 30
0
  0
SEQEND
  8
1
  0
POLYLINE
  8
1
 62
2
 66
1
  0
VERTEX
  8
1
 10
98.665152364405
 20
-51.69115937863991
 30
0
 42
-0.005741291917657486
  0
VERTEX
  8
1
 10
98.88453843004507
 20
-51.47776341740215
 30
0
 42
-0.01871628237798501
  0
VERTEX
  8
1
 10
99.10457797927509
 20
-51.28334149073642
 30
0
 42
-0.03661427606481846
  0
VERTEX
  8
1
 10
99.3259244956851
 20
-51.12686763321478
 30
0
 42
-0.06301418143502484
  0
VERTEX
  8
1
 10
99.54923146286504
 20
-51.02731587940927
 30
0
 42
-0.09379985442496212
  0
VERTEX
  8
1
 10
99.7751523644049
 20
-51.00366026389192
 30
0
 42
-0.1008313723748072
  0
VERTEX
  8
1
 10
100.0946683428434
 20
-51.11138901453179
 30
0
 42
-0.03511203745496222
  0
VERTEX
  8
1
 10
100.418472612316
 20
-51.32539833451884
 30
0
 42
0.005474580852516016
  0
VERTEX
  8
1
 10
100.7445188925694
 20
-51.56804317295567
 30
0
 42
0.04662449111785486
  0
VERTEX
  8
1
 10
101.0707609033502
 20
-51.76167847894483
 30
0
 42
0.1199957498014374
  0
VERTEX
  8
1
 10
101.395152364405
 20
-51.82865920158891
 30
0
 42
0.1205723122194159
  0
VERTEX
  8
1
 10
101.6435678833315
 20
-51.75851116740187
 30
0
 42
0.005978808523992675
  0
VERTEX
  8
1
 10
101.8917178800348
 20
-51.61406109302014
 30
0
 42
0.03080024829301671
  0
VERTEX
  8
1
 10
102.1416601172748
 20
-51.44281011540464
 30
0
 42
-0.03450643078449791
  0
VERTEX
  8
1
 10
102.3954523578115
 20
-51.29225937151628
 30
0
 42
-0.08238517047758787
  0
VERTEX
  8
1
 10
102.6551523644049
 20
-51.20990999831596
 30
0
 42
-0.05438523440343763
  0
VERTEX
  8
1
 10
102.8022173269436
 20
-51.20852734639435
 30
0
 42
-0.03989026302419828
  0
VERTEX
  8
1
 10
102.9512389811231
 20
-51.23556642701035
 30
0
 42
-0.02615921155711704
  0
VERTEX
  8
1
 10
103.1017281540333
 20
-51.28392180702954
 30
0
 42
-0.01460085277485529
  0
VERTEX
  8
1
 10
103.253195672764
 20
-51.34648805331754
 30
0
 42
-0.004677241814786652
  0
VERTEX
  8
1
 10
103.4051523644049
 20
-51.41615973273994
 30
0
  0
SEQEND
  8
1
  0
POLYLINE
  8
1
 62
7
 66
1
  0
VERTEX
  8
1
 10
101.9051523644049
 20
-13.51385998600397
 30
0
 42
0.002912118016187037
  0
VERTEX
  8
1
 10
101.9564950400636
 20
-13.47454571450998
 30
0
 42
0.008821845128423034
  0
VERTEX
  8
1
 10
102.0065393712518
 20
-13.43432816194338
 30
0
 42
0.01512924885906362
  0
VERTEX
  8
1
 10
102.0539870134987
 20
-13.39230404723158
 30
0
 42
0.02183695989839485
  0
VERTEX
  8
1
 10
102.097539622334
 20
-13.34757008930197
 30
0
 42
0.02882759817032697
  0
VERTEX
  8
1
 10
102.1358988532868
 20
-13.29922300708196
 30
0
 42
0.03188192419698931
  0
VERTEX
  8
1
 10
102.1690262180955
 20
-13.24510962237055
 30
0
 42
0.02025139653591055
  0
VERTEX
  8
1
 10
102.1966616832476
 20
-13.18717542652248
 30
0
 42
0.01776681578142402
  0
VERTEX
  8
1
 10
102.2201782236572
 20
-13.12637562232192
 30
0
 42
0.006845406332845781
  0
VERTEX
  8
1
 10
102.2409488142385
 20
-13.06366541255303
 30
0
 42
0.005203691308918709
  0
VERTEX
  8
1
 10
102.2603464299057
 20
-12.99999999999997
 30
0
  0
SEQEND
  8
1
  0
POLYLINE
  8
1
 62
7
 66
1
  0
VERTEX
  8
1
 10
103.4051523644049
 20
-14.98201508801295
 30
0
 42
-0.004084977899079693
  0
VERTEX
  8
1
 10
103.4109914350714
 20
-14.8272853719094
 30
0
 42
-0.01259677424306869
  0
VERTEX
  8
1
 10
103.4218041571986
 20
-14.67494251304334
 30
0
 42
-0.02205174309497697
  0
VERTEX
  8
1
 10
103.4425641822473
 20
-14.52737336865224
 30
0
 42
-0.03266673935405359
  0
VERTEX
  8
1
 10
103.4782451616779
 20
-14.38696479597358
 30
0
 42
-0.04360750023876762
  0
VERTEX
  8
1
 10
103.5338207469514
 20
-14.25610365224485
 30
0
 42
-0.05030981493752542
  0
VERTEX
  8
1
 10
103.6420429399211
 20
-14.09881764432309
 30
0
 42
-0.02333966741030688
  0
VERTEX
  8
1
 10
103.7766690751205
 20
-13.95394141882073
 30
0
 42
0.0002692870098272348
  0
VERTEX
  8
1
 10
103.9202559163545
 20
-13.81284248046766
 30
0
 42
0.0233965910031808
  0
VERTEX
  8
1
 10
104.0553602274278
 20
-13.66688833399378
 30
0
 42
0.04984545383720904
  0
VERTEX
  8
1
 10
104.1645387721452
 20
-13.50744648412896
 30
0
 42
0.03673432362374054
  0
VERTEX
  8
1
 10
104.2072713612212
 20
-13.41362143392761
 30
0
 42
0.01729554683226247
  0
VERTEX
  8
1
 10
104.2399862364268
 20
-13.31468688597663
 30
0
 42
0.0221438096258481
  0
VERTEX
  8
1
 10
104.2651878262299
 20
-13.21192021471342
 30
0
 42
0.003389403776326239
  0
VERTEX
  8
1
 10
104.2853805590978
 20
-13.1065987945754
 30
0
 42
0.009106353430366865
  0
VERTEX
  8
1
 10
104.3030688634982
 20
-12.99999999999997
 30
0
  0
SEQEND
  8
1
  0
POLYLINE
  8
1
 62
7
 66
1
  0
VERTEX
  8
1
 10
101.9051523644049
 20
-14.98201508801295
 30
0
 42
-0.005094356481400878
  0
VERTEX
  8
1
 10
101.9173676221462
 20
-14.76299701891684
 30
0
 42
-0.01584736770681122
  0
VERTEX
  8
1
 10
101.9382793137419
 20
-14.54859286548505
 30
0
 42
-0.02813623112775029
  0
VERTEX
  8
1
 10
101.9765838730463
 20
-14.34341654338191
 30
0
 42
-0.04210448946229462
  0
VERTEX
  8
1
 10
102.0409777339138
 20
-14.15208196827174
 30
0
 42
-0.05553794553658095
  0
VERTEX
  8
1
 10
102.1401573301987
 20
-13.97920305581885
 30
0
 42
-0.03672474558976698
  0
VERTEX
  8
1
 10
102.2506191218504
 20
-13.85262530668628
 30
0
 42
-0.01318721956808652
  0
VERTEX
  8
1
 10
102.3765846408627
 20
-13.7341903562998
 30
0
 42
0.008246026423510397
  0
VERTEX
  8
1
 10
102.5042377199812
 20
-13.6164852568425
 30
0
 42
0.03048928362226953
  0
VERTEX
  8
1
 10
102.6197621919517
 20
-13.49209706049749
 30
0
 42
0.05673379786339731
  0
VERTEX
  8
1
 10
102.7093418895197
 20
-13.35361281944787
 30
0
 42
0.03162911466054205
  0
VERTEX
  8
1
 10
102.7370135933024
 20
-13.28771901225382
 30
0
 42
0.01491982400335103
  0
VERTEX
  8
1
 10
102.7587344244271
 20
-13.21860603392942
 30
0
 42
0.01896189942885594
  0
VERTEX
  8
1
 10
102.7759921010583
 20
-13.14707867725725
 30
0
 42
0.002988020207195202
  0
VERTEX
  8
1
 10
102.7902743413605
 20
-13.07394173501991
 30
0
 42
0.0077697283812986
  0
VERTEX
  8
1
 10
102.8030688634982
 20
-12.99999999999997
 30
0
  0
SEQEND
  8
1
  0
POLYLINE
  8
1
 62
7
 66
1
  0
VERTEX
  8
1
 10
-102.4791883531079
 20
-9.773034635744399
 30
0
 42
-0.002270876088770422
  0
VERTEX
  8
1
 10
-102.3420179528283
 20
-9.65860073508787
 30
0
 42
-0.006866791505686826
  0
VERTEX
  8
1
 10
-102.2033332893437
 20
-9.547129873411301
 30
0
 42
-0.01160480602890173
  0
VERTEX
  8
1
 10
-102.061620099449
 20
-9.441585089694657
 30
0
 42
-0.01650533133771407
  0
VERTEX
  8
1
 10
-101.9153641199392
 20
-9.344929422917899
 30
0
 42
-0.04746429300926443
  0
VERTEX
  8
1
 10
-101.5714442698493
 20
-9.176166479797251
 30
0
 42
-0.01334187817508945
  0
VERTEX
  8
1
 10
-101.3726250693074
 20
-9.105989115275252
 30
0
 42
-0.003457211622411863
  0
VERTEX
  8
1
 10
-101.1702563114949
 20
-9.042095790423922
 30
0
 42
0.006259698926887563
  0
VERTEX
  8
1
 10
-100.9680008219236
 20
-8.976988477172194
 30
0
 42
0.0160619283943488
  0
VERTEX
  8
1
 10
-100.7695214261049
 20
-8.903169147448999
 30
0
 42
0.02461726706715997
  0
VERTEX
  8
1
 10
-100.5512905604196
 20
-8.801118036603933
 30
0
 42
0.01653401751887594
  0
VERTEX
  8
1
 10
-100.3418914287636
 20
-8.681305587444328
 30
0
 42
0.01752779701211654
  0
VERTEX
  8
1
 10
-100.1404699799768
 20
-8.547076620194954
 30
0
 42
0.00961602788216788
  0
VERTEX
  8
1
 10
-99.94617216289902
 20
-8.401775955080581
 30
0
 42
0.01089685402655494
  0
VERTEX
  8
1
 10
-99.75814392637
 20
-8.24874841232598
 30
0
 42
0.0006062463997490794
  0
VERTEX
  8
1
 10
-99.66401283270102
 20
-8.168470227603486
 30
0
 42
0.005208428240096452
  0
VERTEX
  8
1
 10
-99.57101703012253
 20
-8.087273404944625
 30
0
 42
0.001826273380111927
  0
VERTEX
  8
1
 10
-99.47887269586195
 20
-8.005387603833494
 30
0
 42
0.001098561066388856
  0
VERTEX
  8
1
 10
-99.3872960071466
 20
-7.923042483754181
 30
0
 42
0.0003659168922316523
  0
VERTEX
  8
1
 10
-99.2960031412039
 20
-7.840467704190779
 30
0
  0
SEQEND
  8
1
  0
POLYLINE
  8
1
 62
7
 66
1
  0
VERTEX
  8
1
 10
-104.8513872870189
 20
-7.22916272506437
 30
0
 42
0.002522358894276633
  0
VERTEX
  8
1
 10
-104.6771687452321
 20
-7.06838102881685
 30
0
 42
0.007611018257336387
  0
VERTEX
  8
1
 10
-104.5069712594737
 20
-6.904800562781289
 30
0
 42
0.01289679850934604
  0
VERTEX
  8
1
 10
-104.3448158857723
 20
-6.73562255716965
 30
0
 42
0.0183482051765578
  0
VERTEX
  8
1
 10
-104.1947236801561
 20
-6.558048242193893
 30
0
 42
0.04727384430660173
  0
VERTEX
  8
1
 10
-103.9465131189488
 20
-6.171275522793791
 30
0
 42
0.006918203064090514
  0
VERTEX
  8
1
 10
-103.8438173283421
 20
-5.965158417111859
 30
0
 42
0.002552910027424496
  0
VERTEX
  8
1
 10
-103.7446759080776
 20
-5.756357914794124
 30
0
 42
-0.01077080458769923
  0
VERTEX
  8
1
 10
-103.6411364393993
 20
-5.550304399614524
 30
0
 42
-0.02136049806205473
  0
VERTEX
  8
1
 10
-103.5252465035514
 20
-5.352428255347
 30
0
 42
-0.01654931334430276
  0
VERTEX
  8
1
 10
-103.4330802138706
 20
-5.220750610627298
 30
0
 42
-0.01212148598730896
  0
VERTEX
  8
1
 10
-103.333260589661
 20
-5.094245227698684
 30
0
 42
-0.007729825329369686
  0
VERTEX
  8
1
 10
-103.2281407026809
 20
-4.971377700022121
 30
0
 42
-0.003410150448598039
  0
VERTEX
  8
1
 10
-103.1200736246888
 20
-4.850613621058566
 30
0
 42
0.0008716354142928957
  0
VERTEX
  8
1
 10
-103.0114124274433
 20
-4.73041858426898
 30
0
 42
0.002675281886344273
  0
VERTEX
  8
1
 10
-102.9365792212
 20
-4.646452471359427
 30
0
 42
0.0006933733937797403
  0
VERTEX
  8
1
 10
-102.8624266020962
 20
-4.562112832405299
 30
0
 42
0.001839787903989889
  0
VERTEX
  8
1
 10
-102.788784423347
 20
-4.477493048917739
 30
0
 42
0.0006349204002019466
  0
VERTEX
  8
1
 10
-102.7154825381675
 20
-4.392686502407891
 30
0
 42
0.000211946237007542
  0
VERTEX
  8
1
 10
-102.6423507997729
 20
-4.307786574386899
 30
0
  0
SEQEND
  8
1
  0
POLYLINE
  8
1
 62
2
 66
1
  0
VERTEX
  8
1
 10
-118.8396337764843
 20
-20.27341360510299
 30
0
 42
0.004201787785703692
  0
VERTEX
  8
1
 10
-118.8238173058044
 20
-20.43760153121182
 30
0
 42
0.0129853233082907
  0
VERTEX
  8
1
 10
-118.8028370097047
 20
-20.59757060053224
 30
0
 42
0.02368764596160716
  0
VERTEX
  8
1
 10
-118.7715290627653
 20
-20.74910195627585
 30
0
 42
0.03698086856909786
  0
VERTEX
  8
1
 10
-118.7247296395664
 20
-20.88797674165424
 30
0
 42
0.0531043152364845
  0
VERTEX
  8
1
 10
-118.6572749146881
 20
-21.00997609987899
 30
0
 42
0.07911701648544313
  0
VERTEX
  8
1
 10
-118.5278673793793
 20
-21.14367504174353
 30
0
 42
0.04438058985852946
  0
VERTEX
  8
1
 10
-118.3611036279722
 20
-21.24709244940547
 30
0
 42
0.03487593238247705
  0
VERTEX
  8
1
 10
-118.166795796069
 20
-21.32848343631985
 30
0
 42
0.009121925278213178
  0
VERTEX
  8
1
 10
-117.9547560192718
 20
-21.39610311594171
 30
0
 42
0.007642460714534448
  0
VERTEX
  8
1
 10
-117.734796433183
 20
-21.45820660172609
 30
0
 42
-0.008114348177604947
  0
VERTEX
  8
1
 10
-117.5400953707036
 20
-21.51570014080551
 30
0
 42
-0.01932452149148396
  0
VERTEX
  8
1
 10
-117.3545735789465
 20
-21.58160233961359
 30
0
 42
-0.03336379529046576
  0
VERTEX
  8
1
 10
-117.185905993184
 20
-21.66214450936733
 30
0
 42
-0.05099163073952746
  0
VERTEX
  8
1
 10
-117.0417675486883
 20
-21.76355796128379
 30
0
 42
-0.06898092664358775
  0
VERTEX
  8
1
 10
-116.9298331807315
 20
-21.89207400657999
 30
0
 42
-0.05048200875128558
  0
VERTEX
  8
1
 10
-116.860728879527
 20
-22.03086662103547
 30
0
 42
-0.02154714559961884
  0
VERTEX
  8
1
 10
-116.8094972588063
 20
-22.18553892552413
 30
0
 42
0.002749831103615427
  0
VERTEX
  8
1
 10
-116.7628303796028
 20
-22.34590748196197
 30
0
 42
0.02643430537932162
  0
VERTEX
  8
1
 10
-116.7074203029501
 20
-22.50178885226499
 30
0
 42
0.05372153265352238
  0
VERTEX
  8
1
 10
-116.6299590898818
 20
-22.64299959834918
 30
0
 42
0.02342956028004216
  0
VERTEX
  8
1
 10
-116.601139752048
 20
-22.68044734549262
 30
0
 42
0.008194178312706892
  0
VERTEX
  8
1
 10
-116.5698634064623
 20
-22.71616805019829
 30
0
 42
0.01525811203625139
  0
VERTEX
  8
1
 10
-116.5367443050626
 20
-22.75059347307563
 30
0
 42
0.0001966161518981767
  0
VERTEX
  8
1
 10
-116.5023966997869
 20
-22.78415537473408
 30
0
 42
0.007465910803330209
  0
VERTEX
  8
1
 10
-116.4674348425733
 20
-22.81728551578309
 30
0
  0
SEQEND
  8
1
  0
ARC
  8
1
 62
7
 10
47.00000000000001
 20
-8.999999999999989
 30
0
 40
3
 50
180
 51
270
  0
ARC
  8
1
 62
7
 10
46.99999999999989
 20
29.00000000000003
 30
0
 40
3
 50
90
 51
180
  0
ARC
  8
1
 62
7
 10
97.9651523644049
 20
-17.18201508801297
 30
0
 40
0.2999999999998977
 50
180
 51
270
  0
ARC
  8
1
 62
7
 10
97.9651523644049
 20
-15.28201508801296
 30
0
 40
0.3000000000000096
 50
90
 51
180
  0
ARC
  8
1
 62
7
 10
105.7565221298808
 20
-14.59163206741365
 30
0
 40
0.5
 50
0
 51
87.0162406520151
  0
ARC
  8
1
 62
7
 10
105.7565221298808
 20
-17.87239810861225
 30
0
 40
0.4999999999999988
 50
272.9837593479847
 51
0
  0
ARC
  8
1
 62
7
 10
103.8665221298807
 20
-18.27131887540326
 30
0
 40
0.1999999999997044
 50
180
 51
272.9837593482883
  0
ARC
  8
1
 62
7
 10
103.8665221298807
 20
-14.19271130062256
 30
0
 40
0.199999999999938
 50
87.01624065171025
 51
180
  0
ARC
  8
1
 62
7
 10
123.6999999999996
 20
32.50000000000003
 30
0
 40
0.5
 50
0
 51
90
  0
ARC
  8
1
 62
7
 10
123.6999999999996
 20
-12.49999999999997
 30
0
 40
0.5
 50
270
 51
0
  0
ARC
  8
1
 62
7
 10
-97.05399789388279
 20
-8.32602354539857
 30
0
 40
0.9999999999998537
 50
234.5369590328134
 51
313.0000000000015
  0
ARC
  8
1
 62
7
 10
-103.1919831344452
 20
-1.743840230825999
 30
0
 40
0.9999999999999542
 50
133.0000000000032
 51
211.4630409671884
  0
ARC
  8
1
 62
7
 10
-95.5778069223598
 20
-9.000444386080989
 30
0
 40
0.5000000000000133
 50
118.085102247392
 51
132.9999999999959
  0
ARC
  8
1
 62
7
 10
-95.5778069223598
 20
-9.000444386080989
 30
0
 40
0.5000000000000486
 50
58.64420969854425
 51
118.085102247392
  0
ARC
  8
1
 62
7
 10
-103.7617872431097
 20
-0.2241999666509802
 30
0
 40
0.4999999999998972
 50
313.0000000000017
 51
327.9148977526114
  0
ARC
  8
1
 62
7
 10
-106.9377642826249
 20
-8.217611526068389
 30
0
 40
0.2999999999998627
 50
132.9999999999862
 51
223.0000000000141
  0
ARC
  8
1
 62
7
 10
-105.5481922495484
 20
-6.921814641949698
 30
0
 40
0.3000000000000884
 50
43.00000000000262
 51
132.9999999999959
  0
ARC
  8
1
 62
7
 10
-100.5011689938819
 20
-11.32179020686958
 30
0
 40
0.4999999999999809
 50
312.999999999995
 51
40.01624065202166
  0
ARC
  8
1
 62
7
 10
-102.900569382259
 20
-13.5592672667158
 30
0
 40
0.4999999999999336
 50
225.9837593479839
 51
313.0000000000115
  0
ARC
  8
1
 62
7
 10
-104.4812984622226
 20
-12.44907207940178
 30
0
 40
0.1999999999997679
 50
132.9999999999848
 51
225.9837593483052
  0
ARC
  8
1
 62
7
 10
-101.4983937149547
 20
-9.66746840206288
 30
0
 40
0.1999999999999891
 50
40.01624065171436
 51
132.9999999999848
  0
LINE
  8
1
 62
2
 10
0.1651523644049462
 20
-63.19752078129527
 30
0
 11
71.38415017735721
 21
-63.19752078129527
 31
0
  0
LINE
  8
1
 62
2
 10
71.38415017735721
 20
-63.19752078129527
 30
0
 11
98.665152364405
 21
-35.91651859424745
 31
0
  0
SOLID
  8
1
 62
2
 10
96.51610193856676
 20
-38.71721563671504
 30
0
 11
95.86445532193741
 21
-38.06556902008569
 31
0
 12
98.665152364405
 22
-35.91651859424745
 32
0
 13
98.665152364405
 23
-35.91651859424745
 33
0
  0
LINE
  8
1
 62
2
 10
81.05231849750973
 20
42
 30
0
 11
57.22002336582769
 21
42
 31
0
  0
LINE
  8
1
 62
2
 10
57.22002336582769
 20
42
 30
0
 11
67.2200233658277
 21
32.00000000000001
 31
0
  0
SOLID
  8
1
 62
2
 10
64.41932632336011
 20
34.14905042583825
 30
0
 11
65.07097293998946
 21
34.8006970424676
 31
0
 12
67.2200233658277
 22
32.00000000000001
 32
0
 13
67.2200233658277
 23
32.00000000000001
 33
0
  0
TEXT
  8
1
 62
2
 10
-1.000000000000105
 20
17.85415787938599
 30
0
 40
3.2
  1
(0.787DIA. ü@   )
 50
90
 41
0.6300000000000001
 72
1
 73
2
 11
-2.600000000000104
 21
34.99015787938599
 31
0
  0
TEXT
  8
1
 62
2
 10
13.9999999999999
 20
17.84615787938598
 30
0
 40
3.2
  1
(0.197DIA.       )
 50
90
 41
0.6300000000000001
 72
1
 73
2
 11
12.3999999999999
 21
35.99015787938599
 31
0
  0
TEXT
  8
1
 62
2
 10
-2.800000000000105
 20
37.10613523089395
 30
0
 40
2
  1
 0
 50
90
 41
0.63
  0
TEXT
  8
1
 62
2
 10
-0.4000000000001047
 20
37.10613523089395
 30
0
 40
2
  1
-0.00394
 50
90
 41
0.63
  0
TEXT
  8
1
 62
2
 10
-94.76913381851313
 20
49.9027574485798
 30
0
 40
3.2
  1
(1.732DIA.)
 41
0.6300000000000001
 72
1
 73
2
 11
-83.68113381851312
 21
51.5027574485798
 31
0
  0
TEXT
  8
1
 62
2
 10
1.071334405328226
 20
-54.96355368807626
 30
0
 40
3.5
  1
MOTOR LEAD : UL1007 AWG22
 41
0.8100000000000001
 73
2
 11
1.071334405328226
 21
-53.21355368807626
 31
0
  0
TEXT
  8
1
 62
2
 10
1.071334405328226
 20
-47.79821368144177
 30
0
 40
3.5
  1
LEAD WIRES
 41
0.9
 73
2
 11
1.071334405328226
 21
-46.04821368144177
 31
0
  0
TEXT
  8
1
 62
2
 10
1.071334405328226
 20
-61.96355368807626
 30
0
 40
3.5
  1
PG LEAD ü@  : UL1007 AWG24
 41
0.8100000000000001
 73
2
 11
1.071334405328226
 21
-60.21355368807626
 31
0
  0
TEXT
  8
1
 62
2
 10
-140.25
 20
93.5
 30
0
 40
5
  1
DME44BM
 41
0.9
 72
1
 73
2
 11
-124.5
 21
96
 31
0
  0
TEXT
  8
1
 62
2
 10
60.37210523109899
 20
42.82551303864308
 30
0
 40
3
  1
NAME PLATE
 41
0.6300000000000001
 72
1
 73
2
 11
69.82210523109899
 21
44.32551303864308
 31
0
  0
TEXT
  8
1
 62
2
 10
77.2628661814869
 20
61.90275744857979
 30
0
 40
3.2
  1
(3.157)
 41
0.6300000000000001
 72
1
 73
2
 11
84.3188661814869
 21
63.5027574485798
 31
0
  0
TEXT
  8
1
 62
2
 10
26.13261292597128
 20
61.90275744857979
 30
0
 40
3.2
  1
(0.906)
 41
0.6300000000000001
 72
1
 73
2
 11
33.18861292597128
 21
63.5027574485798
 31
0
  0
TEXT
  8
1
 62
2
 10
149.6929951484038
 20
-43.44885064204367
 30
0
 40
2
  1
%%p0.787
 50
90
 41
0.63
 72
1
 73
2
 11
148.6929951484038
 21
-38.40885064204367
 31
0
  0
TEXT
  8
1
 62
2
 10
138.2096923065288
 20
-74.56535013471111
 30
0
 40
3
  1
(0.118)
 50
90
 41
0.6300000000000001
 72
1
 73
2
 11
136.7096923065288
 21
-67.95035013471112
 31
0
  0
TEXT
  8
1
 62
2
 10
150.2929951484038
 20
-54.07015881038469
 30
0
 40
3.2
  1
(5.906    )
 50
90
 41
0.6300000000000001
 72
1
 73
2
 11
148.6929951484038
 21
-42.98215881038469
 31
0
  0
TEXT
  8
1
 62
2
 10
150.2929951484038
 20
-1.087999999999991
 30
0
 40
3.2
  1
(1.811DIA.)
 50
90
 41
0.6300000000000001
 72
1
 73
2
 11
148.6929951484038
 21
10.00000000000001
 31
0
  0
TEXT
  8
1
 62
2
 10
154.524339447508
 20
-60.11815881038469
 30
0
 40
3.2
  1
(FROM MOTOR CASE)
 50
90
 41
0.6300000000000001
 72
1
 73
2
 11
152.924339447508
 21
-42.98215881038469
 31
0
  0
TEXT
  8
1
 62
2
 10
43.526658102762
 20
49.90116106407876
 30
0
 40
3.2
  1
(0.118)
 41
0.6300000000000001
 72
1
 73
2
 11
50.582658102762
 21
51.50116106407876
 31
0
  0
TEXT
  8
1
 62
2
 10
12.1999999999999
 20
36.74613523089396
 30
0
 40
2
  1
-0.0000787
 50
90
 41
0.63
  0
TEXT
  8
1
 62
2
 10
14.5999999999999
 20
36.74613523089396
 30
0
 40
2
  1
-0.000394
 50
90
 41
0.63
  0
TEXT
  8
1
 62
2
 10
-71.89089393652277
 20
-55.50348330781736
 30
0
 40
2.5
  1
%%p0.00787
 41
0.7200000000000001
 72
1
 73
2
 11
-62.89089393652277
 21
-54.25348330781736
 31
0
  0
TEXT
  8
1
 62
2
 10
-66.49995420472096
 20
-48.50304781296148
 30
0
 40
2.5
  1
%%p0.2
 41
0.7200000000000001
 72
1
 73
2
 11
-61.09995420472096
 21
-47.25304781296148
 31
0
  0
TEXT
  8
1
 62
2
 10
-83.28054853507875
 20
37.90431944720205
 30
0
 40
3.2
  1
(0.177     )
 41
0.54
 72
1
 73
2
 11
-72.91254853507876
 21
39.50431944720205
 31
0
  0
TEXT
  8
1
 62
2
 10
-74.96250313197085
 20
38.50431944720205
 30
0
 40
2
  1
%%p0.00787
 41
0.54
 72
1
 73
2
 11
-69.56250313197084
 21
39.50431944720205
 31
0
  0
TEXT
  8
1
 62
2
 10
-104.2558975468381
 20
-49.00304781296148
 30
0
 40
3.5
  1
P=120%%d P.C.D=âË35
 41
0.8100000000000001
 73
2
 11
-104.2558975468381
 21
-47.25304781296148
 31
0
  0
TEXT
  8
1
 62
2
 10
-105.7558975468381
 20
-56.00348330781736
 30
0
 40
3.5
  1
(P.C.D=1.378DIA.     )
 41
0.8550000000000001
 73
2
 11
-105.7558975468381
 21
-54.25348330781736
 31
0
  0
TEXT
  8
1
 62
2
 10
-105.7558975468381
 20
-42.00304781296148
 30
0
 40
3.5
  1
(3-M3 DEPTH 0.138MAX)
 41
0.765
 73
2
 11
-105.7558975468381
 21
-40.25304781296148
 31
0
  0
TEXT
  8
1
 62
2
 10
22.13261292597128
 20
37.9027574485798
 30
0
 40
3.2
  1
(0.669)
 41
0.6300000000000001
 72
1
 73
2
 11
29.18861292597128
 21
39.5027574485798
 31
0
  0
DIMENSION
  8
1
  6
CONTINUOUS
 62
2
  2
*D0
  3
DMST_1
 10
9.103065690358898
 20
12.50000000000003
 30
0
 11
5.703065690358898
 21
35.51589866599331
 31
0
 12
0
 22
0
 32
0
 70
0
  1
âË<>
 13
20.9999999999999
 23
7.500000000000035
 33
0
 14
20.9999999999999
 24
12.50000000000004
 34
0
 50
90
 53
0
  0
DIMENSION
  8
1
  6
CONTINUOUS
 62
2
  2
*D1
  3
DMST_2
 10
-5.944105059063304
 20
20.00000000000001
 30
0
 11
-9.344105059063303
 21
34.94634437913901
 31
0
 12
0
 22
0
 32
0
 70
0
  1
âË<>
 13
41.00000000000001
 23
1.06581410364015e-014
 33
0
 14
41.00000000000001
 24
20.00000000000001
 34
0
 50
90
 53
0
  0
DIMENSION
  8
1
  6
CONTINUOUS
 62
2
  2
*D2
  3
DMST_3
 10
-82
 20
42.06931140222191
 30
0
 11
-72.4119638038857
 21
44.66931140222191
 31
0
 12
0
 22
0
 32
0
 70
0
 13
-86.50000000000001
 23
10.00000000000001
 33
0
 14
-82
 24
11.50000000000005
 34
0
 53
0
  0
DIMENSION
  8
1
  6
CONTINUOUS
 62
2
  2
*D3
  3
DMST_4
 10
43.9999999999999
 20
54.09440105180303
 30
0
 11
50.71570164892041
 21
56.69440105180303
 31
0
 12
0
 22
0
 32
0
 70
0
 13
41.00000000000001
 23
20.00000000000001
 33
0
 14
43.99999999999989
 24
29.00000000000003
 34
0
 53
0
  0
DIMENSION
  8
1
  6
CONTINUOUS
 62
2
  2
*D4
  3
DMST_4
 10
43.99999999999989
 20
65.99747601871792
 30
0
 11
84.09999999999974
 21
68.59747601871791
 31
0
 12
0
 22
0
 32
0
 70
0
 13
124.1999999999996
 23
32.50000000000003
 33
0
 14
43.99999999999989
 24
29.00000000000003
 34
0
 53
0
  0
DIMENSION
  8
1
  6
CONTINUOUS
 62
2
  2
*D5
  3
DMST_5
 10
134.1999999999995
 20
-76.72501808427235
 30
0
 11
131.5999999999995
 21
-67.44345881872876
 31
0
 12
0
 22
0
 32
0
 70
0
  1
(<>
 13
102.9551523644049
 23
-79.72501808427235
 33
0
 14
103.4051523644049
 24
-76.72501808427235
 34
0
 50
90
 53
0
  0
DIMENSION
  8
1
  6
CONTINUOUS
 62
2
  2
*D6
  3
DMST_4
 10
146.126386258749
 20
33.00000000000004
 30
0
 11
143.526386258749
 21
10.00000000000004
 31
0
 12
0
 22
0
 32
0
 70
0
  1
âË<>
 13
123.6999999999996
 23
-12.99999999999997
 33
0
 14
123.6999999999996
 24
33.00000000000003
 34
0
 50
90
 53
0
  0
DIMENSION
  8
1
  6
CONTINUOUS
 62
2
  2
*D7
  3
DMST_4
 10
-61.99999999999999
 20
53.9780695478966
 30
0
 11
-83.99999999999997
 21
56.5780695478966
 31
0
 12
0
 22
0
 32
0
 70
0
  1
âË<>
 13
-106
 23
10.00000000000001
 33
0
 14
-61.99999999999999
 24
10.00000000000001
 34
0
 53
0
  0
DIMENSION
  8
1
  6
CONTINUOUS
 62
2
  2
*D8
  3
DMST_4
 10
43.99999999999989
 20
65.99747601871792
 30
0
 11
32.49999999999989
 21
68.59747601871791
 31
0
 12
0
 22
0
 32
0
 70
0
 13
20.9999999999999
 23
12.50000000000004
 33
0
 14
43.99999999999989
 24
29.00000000000003
 34
0
 53
0
  0
DIMENSION
  8
1
  6
CONTINUOUS
 62
2
  2
*D9
  3
DMST_4
 10
37.99999999999989
 20
41.94613220187301
 30
0
 11
29.49999999999989
 21
44.54613220187301
 31
0
 12
0
 22
0
 32
0
 70
0
 13
20.9999999999999
 23
12.50000000000004
 33
0
 14
37.99999999999989
 24
12.00000000000004
 34
0
 53
0
  0
INSERT
  8
0
  2
___R___O_______R
 10
0.5
 20
-3.75
 30
0
  0
INSERT
  8
1
  2
*D10
 10
0
 20
0
 30
0
  0
INSERT
  8
1
  2
*D11
 10
0
 20
0
 30
0
  0
ENDSEC
  0
EOF
