  0
SECTION
  2
HEADER
  9
$ACADVER
  1
AC1009
  9
$INSBASE
 10
0
 20
0
  9
$EXTMIN
 10
-194.5
 20
-146
  9
$EXTMAX
 10
194.5
 20
146
  9
$LIMMIN
 10
-194.5
 20
-146
  9
$LIMMAX
 10
194.5
 20
146
  9
$VIEWCTR
 10
10
 20
10
  9
$VIEWSIZE
 40
10
  9
$SNAPMODE
 70
0
  9
$SNAPUNIT
 10
1
 20
1
  9
$SNAPBASE
 10
0
 20
0
  9
$SNAPANG
 50
0
  9
$SNAPSTYLE
 70
0
  9
$SNAPISOPAIR
 70
0
  9
$GRIDMODE
 70
0
  9
$GRIDUNIT
 10
0
 20
0
  9
$ORTHOMODE
 70
0
  9
$REGENMODE
 70
1
  9
$FILLMODE
 70
1
  9
$QTEXTMODE
 70
0
  9
$DRAGMODE
 70
2
  9
$LTSCALE
 40
1
  9
$OSMODE
 70
0
  9
$ATTMODE
 70
1
  9
$TEXTSIZE
 40
3.5
  9
$TRACEWID
 40
0.5
  9
$TEXTSTYLE
  7
STANDARD
  9
$CLAYER
  8
0
  9
$CELTYPE
  6
BYLAYER
  9
$CECOLOR
 62
256
  9
$DIMSCALE
 40
1
  9
$DIMASZ
 40
0.18
  9
$DIMEXO
 40
0.0625
  9
$DIMDLI
 40
0.38
  9
$DIMRND
 40
0
  9
$DIMDLE
 40
0
  9
$DIMEXE
 40
0.18
  9
$DIMTP
 40
0
  9
$DIMTM
 40
0
  9
$DIMTXT
 40
0.18
  9
$DIMCEN
 40
0.09
  9
$DIMTSZ
 40
0
  9
$DIMTOL
 70
0
  9
$DIMLIM
 70
0
  9
$DIMTIH
 70
1
  9
$DIMTOH
 70
1
  9
$DIMSE1
 70
0
  9
$DIMSE2
 70
0
  9
$DIMTAD
 70
0
  9
$DIMZIN
 70
0
  9
$DIMBLK
  1

  9
$DIMASO
 70
1
  9
$DIMSHO
 70
1
  9
$DIMPOST
  1

  9
$DIMAPOST
  1

  9
$DIMALT
 70
0
  9
$DIMALTD
 70
2
  9
$DIMALTF
 40
25.4
  9
$DIMLFAC
 40
1
  9
$DIMTOFL
 70
0
  9
$DIMTVP
 40
0
  9
$DIMTIX
 70
0
  9
$DIMSOXD
 70
0
  9
$DIMSAH
 70
0
  9
$DIMBLK1
  1

  9
$DIMBLK2
  1

  9
$DIMSTYLE
  2
*UNNAMED
  9
$DIMCLRD
 70
0
  9
$DIMCLRE
 70
0
  9
$DIMCLRT
 70
0
  9
$DIMTFAC
 40
1
  9
$DIMGAP
 40
0.09
  9
$LUNITS
 70
2
  9
$LUPREC
 70
4
  9
$AXISMODE
 70
0
  9
$AXISUNIT
 10
0
 20
0
  9
$SKETCHINC
 40
0.1
  9
$FILLETRAD
 40
2
  9
$AUNITS
 70
0
  9
$AUPREC
 70
0
  9
$MENU
  1
ACAD
  9
$ELEVATION
 40
0
  9
$THICKNESS
 40
0
  9
$VIEWDIR
 10
0
 20
0
 30
1
  9
$LIMCHECK
 70
0
  9
$BLIPMODE
 70
1
  9
$CHAMFERA
 40
0
  9
$CHAMFERB
 40
0
  9
$FASTZOOM
 70
1
  9
$SKPOLY
 70
0
  9
$ANGBASE
 50
0
  9
$ANGDIR
 70
0
  9
$PDMODE
 70
0
  9
$PDSIZE
 40
0
  9
$PLINEWID
 40
0
  9
$COORDS
 70
2
  0
ENDSEC
  0
SECTION
  2
TABLES
  0
TABLE
  2
DIMSTYLE
 70
6
  0
DIMSTYLE
  2
DMST_1
 70
0
  3

  4

  5

  6

  7

 40
1
 41
3.2
 42
1
 43
7
 44
1
 45
0
 46
0
 47
0
 48
0
140
3.2
141
0
142
0
143
25.4
144
1
145
0
146
1
147
0.09
 71
0
 72
0
 73
0
 74
0
 75
0
 76
0
 77
1
 78
9
170
0
171
2
172
0
173
0
174
0
175
0
176
2
177
2
178
2
  0
DIMSTYLE
  2
DMST_2
 70
0
  3

  4

  5

  6

  7

 40
1
 41
3.2
 42
1
 43
7
 44
1
 45
0
 46
0
 47
0.3
 48
0.3
140
3.2
141
0
142
0
143
25.4
144
1
145
0
146
0.6
147
0.09
 71
1
 72
0
 73
0
 74
0
 75
0
 76
0
 77
1
 78
9
170
0
171
2
172
0
173
0
174
0
175
0
176
2
177
2
178
2
  0
DIMSTYLE
  2
DMST_3
 70
0
  3

  4

  5

  6

  7

 40
1
 41
3.2
 42
1
 43
7
 44
1
 45
0
 46
0
 47
0.5
 48
0.5
140
3.2
141
0
142
0
143
25.4
144
1
145
0
146
0.6
147
0.09
 71
1
 72
0
 73
0
 74
0
 75
0
 76
0
 77
1
 78
9
170
0
171
2
172
0
173
0
174
0
175
0
176
2
177
2
178
2
  0
DIMSTYLE
  2
DMST_4
 70
0
  3

  4

  5

  6

  7

 40
1
 41
3.2
 42
1
 43
7
 44
1
 45
0
 46
0
 47
0.03
 48
0
140
3.2
141
0
142
0
143
25.4
144
1
145
0
146
0.6
147
0.09
 71
1
 72
0
 73
0
 74
0
 75
0
 76
0
 77
1
 78
9
170
0
171
2
172
0
173
0
174
0
175
0
176
2
177
2
178
2
  0
DIMSTYLE
  2
DMST_5
 70
0
  3

  4

  5

  6

  7

 40
1
 41
3.2
 42
1
 43
7
 44
1
 45
0
 46
0
 47
0
 48
0.02
140
3.2
141
0
142
0
143
25.4
144
1
145
0
146
0.6
147
0.09
 71
1
 72
0
 73
0
 74
0
 75
0
 76
0
 77
1
 78
9
170
0
171
2
172
0
173
0
174
0
175
0
176
2
177
2
178
2
  0
DIMSTYLE
  2
DMST_6
 70
0
  3
)
  4

  5

  6

  7

 40
1
 41
3.2
 42
1
 43
7
 44
1
 45
0
 46
0
 47
0
 48
0
140
3.2
141
0
142
0
143
25.4
144
1
145
0
146
1
147
0.09
 71
0
 72
0
 73
0
 74
0
 75
0
 76
0
 77
1
 78
9
170
0
171
2
172
0
173
0
174
0
175
0
176
2
177
2
178
2
  0
ENDTAB
  0
TABLE
  2
LTYPE
 70
9
  0
LTYPE
  2
CONTINUOUS
 70
64
  3
Solid line
 72
65
 73
0
 40
0
  0
LTYPE
  2
BORDER
 70
64
  3
__ __ . __ __ .
 72
65
 73
6
 40
17.91447368421053
 49
5.118421052631579
 49
-2.559210526315789
 49
5.118421052631579
 49
-2.559210526315789
 49
0
 49
-2.559210526315789
  0
LTYPE
  2
CENTER
 70
64
  3
____ _ ____ _
 72
65
 73
4
 40
20.47368421052632
 49
12.79605263157895
 49
-2.559210526315789
 49
2.559210526315789
 49
-2.559210526315789
  0
LTYPE
  2
DASHDOT
 70
64
  3
__ . __ . __ .
 72
65
 73
4
 40
10.23684210526316
 49
5.118421052631579
 49
-2.559210526315789
 49
0
 49
-2.559210526315789
  0
LTYPE
  2
DASHED
 70
64
  3
__ __ __ __ __
 72
65
 73
2
 40
7.677631578947368
 49
5.118421052631579
 49
-2.559210526315789
  0
LTYPE
  2
DIVIDE
 70
64
  3
__ . . __ . . 
 72
65
 73
6
 40
12.79605263157895
 49
5.118421052631579
 49
-2.559210526315789
 49
0
 49
-2.559210526315789
 49
0
 49
-2.559210526315789
  0
LTYPE
  2
DOT
 70
64
  3
..............
 72
65
 73
4
 40
5.118421052631579
 49
0
 49
-2.559210526315789
 49
0
 49
-2.559210526315789
  0
LTYPE
  2
HIDDEN
 70
64
  3
_ _ _ _ _ _ _
 72
65
 73
2
 40
3.838815789473684
 49
2.559210526315789
 49
-1.279605263157895
  0
LTYPE
  2
PHANTOM
 70
64
  3
_____ _ _ _____ _ _ 
 72
65
 73
6
 40
25.59210526315789
 49
12.79605263157895
 49
-2.559210526315789
 49
2.559210526315789
 49
-2.559210526315789
 49
2.559210526315789
 49
-2.559210526315789
  0
ENDTAB
  0
TABLE
  2
LAYER
 70
3
  0
LAYER
  2
1
 70
0
 62
7
  6
CONTINUOUS
  0
LAYER
  2
0
 70
0
 62
7
  6
CONTINUOUS
  0
ENDTAB
  0
TABLE
  2
STYLE
 70
4
  0
STYLE
  2
STANDARD
 70
0
 40
0
 41
1
 50
0
 71
0
 42
3.5
  3
txt
  4

  0
STYLE
  2
SIMPLEX
 70
0
 40
0
 41
1
 50
0
 71
0
 42
3.5
  3
simplex
  4

  0
STYLE
  2
COMPLEX
 70
0
 40
0
 41
1
 50
0
 71
0
 42
3.5
  3
complex
  4

  0
STYLE
  2
ITALIC
 70
0
 40
0
 41
1
 50
0
 71
0
 42
3.5
  3
italic
  4

  0
ENDTAB
  0
TABLE
  2
VIEW
 70
0
  0
ENDTAB
  0
ENDSEC
  0
SECTION
  2
BLOCKS
  0
BLOCK
  8
0
  2
___
 70
0
 10
-196.1221264909976
 20
-445.6883015227631
 30
0
  0
LINE
  8
1
 62
2
  6
DOT
 10
-56.5
 20
-80.10000000000002
 30
0
 11
-56.5
 21
-93.69999999999999
 31
0
  0
LINE
  8
1
 62
7
 10
-106.5
 20
-76.5
 30
0
 11
-106.5
 21
-93.69999999999999
 31
0
  0
LINE
  8
1
 62
7
 10
-36.49999999999989
 20
-76.5
 30
0
 11
-171.5
 21
-76.5
 31
0
  0
LINE
  8
1
 62
7
 10
-171.5
 20
-88.69999999999999
 30
0
 11
-36.5
 21
-88.69999999999999
 31
0
  0
LINE
  8
1
 62
7
 10
-171.5
 20
-93.69999999999999
 30
0
 11
-36.5
 21
-93.69999999999999
 31
0
  0
LINE
  8
1
 62
7
 10
-36.49999999999989
 20
-76.5
 30
0
 11
-36.5
 21
-93.69999999999999
 31
0
  0
LINE
  8
1
 62
7
 10
-141.5
 20
-76.5
 30
0
 11
-141.5
 21
-93.69999999999999
 31
0
  0
LINE
  8
1
 62
7
 10
-171.5
 20
-76.5
 30
0
 11
-171.5
 21
-93.69999999999999
 31
0
  0
LINE
  8
1
 62
4
  6
PHANTOM
 10
-194.5
 20
-146
 30
0
 11
-194.5
 21
-136
 31
0
  0
LINE
  8
1
 62
4
  6
PHANTOM
 10
-194.5
 20
-146
 30
0
 11
-184.5
 21
-146
 31
0
  0
LINE
  8
1
 62
7
 10
-141.5
 20
-80.10000000000002
 30
0
 11
-36.5
 21
-80.10000000000002
 31
0
  0
LINE
  8
1
 62
7
 10
-71.49999999999989
 20
-76.5
 30
0
 11
-71.49999999999989
 21
-93.69999999999999
 31
0
  0
LINE
  8
1
 62
2
  6
DOT
 10
-126.5
 20
-80.10000000000002
 30
0
 11
-126.5
 21
-93.69999999999999
 31
0
  0
LINE
  8
1
 62
7
 10
-171.5
 20
-83.69999999999999
 30
0
 11
-36.5
 21
-83.69999999999999
 31
0
  0
LINE
  8
1
 62
2
  6
DOT
 10
-91.5
 20
-80.10000000000002
 30
0
 11
-91.5
 21
-93.69999999999999
 31
0
  0
TEXT
  8
1
 62
2
 10
-60.35040000000013
 20
-79.56000000000002
 30
0
 40
2.520000000000007
  1
ＢＯＬＴ
 41
0.63
 72
1
 73
2
 11
-54
 21
-78.30000000000001
 31
0
  0
TEXT
  8
1
 62
7
 10
-75.25
 20
-92.44999999999999
 30
0
 40
2.5
  1
Ｍ５×６０
 41
0.9
 72
1
 73
2
 11
-64
 21
-91.19999999999999
 31
0
  0
TEXT
  8
1
 62
7
 10
-75.25
 20
-87.44999999999999
 30
0
 40
2.5
  1
Ｍ５×５０
 41
0.9
 72
1
 73
2
 11
-64
 21
-86.19999999999999
 31
0
  0
TEXT
  8
1
 62
2
 10
-68.7628000000001
 20
-83.15999999999998
 30
0
 40
2.520000000000007
  1
(ｍｍ)
 41
0.63
 72
1
 73
2
 11
-64
 21
-81.89999999999998
 31
0
  0
TEXT
  8
1
 62
2
 10
-54.43800000000016
 20
-83.15999999999998
 30
0
 40
2.520000000000007
  1
(ｉｎｃｈ)
 41
0.63
 72
1
 73
2
 11
-46.5
 21
-81.89999999999998
 31
0
  0
TEXT
  8
1
 62
7
 10
-60.9
 20
-92.44999999999999
 30
0
 40
2.5
  1
Ｍ５×２．３６２
 41
0.7200000000000001
 72
1
 73
2
 11
-46.5
 21
-91.19999999999999
 31
0
  0
TEXT
  8
1
 62
7
 10
-60.9
 20
-87.44999999999999
 30
0
 40
2.5
  1
Ｍ５×１．９６９
 41
0.7200000000000001
 72
1
 73
2
 11
-46.5
 21
-86.19999999999999
 31
0
  0
TEXT
  8
1
 62
2
 10
-91.38140000000004
 20
-79.56000000000002
 30
0
 40
2.520000000000007
  1
Ｌ2
 41
0.63
 72
1
 73
2
 11
-89
 21
-78.30000000000001
 31
0
  0
TEXT
  8
1
 62
7
 10
-103.5
 20
-92.44999999999999
 30
0
 40
2.5
  1
４２
 41
0.9
 72
1
 73
2
 11
-99
 21
-91.19999999999999
 31
0
  0
TEXT
  8
1
 62
7
 10
-103.5
 20
-87.44999999999999
 30
0
 40
2.5
  1
３２
 41
0.9
 72
1
 73
2
 11
-99
 21
-86.19999999999999
 31
0
  0
TEXT
  8
1
 62
7
 10
-145.25
 20
-92.44999999999999
 30
0
 40
2.5
  1
１１１．１
 41
0.9
 72
1
 73
2
 11
-134
 21
-91.19999999999999
 31
0
  0
TEXT
  8
1
 62
7
 10
-145.25
 20
-87.44999999999999
 30
0
 40
2.5
  1
１０１．１
 41
0.9
 72
1
 73
2
 11
-134
 21
-86.19999999999999
 31
0
  0
TEXT
  8
1
 62
2
 10
-126.3814
 20
-79.56000000000002
 30
0
 40
2.520000000000007
  1
Ｌ1
 41
0.63
 72
1
 73
2
 11
-124
 21
-78.30000000000001
 31
0
  0
TEXT
  8
1
 62
7
 10
-170.5
 20
-92.44999999999999
 30
0
 40
2.5
  1
１／２２５ ～ １／１８００
 41
0.7200000000000001
 73
2
 11
-170.5
 21
-91.19999999999999
 31
0
  0
TEXT
  8
1
 62
7
 10
-170.5
 20
-87.44999999999999
 30
0
 40
2.5
  1
１／３　　 ～ １／１８０
 41
0.7200000000000001
 73
2
 11
-170.5
 21
-86.19999999999999
 31
0
  0
TEXT
  8
1
 62
2
 10
-180.9944000000005
 20
-81.35999999999997
 30
0
 40
2.520000000000007
  1
ＤＥＣＯＬＥＲＡＴＩＯＮ　ＲＡＴＩＯ
 41
0.5399999999999999
 72
1
 73
2
 11
-156.5
 21
-80.09999999999997
 31
0
  0
TEXT
  8
1
 62
2
 10
-138.7628000000001
 20
-83.15999999999998
 30
0
 40
2.520000000000007
  1
(ｍｍ)
 41
0.63
 72
1
 73
2
 11
-134
 21
-81.89999999999998
 31
0
  0
TEXT
  8
1
 62
2
 10
-103.7628000000001
 20
-83.15999999999998
 30
0
 40
2.520000000000007
  1
(ｍｍ)
 41
0.63
 72
1
 73
2
 11
-99
 21
-81.89999999999998
 31
0
  0
TEXT
  8
1
 62
2
 10
-124.4380000000002
 20
-83.15999999999998
 30
0
 40
2.520000000000007
  1
(ｉｎｃｈ)
 41
0.63
 72
1
 73
2
 11
-116.5
 21
-81.89999999999998
 31
0
  0
TEXT
  8
1
 62
2
 10
-89.43800000000016
 20
-83.15999999999998
 30
0
 40
2.520000000000007
  1
(ｉｎｃｈ)
 41
0.63
 72
1
 73
2
 11
-81.5
 21
-81.89999999999998
 31
0
  0
TEXT
  8
1
 62
7
 10
-125.5
 20
-87.44999999999999
 30
0
 40
2.5
  1
３．９８
 41
0.9
 72
1
 73
2
 11
-116.5
 21
-86.19999999999999
 31
0
  0
TEXT
  8
1
 62
7
 10
-127.75
 20
-92.44999999999999
 30
0
 40
2.5
  1
４．３７４
 41
0.9
 72
1
 73
2
 11
-116.5
 21
-91.19999999999999
 31
0
  0
TEXT
  8
1
 62
7
 10
-92.75
 20
-92.44999999999999
 30
0
 40
2.5
  1
１．６５４
 41
0.9
 72
1
 73
2
 11
-81.5
 21
-91.19999999999999
 31
0
  0
TEXT
  8
1
 62
7
 10
-90.5
 20
-87.44999999999999
 30
0
 40
2.5
  1
１．２６
 41
0.9
 72
1
 73
2
 11
-81.5
 21
-86.19999999999999
 31
0
  0
ENDBLK
  8
0
  0
BLOCK
  8
0
  2
TOP
 70
0
 10
358.2751942342005
 20
217.2680463147007
 30
0
  0
INSERT
  8
0
  2
___
 10
-196.1221264909976
 20
-445.6883015227631
 30
0
  0
ENDBLK
  8
0
  0
BLOCK
  8
0
  2
___R___O_______R__S
 70
0
 10
0.5
 20
-3.75
 30
0
  0
LINE
  8
1
 62
4
  6
PHANTOM
 10
194.5
 20
-136.5
 30
0
 11
194.5
 21
-146
 31
0
  0
LINE
  8
1
 62
4
  6
PHANTOM
 10
-194.5
 20
-146
 30
0
 11
-194.5
 21
146
 31
0
  0
LINE
  8
1
 62
4
  6
PHANTOM
 10
194.5
 20
146
 30
0
 11
194.5
 21
129
 31
0
  0
LINE
  8
1
 62
4
  6
PHANTOM
 10
194.5
 20
146
 30
0
 11
-194.5
 21
146
 31
0
  0
LINE
  8
1
 62
4
  6
PHANTOM
 10
-194.5
 20
-146
 30
0
 11
194.5
 21
-146
 31
0
  0
LINE
  8
1
 62
4
  6
PHANTOM
 10
194.5
 20
-136.5
 30
0
 11
194.5
 21
-146
 31
0
  0
LINE
  8
1
 62
4
  6
PHANTOM
 10
-194.5
 20
-146
 30
0
 11
-194.5
 21
146
 31
0
  0
LINE
  8
1
 62
4
  6
PHANTOM
 10
194.5
 20
146
 30
0
 11
194.5
 21
129
 31
0
  0
LINE
  8
1
 62
4
  6
PHANTOM
 10
194.5
 20
146
 30
0
 11
-194.5
 21
146
 31
0
  0
LINE
  8
1
 62
4
  6
PHANTOM
 10
-194.5
 20
-146
 30
0
 11
194.5
 21
-146
 31
0
  0
TEXT
  8
1
 62
4
 10
178.746911898274
 20
-142.6071298819256
 30
0
 40
5
  1
A3
 41
0.9
 72
1
 73
2
 11
183.246911898274
 21
-140.1071298819256
 31
0
  0
TEXT
  8
1
 62
4
 10
178.746911898274
 20
-142.6071298819256
 30
0
 40
5
  1
A3
 41
0.9
 72
1
 73
2
 11
183.246911898274
 21
-140.1071298819256
 31
0
  0
ENDBLK
  8
0
  0
BLOCK
  8
1
  2
*D0
 70
1
 10
0
 20
0
 30
0
  0
LINE
  8
1
 62
2
 10
156.060498167021
 20
-22
 30
0
 11
156.060498167021
 21
22
 31
0
  0
LINE
  8
1
 62
2
 10
130.4999999999999
 20
-22
 30
0
 11
157.060498167021
 21
-22
 31
0
  0
LINE
  8
1
 62
2
 10
130.4999999999999
 20
22
 30
0
 11
157.060498167021
 21
22
 31
0
  0
SOLID
  8
1
 62
2
 10
156.060498167021
 20
22
 30
0
 11
156.476498167021
 21
18.8
 31
0
 12
155.644498167021
 22
18.8
 32
0
 13
155.644498167021
 23
18.8
 33
0
  0
SOLID
  8
1
 62
2
 10
156.060498167021
 20
-22
 30
0
 11
155.644498167021
 21
-18.8
 31
0
 12
156.476498167021
 22
-18.8
 32
0
 13
156.476498167021
 23
-18.8
 33
0
  0
TEXT
  8
1
 62
2
 10
155.060498167021
 20
-0.577777777777778
 30
0
 40
3.2
  1
44
 50
90
 41
0.9
  0
TEXT
  8
1
 62
2
 10
155.060498167021
 20
-4.222222222222222
 30
0
 40
3.2
  1
φ
 50
90
 41
0.9
  0
ENDBLK
  8
0
  0
BLOCK
  8
1
  2
*D1
 70
1
 10
0
 20
0
 30
0
  0
LINE
  8
1
 62
2
 10
35
 20
62.0281973315879
 30
0
 11
67
 21
62.0281973315879
 31
0
  0
LINE
  8
1
 62
2
 10
67
 20
41
 30
0
 11
67
 21
63.0281973315879
 31
0
  0
LINE
  8
1
 62
2
 10
35
 20
39.5
 30
0
 11
35
 21
63.0281973315879
 31
0
  0
SOLID
  8
1
 62
2
 10
35
 20
62.0281973315879
 30
0
 11
38.2
 21
62.44419733158789
 31
0
 12
38.2
 22
61.6121973315879
 32
0
 13
38.2
 23
61.6121973315879
 33
0
  0
SOLID
  8
1
 62
2
 10
67
 20
62.0281973315879
 30
0
 11
63.8
 21
61.6121973315879
 31
0
 12
63.8
 22
62.44419733158789
 32
0
 13
63.8
 23
62.44419733158789
 33
0
  0
TEXT
  8
1
 62
2
 10
48.60000000000001
 20
63.0281973315879
 30
0
 40
3.2
  1
L2
 41
0.9
  0
ENDBLK
  8
0
  0
BLOCK
  8
1
  2
*D2
 70
1
 10
0
 20
0
 30
0
  0
LINE
  8
1
 62
2
 10
-47.976633598102
 20
-33.25
 30
0
 11
-47.976633598102
 21
33.25
 31
0
  0
LINE
  8
1
 62
2
 10
-68.99999999999999
 20
-33.25
 30
0
 11
-46.976633598102
 21
-33.25
 31
0
  0
LINE
  8
1
 62
2
 10
-68.99999999999999
 20
33.25
 30
0
 11
-46.976633598102
 21
33.25
 31
0
  0
SOLID
  8
1
 62
2
 10
-47.976633598102
 20
33.25
 30
0
 11
-47.560633598102
 21
30.05
 31
0
 12
-48.392633598102
 22
30.05
 32
0
 13
-48.392633598102
 23
30.05
 33
0
  0
SOLID
  8
1
 62
2
 10
-47.976633598102
 20
-33.25
 30
0
 11
-48.392633598102
 21
-30.05
 31
0
 12
-47.560633598102
 22
-30.05
 32
0
 13
-47.560633598102
 23
-30.05
 33
0
  0
TEXT
  8
1
 62
2
 10
-48.976633598102
 20
-7.584
 30
0
 40
3.2
  1
66.5
 50
90
 41
0.9
  0
TEXT
  8
1
 62
2
 10
-49.616633598102
 20
2.736000000000001
 30
0
 40
1.92
  1
%%p0.3
 50
90
 41
0.9
  0
ENDBLK
  8
0
  0
BLOCK
  8
1
  2
*D3
 70
1
 10
0
 20
0
 30
0
  0
LINE
  8
1
 62
2
 10
-60.1124513184787
 20
0
 30
0
 11
-60.1124513184787
 21
-14.92405112431754
 31
0
  0
LINE
  8
1
 62
2
 10
-60.1124513184787
 20
0
 30
0
 11
-60.1124513184787
 21
15
 31
0
  0
LINE
  8
1
 62
2
 10
-92
 20
15
 30
0
 11
-59.1124513184787
 21
15
 31
0
  0
LINE
  8
1
 62
2
 10
-68.99999999999999
 20
0
 30
0
 11
-59.1124513184787
 21
0
 31
0
  0
SOLID
  8
1
 62
2
 10
-60.1124513184787
 20
15
 30
0
 11
-59.6964513184787
 21
11.8
 31
0
 12
-60.5284513184787
 22
11.8
 32
0
 13
-60.5284513184787
 23
11.8
 33
0
  0
SOLID
  8
1
 62
2
 10
-60.1124513184787
 20
0
 30
0
 11
-60.5284513184787
 21
3.200000000000001
 31
0
 12
-59.6964513184787
 22
3.200000000000001
 32
0
 13
-59.6964513184787
 23
3.200000000000001
 33
0
  0
TEXT
  8
1
 62
2
 10
-61.1124513184787
 20
-14.92405112431754
 30
0
 40
3.2
  1
15
 50
90
 41
0.9
  0
TEXT
  8
1
 62
2
 10
-61.7524513184787
 20
-9.48405112431754
 30
0
 40
1.92
  1
%%p0.5
 50
90
 41
0.9
  0
ENDBLK
  8
0
  0
BLOCK
  8
1
  2
*D4
 70
1
 10
0
 20
0
 30
0
  0
LINE
  8
1
 62
2
 10
-112
 20
50.0130544528453
 30
0
 11
-165.60591644028
 21
50.0130544528453
 31
0
  0
LINE
  8
1
 62
2
 10
-112
 20
50.0130544528453
 30
0
 11
-108
 21
50.0130544528453
 31
0
  0
LINE
  8
1
 62
2
 10
-101.6
 20
50.0130544528453
 30
0
 11
-108
 21
50.0130544528453
 31
0
  0
LINE
  8
1
 62
2
 10
-108
 20
20.58257569495578
 30
0
 11
-108
 21
51.0130544528453
 31
0
  0
LINE
  8
1
 62
2
 10
-112
 20
20.58257569495578
 30
0
 11
-112
 21
51.0130544528453
 31
0
  0
SOLID
  8
1
 62
2
 10
-112
 20
50.0130544528453
 30
0
 11
-115.2
 21
49.59705445284531
 31
0
 12
-115.2
 22
50.4290544528453
 32
0
 13
-115.2
 23
50.4290544528453
 33
0
  0
SOLID
  8
1
 62
2
 10
-108
 20
50.0130544528453
 30
0
 11
-104.8
 21
50.4290544528453
 31
0
 12
-104.8
 22
49.59705445284531
 32
0
 13
-104.8
 23
49.59705445284531
 33
0
  0
TEXT
  8
1
 62
2
 10
-165.60591644028
 20
51.8130544528453
 30
0
 40
3.2
  1
4
 41
0.9
  0
TEXT
  8
1
 62
2
 10
-162.08591644028
 20
53.8930544528453
 30
0
 40
1.92
  1
+0.03
 41
0.9
  0
TEXT
  8
1
 62
2
 10
-162.08591644028
 20
51.0130544528453
 30
0
 40
1.92
  1
 0
 41
0.9
  0
ENDBLK
  8
0
  0
BLOCK
  8
1
  2
*D5
 70
1
 10
0
 20
0
 30
0
  0
LINE
  8
1
 62
2
 10
-127
 20
62.1726311147166
 30
0
 11
-93
 21
62.1726311147166
 31
0
  0
LINE
  8
1
 62
2
 10
-127
 20
16
 30
0
 11
-127
 21
63.1726311147166
 31
0
  0
LINE
  8
1
 62
2
 10
-93
 20
16
 30
0
 11
-93
 21
63.1726311147166
 31
0
  0
SOLID
  8
1
 62
2
 10
-127
 20
62.1726311147166
 30
0
 11
-123.8
 21
62.5886311147166
 31
0
 12
-123.8
 22
61.75663111471661
 32
0
 13
-123.8
 23
61.75663111471661
 33
0
  0
SOLID
  8
1
 62
2
 10
-93
 20
62.1726311147166
 30
0
 11
-96.2
 21
61.75663111471661
 31
0
 12
-96.2
 22
62.5886311147166
 32
0
 13
-96.2
 23
62.5886311147166
 33
0
  0
TEXT
  8
1
 62
2
 10
-110.5777777777778
 20
63.1726311147166
 30
0
 40
3.2
  1
34
 41
0.9
  0
TEXT
  8
1
 62
2
 10
-114.2222222222222
 20
63.1726311147166
 30
0
 40
3.2
  1
φ
 41
0.9
  0
ENDBLK
  8
0
  0
BLOCK
  8
1
  2
*D6
 70
1
 10
0
 20
0
 30
0
  0
LINE
  8
1
 62
2
 10
-143.2500000000001
 20
74.0224804065669
 30
0
 11
-76.75
 21
74.0224804065669
 31
0
  0
LINE
  8
1
 62
2
 10
-143.2500000000001
 20
41
 30
0
 11
-143.2500000000001
 21
75.0224804065669
 31
0
  0
LINE
  8
1
 62
2
 10
-76.75
 20
41
 30
0
 11
-76.75
 21
75.0224804065669
 31
0
  0
SOLID
  8
1
 62
2
 10
-143.2500000000001
 20
74.0224804065669
 30
0
 11
-140.0500000000002
 21
74.4384804065669
 31
0
 12
-140.0500000000002
 22
73.6064804065669
 32
0
 13
-140.0500000000002
 23
73.6064804065669
 33
0
  0
SOLID
  8
1
 62
2
 10
-76.75
 20
74.0224804065669
 30
0
 11
-79.95
 21
73.6064804065669
 31
0
 12
-79.95
 22
74.4384804065669
 32
0
 13
-79.95
 23
74.4384804065669
 33
0
  0
TEXT
  8
1
 62
2
 10
-117.584
 20
75.0224804065669
 30
0
 40
3.2
  1
66.5
 41
0.9
  0
TEXT
  8
1
 62
2
 10
-107.264
 20
75.6624804065669
 30
0
 40
1.92
  1
%%p0.3
 41
0.9
  0
ENDBLK
  8
0
  0
BLOCK
  8
1
  2
*D7
 70
1
 10
0
 20
0
 30
0
  0
LINE
  8
1
 62
2
 10
-150.0000000000001
 20
86.111812470225
 30
0
 11
-70.00000000000003
 21
86.111812470225
 31
0
  0
LINE
  8
1
 62
2
 10
-150.0000000000001
 20
34.25
 30
0
 11
-150.0000000000001
 21
87.111812470225
 31
0
  0
LINE
  8
1
 62
2
 10
-70.00000000000003
 20
34.25
 30
0
 11
-70.00000000000003
 21
87.111812470225
 31
0
  0
SOLID
  8
1
 62
2
 10
-150.0000000000001
 20
86.111812470225
 30
0
 11
-146.8000000000001
 21
86.527812470225
 31
0
 12
-146.8000000000001
 22
85.69581247022501
 32
0
 13
-146.8000000000001
 23
85.69581247022501
 33
0
  0
SOLID
  8
1
 62
2
 10
-70.00000000000003
 20
86.111812470225
 30
0
 11
-73.20000000000003
 21
85.69581247022501
 31
0
 12
-73.20000000000003
 22
86.527812470225
 32
0
 13
-73.20000000000003
 23
86.527812470225
 33
0
  0
TEXT
  8
1
 62
2
 10
-110.3111111111111
 20
87.111812470225
 30
0
 40
3.2
  1
80
 41
0.9
  0
TEXT
  8
1
 62
2
 10
-114.4888888888889
 20
87.111812470225
 30
0
 40
3.2
  1
□
 41
0.9
  0
ENDBLK
  8
0
  0
BLOCK
  8
1
  2
*D8
 70
1
 10
0
 20
0
 30
0
  0
LINE
  8
1
 62
2
 10
35.00000000000001
 20
74.0798607480758
 30
0
 11
136.1000000000005
 21
74.0798607480758
 31
0
  0
LINE
  8
1
 62
2
 10
136.1000000000005
 20
11
 30
0
 11
136.1000000000005
 21
75.0798607480758
 31
0
  0
LINE
  8
1
 62
2
 10
35.00000000000001
 20
39.5
 30
0
 11
35.00000000000001
 21
75.0798607480758
 31
0
  0
SOLID
  8
1
 62
2
 10
35.00000000000001
 20
74.0798607480758
 30
0
 11
38.20000000000002
 21
74.4958607480758
 31
0
 12
38.20000000000002
 22
73.66386074807581
 32
0
 13
38.20000000000002
 23
73.66386074807581
 33
0
  0
SOLID
  8
1
 62
2
 10
136.1000000000005
 20
74.0798607480758
 30
0
 11
132.9000000000005
 21
73.66386074807581
 31
0
 12
132.9000000000005
 22
74.4958607480758
 32
0
 13
132.9000000000005
 23
74.4958607480758
 33
0
  0
TEXT
  8
1
 62
2
 10
79.34226123040807
 20
75.0798607480758
 30
0
 40
3.2
  1
L1
 41
0.9
  0
ENDBLK
  8
0
  0
BLOCK
  8
1
  2
*D9
 70
1
 10
0
 20
0
 30
0
  0
LINE
  8
1
 62
2
 10
0
 20
74.09025029597801
 30
0
 11
35
 21
74.09025029597801
 31
0
  0
LINE
  8
1
 62
2
 10
0
 20
20.58257569495577
 30
0
 11
0
 21
75.09025029597801
 31
0
  0
LINE
  8
1
 62
2
 10
35
 20
39.25000000000001
 30
0
 11
35
 21
75.09025029597801
 31
0
  0
SOLID
  8
1
 62
2
 10
0
 20
74.09025029597801
 30
0
 11
3.200000000000001
 21
74.50625029597801
 31
0
 12
3.200000000000001
 22
73.67425029597801
 32
0
 13
3.200000000000001
 23
73.67425029597801
 33
0
  0
SOLID
  8
1
 62
2
 10
35
 20
74.09025029597801
 30
0
 11
31.8
 21
73.67425029597801
 31
0
 12
31.8
 22
74.50625029597801
 32
0
 13
31.8
 23
74.50625029597801
 33
0
  0
TEXT
  8
1
 62
2
 10
15.1
 20
75.09025029597801
 30
0
 40
3.2
  1
35
 41
0.9
  0
ENDBLK
  8
0
  0
BLOCK
  8
1
  2
*D10
 70
1
 10
0
 20
0
 30
0
  0
LINE
  8
1
 62
2
 10
41.4
 20
62.043459239938
 30
0
 11
35
 21
62.043459239938
 31
0
  0
LINE
  8
1
 62
2
 10
30
 20
62.043459239938
 30
0
 11
35
 21
62.043459239938
 31
0
  0
LINE
  8
1
 62
2
 10
30
 20
62.043459239938
 30
0
 11
22.4597186793957
 21
62.043459239938
 31
0
  0
LINE
  8
1
 62
2
 10
30
 20
37.71499999999997
 30
0
 11
30
 21
63.043459239938
 31
0
  0
LINE
  8
1
 62
2
 10
35
 20
39.5
 30
0
 11
35
 21
63.043459239938
 31
0
  0
SOLID
  8
1
 62
2
 10
30
 20
62.043459239938
 30
0
 11
26.8
 21
61.627459239938
 31
0
 12
26.8
 22
62.45945923993799
 32
0
 13
26.8
 23
62.45945923993799
 33
0
  0
SOLID
  8
1
 62
2
 10
35
 20
62.043459239938
 30
0
 11
38.2
 21
62.45945923993799
 31
0
 12
38.2
 22
61.627459239938
 32
0
 13
38.2
 23
61.627459239938
 33
0
  0
TEXT
  8
1
 62
2
 10
22.4597186793957
 20
63.043459239938
 30
0
 40
3.2
  1
5
 41
0.9
  0
ENDBLK
  8
0
  0
BLOCK
  8
1
  2
*D11
 70
1
 10
0
 20
0
 30
0
  0
LINE
  8
1
 62
2
 10
0
 20
49.977713211133
 30
0
 11
25
 21
49.977713211133
 31
0
  0
LINE
  8
1
 62
2
 10
25
 20
18.5
 30
0
 11
25
 21
50.977713211133
 31
0
  0
LINE
  8
1
 62
2
 10
0
 20
20.58257569495578
 30
0
 11
0
 21
50.977713211133
 31
0
  0
SOLID
  8
1
 62
2
 10
0
 20
49.977713211133
 30
0
 11
3.200000000000001
 21
50.393713211133
 31
0
 12
3.200000000000001
 22
49.561713211133
 32
0
 13
3.200000000000001
 23
49.561713211133
 33
0
  0
SOLID
  8
1
 62
2
 10
25
 20
49.977713211133
 30
0
 11
21.8
 21
49.561713211133
 31
0
 12
21.8
 22
50.393713211133
 32
0
 13
21.8
 23
50.393713211133
 33
0
  0
TEXT
  8
1
 62
2
 10
10.1
 20
50.977713211133
 30
0
 40
3.2
  1
25
 41
0.9
  0
ENDBLK
  8
0
  0
BLOCK
  8
1
  2
*D12
 70
1
 10
0
 20
0
 30
0
  0
LINE
  8
1
 62
2
 10
-9.951716100841701
 20
20
 30
0
 11
-9.951716100841701
 21
32.2798576376304
 31
0
  0
LINE
  8
1
 62
2
 10
-9.951716100841701
 20
17.5
 30
0
 11
-9.951716100841701
 21
20
 31
0
  0
LINE
  8
1
 62
2
 10
-9.951716100841701
 20
11.1
 30
0
 11
-9.951716100841701
 21
17.5
 31
0
  0
LINE
  8
1
 62
2
 10
26.08257569495578
 20
20
 30
0
 11
-10.9517161008417
 21
20
 31
0
  0
LINE
  8
1
 62
2
 10
-1
 20
17.5
 30
0
 11
-10.9517161008417
 21
17.5
 31
0
  0
SOLID
  8
1
 62
2
 10
-9.951716100841701
 20
20
 30
0
 11
-10.3677161008417
 21
23.2
 31
0
 12
-9.535716100841702
 22
23.2
 32
0
 13
-9.535716100841702
 23
23.2
 33
0
  0
SOLID
  8
1
 62
2
 10
-9.951716100841701
 20
17.5
 30
0
 11
-9.535716100841702
 21
14.3
 31
0
 12
-10.3677161008417
 22
14.3
 32
0
 13
-10.3677161008417
 23
14.3
 33
0
  0
TEXT
  8
1
 62
2
 10
-10.9517161008417
 20
26.4398576376304
 30
0
 40
3.2
  1
2.5
 50
90
 41
0.9
  0
ENDBLK
  8
0
  0
BLOCK
  8
1
  2
*D13
 70
1
 10
0
 20
0
 30
0
  0
LINE
  8
1
 62
2
 10
-21.91641052354661
 20
20
 30
0
 11
-21.91641052354661
 21
38.63508221801452
 31
0
  0
LINE
  8
1
 62
2
 10
-21.91641052354661
 20
10
 30
0
 11
-21.91641052354661
 21
20
 31
0
  0
LINE
  8
1
 62
2
 10
26.08257569495578
 20
20
 30
0
 11
-22.91641052354661
 21
20
 31
0
  0
LINE
  8
1
 62
2
 10
-1
 20
10
 30
0
 11
-22.91641052354661
 21
10
 31
0
  0
SOLID
  8
1
 62
2
 10
-21.91641052354661
 20
20
 30
0
 11
-21.50041052354661
 21
16.8
 31
0
 12
-22.33241052354661
 22
16.8
 32
0
 13
-22.33241052354661
 23
16.8
 33
0
  0
SOLID
  8
1
 62
2
 10
-21.91641052354661
 20
10
 30
0
 11
-22.33241052354661
 21
13.2
 31
0
 12
-21.50041052354662
 22
13.2
 32
0
 13
-21.50041052354662
 23
13.2
 33
0
  0
TEXT
  8
1
 62
2
 10
-23.71641052354661
 20
26.42708221801452
 30
0
 40
3.2
  1
10
 50
90
 41
0.9
  0
TEXT
  8
1
 62
2
 10
-25.79641052354661
 20
31.86708221801452
 30
0
 40
1.92
  1
 0
 50
90
 41
0.9
  0
TEXT
  8
1
 62
2
 10
-22.91641052354661
 20
31.86708221801452
 30
0
 40
1.92
  1
-0.02
 50
90
 41
0.9
  0
TEXT
  8
1
 62
2
 10
-23.71641052354661
 20
22.78263777357008
 30
0
 40
3.2
  1
φ
 50
90
 41
0.9
  0
ENDBLK
  8
0
  0
BLOCK
  8
1
  2
*D14
 70
1
 10
0
 20
0
 30
0
  0
LINE
  8
1
 62
2
 10
144.01213367191
 20
-69.7823380118422
 30
0
 11
144.01213367191
 21
-58.50993385985932
 31
0
  0
LINE
  8
1
 62
2
 10
144.01213367191
 20
-72.7823380118422
 30
0
 11
144.01213367191
 21
-69.7823380118422
 31
0
  0
LINE
  8
1
 62
2
 10
144.01213367191
 20
-79.18233801184221
 30
0
 11
144.01213367191
 21
-72.7823380118422
 31
0
  0
LINE
  8
1
 62
2
 10
127.8943369725351
 20
-69.7823380118422
 30
0
 11
145.01213367191
 21
-69.7823380118422
 31
0
  0
LINE
  8
1
 62
2
 10
127.596882135101
 20
-72.7823380118422
 30
0
 11
145.01213367191
 21
-72.7823380118422
 31
0
  0
SOLID
  8
1
 62
2
 10
144.01213367191
 20
-69.7823380118422
 30
0
 11
143.59613367191
 21
-66.5823380118422
 31
0
 12
144.42813367191
 22
-66.5823380118422
 32
0
 13
144.42813367191
 23
-66.5823380118422
 33
0
  0
SOLID
  8
1
 62
2
 10
144.01213367191
 20
-72.7823380118422
 30
0
 11
144.42813367191
 21
-75.9823380118422
 31
0
 12
143.59613367191
 22
-75.9823380118422
 32
0
 13
143.59613367191
 23
-75.9823380118422
 33
0
  0
TEXT
  8
1
 62
2
 10
143.01213367191
 20
-62.50993385985932
 30
0
 40
3.2
  1
3
 50
90
 41
0.9
  0
TEXT
  8
1
 62
2
 10
143.01213367191
 20
-64.58993385985933
 30
0
 40
3.2
  1
(
 50
90
 41
0.9
  0
TEXT
  8
1
 62
2
 10
143.01213367191
 20
-58.98993385985932
 30
0
 40
3.2
  1
)
 50
90
 41
0.9
  0
ENDBLK
  8
0
  0
BLOCK
  8
1
  2
*D15
 70
1
 10
0
 20
0
 30
0
  0
LINE
  8
1
 62
2
 10
156.060498167021
 20
-72.78233801184217
 30
0
 11
156.060498167021
 21
-43.4389620085389
 31
0
  0
LINE
  8
1
 62
2
 10
127.596882135101
 20
-72.78233801184217
 30
0
 11
157.060498167021
 21
-72.78233801184217
 31
0
  0
SOLID
  8
1
 62
2
 10
156.060498167021
 20
-72.78233801184217
 30
0
 11
155.644498167021
 21
-69.58233801184217
 31
0
 12
156.476498167021
 22
-69.58233801184217
 32
0
 13
156.476498167021
 23
-69.58233801184217
 33
0
  0
TEXT
  8
1
 62
2
 10
155.060498167021
 20
-55.9829620085389
 30
0
 40
3.2
  1
150
 50
90
 41
0.9
  0
TEXT
  8
1
 62
2
 10
154.420498167021
 20
-47.6629620085389
 30
0
 40
1.92
  1
%%p20
 50
90
 41
0.9
  0
ENDBLK
  8
0
  0
ENDSEC
  0
SECTION
  2
ENTITIES
  0
LINE
  8
1
 62
3
 10
-76.74999999999999
 20
40
 30
0
 11
-76.74999999999999
 21
43
 31
0
  0
LINE
  8
1
 62
3
 10
-143.2500000000001
 20
40
 30
0
 11
-143.2500000000001
 21
43
 31
0
  0
LINE
  8
1
 62
7
 10
-76.89508717648472
 20
-40
 30
0
 11
-143.3950871764848
 21
-40
 31
0
  0
LINE
  8
1
 62
3
 10
-69.99999999999999
 20
0
 30
0
 11
-154
 21
0
 31
0
  0
LINE
  8
1
 62
3
 10
-153
 20
-33.25
 30
0
 11
-133.1250000000001
 21
-33.25
 31
0
  0
LINE
  8
1
 62
3
 10
-143.2500000000001
 20
-23.125
 30
0
 11
-143.2500000000001
 21
-43.375
 31
0
  0
LINE
  8
1
 62
3
 10
-86.87500000000001
 20
-33.25
 30
0
 11
-69.99999999999999
 21
-33.25
 31
0
  0
LINE
  8
1
 62
3
 10
-76.74999999999999
 20
-23.125
 30
0
 11
-76.74999999999999
 21
-43.375
 31
0
  0
LINE
  8
1
 62
3
 10
-86.87500000000001
 20
33.25
 30
0
 11
-69.99999999999999
 21
33.25
 31
0
  0
LINE
  8
1
 62
3
 10
-76.74999999999999
 20
40
 30
0
 11
-76.74999999999999
 21
23.125
 31
0
  0
LINE
  8
1
 62
3
 10
-153
 20
33.25
 30
0
 11
-133.1250000000001
 21
33.25
 31
0
  0
LINE
  8
1
 62
3
 10
-143.2500000000001
 20
40
 30
0
 11
-143.2500000000001
 21
23.125
 31
0
  0
LINE
  8
1
 62
3
 10
-110
 20
-44
 30
0
 11
-110
 21
44
 31
0
  0
LINE
  8
1
 62
7
 10
-143.2500000000001
 20
40
 30
0
 11
-76.74999999999999
 21
40
 31
0
  0
LINE
  8
1
 62
7
 10
-150.0000000000001
 20
-33.25
 30
0
 11
-150.0000000000001
 21
33.25
 31
0
  0
LINE
  8
1
 62
7
 10
-147.2500000000001
 20
-30.94059892324151
 30
0
 11
-147.2500000000001
 21
-35.55940107675849
 31
0
  0
LINE
  8
1
 62
7
 10
-143.2500000000001
 20
-28.63119784648302
 30
0
 11
-147.2500000000001
 21
-30.94059892324151
 31
0
  0
LINE
  8
1
 62
7
 10
-139.2500000000001
 20
-30.94059892324151
 30
0
 11
-143.2500000000001
 21
-28.63119784648302
 31
0
  0
LINE
  8
1
 62
7
 10
-139.2500000000001
 20
-35.55940107675849
 30
0
 11
-139.2500000000001
 21
-30.94059892324151
 31
0
  0
LINE
  8
1
 62
7
 10
-143.2500000000001
 20
-37.86880215351698
 30
0
 11
-139.2500000000001
 21
-35.55940107675849
 31
0
  0
LINE
  8
1
 62
7
 10
-147.2500000000001
 20
-35.55940107675849
 30
0
 11
-143.2500000000001
 21
-37.86880215351698
 31
0
  0
LINE
  8
1
 62
7
 10
-80.75
 20
-30.94059892324151
 30
0
 11
-80.75
 21
-35.55940107675849
 31
0
  0
LINE
  8
1
 62
7
 10
-76.75
 20
-28.63119784648302
 30
0
 11
-80.75
 21
-30.94059892324151
 31
0
  0
LINE
  8
1
 62
7
 10
-72.75
 20
-30.94059892324151
 30
0
 11
-76.75
 21
-28.63119784648302
 31
0
  0
LINE
  8
1
 62
7
 10
-72.75
 20
-35.55940107675849
 30
0
 11
-72.75
 21
-30.94059892324151
 31
0
  0
LINE
  8
1
 62
7
 10
-76.75
 20
-37.86880215351698
 30
0
 11
-72.75
 21
-35.55940107675849
 31
0
  0
LINE
  8
1
 62
7
 10
-80.75
 20
-35.55940107675849
 30
0
 11
-76.75
 21
-37.86880215351698
 31
0
  0
LINE
  8
1
 62
7
 10
-80.75
 20
35.55940107675849
 30
0
 11
-80.75
 21
30.94059892324151
 31
0
  0
LINE
  8
1
 62
7
 10
-76.75
 20
37.86880215351704
 30
0
 11
-80.75
 21
35.55940107675849
 31
0
  0
LINE
  8
1
 62
7
 10
-72.75
 20
35.55940107675849
 30
0
 11
-76.75
 21
37.86880215351704
 31
0
  0
LINE
  8
1
 62
7
 10
-72.75
 20
30.94059892324151
 30
0
 11
-72.75
 21
35.55940107675849
 31
0
  0
LINE
  8
1
 62
7
 10
-76.75
 20
28.63119784648296
 30
0
 11
-72.75
 21
30.94059892324151
 31
0
  0
LINE
  8
1
 62
7
 10
-80.75
 20
30.94059892324151
 30
0
 11
-76.75
 21
28.63119784648296
 31
0
  0
LINE
  8
1
 62
7
 10
-147.2500000000001
 20
35.55940107675849
 30
0
 11
-147.2500000000001
 21
30.94059892324151
 31
0
  0
LINE
  8
1
 62
7
 10
-143.2500000000001
 20
37.86880215351704
 30
0
 11
-147.2500000000001
 21
35.55940107675849
 31
0
  0
LINE
  8
1
 62
7
 10
-139.2500000000001
 20
35.55940107675849
 30
0
 11
-143.2500000000001
 21
37.86880215351704
 31
0
  0
LINE
  8
1
 62
7
 10
-139.2500000000001
 20
30.94059892324151
 30
0
 11
-139.2500000000001
 21
35.55940107675849
 31
0
  0
LINE
  8
1
 62
7
 10
-143.2500000000001
 20
28.63119784648296
 30
0
 11
-139.2500000000001
 21
30.94059892324151
 31
0
  0
LINE
  8
1
 62
7
 10
-147.2500000000001
 20
30.94059892324151
 30
0
 11
-143.2500000000001
 21
28.63119784648296
 31
0
  0
LINE
  8
1
 62
3
 10
-130.1653897881265
 20
15
 30
0
 11
-93
 21
15
 31
0
  0
LINE
  8
1
 62
7
 10
-112
 20
19.58257569495578
 30
0
 11
-112
 21
17.5
 31
0
  0
LINE
  8
1
 62
7
 10
-112
 20
17.5
 30
0
 11
-108
 21
17.5
 31
0
  0
LINE
  8
1
 62
7
 10
-108
 20
17.5
 30
0
 11
-108
 21
19.58257569495578
 31
0
  0
LINE
  8
1
 62
3
 10
-69.99999999999999
 20
33.25
 30
0
 11
-66.99999999999999
 21
33.25
 31
0
  0
LINE
  8
1
 62
3
 10
-69.99999999999999
 20
-33.25
 30
0
 11
-66.99999999999999
 21
-33.25
 31
0
  0
LINE
  8
1
 62
3
 10
-93
 20
15
 30
0
 11
-90.00000000000001
 21
15
 31
0
  0
LINE
  8
1
 62
3
 10
-69.99999999999999
 20
0
 30
0
 11
-65.99999999999999
 21
0
 31
0
  0
LINE
  8
1
 62
7
 10
-69.99999999999999
 20
33.25
 30
0
 11
-69.99999999999999
 21
-33.25
 31
0
  0
LINE
  8
1
 62
7
 10
0
 20
17.5
 30
0
 11
0
 21
11
 31
0
  0
LINE
  8
1
 62
7
 10
-148.2009798148792
 20
-37.83806046959502
 30
0
 11
-159.5239278772573
 21
-48.39688035731558
 31
0
  0
LINE
  8
1
 62
7
 10
-149.1577224732333
 20
-36.51516694508186
 30
0
 11
-160.6287652205585
 21
-47.21208736069246
 31
0
  0
LINE
  8
1
 62
7
 10
-149.7963324206467
 20
-34.89560986822249
 30
0
 11
-161.7336025638597
 21
-46.02729436406941
 31
0
  0
LINE
  8
1
 62
7
 10
-137.0999999999999
 20
17.90000000000003
 30
0
 11
-137.0999999999999
 21
17.40000000000003
 31
0
  0
LINE
  8
1
 62
7
 10
-137.9
 20
17.90000000000003
 30
0
 11
-137.9
 21
17.40000000000003
 31
0
  0
LINE
  8
1
 62
7
 10
-137.9
 20
14.09999999999997
 30
0
 11
-137.9
 21
14.59999999999997
 31
0
  0
LINE
  8
1
 62
7
 10
-139.4
 20
15.59999999999997
 30
0
 11
-138.9
 21
15.59999999999997
 31
0
  0
LINE
  8
1
 62
7
 10
-139.4
 20
16.40000000000003
 30
0
 11
-138.9
 21
16.40000000000003
 31
0
  0
LINE
  8
1
 62
7
 10
-139.5
 20
16.30000000000001
 30
0
 11
-139.5
 21
15.69999999999999
 31
0
  0
LINE
  8
1
 62
7
 10
-135.5
 20
16.30000000000001
 30
0
 11
-135.5
 21
15.69999999999999
 31
0
  0
LINE
  8
1
 62
7
 10
-137.8
 20
14
 30
0
 11
-137.2
 21
14
 31
0
  0
LINE
  8
1
 62
7
 10
-137.8
 20
18
 30
0
 11
-137.2
 21
18
 31
0
  0
LINE
  8
1
 62
7
 10
-137.0999999999999
 20
14.59999999999997
 30
0
 11
-137.0999999999999
 21
14.09999999999997
 31
0
  0
LINE
  8
1
 62
7
 10
-135.5999999999999
 20
15.59999999999997
 30
0
 11
-136.0999999999999
 21
15.59999999999997
 31
0
  0
LINE
  8
1
 62
7
 10
-135.5999999999999
 20
16.40000000000003
 30
0
 11
-136.0999999999999
 21
16.40000000000003
 31
0
  0
LINE
  8
1
 62
3
 10
-143.5
 20
16
 30
0
 11
-131.5
 21
16
 31
0
  0
LINE
  8
1
 62
3
 10
-137.5
 20
22
 30
0
 11
-137.5
 21
10
 31
0
  0
LINE
  8
1
 62
7
 10
-109.6
 20
-30.09999999999997
 30
0
 11
-109.6
 21
-30.59999999999997
 31
0
  0
LINE
  8
1
 62
7
 10
-110.4
 20
-30.09999999999997
 30
0
 11
-110.4
 21
-30.59999999999997
 31
0
  0
LINE
  8
1
 62
7
 10
-110.4
 20
-33.89999999999998
 30
0
 11
-110.4
 21
-33.39999999999998
 31
0
  0
LINE
  8
1
 62
7
 10
-111.9
 20
-32.39999999999998
 30
0
 11
-111.4
 21
-32.39999999999998
 31
0
  0
LINE
  8
1
 62
7
 10
-111.9
 20
-31.59999999999997
 30
0
 11
-111.4
 21
-31.59999999999997
 31
0
  0
LINE
  8
1
 62
7
 10
-112
 20
-31.69999999999999
 30
0
 11
-112
 21
-32.30000000000001
 31
0
  0
LINE
  8
1
 62
7
 10
-108
 20
-31.69999999999999
 30
0
 11
-108
 21
-32.30000000000001
 31
0
  0
LINE
  8
1
 62
7
 10
-110.3
 20
-34
 30
0
 11
-109.7
 21
-34
 31
0
  0
LINE
  8
1
 62
7
 10
-110.3
 20
-30
 30
0
 11
-109.7
 21
-30
 31
0
  0
LINE
  8
1
 62
7
 10
-109.6
 20
-33.39999999999998
 30
0
 11
-109.6
 21
-33.89999999999998
 31
0
  0
LINE
  8
1
 62
7
 10
-108.1
 20
-32.39999999999998
 30
0
 11
-108.6
 21
-32.39999999999998
 31
0
  0
LINE
  8
1
 62
7
 10
-108.1
 20
-31.59999999999997
 30
0
 11
-108.6
 21
-31.59999999999997
 31
0
  0
LINE
  8
1
 62
7
 10
-82.09999999999991
 20
17.90000000000003
 30
0
 11
-82.09999999999991
 21
17.40000000000003
 31
0
  0
LINE
  8
1
 62
7
 10
-82.89999999999989
 20
17.90000000000003
 30
0
 11
-82.89999999999989
 21
17.40000000000003
 31
0
  0
LINE
  8
1
 62
7
 10
-82.89999999999989
 20
14.09999999999997
 30
0
 11
-82.89999999999989
 21
14.59999999999997
 31
0
  0
LINE
  8
1
 62
7
 10
-84.39999999999989
 20
15.59999999999997
 30
0
 11
-83.89999999999989
 21
15.59999999999997
 31
0
  0
LINE
  8
1
 62
7
 10
-84.39999999999989
 20
16.40000000000003
 30
0
 11
-83.89999999999989
 21
16.40000000000003
 31
0
  0
LINE
  8
1
 62
7
 10
-84.4999999999999
 20
16.30000000000001
 30
0
 11
-84.4999999999999
 21
15.69999999999999
 31
0
  0
LINE
  8
1
 62
7
 10
-80.4999999999999
 20
16.30000000000001
 30
0
 11
-80.4999999999999
 21
15.69999999999999
 31
0
  0
LINE
  8
1
 62
7
 10
-82.7999999999999
 20
14
 30
0
 11
-82.1999999999999
 21
14
 31
0
  0
LINE
  8
1
 62
7
 10
-82.7999999999999
 20
18
 30
0
 11
-82.1999999999999
 21
18
 31
0
  0
LINE
  8
1
 62
7
 10
-82.09999999999991
 20
14.59999999999997
 30
0
 11
-82.09999999999991
 21
14.09999999999997
 31
0
  0
LINE
  8
1
 62
7
 10
-80.59999999999991
 20
15.59999999999997
 30
0
 11
-81.09999999999991
 21
15.59999999999997
 31
0
  0
LINE
  8
1
 62
7
 10
-80.59999999999991
 20
16.40000000000003
 30
0
 11
-81.09999999999991
 21
16.40000000000003
 31
0
  0
LINE
  8
1
 62
7
 10
68.3336084809368
 20
-37.70441405119863
 30
0
 11
67.1087155742748
 21
-37.75
 31
0
  0
LINE
  8
1
 62
7
 10
68.3336084809368
 20
-28.77368243525001
 30
0
 11
67.1087155742748
 21
-28.72809648644858
 31
0
  0
LINE
  8
1
 62
7
 10
68.3336084809368
 20
28.79558594880137
 30
0
 11
67.1087155742748
 21
28.75
 31
0
  0
LINE
  8
1
 62
7
 10
68.3336084809368
 20
37.72631756474999
 30
0
 11
67.1087155742748
 21
37.77190351355142
 31
0
  0
LINE
  8
1
 62
7
 10
35.49999999999999
 20
26.5
 30
0
 11
36
 21
26.5
 31
0
  0
LINE
  8
1
 62
7
 10
35.49999999999999
 20
-26.5
 30
0
 11
36
 21
-26.5
 31
0
  0
LINE
  8
1
 62
3
 10
-88.49999999999993
 20
16
 30
0
 11
-76.4999999999999
 21
16
 31
0
  0
LINE
  8
1
 62
3
 10
-82.4999999999999
 20
22
 30
0
 11
-82.4999999999999
 21
10
 31
0
  0
LINE
  8
1
 62
7
 10
39.19995243133151
 20
41
 30
0
 11
59.1999524313315
 21
41
 31
0
  0
LINE
  8
1
 62
2
 10
17.5
 20
-30.75
 30
0
 11
17.5
 21
-35.75
 31
0
  0
LINE
  8
1
 62
2
 10
30
 20
-35.25
 30
0
 11
17
 21
-35.25
 31
0
  0
LINE
  8
1
 62
2
 10
30
 20
-31.25
 30
0
 11
17
 21
-31.25
 31
0
  0
LINE
  8
1
 62
7
 10
17.5
 20
-35.75
 30
0
 11
30
 21
-35.75
 31
0
  0
LINE
  8
1
 62
7
 10
17
 20
-35.25
 30
0
 11
17.5
 21
-35.75
 31
0
  0
LINE
  8
1
 62
7
 10
17
 20
-31.25
 30
0
 11
17
 21
-35.25
 31
0
  0
LINE
  8
1
 62
7
 10
17.5
 20
-30.75
 30
0
 11
17
 21
-31.25
 31
0
  0
LINE
  8
1
 62
7
 10
30
 20
-30.75
 30
0
 11
17.5
 21
-30.75
 31
0
  0
LINE
  8
1
 62
2
 10
17.5
 20
35.75
 30
0
 11
17.5
 21
30.75
 31
0
  0
LINE
  8
1
 62
2
 10
30
 20
31.25
 30
0
 11
17
 21
31.25
 31
0
  0
LINE
  8
1
 62
2
 10
30
 20
35.25
 30
0
 11
17
 21
35.25
 31
0
  0
LINE
  8
1
 62
7
 10
17.5
 20
30.75
 30
0
 11
30
 21
30.75
 31
0
  0
LINE
  8
1
 62
7
 10
17
 20
31.25
 30
0
 11
17.5
 21
30.75
 31
0
  0
LINE
  8
1
 62
7
 10
17
 20
35.25
 30
0
 11
17
 21
31.25
 31
0
  0
LINE
  8
1
 62
7
 10
17.5
 20
35.75
 30
0
 11
17
 21
35.25
 31
0
  0
LINE
  8
1
 62
7
 10
30
 20
35.75
 30
0
 11
17.5
 21
35.75
 31
0
  0
LINE
  8
1
 62
7
 10
0
 20
10
 30
0
 11
30
 21
10
 31
0
  0
LINE
  8
1
 62
7
 10
30
 20
-2
 30
0
 11
36
 21
-2
 31
0
  0
LINE
  8
1
 62
7
 10
34.99999999999999
 20
-27
 30
0
 11
35
 21
-39
 31
0
  0
LINE
  8
1
 62
7
 10
30
 20
-29.78500000000003
 30
0
 11
30
 21
-36.71499999999997
 31
0
  0
LINE
  8
1
 62
7
 10
30.30342359048089
 20
-30.94
 30
0
 11
34
 21
-30.94
 31
0
  0
LINE
  8
1
 62
7
 10
30.30342359048089
 20
-35.56
 30
0
 11
34
 21
-35.56
 31
0
  0
LINE
  8
1
 62
7
 10
30.30342359048089
 20
-37.87
 30
0
 11
34
 21
-37.87
 31
0
  0
LINE
  8
1
 62
7
 10
30.30342359048089
 20
-28.63
 30
0
 11
34
 21
-28.63
 31
0
  0
LINE
  8
1
 62
7
 10
30
 20
36.71499999999997
 30
0
 11
30
 21
-2
 31
0
  0
LINE
  8
1
 62
7
 10
30.30342359048089
 20
35.56
 30
0
 11
34
 21
35.56
 31
0
  0
LINE
  8
1
 62
7
 10
30.30342359048089
 20
30.94
 30
0
 11
34
 21
30.94
 31
0
  0
LINE
  8
1
 62
7
 10
30.30342359048089
 20
28.63
 30
0
 11
34
 21
28.63
 31
0
  0
LINE
  8
1
 62
7
 10
30.30342359048089
 20
37.86999999999989
 30
0
 11
34
 21
37.86999999999989
 31
0
  0
LINE
  8
1
 62
7
 10
36
 20
-32.02949999999998
 30
0
 11
36
 21
32.02950000000004
 31
0
  0
LINE
  8
1
 62
7
 10
35
 20
38.5
 30
0
 11
34.99999999999999
 21
27
 31
0
  0
LINE
  8
1
 62
3
 10
-115.9523295529305
 20
-32
 30
0
 11
-104.2577449051914
 21
-32
 31
0
  0
LINE
  8
1
 62
3
 10
14.62521083007349
 20
33.25
 30
0
 11
74.78085125458351
 21
33.25
 31
0
  0
LINE
  8
1
 62
3
 10
13.9511655824515
 20
-33.25
 30
0
 11
74.30963323049151
 21
-33.25
 31
0
  0
LINE
  8
1
 62
3
 10
22.581565698808
 20
0
 30
0
 11
139.5693162894697
 21
0
 31
0
  0
LINE
  8
1
 62
3
 10
-4.2333686319005
 20
15
 30
0
 11
42.13921302499099
 21
15
 31
0
  0
LINE
  8
1
 62
3
  6
DASHED
 10
0
 20
17.5
 30
0
 11
25
 21
17.5
 31
0
  0
LINE
  8
1
 62
7
 10
0
 20
19.58257569495578
 30
0
 11
0
 21
10
 31
0
  0
LINE
  8
1
 62
7
 10
27.08257569495578
 20
20
 30
0
 11
30
 21
20
 31
0
  0
LINE
  8
1
 62
7
 10
27.08257569495578
 20
20
 30
0
 11
27.08257569495578
 21
19.58257569495578
 31
0
  0
LINE
  8
1
 62
7
 10
27.08257569495578
 20
19.58257569495578
 30
0
 11
0
 21
19.58257569495578
 31
0
  0
LINE
  8
1
 62
7
 10
65.00000000000001
 20
-40
 30
0
 11
65.00000000000001
 21
40
 31
0
  0
LINE
  8
1
 62
7
 10
67.00000000000001
 20
40
 30
0
 11
36.5
 21
40
 31
0
  0
LINE
  8
1
 62
7
 10
67.00000000000001
 20
-40
 30
0
 11
36
 21
-40
 31
0
  0
LINE
  8
1
 62
7
 10
67.00000000000001
 20
-40
 30
0
 11
67.00000000000001
 21
40
 31
0
  0
LINE
  8
1
 62
7
 10
67.5
 20
20.75
 30
0
 11
68.00000000000001
 21
20.75
 31
0
  0
LINE
  8
1
 62
7
 10
68.50000000000001
 20
20.25
 30
0
 11
68.50000000000001
 21
-20.25
 31
0
  0
LINE
  8
1
 62
7
 10
68.00000000000001
 20
-20.75
 30
0
 11
67.5
 21
-20.75
 31
0
  0
LINE
  8
1
 62
7
 10
34
 20
38.25
 30
0
 11
34
 21
28.25
 31
0
  0
LINE
  8
1
 62
7
 10
34
 20
28.25
 30
0
 11
35
 21
28.25
 31
0
  0
LINE
  8
1
 62
7
 10
35
 20
-28.25
 30
0
 11
34
 21
-28.25
 31
0
  0
LINE
  8
1
 62
7
 10
34
 20
-28.25
 30
0
 11
34
 21
-38.25
 31
0
  0
LINE
  8
1
 62
7
 10
34
 20
-38.25
 30
0
 11
35
 21
-38.25
 31
0
  0
LINE
  8
1
 62
7
 10
17
 20
-31.25
 30
0
 11
17
 21
-35.25
 31
0
  0
LINE
  8
1
 62
7
 10
17
 20
-35.25
 30
0
 11
17.5
 21
-35.75
 31
0
  0
LINE
  8
1
 62
7
 10
17.5
 20
-30.75
 30
0
 11
17
 21
-31.25
 31
0
  0
LINE
  8
1
 62
7
 10
17.5
 20
-30.75
 30
0
 11
17.5
 21
-35.75
 31
0
  0
LINE
  8
1
 62
7
 10
35
 20
38.25
 30
0
 11
34
 21
38.25
 31
0
  0
LINE
  8
1
 62
7
 10
17.5
 20
35.75
 30
0
 11
17
 21
35.25
 31
0
  0
LINE
  8
1
 62
7
 10
17.5
 20
35.75
 30
0
 11
17.5
 21
30.75
 31
0
  0
LINE
  8
1
 62
7
 10
17.5
 20
30.75
 30
0
 11
17
 21
31.25
 31
0
  0
LINE
  8
1
 62
7
 10
17
 20
35.25
 30
0
 11
17
 21
31.25
 31
0
  0
LINE
  8
1
 62
7
 10
0
 20
18
 30
0
 11
0
 21
17.5
 31
0
  0
LINE
  8
1
 62
2
 10
155.9999999999999
 20
-27.10002334769979
 30
0
 11
155.9999999999999
 21
-46.40321556867804
 31
0
  0
LINE
  8
1
 62
2
 10
42.11034870426491
 20
-59.34991020425775
 30
0
 11
110.467136480555
 21
-59.34991020425775
 31
0
  0
LINE
  8
1
 62
7
 10
135.6000000000004
 20
-10.5
 30
0
 11
133.9999999999999
 21
-10.5
 31
0
  0
LINE
  8
1
 62
7
 10
129.4999999999999
 20
22
 30
0
 11
71.50000000000001
 21
22
 31
0
  0
LINE
  8
1
 62
7
 10
103.4122381726711
 20
13.54455245716588
 30
0
 11
103.4122381726711
 21
22
 31
0
  0
LINE
  8
1
 62
7
 10
83.41223817267105
 20
13.54455245716588
 30
0
 11
103.4122381726711
 21
13.54455245716588
 31
0
  0
LINE
  8
1
 62
7
 10
83.41223817267105
 20
22
 30
0
 11
83.41223817267105
 21
13.54455245716588
 31
0
  0
LINE
  8
1
 62
7
 10
125.9103066593208
 20
-69.78233801184217
 30
0
 11
125.9103066593208
 21
-72.78233801184217
 31
0
  0
LINE
  8
1
 62
7
 10
126.596882135101
 20
-72.78233801184217
 30
0
 11
126.596882135101
 21
-69.78233801184217
 31
0
  0
LINE
  8
1
 62
7
 10
124.301758401781
 20
-69.78233801184217
 30
0
 11
124.301758401781
 21
-72.78233801184217
 31
0
  0
LINE
  8
1
 62
7
 10
125.066799646221
 20
-72.78233801184217
 30
0
 11
125.066799646221
 21
-69.78233801184217
 31
0
  0
LINE
  8
1
 62
7
 10
126.8943369725351
 20
-53.5041424912219
 30
0
 11
126.8943369725351
 21
-69.78233801184217
 31
0
  0
LINE
  8
1
 62
7
 10
125.3943369725351
 20
-53.5041424912219
 30
0
 11
125.3943369725351
 21
-69.78233801184217
 31
0
  0
LINE
  8
1
 62
7
 10
123.8943369725351
 20
-53.5041424912219
 30
0
 11
123.8943369725351
 21
-69.78233801184217
 31
0
  0
LINE
  8
1
 62
7
 10
123.8943369725351
 20
-69.78233801184217
 30
0
 11
126.8943369725351
 21
-69.78233801184217
 31
0
  0
LINE
  8
1
 62
7
 10
126.8943369725351
 20
-69.78233801184217
 30
0
 11
123.8943369725351
 21
-69.78233801184217
 31
0
  0
LINE
  8
1
 62
7
 10
130.8636038969317
 20
-12.66366416655808
 30
0
 11
130.7221825406951
 21
-12.52224281032011
 31
0
  0
LINE
  8
1
 62
7
 10
131.1464466094068
 20
-12.45153213220112
 30
0
 11
130.934314575051
 21
-12.66366416655808
 31
0
  0
LINE
  8
1
 62
7
 10
132.0656854249474
 20
-12.66366416655808
 30
0
 11
131.8535533905934
 21
-12.45153213220112
 31
0
  0
LINE
  8
1
 62
7
 10
132.2778174593051
 20
-12.52224281032011
 30
0
 11
132.1363961030684
 21
-12.66366416655808
 31
0
  0
LINE
  8
1
 62
7
 10
132.0656854249474
 20
-12.23940009784491
 30
0
 11
132.2778174593051
 21
-12.45153213220112
 31
0
  0
LINE
  8
1
 62
7
 10
132.2778174593051
 20
-11.32016128230418
 30
0
 11
132.0656854249474
 21
-11.53229331665909
 31
0
  0
LINE
  8
1
 62
7
 10
132.1363961030684
 20
-11.10802924794814
 30
0
 11
132.2778174593051
 21
-11.24945060418378
 31
0
  0
LINE
  8
1
 62
7
 10
131.8535533905934
 20
-11.32016128230418
 30
0
 11
132.0656854249474
 21
-11.10802924794814
 31
0
  0
LINE
  8
1
 62
7
 10
130.934314575051
 20
-11.10802924794814
 30
0
 11
131.1464466094068
 21
-11.32016128230418
 31
0
  0
LINE
  8
1
 62
7
 10
130.7221825406935
 20
-11.24945060418378
 30
0
 11
130.8636038969317
 21
-11.10802924794814
 31
0
  0
LINE
  8
1
 62
7
 10
130.934314575051
 20
-11.53229331665909
 30
0
 11
130.7221825406935
 21
-11.32016128230418
 31
0
  0
LINE
  8
1
 62
7
 10
130.7221825406935
 20
-12.45153213220112
 30
0
 11
130.934314575051
 21
-12.23940009784491
 31
0
  0
LINE
  8
1
 62
7
 10
122.5
 20
22
 30
0
 11
122.5
 21
-22
 31
0
  0
LINE
  8
1
 62
7
 10
129.4999999999999
 20
-5.423402264367891
 30
0
 11
129.4999999999999
 21
22
 31
0
  0
LINE
  8
1
 62
7
 10
129.4999999999999
 20
21
 30
0
 11
131.9999999999991
 21
21
 31
0
  0
LINE
  8
1
 62
7
 10
129.4999999999999
 20
-22
 30
0
 11
129.4999999999999
 21
-18.73726491636808
 31
0
  0
LINE
  8
1
 62
7
 10
133.9999999999999
 20
-19
 30
0
 11
133.9999999999991
 21
19
 31
0
  0
LINE
  8
1
 62
3
 10
131.4999999999999
 20
-9.373806877512999
 30
0
 11
131.4999999999999
 21
-14.373806877513
 31
0
  0
LINE
  8
1
 62
3
 10
128.9999999999999
 20
-11.88584670725311
 30
0
 11
133.9999999999997
 21
-11.88584670725311
 31
0
  0
LINE
  8
1
 62
7
 10
133.9999999999999
 20
-19.00020593517104
 30
0
 11
133.9999999999999
 21
-19
 31
0
  0
LINE
  8
1
 62
7
 10
129.4999999999999
 20
-21
 30
0
 11
131.9999999999999
 21
-21
 31
0
  0
LINE
  8
1
 62
7
 10
129.4999999999999
 20
-18.73726491636808
 30
0
 11
132.4357753639379
 21
-18.73726491636808
 31
0
  0
LINE
  8
1
 62
7
 10
122.5
 20
-17.51713668286698
 30
0
 11
133.9999999999999
 21
-17.51713668286698
 31
0
  0
LINE
  8
1
 62
7
 10
122.5
 20
-19.00020593517104
 30
0
 11
129.4999999999999
 21
-19.00020593517104
 31
0
  0
LINE
  8
1
 62
7
 10
129.4999999999999
 20
-5.19074886520718
 30
0
 11
132.8056131734831
 21
-5.19074886520718
 31
0
  0
LINE
  8
1
 62
7
 10
122.5
 20
-5.423402264367891
 30
0
 11
129.4999999999999
 21
-5.423402264367891
 31
0
  0
LINE
  8
1
 62
7
 10
133.9999999999999
 20
10.5
 30
0
 11
135.6000000000004
 21
10.5
 31
0
  0
LINE
  8
1
 62
7
 10
136.1000000000004
 20
10
 30
0
 11
136.1000000000004
 21
-10
 31
0
  0
LINE
  8
1
 62
7
 10
126.8943369725351
 20
-22
 30
0
 11
126.8943369725351
 21
-49.1521953523299
 31
0
  0
LINE
  8
1
 62
7
 10
123.8943369725351
 20
-49.1521953523299
 30
0
 11
123.8943369725351
 21
-22
 31
0
  0
LINE
  8
1
 62
7
 10
71.50000000000001
 20
-22
 30
0
 11
129.4999999999999
 21
-22
 31
0
  0
LINE
  8
1
 62
7
 10
125.3943369725351
 20
-49.1521953523299
 30
0
 11
125.3943369725351
 21
-22
 31
0
  0
LINE
  8
1
 62
3
 10
119.6000000000005
 20
-23.87634983292821
 30
0
 11
119.6000000000005
 21
-21.5251315280579
 31
0
  0
LINE
  8
1
 62
7
 10
121.1000000000005
 20
20.89668601058099
 30
0
 11
121.1000000000005
 21
22
 31
0
  0
LINE
  8
1
 62
7
 10
118.1000000000005
 20
22
 30
0
 11
118.1000000000005
 21
20.89668601058099
 31
0
  0
LINE
  8
1
 62
7
 10
122.5499999999985
 20
22.2509802037651
 30
0
 11
122.5499999999985
 21
22
 31
0
  0
LINE
  8
1
 62
7
 10
116.6499999999997
 20
22.2509802037651
 30
0
 11
116.6499999999997
 21
22
 31
0
  0
LINE
  8
1
 62
3
 10
119.6000000000005
 20
24.16117345456985
 30
0
 11
119.6000000000005
 21
19.06946085579091
 31
0
  0
ARC
  8
1
 62
7
 10
-110
 20
15
 30
0
 40
17
 50
180
 51
0
  0
ARC
  8
1
 62
7
 10
-110
 20
15
 30
0
 40
17
 50
0
 51
180
  0
ARC
  8
1
 62
7
 10
32.34999999999999
 20
36.71499999999997
 30
0
 40
2.349999999999979
 50
150.5614799140769
 51
209.438520085924
  0
ARC
  8
1
 62
7
 10
62.10895377245799
 20
-33.72605781338262
 30
0
 40
8.292915283595482
 50
337.1227217188462
 51
1.216475414307115
  0
ARC
  8
1
 62
7
 10
68.21636203428211
 20
-35.77838608834668
 30
0
 40
1.929593336156818
 50
273.4835667248678
 51
322.6139950970432
  0
ARC
  8
1
 62
7
 10
61.15104111881249
 20
-32.9572006206476
 30
0
 40
9.248961684147838
 50
0.04460665194091524
 51
21.61619621490566
  0
ARC
  8
1
 62
7
 10
68.33843741604879
 20
-30.44430767341152
 30
0
 40
1.670632217155064
 50
32.3649998707446
 51
90.16561274461758
  0
ARC
  8
1
 62
7
 10
71.08929794868159
 20
-33.25
 30
0
 40
0.7517523941143566
 50
156.4800993873254
 51
203.5199006126746
  0
ARC
  8
1
 62
7
 10
62.10895377245799
 20
32.77394218661738
 30
0
 40
8.292915283595482
 50
337.1227217188462
 51
1.216475414307115
  0
ARC
  8
1
 62
7
 10
68.21636203428211
 20
30.72161391165326
 30
0
 40
1.929593336156754
 50
273.483566724868
 51
322.6139950970446
  0
ARC
  8
1
 62
7
 10
61.15104111881249
 20
33.5427993793524
 30
0
 40
9.248961684147838
 50
0.04460665194091524
 51
21.61619621490566
  0
ARC
  8
1
 62
7
 10
68.33843741604879
 20
36.05569232658848
 30
0
 40
1.670632217155065
 50
32.36499987074471
 51
90.16561274461758
  0
ARC
  8
1
 62
7
 10
71.08929794868159
 20
33.25
 30
0
 40
0.7517523941143566
 50
156.4800993873254
 51
203.5199006126746
  0
ARC
  8
1
 62
7
 10
32.34999999999999
 20
29.78500000000003
 30
0
 40
2.350000000000004
 50
150.5614799140759
 51
209.4385200859254
  0
ARC
  8
1
 62
7
 10
38.9448646142787
 20
-33.25
 30
0
 40
8.944864614278728
 50
165.0338261958173
 51
194.9661738041828
  0
ARC
  8
1
 62
7
 10
32.34999999999999
 20
-29.78500000000003
 30
0
 40
2.350000000000032
 50
150.5614799140747
 51
209.4385200859242
  0
ARC
  8
1
 62
7
 10
32.34999999999999
 20
-36.71499999999997
 30
0
 40
2.35
 50
150.561479914076
 51
209.4385200859254
  0
ARC
  8
1
 62
7
 10
38.9448646142787
 20
33.25
 30
0
 40
8.944864614278728
 50
165.0338261958172
 51
194.9661738041827
  0
ARC
  8
1
 62
3
  6
DASHED
 10
25
 20
19.58257569495578
 30
0
 40
2.082575694955779
 50
270
 51
0
  0
ARC
  8
1
 62
7
 10
119.6000000000005
 20
-19.04558675661798
 30
0
 40
3.900000000001207
 50
229.2479700672901
 51
310.7520299326897
  0
ARC
  8
1
 62
7
 10
119.6000000000005
 20
20.89668601058099
 30
0
 40
1.5
 50
180
 51
0
  0
ARC
  8
1
 62
7
 10
119.6000000000005
 20
19.70000000000005
 30
0
 40
3.899999999998637
 50
40.85125210332764
 51
139.1487478966994
  0
CIRCLE
  8
1
 62
2
 10
-143.25
 20
33.25
 30
0
 40
2
  0
CIRCLE
  8
1
 62
2
 10
-76.74999999999999
 20
33.25
 30
0
 40
2
  0
CIRCLE
  8
1
 62
2
 10
-76.74999999999999
 20
-33.25
 30
0
 40
2
  0
CIRCLE
  8
1
 62
2
 10
-143.25
 20
-33.25
 30
0
 40
2
  0
CIRCLE
  8
1
 62
2
 10
-143.25
 20
33.25
 30
0
 40
2
  0
CIRCLE
  8
1
 62
2
 10
-76.74999999999999
 20
33.25
 30
0
 40
2
  0
CIRCLE
  8
1
 62
2
 10
-76.74999999999999
 20
-33.25
 30
0
 40
2
  0
CIRCLE
  8
1
 62
2
 10
-143.25
 20
-33.25
 30
0
 40
2
  0
CIRCLE
  8
1
 62
7
 10
-110
 20
15
 30
0
 40
5
  0
CIRCLE
  8
1
 62
7
 10
-143.25
 20
-33.25
 30
0
 40
6.750000000000114
  0
CIRCLE
  8
1
 62
7
 10
-76.74999999999999
 20
-33.25
 30
0
 40
6.75
  0
CIRCLE
  8
1
 62
7
 10
-76.74999999999999
 20
33.25
 30
0
 40
6.75
  0
CIRCLE
  8
1
 62
7
 10
-143.25
 20
33.25
 30
0
 40
6.750000000000114
  0
CIRCLE
  8
1
 62
7
 10
-143.25
 20
-33.25
 30
0
 40
2.5
  0
CIRCLE
  8
1
 62
7
 10
-143.25
 20
-33.25
 30
0
 40
4
  0
CIRCLE
  8
1
 62
7
 10
-76.74999999999999
 20
-33.25
 30
0
 40
2.5
  0
CIRCLE
  8
1
 62
7
 10
-76.74999999999999
 20
-33.25
 30
0
 40
4
  0
CIRCLE
  8
1
 62
7
 10
-76.74999999999999
 20
33.25
 30
0
 40
2.5
  0
CIRCLE
  8
1
 62
7
 10
-76.74999999999999
 20
33.25
 30
0
 40
4
  0
CIRCLE
  8
1
 62
7
 10
-143.25
 20
33.25
 30
0
 40
4.000000000000114
  0
CIRCLE
  8
1
 62
7
 10
-143.25
 20
33.25
 30
0
 40
2.5
  0
CIRCLE
  8
1
 62
7
 10
-137.5
 20
16
 30
0
 40
3.5
  0
CIRCLE
  8
1
 62
7
 10
-137.5
 20
16
 30
0
 40
4
  0
CIRCLE
  8
1
 62
7
 10
-110
 20
-32
 30
0
 40
3.5
  0
CIRCLE
  8
1
 62
7
 10
-82.4999999999999
 20
16
 30
0
 40
3.5
  0
CIRCLE
  8
1
 62
7
 10
-110
 20
-32
 30
0
 40
4
  0
CIRCLE
  8
1
 62
7
 10
-82.4999999999999
 20
16
 30
0
 40
4
  0
CIRCLE
  8
1
 62
7
 10
-110
 20
15
 30
0
 40
11.59999999999999
  0
CIRCLE
  8
1
 62
7
 10
131.4999999999999
 20
-11.873806877513
 30
0
 40
2
  0
POLYLINE
  8
1
 62
2
 66
1
  0
VERTEX
  8
1
 10
-161.7336025638597
 20
-46.02729436406941
 30
0
 42
0.004156079451428773
  0
VERTEX
  8
1
 10
-161.6910144584607
 20
-46.20117965722663
 30
0
 42
0.01277076454455616
  0
VERTEX
  8
1
 10
-161.6434205146313
 20
-46.37048230206085
 30
0
 42
0.022868208549207
  0
VERTEX
  8
1
 10
-161.5858148939413
 20
-46.53061965024909
 30
0
 42
0.03475271190724152
  0
VERTEX
  8
1
 10
-161.5131917579603
 20
-46.67700905346835
 30
0
 42
0.04819066320798272
  0
VERTEX
  8
1
 10
-161.4205452682581
 20
-46.80506786339566
 30
0
 42
0.05554900523106662
  0
VERTEX
  8
1
 10
-161.2965742498169
 20
-46.91763007080077
 30
0
 42
0.03337754225335356
  0
VERTEX
  8
1
 10
-161.1498964271091
 20
-47.00948504138192
 30
0
 42
0.02856675424601074
  0
VERTEX
  8
1
 10
-160.9860261088518
 20
-47.0857608579902
 30
0
 42
0.009890606954104314
  0
VERTEX
  8
1
 10
-160.8104776037626
 20
-47.15158560347668
 30
0
 42
0.008776142252530634
  0
VERTEX
  8
1
 10
-160.6287652205585
 20
-47.21208736069246
 30
0
 42
-0.004197997674320969
  0
VERTEX
  8
1
 10
-160.4378844737952
 20
-47.27532257908553
 30
0
 42
-0.01419638433586368
  0
VERTEX
  8
1
 10
-160.2529917515989
 20
-47.34413807538661
 30
0
 42
-0.02594074592190953
  0
VERTEX
  8
1
 10
-160.0807877820308
 20
-47.42432797651517
 30
0
 42
-0.04021312053951017
  0
VERTEX
  8
1
 10
-159.9279732931519
 20
-47.52168640939071
 30
0
 42
-0.05583168079864976
  0
VERTEX
  8
1
 10
-159.8012490130231
 20
-47.64200750093272
 30
0
 42
-0.04786976971700523
  0
VERTEX
  8
1
 10
-159.7165204887451
 20
-47.76731805649092
 30
0
 42
-0.03472280776265886
  0
VERTEX
  8
1
 10
-159.6513014958836
 20
-47.90973795586135
 30
0
 42
-0.02282476828230627
  0
VERTEX
  8
1
 10
-159.6007146515846
 20
-48.06498986309099
 30
0
 42
-0.01281114861177173
  0
VERTEX
  8
1
 10
-159.5598825729939
 20
-48.22879644222675
 30
0
 42
-0.004119169730180374
  0
VERTEX
  8
1
 10
-159.5239278772573
 20
-48.39688035731558
 30
0
  0
SEQEND
  8
1
  0
POLYLINE
  8
1
 62
2
 66
1
  0
VERTEX
  8
1
 10
123.8943369725351
 20
-53.5041424912219
 30
0
 42
-0.004934078636058214
  0
VERTEX
  8
1
 10
124.0453470727624
 20
-53.31823622454745
 30
0
 42
-0.01634587272618166
  0
VERTEX
  8
1
 10
124.1962866156841
 20
-53.14741098073306
 30
0
 42
-0.03331015729449847
  0
VERTEX
  8
1
 10
124.3470850439949
 20
-53.00674778263881
 30
0
 42
-0.0624386121859908
  0
VERTEX
  8
1
 10
124.497671800389
 20
-52.91132765312477
 30
0
 42
-0.1069941638610101
  0
VERTEX
  8
1
 10
124.6479763275611
 20
-52.87623161505098
 30
0
 42
-0.1070085680456155
  0
VERTEX
  8
1
 10
124.7971219573299
 20
-52.91116350201633
 30
0
 42
-0.06296447185956962
  0
VERTEX
  8
1
 10
124.9461248200801
 20
-53.00603272771699
 30
0
 42
-0.03373007877697836
  0
VERTEX
  8
1
 10
125.0951909324434
 20
-53.14622709755207
 30
0
 42
-0.01666255219663352
  0
VERTEX
  8
1
 10
125.2445263110512
 20
-53.31713441692067
 30
0
 42
-0.005266270715020327
  0
VERTEX
  8
1
 10
125.3943369725351
 20
-53.5041424912219
 30
0
 42
0.004633674951988753
  0
VERTEX
  8
1
 10
125.55403260124
 20
-53.70404846438354
 30
0
 42
0.01574387385485875
  0
VERTEX
  8
1
 10
125.7138212384852
 20
-53.88815817456893
 30
0
 42
0.03306298376909987
  0
VERTEX
  8
1
 10
125.873027495493
 20
-54.03899649986511
 30
0
 42
0.06382794567279204
  0
VERTEX
  8
1
 10
126.0309759834854
 20
-54.13908831835914
 30
0
 42
0.1184715252691945
  0
VERTEX
  8
1
 10
126.1869913136846
 20
-54.17095850813803
 30
0
 42
0.127730573910207
  0
VERTEX
  8
1
 10
126.3312173763401
 20
-54.12816682116954
 30
0
 42
0.04228886383252243
  0
VERTEX
  8
1
 10
126.473605485072
 20
-54.0249941232579
 30
0
 42
0.04982109643832827
  0
VERTEX
  8
1
 10
126.6146151283612
 20
-53.87653566713888
 30
0
 42
0.01598923890353023
  0
VERTEX
  8
1
 10
126.7547057946886
 20
-53.69788670554829
 30
0
 42
0.004276663101403874
  0
VERTEX
  8
1
 10
126.8943369725351
 20
-53.5041424912219
 30
0
  0
SEQEND
  8
1
  0
POLYLINE
  8
1
 62
2
 66
1
  0
VERTEX
  8
1
 10
123.8943369725351
 20
-49.1521953523299
 30
0
 42
-0.004786202196793134
  0
VERTEX
  8
1
 10
124.0464410736479
 20
-48.95217829990288
 30
0
 42
-0.01597734592655617
  0
VERTEX
  8
1
 10
124.1982011172337
 20
-48.76850803998666
 30
0
 42
-0.03316329143451095
  0
VERTEX
  8
1
 10
124.3492730457658
 20
-48.61753136509208
 30
0
 42
-0.0644259648447378
  0
VERTEX
  8
1
 10
124.4993128017172
 20
-48.51559506772995
 30
0
 42
-0.1161597955861113
  0
VERTEX
  8
1
 10
124.6479763275611
 20
-48.47904594041108
 30
0
 42
-0.1160531622143987
  0
VERTEX
  8
1
 10
124.7944518364141
 20
-48.5182966000561
 30
0
 42
-0.06337138659152067
  0
VERTEX
  8
1
 10
124.9407755535121
 20
-48.62182207936404
 30
0
 42
-0.03075748353546764
  0
VERTEX
  8
1
 10
125.088497580681
 20
-48.77303717004133
 30
0
 42
-0.01233166728918194
  0
VERTEX
  8
1
 10
125.2391680197467
 20
-48.95535666379448
 30
0
 42
0.0002860134758101743
  0
VERTEX
  8
1
 10
125.3943369725351
 20
-49.1521953523299
 30
0
 42
0.01116960157004104
  0
VERTEX
  8
1
 10
125.5725677995875
 20
-49.36793396265936
 30
0
 42
0.0201471501117342
  0
VERTEX
  8
1
 10
125.7544784425237
 20
-49.56198936906961
 30
0
 42
0.03859983460172706
  0
VERTEX
  8
1
 10
125.93631062977
 20
-49.71521898029262
 30
0
 42
0.07034189392696043
  0
VERTEX
  8
1
 10
126.1143060897529
 20
-49.80848020506041
 30
0
 42
0.1303926716602895
  0
VERTEX
  8
1
 10
126.2847065508986
 20
-49.82263045210493
 30
0
 42
0.1148326588781176
  0
VERTEX
  8
1
 10
126.4156381703367
 20
-49.76647921041382
 30
0
 42
0.03979547205377328
  0
VERTEX
  8
1
 10
126.5405660997009
 20
-49.65837078321344
 30
0
 42
0.04593415206495374
  0
VERTEX
  8
1
 10
126.6609912615097
 20
-49.51129446688113
 30
0
 42
0.01530954315337073
  0
VERTEX
  8
1
 10
126.7784145782816
 20
-49.33823955779417
 30
0
 42
0.004165254485850434
  0
VERTEX
  8
1
 10
126.8943369725351
 20
-49.1521953523299
 30
0
  0
SEQEND
  8
1
  0
POLYLINE
  8
1
 62
7
 66
1
  0
VERTEX
  8
1
 10
132.4357753639379
 20
-18.73726491636808
 30
0
 42
0.0006469231333349781
  0
VERTEX
  8
1
 10
132.6178106954386
 20
-18.71329038042008
 30
0
 42
0.001939430959941986
  0
VERTEX
  8
1
 10
132.7998147053388
 20
-18.68836152534762
 30
0
 42
0.003224838912250457
  0
VERTEX
  8
1
 10
132.981756072038
 20
-18.66152403202627
 30
0
 42
0.004498484598687747
  0
VERTEX
  8
1
 10
133.1636034739357
 20
-18.63182358133157
 30
0
 42
0.005750739773295881
  0
VERTEX
  8
1
 10
133.3453255894313
 20
-18.59830585413908
 30
0
 42
0.004409538470514308
  0
VERTEX
  8
1
 10
133.4359975193967
 20
-18.57966927383599
 30
0
 42
0.008155476055255594
  0
VERTEX
  8
1
 10
133.5260890328571
 20
-18.55877963030342
 30
0
 42
0.01073214353250765
  0
VERTEX
  8
1
 10
133.6150588284073
 20
-18.5345756349018
 30
0
 42
0.01463651226171235
  0
VERTEX
  8
1
 10
133.7023656046418
 20
-18.50599599899152
 30
0
 42
0.01731903604996604
  0
VERTEX
  8
1
 10
133.7874680601554
 20
-18.47197943393303
 30
0
 42
0.01021451201347393
  0
VERTEX
  8
1
 10
133.8308721841293
 20
-18.45179312381417
 30
0
 42
0.005813929582186477
  0
VERTEX
  8
1
 10
133.8736778174332
 20
-18.43019033227923
 30
0
 42
0.006163535980066799
  0
VERTEX
  8
1
 10
133.9160345827345
 20
-18.40752517968225
 30
0
 42
0.001793105058801306
  0
VERTEX
  8
1
 10
133.958092102701
 20
-18.38415178637724
 30
0
 42
0.002175212296134428
  0
VERTEX
  8
1
 10
133.9999999999999
 20
-18.36042427271821
 30
0
  0
SEQEND
  8
1
  0
POLYLINE
  8
1
 62
7
 66
1
  0
VERTEX
  8
1
 10
132.8056131734831
 20
-5.19074886520718
 30
0
 42
0.002271026600357898
  0
VERTEX
  8
1
 10
132.9183173729504
 20
-5.18224087569203
 30
0
 42
0.006843212417977889
  0
VERTEX
  8
1
 10
133.0304832881811
 20
-5.171714218711216
 30
0
 42
0.01154903310229219
  0
VERTEX
  8
1
 10
133.1415726349387
 20
-5.157150226799073
 30
0
 42
0.0163604300997493
  0
VERTEX
  8
1
 10
133.2510471289868
 20
-5.136530232489935
 30
0
 42
0.02118775621017419
  0
VERTEX
  8
1
 10
133.3583684860887
 20
-5.107835568318141
 30
0
 42
0.01333203921694411
  0
VERTEX
  8
1
 10
133.4178625212909
 20
-5.087437974912765
 30
0
 42
0.009175496568921191
  0
VERTEX
  8
1
 10
133.4765634975526
 20
-5.064311037455706
 30
0
 42
0.009389970364581344
  0
VERTEX
  8
1
 10
133.534537110125
 20
-5.038945902167537
 30
0
 42
0.005326531553587034
  0
VERTEX
  8
1
 10
133.5918490542592
 20
-5.011833715268821
 30
0
 42
0.005635101821253401
  0
VERTEX
  8
1
 10
133.6485650252063
 20
-4.98346562298013
 30
0
 42
0.002934225035946759
  0
VERTEX
  8
1
 10
133.7198793713737
 20
-4.946254382151642
 30
0
 42
0.004491887138175331
  0
VERTEX
  8
1
 10
133.7905088167354
 20
-4.90805538728733
 30
0
 42
0.001093985513525447
  0
VERTEX
  8
1
 10
133.8606245864926
 20
-4.869115576896153
 30
0
 42
0.002636924427824716
  0
VERTEX
  8
1
 10
133.930397905847
 20
-4.829681889487065
 30
0
 42
0.0004670070721720599
  0
VERTEX
  8
1
 10
133.9999999999999
 20
-4.790001263569021
 30
0
  0
SEQEND
  8
1
  0
ARC
  8
1
 62
7
 10
-137.8
 20
17.90000000000003
 30
0
 40
0.09999999999996945
 50
90
 51
180
  0
ARC
  8
1
 62
7
 10
-137.2
 20
17.90000000000003
 30
0
 40
0.1000000000000796
 50
0
 51
90
  0
ARC
  8
1
 62
7
 10
-135.5999999999999
 20
16.30000000000001
 30
0
 40
0.09999999999990905
 50
0
 51
90
  0
ARC
  8
1
 62
7
 10
-135.5999999999999
 20
15.69999999999999
 30
0
 40
0.100000000000021
 50
270
 51
0
  0
ARC
  8
1
 62
7
 10
-137.2
 20
14.09999999999997
 30
0
 40
0.09999999999996945
 50
270
 51
0
  0
ARC
  8
1
 62
7
 10
-137.8
 20
14.09999999999997
 30
0
 40
0.09999999999999432
 50
180
 51
270
  0
ARC
  8
1
 62
7
 10
-139.4
 20
15.69999999999999
 30
0
 40
0.09999999999999432
 50
180
 51
270
  0
ARC
  8
1
 62
7
 10
-139.4
 20
16.30000000000001
 30
0
 40
0.1000000000000192
 50
90
 51
180
  0
ARC
  8
1
 62
7
 10
-136.0999999999999
 20
17.40000000000003
 30
0
 40
1
 50
180
 51
270
  0
ARC
  8
1
 62
7
 10
-138.9
 20
17.40000000000003
 30
0
 40
1
 50
270
 51
0
  0
ARC
  8
1
 62
7
 10
-138.9
 20
14.59999999999997
 30
0
 40
1
 50
0
 51
90
  0
ARC
  8
1
 62
7
 10
-136.0999999999999
 20
14.59999999999997
 30
0
 40
1
 50
90
 51
180
  0
ARC
  8
1
 62
7
 10
-110.3
 20
-30.09999999999997
 30
0
 40
0.09999999999996945
 50
90
 51
180
  0
ARC
  8
1
 62
7
 10
-109.7
 20
-30.09999999999997
 30
0
 40
0.1000000000000085
 50
0
 51
90
  0
ARC
  8
1
 62
7
 10
-108.1
 20
-31.69999999999999
 30
0
 40
0.09999999999999432
 50
0
 51
90
  0
ARC
  8
1
 62
7
 10
-108.1
 20
-32.30000000000001
 30
0
 40
0.09999999999996589
 50
270
 51
0
  0
ARC
  8
1
 62
7
 10
-109.7
 20
-33.89999999999998
 30
0
 40
0.1000000000000227
 50
270
 51
0
  0
ARC
  8
1
 62
7
 10
-110.3
 20
-33.89999999999998
 30
0
 40
0.1000000000000085
 50
180
 51
270
  0
ARC
  8
1
 62
7
 10
-111.9
 20
-32.30000000000001
 30
0
 40
0.09999999999999432
 50
180
 51
270
  0
ARC
  8
1
 62
7
 10
-111.9
 20
-31.69999999999999
 30
0
 40
0.1000000000000192
 50
90
 51
180
  0
ARC
  8
1
 62
7
 10
-108.6
 20
-30.59999999999997
 30
0
 40
1
 50
180
 51
270
  0
ARC
  8
1
 62
7
 10
-111.4
 20
-30.59999999999997
 30
0
 40
1
 50
270
 51
0
  0
ARC
  8
1
 62
7
 10
-111.4
 20
-33.39999999999998
 30
0
 40
1
 50
0
 51
90
  0
ARC
  8
1
 62
7
 10
-108.6
 20
-33.39999999999998
 30
0
 40
1
 50
90
 51
180
  0
ARC
  8
1
 62
7
 10
-82.7999999999999
 20
17.90000000000003
 30
0
 40
0.09999999999996945
 50
90
 51
180
  0
ARC
  8
1
 62
7
 10
-82.1999999999999
 20
17.90000000000003
 30
0
 40
0.09999999999999432
 50
0
 51
90
  0
ARC
  8
1
 62
7
 10
-80.59999999999991
 20
16.30000000000001
 30
0
 40
0.1000000000000085
 50
0
 51
90
  0
ARC
  8
1
 62
7
 10
-80.59999999999991
 20
15.69999999999999
 30
0
 40
0.100000000000021
 50
270
 51
0
  0
ARC
  8
1
 62
7
 10
-82.1999999999999
 20
14.09999999999997
 30
0
 40
0.09999999999996945
 50
270
 51
0
  0
ARC
  8
1
 62
7
 10
-82.7999999999999
 20
14.09999999999997
 30
0
 40
0.09999999999999432
 50
180
 51
270
  0
ARC
  8
1
 62
7
 10
-84.39999999999989
 20
15.69999999999999
 30
0
 40
0.1000000000000085
 50
180
 51
270
  0
ARC
  8
1
 62
7
 10
-84.39999999999989
 20
16.30000000000001
 30
0
 40
0.1000000000000192
 50
90
 51
180
  0
ARC
  8
1
 62
7
 10
-81.09999999999991
 20
17.40000000000003
 30
0
 40
1
 50
180
 51
270
  0
ARC
  8
1
 62
7
 10
-83.89999999999989
 20
17.40000000000003
 30
0
 40
1
 50
270
 51
0
  0
ARC
  8
1
 62
7
 10
-83.89999999999989
 20
14.59999999999997
 30
0
 40
1
 50
0
 51
90
  0
ARC
  8
1
 62
7
 10
-81.09999999999991
 20
14.59999999999997
 30
0
 40
1
 50
90
 51
180
  0
ARC
  8
1
 62
7
 10
67.10000000000001
 20
-28.82771595625769
 30
0
 40
0.09999999999993717
 50
84.99999999998398
 51
180
  0
ARC
  8
1
 62
7
 10
67.10000000000001
 20
-37.65038053019083
 30
0
 40
0.09999999999999432
 50
180
 51
275.000000000013
  0
ARC
  8
1
 62
7
 10
67.10000000000001
 20
37.67228404374231
 30
0
 40
0.09999999999994071
 50
84.99999999998416
 51
180
  0
ARC
  8
1
 62
7
 10
67.10000000000001
 20
28.84961946980917
 30
0
 40
0.09999999999999432
 50
180
 51
275.000000000013
  0
ARC
  8
1
 62
7
 10
35.5
 20
27
 30
0
 40
0.5000000000000071
 50
180
 51
270
  0
ARC
  8
1
 62
7
 10
35.5
 20
-27
 30
0
 40
0.5
 50
90
 51
180
  0
ARC
  8
1
 62
7
 10
36.5
 20
38.5
 30
0
 40
1.5
 50
90
 51
180
  0
ARC
  8
1
 62
7
 10
36
 20
-39
 30
0
 40
1
 50
180
 51
270
  0
ARC
  8
1
 62
7
 10
71.50000000000001
 20
19
 30
0
 40
3
 50
90
 51
180
  0
ARC
  8
1
 62
7
 10
71.50000000000001
 20
-19
 30
0
 40
3
 50
180
 51
270
  0
ARC
  8
1
 62
7
 10
67.50000000000001
 20
-21.25
 30
0
 40
0.5
 50
90
 51
180
  0
ARC
  8
1
 62
7
 10
68
 20
-20.25
 30
0
 40
0.5
 50
270
 51
0
  0
ARC
  8
1
 62
7
 10
68
 20
20.25
 30
0
 40
0.5000000000000142
 50
0
 51
90
  0
ARC
  8
1
 62
7
 10
67.50000000000001
 20
21.25
 30
0
 40
0.5000000000000142
 50
180
 51
270
  0
ARC
  8
1
 62
7
 10
35.5
 20
-27
 30
0
 40
0.5
 50
90
 51
180
  0
ARC
  8
1
 62
7
 10
35.5
 20
27
 30
0
 40
0.5000000000000071
 50
180
 51
270
  0
ARC
  8
1
 62
7
 10
130.7575378797539
 20
-12.48688747126209
 30
0
 40
0.0500000000019217
 50
134.9999999995394
 51
224.9999999993595
  0
ARC
  8
1
 62
7
 10
130.8989592359914
 20
-12.62830882749898
 30
0
 40
0.05000000000011672
 50
224.9999999994977
 51
315.0000000003872
  0
ARC
  8
1
 62
7
 10
132.2424621202454
 20
-12.48688747126209
 30
0
 40
0.04999999999935302
 50
315.0000000013775
 51
45.00000000101331
  0
ARC
  8
1
 62
7
 10
132.101040764008
 20
-12.62830882749898
 30
0
 40
0.05000000000073973
 50
224.9999999987838
 51
315.000000001055
  0
ARC
  8
1
 62
7
 10
132.2424621202454
 20
-11.28480594324412
 30
0
 40
0.05000000000079626
 50
314.9999999997236
 51
45.00000000050234
  0
ARC
  8
1
 62
7
 10
132.101040764008
 20
-11.14338458700598
 30
0
 40
0.04999999999970724
 50
44.99999999792301
 51
135.0000000022382
  0
ARC
  8
1
 62
7
 10
130.8989592359914
 20
-11.14338458700598
 30
0
 40
0.04999999999912442
 50
44.99999999859087
 51
135.0000000015243
  0
ARC
  8
1
 62
7
 10
130.7575378797539
 20
-11.28480594324412
 30
0
 40
0.05000000000147579
 50
135.0000000000504
 51
224.9999999997236
  0
ARC
  8
1
 62
7
 10
132.4192388155417
 20
-11.88584670725311
 30
0
 40
0.5000000000012539
 50
135.0000000000226
 51
224.9999999997975
  0
ARC
  8
1
 62
7
 10
131.4999999999999
 20
-12.80508552279514
 30
0
 40
0.5000000000006911
 50
45.00000000004189
 51
134.9999999999236
  0
ARC
  8
1
 62
7
 10
130.5807611844569
 20
-11.88584670725311
 30
0
 40
0.4999999999995431
 50
315.0000000001865
 51
44.99999999999353
  0
ARC
  8
1
 62
7
 10
131.4999999999999
 20
-10.96660789171
 30
0
 40
0.5000000000005027
 50
225.0000000000894
 51
314.9999999999452
  0
ARC
  8
1
 62
7
 10
131.9999999999991
 20
19
 30
0
 40
2
 50
0
 51
90
  0
ARC
  8
1
 62
7
 10
135.6000000000004
 20
-10
 30
0
 40
0.5
 50
270
 51
0
  0
ARC
  8
1
 62
7
 10
131.9999999999999
 20
-19
 30
0
 40
2
 50
270
 51
0
  0
ARC
  8
1
 62
7
 10
135.6000000000004
 20
10
 30
0
 40
0.5
 50
0
 51
90
  0
LINE
  8
1
 62
2
 10
-2.703458857267506
 20
-49.57992455003563
 30
0
 11
11.86174094636577
 21
-49.57992455003563
 31
0
  0
LINE
  8
1
 62
2
 10
11.86174094636577
 20
-49.57992455003563
 30
0
 11
23.6916654964014
 21
-35.75
 31
0
  0
SOLID
  8
1
 62
2
 10
21.76674734662154
 20
-38.70922486018388
 30
0
 11
21.06643358948003
 21
-38.11018624082173
 31
0
 12
23.6916654964014
 22
-35.75
 32
0
 13
23.6916654964014
 23
-35.75
 33
0
  0
LINE
  8
1
 62
2
 10
61.74899190571767
 20
50
 30
0
 11
38.65404299597859
 21
50
 31
0
  0
LINE
  8
1
 62
2
 10
38.65404299597859
 20
50
 30
0
 11
47.49750465902106
 21
41
 31
0
  0
SOLID
  8
1
 62
2
 10
44.71576799628129
 20
43.17353693220328
 30
0
 11
45.37310612783347
 21
43.81944188398524
 31
0
 12
47.49750465902106
 22
41
 32
0
 13
47.49750465902106
 23
41
 33
0
  0
LINE
  8
1
 62
2
 10
108.55850961554
 20
32
 30
0
 11
84.72621448385796
 21
32
 31
0
  0
LINE
  8
1
 62
2
 10
84.72621448385796
 20
32
 30
0
 11
93.72621448385796
 21
22
 31
0
  0
SOLID
  8
1
 62
2
 10
91.04234006539502
 20
24.29328143985916
 30
0
 11
91.72733578096374
 21
24.90977758387101
 31
0
 12
93.72621448385796
 22
22
 32
0
 13
93.72621448385796
 23
22
 33
0
  0
LINE
  8
1
 62
2
 10
42.11034870426491
 20
-66.34991020425775
 30
0
 11
103.467136480555
 21
-66.34991020425775
 31
0
  0
LINE
  8
1
 62
2
 10
103.467136480555
 20
-66.34991020425775
 30
0
 11
123.9005280905653
 21
-45.91651859424746
 31
0
  0
SOLID
  8
1
 62
2
 10
121.7514776647271
 20
-48.71721563671505
 30
0
 11
121.0998310480977
 21
-48.0655690200857
 31
0
 12
123.9005280905653
 22
-45.91651859424746
 32
0
 13
123.9005280905653
 23
-45.91651859424746
 33
0
  0
TEXT
  8
1
 62
2
 10
-1.428213355150498
 20
-48.9957628317212
 30
0
 40
3.5
  1
BOLT
 41
0.9
 72
1
 73
2
 11
4.871786644849502
 21
-47.2457628317212
 31
0
  0
TEXT
  8
1
 62
2
 10
-119.9212747974318
 20
82.06541599418675
 30
0
 40
3.2
  1
(3.15SQU.)
 41
0.6300000000000001
 72
1
 73
2
 11
-109.8412747974318
 21
83.66541599418676
 31
0
  0
TEXT
  8
1
 62
2
 10
-120.9235643261883
 20
58.10195954549674
 30
0
 40
3.2
  1
(1.339DIA.)
 41
0.6300000000000001
 72
1
 73
2
 11
-109.8355643261883
 21
59.70195954549674
 31
0
  0
TEXT
  8
1
 62
2
 10
-120.9235643261883
 20
70.10195954549674
 30
0
 40
3.2
  1
(2.618    )
 41
0.6300000000000001
 72
1
 73
2
 11
-109.8355643261883
 21
71.70195954549675
 31
0
  0
TEXT
  8
1
 62
2
 10
-111.3322561578473
 20
70.70195954549675
 30
0
 40
2
  1
%%p0.0118
 41
0.63
 72
1
 73
2
 11
-105.6622561578473
 21
71.70195954549675
 31
0
  0
TEXT
  8
1
 62
2
 10
-43.76090323453453
 20
-11.0382937716362
 30
0
 40
3.2
  1
(2.618    )
 50
90
 41
0.6300000000000001
 72
1
 73
2
 11
-45.36090323453453
 21
0.0497062283638009
 31
0
  0
TEXT
  8
1
 62
2
 10
-44.36090323453453
 20
-1.34698560329519
 30
0
 40
2
  1
%%p0.0118
 50
90
 41
0.63
 72
1
 73
2
 11
-45.36090323453453
 21
4.32301439670481
 31
0
  0
TEXT
  8
1
 62
2
 10
-56.05184174389405
 20
-20.4382937716362
 30
0
 40
3.2
  1
(0.591    )
 50
90
 41
0.6300000000000001
 72
1
 73
2
 11
-57.65184174389405
 21
-9.350293771636199
 31
0
  0
TEXT
  8
1
 62
2
 10
-56.65184174389405
 20
-10.74698560329519
 30
0
 40
2
  1
%%p0.0118
 50
90
 41
0.63
 72
1
 73
2
 11
-57.65184174389405
 21
-5.076985603295189
 31
0
  0
TEXT
  8
1
 62
2
 10
-172.4407687221951
 20
45.00000000000001
 30
0
 40
3.2
  1
(0.157     )
 41
0.6300000000000001
 72
1
 73
2
 11
-160.3447687221951
 21
46.60000000000001
 31
0
  0
TEXT
  8
1
 62
2
 10
-161.4287913706871
 20
46.8
 30
0
 40
2
  1
+0.00118
 41
0.63
  0
TEXT
  8
1
 62
2
 10
-161.4287913706871
 20
44.40000000000001
 30
0
 40
2
  1
 0
 41
0.63
  0
TEXT
  8
1
 62
2
 10
10.60925518590472
 20
69.8
 30
0
 40
3.2
  1
(1.378)
 41
0.6300000000000001
 72
1
 73
2
 11
17.66525518590472
 21
71.40000000000001
 31
0
  0
TEXT
  8
1
 62
2
 10
16.35664858011809
 20
57.80159638450104
 30
0
 40
3.2
  1
(0.197)
 41
0.6300000000000001
 72
1
 73
2
 11
23.41264858011809
 21
59.40159638450104
 31
0
  0
TEXT
  8
1
 62
2
 10
-144.75
 20
93.5
 30
0
 40
5
  1
DME44B8HF
 41
0.9
 72
1
 73
2
 11
-124.5
 21
96
 31
0
  0
TEXT
  8
1
 62
2
 10
40.87210523109899
 20
50.82551303864307
 30
0
 40
3
  1
NAME PLATE
 41
0.6300000000000001
 72
1
 73
2
 11
50.32210523109899
 21
52.32551303864307
 31
0
  0
TEXT
  8
1
 62
2
 10
5.598761886628688
 20
45.8
 30
0
 40
3.2
  1
(0.984)
 41
0.6300000000000001
 72
1
 73
2
 11
12.65476188662869
 21
47.4
 31
0
  0
TEXT
  8
1
 62
2
 10
-5.80804047979986
 20
21.5857062283638
 30
0
 40
3.2
  1
(0.0984)
 50
90
 41
0.6300000000000001
 72
1
 73
2
 11
-7.40804047979986
 21
29.6497062283638
 31
0
  0
TEXT
  8
1
 62
2
 10
-16.99565576757364
 20
21.47670459969279
 30
0
 40
3.2
  1
(0.394DIA.      )
 50
90
 41
0.6300000000000001
 73
2
 11
-18.59565576757364
 21
21.47670459969279
 31
0
  0
TEXT
  8
1
 62
2
 10
-18.79565576757364
 20
36.76268195120073
 30
0
 40
2
  1
 0
 50
90
 41
0.63
  0
TEXT
  8
1
 62
2
 10
-16.39565576757364
 20
36.76268195120073
 30
0
 40
2
  1
-0.000787
 50
90
 41
0.63
  0
TEXT
  8
1
 62
2
 10
87.87829634912927
 20
32.82551303864307
 30
0
 40
3
  1
NAME PLATE
 41
0.6300000000000001
 72
1
 73
2
 11
97.32829634912928
 21
34.32551303864307
 31
0
  0
TEXT
  8
1
 62
2
 10
159.4929951484042
 20
-49.44885064204369
 30
0
 40
2
  1
%%p0.787
 50
90
 41
0.63
 72
1
 73
2
 11
158.4929951484042
 21
-44.40885064204369
 31
0
  0
TEXT
  8
1
 62
2
 10
148.1096923065292
 20
-69.11516907639204
 30
0
 40
3.2
  1
(0.118)
 50
90
 41
0.6300000000000001
 72
1
 73
2
 11
146.5096923065292
 21
-62.05916907639204
 31
0
  0
TEXT
  8
1
 62
2
 10
160.0929951484042
 20
-60.0701588103847
 30
0
 40
3.2
  1
(5.906    )
 50
90
 41
0.6300000000000001
 72
1
 73
2
 11
158.4929951484042
 21
-48.9821588103847
 31
0
  0
TEXT
  8
1
 62
2
 10
160.0929951484042
 20
-11.088
 30
0
 40
3.2
  1
(1.732DIA.)
 50
90
 41
0.6300000000000001
 72
1
 73
2
 11
158.4929951484042
 21
0
 31
0
  0
TEXT
  8
1
 62
2
 10
43.30671013148846
 20
-57.95060310440431
 30
0
 40
3.5
  1
LEAD WIRES (RED,BLACK)
 41
0.9
 73
2
 11
43.30671013148846
 21
-56.20060310440431
 31
0
  0
TEXT
  8
1
 62
2
 10
43.30671013148846
 20
-65.11594311103875
 30
0
 40
3.5
  1
UL1007 AWG22
 41
0.9
 73
2
 11
43.30671013148846
 21
-63.36594311103875
 31
0
  0
TEXT
  8
1
 62
2
 10
164.3243394475084
 20
-66.1181588103847
 30
0
 40
3.2
  1
(FROM MOTOR CASE)
 50
90
 41
0.6300000000000001
 72
1
 73
2
 11
162.7243394475084
 21
-48.9821588103847
 31
0
  0
DIMENSION
  8
1
  6
CONTINUOUS
 62
2
  2
*D0
  3
DMST_1
 10
156.060498167021
 20
-22
 30
0
 11
153.460498167021
 21
0
 31
0
 12
0
 22
0
 32
0
 70
0
  1
φ<>
 13
129.4999999999999
 23
22
 33
0
 14
129.4999999999999
 24
-22
 34
0
 50
90
 53
0
  0
DIMENSION
  8
1
  6
CONTINUOUS
 62
2
  2
*D1
  3
DMST_1
 10
67.00000000000001
 20
62.0281973315879
 30
0
 11
51.00000000000001
 21
64.6281973315879
 31
0
 12
0
 22
0
 32
0
 70
0
  1
L2
 13
35
 23
38.5
 33
0
 14
67.00000000000001
 24
40
 34
0
 53
0
  0
DIMENSION
  8
1
  6
CONTINUOUS
 62
2
  2
*D2
  3
DMST_2
 10
-47.976633598102
 20
-33.25
 30
0
 11
-50.576633598102
 21
0
 31
0
 12
0
 22
0
 32
0
 70
0
 13
-69.99999999999999
 23
33.25
 33
0
 14
-69.99999999999999
 24
-33.25
 34
0
 50
90
 53
0
  0
DIMENSION
  8
1
  6
CONTINUOUS
 62
2
  2
*D3
  3
DMST_3
 10
-60.1124513184787
 20
0
 30
0
 11
-62.7124513184787
 21
-9.78005112431754
 31
0
 12
0
 22
0
 32
0
 70
0
 13
-93
 23
15
 33
0
 14
-69.99999999999999
 24
0
 34
0
 50
90
 53
0
  0
DIMENSION
  8
1
  6
CONTINUOUS
 62
2
  2
*D4
  3
DMST_4
 10
-112
 20
50.0130544528453
 30
0
 11
-160.46191644028
 21
53.4130544528453
 31
0
 12
0
 22
0
 32
0
 70
0
 13
-108
 23
19.58257569495578
 33
0
 14
-112
 24
19.58257569495578
 34
0
 53
0
  0
DIMENSION
  8
1
  6
CONTINUOUS
 62
2
  2
*D5
  3
DMST_1
 10
-127
 20
62.1726311147166
 30
0
 11
-110
 21
64.7726311147166
 31
0
 12
0
 22
0
 32
0
 70
0
  1
φ<>
 13
-93
 23
15
 33
0
 14
-127
 24
15
 34
0
 53
0
  0
DIMENSION
  8
1
  6
CONTINUOUS
 62
2
  2
*D6
  3
DMST_2
 10
-76.75
 20
74.0224804065669
 30
0
 11
-110
 21
76.62248040656689
 31
0
 12
0
 22
0
 32
0
 70
0
 13
-143.2500000000001
 23
40
 33
0
 14
-76.74999999999999
 24
40
 34
0
 53
0
  0
DIMENSION
  8
1
  6
CONTINUOUS
 62
2
  2
*D7
  3
DMST_1
 10
-70.00000000000003
 20
86.111812470225
 30
0
 11
-110
 21
88.711812470225
 31
0
 12
0
 22
0
 32
0
 70
0
  1
□<>
 13
-150.0000000000001
 23
33.25
 33
0
 14
-69.99999999999999
 24
33.25
 34
0
 53
0
  0
DIMENSION
  8
1
  6
CONTINUOUS
 62
2
  2
*D8
  3
DMST_1
 10
35.00000000000001
 20
74.0798607480758
 30
0
 11
81.26226123040807
 21
76.6798607480758
 31
0
 12
0
 22
0
 32
0
 70
0
  1
L1
 13
136.1000000000004
 23
10
 33
0
 14
35
 24
38.5
 34
0
 53
0
  0
DIMENSION
  8
1
  6
CONTINUOUS
 62
2
  2
*D9
  3
DMST_1
 10
0
 20
74.09025029597801
 30
0
 11
17.5
 21
76.690250295978
 31
0
 12
0
 22
0
 32
0
 70
0
 13
35
 23
38.25
 33
0
 14
0
 24
19.58257569495578
 34
0
 53
0
  0
DIMENSION
  8
1
  6
CONTINUOUS
 62
2
  2
*D10
  3
DMST_1
 10
30
 20
62.043459239938
 30
0
 11
23.4197186793957
 21
64.643459239938
 31
0
 12
0
 22
0
 32
0
 70
0
 13
35
 23
38.5
 33
0
 14
30
 24
36.71499999999997
 34
0
 53
0
  0
DIMENSION
  8
1
  6
CONTINUOUS
 62
2
  2
*D11
  3
DMST_1
 10
25
 20
49.977713211133
 30
0
 11
12.5
 21
52.577713211133
 31
0
 12
0
 22
0
 32
0
 70
0
 13
0
 23
19.58257569495578
 33
0
 14
25
 24
17.5
 34
0
 53
0
  0
DIMENSION
  8
1
  6
CONTINUOUS
 62
2
  2
*D12
  3
DMST_1
 10
-9.951716100841701
 20
20
 30
0
 11
-12.5517161008417
 21
29.3598576376304
 31
0
 12
0
 22
0
 32
0
 70
0
 13
0
 23
17.5
 33
0
 14
27.08257569495578
 24
20
 34
0
 50
90
 53
0
  0
DIMENSION
  8
1
  6
CONTINUOUS
 62
2
  2
*D13
  3
DMST_5
 10
-21.91641052354661
 20
20
 30
0
 11
-25.31641052354661
 21
30.7088599957923
 31
0
 12
0
 22
0
 32
0
 70
0
  1
φ<>
 13
0
 23
10
 33
0
 14
27.08257569495578
 24
20
 34
0
 50
90
 53
0
  0
DIMENSION
  8
1
  6
CONTINUOUS
 62
2
  2
*D14
  3
DMST_6
 10
144.01213367191
 20
-69.7823380118422
 30
0
 11
141.41213367191
 21
-61.54993385985932
 31
0
 12
0
 22
0
 32
0
 70
0
  1
(<>
 13
126.596882135101
 23
-72.78233801184217
 33
0
 14
126.8943369725351
 24
-69.78233801184217
 34
0
 50
90
 53
0
  0
INSERT
  8
0
  2
TOP
 10
358.2751942342005
 20
217.2680463147007
 30
0
  0
INSERT
  8
0
  2
___R___O_______R__S
 10
0.5
 20
-3.75
 30
0
  0
INSERT
  8
1
  2
*D15
 10
0
 20
0
 30
0
  0
ENDSEC
  0
EOF
