  0
SECTION
  2
HEADER
  9
$ACADVER
  1
AC1009
  9
$INSBASE
 10
0
 20
0
  9
$EXTMIN
 10
-194.5
 20
-146
  9
$EXTMAX
 10
194.5
 20
146
  9
$LIMMIN
 10
-194.5
 20
-146
  9
$LIMMAX
 10
194.5
 20
146
  9
$VIEWCTR
 10
10
 20
10
  9
$VIEWSIZE
 40
10
  9
$SNAPMODE
 70
0
  9
$SNAPUNIT
 10
1
 20
1
  9
$SNAPBASE
 10
0
 20
0
  9
$SNAPANG
 50
0
  9
$SNAPSTYLE
 70
0
  9
$SNAPISOPAIR
 70
0
  9
$GRIDMODE
 70
0
  9
$GRIDUNIT
 10
0
 20
0
  9
$ORTHOMODE
 70
0
  9
$REGENMODE
 70
1
  9
$FILLMODE
 70
1
  9
$QTEXTMODE
 70
0
  9
$DRAGMODE
 70
2
  9
$LTSCALE
 40
1
  9
$OSMODE
 70
0
  9
$ATTMODE
 70
1
  9
$TEXTSIZE
 40
3.5
  9
$TRACEWID
 40
0.5
  9
$TEXTSTYLE
  7
STANDARD
  9
$CLAYER
  8
0
  9
$CELTYPE
  6
BYLAYER
  9
$CECOLOR
 62
256
  9
$DIMSCALE
 40
1
  9
$DIMASZ
 40
0.18
  9
$DIMEXO
 40
0.0625
  9
$DIMDLI
 40
0.38
  9
$DIMRND
 40
0
  9
$DIMDLE
 40
0
  9
$DIMEXE
 40
0.18
  9
$DIMTP
 40
0
  9
$DIMTM
 40
0
  9
$DIMTXT
 40
0.18
  9
$DIMCEN
 40
0.09
  9
$DIMTSZ
 40
0
  9
$DIMTOL
 70
0
  9
$DIMLIM
 70
0
  9
$DIMTIH
 70
1
  9
$DIMTOH
 70
1
  9
$DIMSE1
 70
0
  9
$DIMSE2
 70
0
  9
$DIMTAD
 70
0
  9
$DIMZIN
 70
0
  9
$DIMBLK
  1

  9
$DIMASO
 70
1
  9
$DIMSHO
 70
1
  9
$DIMPOST
  1

  9
$DIMAPOST
  1

  9
$DIMALT
 70
0
  9
$DIMALTD
 70
2
  9
$DIMALTF
 40
25.4
  9
$DIMLFAC
 40
1
  9
$DIMTOFL
 70
0
  9
$DIMTVP
 40
0
  9
$DIMTIX
 70
0
  9
$DIMSOXD
 70
0
  9
$DIMSAH
 70
0
  9
$DIMBLK1
  1

  9
$DIMBLK2
  1

  9
$DIMSTYLE
  2
*UNNAMED
  9
$DIMCLRD
 70
0
  9
$DIMCLRE
 70
0
  9
$DIMCLRT
 70
0
  9
$DIMTFAC
 40
1
  9
$DIMGAP
 40
0.09
  9
$LUNITS
 70
2
  9
$LUPREC
 70
4
  9
$AXISMODE
 70
0
  9
$AXISUNIT
 10
0
 20
0
  9
$SKETCHINC
 40
0.1
  9
$FILLETRAD
 40
2
  9
$AUNITS
 70
0
  9
$AUPREC
 70
0
  9
$MENU
  1
ACAD
  9
$ELEVATION
 40
0
  9
$THICKNESS
 40
0
  9
$VIEWDIR
 10
0
 20
0
 30
1
  9
$LIMCHECK
 70
0
  9
$BLIPMODE
 70
1
  9
$CHAMFERA
 40
0
  9
$CHAMFERB
 40
0
  9
$FASTZOOM
 70
1
  9
$SKPOLY
 70
0
  9
$ANGBASE
 50
0
  9
$ANGDIR
 70
0
  9
$PDMODE
 70
0
  9
$PDSIZE
 40
0
  9
$PLINEWID
 40
0
  9
$COORDS
 70
2
  0
ENDSEC
  0
SECTION
  2
TABLES
  0
TABLE
  2
DIMSTYLE
 70
5
  0
DIMSTYLE
  2
DMST_1
 70
0
  3

  4

  5

  6

  7

 40
1
 41
3.2
 42
1
 43
7
 44
1
 45
0
 46
0
 47
0
 48
0.01
140
3.2
141
0
142
0
143
25.4
144
1
145
0
146
0.6
147
0.09
 71
1
 72
0
 73
0
 74
0
 75
0
 76
0
 77
1
 78
9
170
0
171
2
172
0
173
0
174
0
175
0
176
2
177
2
178
2
  0
DIMSTYLE
  2
DMST_2
 70
0
  3

  4

  5

  6

  7

 40
1
 41
3.2
 42
1
 43
7
 44
1
 45
0
 46
0
 47
0.2
 48
0.2
140
3.2
141
0
142
0
143
25.4
144
1
145
0
146
0.6
147
0.09
 71
1
 72
0
 73
0
 74
0
 75
0
 76
0
 77
1
 78
9
170
0
171
2
172
0
173
0
174
0
175
0
176
2
177
2
178
2
  0
DIMSTYLE
  2
DMST_3
 70
0
  3
)
  4

  5

  6

  7

 40
1
 41
3.2
 42
1
 43
7
 44
1
 45
0
 46
0
 47
0
 48
0
140
3.2
141
0
142
0
143
25.4
144
1
145
0
146
1
147
0.09
 71
0
 72
0
 73
0
 74
0
 75
0
 76
0
 77
1
 78
9
170
0
171
2
172
0
173
0
174
0
175
0
176
2
177
2
178
2
  0
DIMSTYLE
  2
DMST_4
 70
0
  3

  4

  5

  6

  7

 40
1
 41
3.2
 42
1
 43
7
 44
1
 45
0
 46
0
 47
0
 48
0
140
3.2
141
0
142
0
143
25.4
144
1
145
0
146
1
147
0.09
 71
0
 72
0
 73
0
 74
0
 75
0
 76
0
 77
1
 78
9
170
0
171
2
172
0
173
0
174
0
175
0
176
2
177
2
178
2
  0
DIMSTYLE
  2
DMST_5
 70
0
  3

  4

  5

  6

  7

 40
1
 41
3.200000000000001
 42
1
 43
7
 44
1
 45
0
 46
0
 47
0
 48
0
140
3.200000000000001
141
0
142
0
143
25.4
144
1
145
0
146
1
147
0.09
 71
0
 72
0
 73
1
 74
1
 75
0
 76
0
 77
1
 78
9
170
0
171
2
172
0
173
0
174
0
175
0
176
2
177
2
178
2
  0
ENDTAB
  0
TABLE
  2
LTYPE
 70
9
  0
LTYPE
  2
CONTINUOUS
 70
64
  3
Solid line
 72
65
 73
0
 40
0
  0
LTYPE
  2
BORDER
 70
64
  3
__ __ . __ __ .
 72
65
 73
6
 40
17.91447368421053
 49
5.118421052631579
 49
-2.559210526315789
 49
5.118421052631579
 49
-2.559210526315789
 49
0
 49
-2.559210526315789
  0
LTYPE
  2
CENTER
 70
64
  3
____ _ ____ _
 72
65
 73
4
 40
20.47368421052632
 49
12.79605263157895
 49
-2.559210526315789
 49
2.559210526315789
 49
-2.559210526315789
  0
LTYPE
  2
DASHDOT
 70
64
  3
__ . __ . __ .
 72
65
 73
4
 40
10.23684210526316
 49
5.118421052631579
 49
-2.559210526315789
 49
0
 49
-2.559210526315789
  0
LTYPE
  2
DASHED
 70
64
  3
__ __ __ __ __
 72
65
 73
2
 40
7.677631578947368
 49
5.118421052631579
 49
-2.559210526315789
  0
LTYPE
  2
DIVIDE
 70
64
  3
__ . . __ . . 
 72
65
 73
6
 40
12.79605263157895
 49
5.118421052631579
 49
-2.559210526315789
 49
0
 49
-2.559210526315789
 49
0
 49
-2.559210526315789
  0
LTYPE
  2
DOT
 70
64
  3
..............
 72
65
 73
4
 40
5.118421052631579
 49
0
 49
-2.559210526315789
 49
0
 49
-2.559210526315789
  0
LTYPE
  2
HIDDEN
 70
64
  3
_ _ _ _ _ _ _
 72
65
 73
2
 40
3.838815789473684
 49
2.559210526315789
 49
-1.279605263157895
  0
LTYPE
  2
PHANTOM
 70
64
  3
_____ _ _ _____ _ _ 
 72
65
 73
6
 40
25.59210526315789
 49
12.79605263157895
 49
-2.559210526315789
 49
2.559210526315789
 49
-2.559210526315789
 49
2.559210526315789
 49
-2.559210526315789
  0
ENDTAB
  0
TABLE
  2
LAYER
 70
3
  0
LAYER
  2
1
 70
0
 62
7
  6
CONTINUOUS
  0
LAYER
  2
0
 70
0
 62
7
  6
CONTINUOUS
  0
ENDTAB
  0
TABLE
  2
STYLE
 70
4
  0
STYLE
  2
STANDARD
 70
0
 40
0
 41
1
 50
0
 71
0
 42
3.5
  3
txt
  4

  0
STYLE
  2
SIMPLEX
 70
0
 40
0
 41
1
 50
0
 71
0
 42
3.5
  3
simplex
  4

  0
STYLE
  2
COMPLEX
 70
0
 40
0
 41
1
 50
0
 71
0
 42
3.5
  3
complex
  4

  0
STYLE
  2
ITALIC
 70
0
 40
0
 41
1
 50
0
 71
0
 42
3.5
  3
italic
  4

  0
ENDTAB
  0
TABLE
  2
VIEW
 70
0
  0
ENDTAB
  0
ENDSEC
  0
SECTION
  2
BLOCKS
  0
BLOCK
  8
0
  2
___R___O_______R
 70
0
 10
0.5
 20
-3.75
 30
0
  0
LINE
  8
1
 62
4
  6
PHANTOM
 10
194.5
 20
-136.5
 30
0
 11
194.5
 21
-146
 31
0
  0
LINE
  8
1
 62
4
  6
PHANTOM
 10
-194.5
 20
-146
 30
0
 11
-194.5
 21
146
 31
0
  0
LINE
  8
1
 62
4
  6
PHANTOM
 10
194.5
 20
146
 30
0
 11
194.5
 21
129
 31
0
  0
LINE
  8
1
 62
4
  6
PHANTOM
 10
194.5
 20
146
 30
0
 11
-194.5
 21
146
 31
0
  0
LINE
  8
1
 62
4
  6
PHANTOM
 10
-194.5
 20
-146
 30
0
 11
194.5
 21
-146
 31
0
  0
TEXT
  8
1
 62
4
 10
178.746911898274
 20
-142.6071298819256
 30
0
 40
5
  1
A3
 41
0.9
 72
1
 73
2
 11
183.246911898274
 21
-140.1071298819256
 31
0
  0
ENDBLK
  8
0
  0
BLOCK
  8
1
  2
*D0
 70
1
 10
0
 20
0
 30
0
  0
LINE
  8
1
 62
2
 10
11.9399591802382
 20
1.25000000000011
 30
0
 11
11.9399591802382
 21
29.19109854255217
 31
0
  0
LINE
  8
1
 62
2
 10
11.9399591802382
 20
-1.24999999999989
 30
0
 11
11.9399591802382
 21
1.25000000000011
 31
0
  0
LINE
  8
1
 62
2
 10
11.9399591802382
 20
-7.649999999999888
 30
0
 11
11.9399591802382
 21
-1.24999999999989
 31
0
  0
LINE
  8
1
 62
2
 10
23.99999999999999
 20
1.25000000000011
 30
0
 11
10.9399591802382
 21
1.25000000000011
 31
0
  0
LINE
  8
1
 62
2
 10
23.99999999999999
 20
-1.24999999999989
 30
0
 11
10.9399591802382
 21
-1.24999999999989
 31
0
  0
SOLID
  8
1
 62
2
 10
11.9399591802382
 20
1.25000000000011
 30
0
 11
11.5239591802382
 21
4.450000000000111
 31
0
 12
12.3559591802382
 22
4.450000000000111
 32
0
 13
12.3559591802382
 23
4.450000000000111
 33
0
  0
SOLID
  8
1
 62
2
 10
11.9399591802382
 20
-1.24999999999989
 30
0
 11
12.3559591802382
 21
-4.449999999999891
 31
0
 12
11.5239591802382
 22
-4.449999999999891
 32
0
 13
11.5239591802382
 23
-4.449999999999891
 33
0
  0
TEXT
  8
1
 62
2
 10
10.1399591802382
 20
15.55909854255217
 30
0
 40
3.2
  1
2.5
 50
90
 41
0.9
  0
TEXT
  8
1
 62
2
 10
8.059959180238195
 20
22.99909854255217
 30
0
 40
1.92
  1
 0
 50
90
 41
0.9
  0
TEXT
  8
1
 62
2
 10
10.9399591802382
 20
22.99909854255217
 30
0
 40
1.92
  1
-0.01
 50
90
 41
0.9
  0
TEXT
  8
1
 62
2
 10
10.1399591802382
 20
11.91465409810773
 30
0
 40
3.2
  1
ƒÓ
 50
90
 41
0.9
  0
ENDBLK
  8
0
  0
BLOCK
  8
1
  2
*D1
 70
1
 10
0
 20
0
 30
0
  0
LINE
  8
1
 62
2
 10
-0.1843952082356708
 20
4.100000000000041
 30
0
 11
-0.1843952082356708
 21
27.95884240205355
 31
0
  0
LINE
  8
1
 62
2
 10
-0.1843952082356708
 20
-4.099999999999909
 30
0
 11
-0.1843952082356708
 21
4.100000000000041
 31
0
  0
LINE
  8
1
 62
2
 10
-0.1843952082356708
 20
-10.49999999999991
 30
0
 11
-0.1843952082356708
 21
-4.099999999999909
 31
0
  0
LINE
  8
1
 62
2
 10
34.10000000000014
 20
4.100000000000041
 30
0
 11
-1.184395208235671
 21
4.100000000000041
 31
0
  0
LINE
  8
1
 62
2
 10
34.10000000000014
 20
-4.099999999999909
 30
0
 11
-1.184395208235671
 21
-4.099999999999909
 31
0
  0
SOLID
  8
1
 62
2
 10
-0.1843952082356708
 20
4.100000000000041
 30
0
 11
-0.6003952082356718
 21
7.300000000000042
 31
0
 12
0.2316047917643277
 22
7.300000000000042
 32
0
 13
0.2316047917643277
 23
7.300000000000042
 33
0
  0
SOLID
  8
1
 62
2
 10
-0.1843952082356708
 20
-4.099999999999909
 30
0
 11
0.2316047917643284
 21
-7.29999999999991
 31
0
 12
-0.6003952082356712
 22
-7.29999999999991
 32
0
 13
-0.6003952082356712
 23
-7.29999999999991
 33
0
  0
TEXT
  8
1
 62
2
 10
-1.184395208235674
 20
15.67084240205355
 30
0
 40
3.2
  1
8.2
 50
90
 41
0.9
  0
TEXT
  8
1
 62
2
 10
-1.824395208235674
 20
23.11084240205355
 30
0
 40
1.92
  1
%%p0.2
 50
90
 41
0.9
  0
TEXT
  8
1
 62
2
 10
-1.184395208235674
 20
12.02639795760911
 30
0
 40
3.2
  1
ƒÓ
 50
90
 41
0.9
  0
ENDBLK
  8
0
  0
BLOCK
  8
1
  2
*D2
 70
1
 10
0
 20
0
 30
0
  0
LINE
  8
1
 62
2
 10
90.09999999999991
 20
-63.38376931610912
 30
0
 11
90.09999999999991
 21
-51.90681048990017
 31
0
  0
LINE
  8
1
 62
2
 10
90.09999999999991
 20
-66.38376931610912
 30
0
 11
90.09999999999991
 21
-63.38376931610912
 31
0
  0
LINE
  8
1
 62
2
 10
90.09999999999991
 20
-72.7837693161091
 30
0
 11
90.09999999999991
 21
-66.38376931610912
 31
0
  0
LINE
  8
1
 62
2
 10
70.06411360257084
 20
-63.38376931610912
 30
0
 11
91.09999999999991
 21
-63.38376931610912
 31
0
  0
LINE
  8
1
 62
2
 10
69.80131114069377
 20
-66.38376931610912
 30
0
 11
91.09999999999991
 21
-66.38376931610912
 31
0
  0
SOLID
  8
1
 62
2
 10
90.09999999999991
 20
-66.38376931610912
 30
0
 11
90.51599999999991
 21
-69.58376931610913
 31
0
 12
89.68399999999991
 22
-69.58376931610913
 32
0
 13
89.68399999999991
 23
-69.58376931610913
 33
0
  0
SOLID
  8
1
 62
2
 10
90.09999999999991
 20
-63.38376931610912
 30
0
 11
89.68399999999991
 21
-60.18376931610911
 31
0
 12
90.51599999999991
 22
-60.18376931610911
 32
0
 13
90.51599999999991
 23
-60.18376931610911
 33
0
  0
TEXT
  8
1
 62
2
 10
89.09999999999999
 20
-55.90681048990014
 30
0
 40
3.2
  1
3
 50
90
 41
0.9
  0
TEXT
  8
1
 62
2
 10
89.09999999999999
 20
-57.98681048990014
 30
0
 40
3.2
  1
(
 50
90
 41
0.9
  0
TEXT
  8
1
 62
2
 10
89.09999999999999
 20
-52.38681048990014
 30
0
 40
3.2
  1
)
 50
90
 41
0.9
  0
ENDBLK
  8
0
  0
BLOCK
  8
1
  2
*D3
 70
1
 10
0
 20
0
 30
0
  0
LINE
  8
1
 62
2
 10
37
 20
26.968470825326
 30
0
 11
44.5725857815056
 21
26.968470825326
 31
0
  0
LINE
  8
1
 62
2
 10
35
 20
26.968470825326
 30
0
 11
37
 21
26.968470825326
 31
0
  0
LINE
  8
1
 62
2
 10
28.6
 20
26.968470825326
 30
0
 11
35
 21
26.968470825326
 31
0
  0
LINE
  8
1
 62
2
 10
37
 20
16.50000000000011
 30
0
 11
37
 21
27.968470825326
 31
0
  0
LINE
  8
1
 62
2
 10
35
 20
4.50000000000011
 30
0
 11
35
 21
27.968470825326
 31
0
  0
SOLID
  8
1
 62
2
 10
35
 20
26.968470825326
 30
0
 11
31.8
 21
26.552470825326
 31
0
 12
31.8
 22
27.384470825326
 32
0
 13
31.8
 23
27.384470825326
 33
0
  0
SOLID
  8
1
 62
2
 10
37
 20
26.968470825326
 30
0
 11
40.2
 21
27.384470825326
 31
0
 12
40.2
 22
26.552470825326
 32
0
 13
40.2
 23
26.552470825326
 33
0
  0
TEXT
  8
1
 62
2
 10
42.6525857815056
 20
27.968470825326
 30
0
 40
3.2
  1
2
 41
0.9
  0
ENDBLK
  8
0
  0
BLOCK
  8
1
  2
*D4
 70
1
 10
0
 20
0
 30
0
  0
LINE
  8
1
 62
2
 10
90.09999999999999
 20
-15.64733266756708
 30
0
 11
90.09999999999999
 21
15.75266733243303
 31
0
  0
LINE
  8
1
 62
2
 10
80.70000000000005
 20
15.75266733243303
 30
0
 11
91.09999999999999
 21
15.75266733243303
 31
0
  0
LINE
  8
1
 62
2
 10
80.70000000000005
 20
-15.64733266756708
 30
0
 11
91.09999999999999
 21
-15.64733266756708
 31
0
  0
SOLID
  8
1
 62
2
 10
90.09999999999999
 20
15.75266733243303
 30
0
 11
90.51599999999999
 21
12.55266733243303
 31
0
 12
89.684
 22
12.55266733243303
 32
0
 13
89.684
 23
12.55266733243303
 33
0
  0
SOLID
  8
1
 62
2
 10
90.09999999999999
 20
-15.64733266756708
 30
0
 11
89.684
 21
-12.44733266756708
 31
0
 12
90.51599999999999
 22
-12.44733266756708
 32
0
 13
90.51599999999999
 23
-12.44733266756708
 33
0
  0
TEXT
  8
1
 62
2
 10
89.09999999999999
 20
-5.427332667567027
 30
0
 40
3.200000000000001
  1
ƒÓ31.4
 50
90
 41
0.9
  0
TEXT
  8
1
 62
2
 10
89.09999999999999
 20
-7.507332667567027
 30
0
 40
3.200000000000001
  1
(
 50
90
 41
0.9
  0
TEXT
  8
1
 62
2
 10
89.09999999999999
 20
7.132667332432979
 30
0
 40
3.200000000000001
  1
)
 50
90
 41
0.9
  0
ENDBLK
  8
0
  0
BLOCK
  8
1
  2
*D5
 70
1
 10
0
 20
0
 30
0
  0
LINE
  8
1
 62
2
 10
102.1181625646513
 20
-16.99999999999989
 30
0
 11
102.1181625646513
 21
17.00000000000011
 31
0
  0
LINE
  8
1
 62
2
 10
67.5
 20
17.00000000000011
 30
0
 11
103.1181625646513
 21
17.00000000000011
 31
0
  0
LINE
  8
1
 62
2
 10
67.5
 20
-16.99999999999989
 30
0
 11
103.1181625646513
 21
-16.99999999999989
 31
0
  0
SOLID
  8
1
 62
2
 10
102.1181625646513
 20
17.00000000000011
 30
0
 11
102.5341625646513
 21
13.80000000000011
 31
0
 12
101.7021625646513
 22
13.80000000000011
 32
0
 13
101.7021625646513
 23
13.80000000000011
 33
0
  0
SOLID
  8
1
 62
2
 10
102.1181625646513
 20
-16.99999999999989
 30
0
 11
101.7021625646513
 21
-13.79999999999989
 31
0
 12
102.5341625646513
 22
-13.79999999999989
 32
0
 13
102.5341625646513
 23
-13.79999999999989
 33
0
  0
TEXT
  8
1
 62
2
 10
101.1181625646513
 20
-0.5777777777776638
 30
0
 40
3.200000000000001
  1
34
 50
90
 41
0.9
  0
TEXT
  8
1
 62
2
 10
101.1181625646513
 20
-4.22222222222211
 30
0
 40
3.200000000000001
  1
ƒÓ
 50
90
 41
0.9
  0
ENDBLK
  8
0
  0
BLOCK
  8
1
  2
*D6
 70
1
 10
0
 20
0
 30
0
  0
LINE
  8
1
 62
2
 10
37
 20
39.1065130041879
 30
0
 11
80.10000000000014
 21
39.1065130041879
 31
0
  0
LINE
  8
1
 62
2
 10
80.10000000000014
 20
16.35266733243305
 30
0
 11
80.10000000000014
 21
40.1065130041879
 31
0
  0
LINE
  8
1
 62
2
 10
37
 20
16.50000000000012
 30
0
 11
37
 21
40.1065130041879
 31
0
  0
SOLID
  8
1
 62
2
 10
37
 20
39.1065130041879
 30
0
 11
40.2
 21
39.52251300418789
 31
0
 12
40.2
 22
38.6905130041879
 32
0
 13
40.2
 23
38.6905130041879
 33
0
  0
SOLID
  8
1
 62
2
 10
80.10000000000014
 20
39.1065130041879
 30
0
 11
76.90000000000013
 21
38.6905130041879
 31
0
 12
76.90000000000013
 22
39.52251300418789
 32
0
 13
76.90000000000013
 23
39.52251300418789
 33
0
  0
TEXT
  8
1
 62
2
 10
54.67000000000007
 20
40.1065130041879
 30
0
 40
3.200000000000001
  1
43.1
 41
0.9
  0
ENDBLK
  8
0
  0
BLOCK
  8
1
  2
*D7
 70
1
 10
0
 20
0
 30
0
  0
LINE
  8
1
 62
2
 10
25
 20
39.1065130041879
 30
0
 11
37
 21
39.1065130041879
 31
0
  0
LINE
  8
1
 62
2
 10
37
 20
16.50000000000012
 30
0
 11
37
 21
40.1065130041879
 31
0
  0
LINE
  8
1
 62
2
 10
25
 20
2.250000000000121
 30
0
 11
25
 21
40.1065130041879
 31
0
  0
SOLID
  8
1
 62
2
 10
25
 20
39.1065130041879
 30
0
 11
28.2
 21
39.52251300418789
 31
0
 12
28.2
 22
38.6905130041879
 32
0
 13
28.2
 23
38.6905130041879
 33
0
  0
SOLID
  8
1
 62
2
 10
37
 20
39.1065130041879
 30
0
 11
33.8
 21
38.6905130041879
 31
0
 12
33.8
 22
39.52251300418789
 32
0
 13
33.8
 23
39.52251300418789
 33
0
  0
TEXT
  8
1
 62
2
 10
29.08
 20
40.1065130041879
 30
0
 40
3.2
  1
12
 41
0.9
  0
ENDBLK
  8
0
  0
BLOCK
  8
1
  2
*D8
 70
1
 10
0
 20
0
 30
0
  0
LINE
  8
1
 62
2
 10
102.0979811944729
 20
-66.38376931610912
 30
0
 11
102.0979811944729
 21
-32.6111012600816
 31
0
  0
LINE
  8
1
 62
2
 10
69.801311140694
 20
-66.38376931610912
 30
0
 11
103.0979811944729
 21
-66.38376931610912
 31
0
  0
SOLID
  8
1
 62
2
 10
102.0979811944729
 20
-66.38376931610912
 30
0
 11
101.6819811944729
 21
-63.18376931610912
 31
0
 12
102.5139811944729
 22
-63.18376931610912
 32
0
 13
102.5139811944729
 23
-63.18376931610912
 33
0
  0
TEXT
  8
1
 62
2
 10
100.2979811944729
 20
-46.30710126008161
 30
0
 40
3.200000000000001
  1
300
 50
90
 41
0.9
  0
TEXT
  8
1
 62
2
 10
98.2179811944729
 20
-37.0271012600816
 30
0
 40
1.920000000000001
  1
+30
 50
90
 41
0.9
  0
TEXT
  8
1
 62
2
 10
101.0979811944729
 20
-35.2991012600816
 30
0
 40
1.920000000000001
  1
 0
 50
90
 41
0.9
  0
ENDBLK
  8
0
  0
BLOCK
  8
1
  2
*D9
 70
1
 10
0
 20
0
 30
0
  0
LINE
  8
1
 62
2
 10
-94.7169291679196
 20
-41.0424447516126
 30
0
 11
-38.7969291679196
 21
-41.0424447516126
 31
0
  0
LINE
  8
1
 62
2
 10
-81.73028477891727
 20
-7.711304636281497
 30
0
 11
-94.7169291679196
 21
-41.0424447516126
 31
0
  0
SOLID
  8
1
 62
2
 10
-81.73028477891727
 20
-7.711304636281497
 30
0
 11
-82.50440152230851
 21
-10.84400303663882
 31
0
 12
-83.27963648952877
 22
-10.54195213761846
 32
0
 13
-83.27963648952877
 23
-10.54195213761846
 33
0
  0
TEXT
  8
1
 62
2
 10
-80.2369291679196
 20
-40.0424447516126
 30
0
 40
3.2
  1
2.6
 41
0.9
  0
TEXT
  8
1
 62
2
 10
-89.5169291679196
 20
-40.0424447516126
 30
0
 40
3.2
  1
3-M
 41
0.9
  0
TEXT
  8
1
 62
2
 10
-72.7969291679196
 20
-40.0424447516126
 30
0
 40
3.2
  1
 DEPTH 3MAX.
 41
0.9
  0
ENDBLK
  8
0
  0
ENDSEC
  0
SECTION
  2
ENTITIES
  0
LINE
  8
1
 62
2
 10
55.90792255952644
 20
-62.72859832042582
 30
0
 11
6.616676980998548
 21
-62.72859832042582
 31
0
  0
LINE
  8
1
 62
7
 10
35
 20
-1.249999999999886
 30
0
 11
25
 21
-1.249999999999886
 31
0
  0
LINE
  8
1
 62
2
 10
-94.39030144903208
 20
-47.99999999999994
 30
0
 11
-37.5676022948844
 21
-47.99999999999983
 31
0
  0
LINE
  8
1
 62
7
 10
35.10000000000014
 20
-4.099999999999909
 30
0
 11
37
 21
-4.099999999999909
 31
0
  0
LINE
  8
1
 62
7
 10
35.10000000000014
 20
4.100000000000023
 30
0
 11
35.10000000000014
 21
-4.099999999999909
 31
0
  0
LINE
  8
1
 62
7
 10
25
 20
1.250000000000114
 30
0
 11
35
 21
1.250000000000114
 31
0
  0
LINE
  8
1
 62
3
 10
-83.44735510201798
 20
-7.763834088038941
 30
0
 11
-79.17465276012399
 21
-5.296988240779569
 31
0
  0
LINE
  8
1
 62
2
 10
-94.39030144903208
 20
-54.99999999999984
 30
0
 11
-37.5676022948844
 21
-54.99999999999984
 31
0
  0
LINE
  8
1
 62
3
 10
-70
 20
18
 30
0
 11
-70
 21
-18
 31
0
  0
LINE
  8
1
 62
3
 10
-61.104930974092
 20
-5.135570496567901
 30
0
 11
-56.78492409760408
 21
-7.629727629609501
 31
0
  0
LINE
  8
1
 62
2
 10
-94.39030144903208
 20
-61.99999999999984
 30
0
 11
-37.5676022948844
 21
-61.99999999999973
 31
0
  0
LINE
  8
1
 62
7
 10
68
 20
-10.12066685231423
 30
0
 11
68
 21
-11.98475092040542
 31
0
  0
LINE
  8
1
 62
2
 10
67.70000000000005
 20
-10.12066685231434
 30
0
 11
67.70000000000005
 21
-11.98475092040542
 31
0
  0
LINE
  8
1
 62
7
 10
66.70000000000005
 20
-10.12066685231434
 30
0
 11
66.70000000000005
 21
-11.98475092040542
 31
0
  0
LINE
  8
1
 62
7
 10
68
 20
-12.86789495383834
 30
0
 11
68
 21
-14.49999999999989
 31
0
  0
LINE
  8
1
 62
7
 10
67.20687665034302
 20
-63.38376931610912
 30
0
 11
69.06411360257107
 21
-63.38376931610912
 31
0
  0
LINE
  8
1
 62
7
 10
68.23000000000002
 20
-63.38376931610912
 30
0
 11
68.23000000000002
 21
-66.38376931610912
 31
0
  0
LINE
  8
1
 62
7
 10
67.65687665034307
 20
-63.38376931610912
 30
0
 11
67.65687665034307
 21
-66.38376931610912
 31
0
  0
LINE
  8
1
 62
7
 10
68
 20
14.50000000000011
 30
0
 11
68
 21
-9.758246055160612
 31
0
  0
LINE
  8
1
 62
7
 10
68.10000000000014
 20
14.50000000000011
 30
0
 11
66.5
 21
14.50000000000011
 31
0
  0
LINE
  8
1
 62
7
 10
68.10000000000014
 20
-14.49999999999989
 30
0
 11
66.5
 21
-14.49999999999989
 31
0
  0
LINE
  8
1
 62
7
 10
68.801311140694
 20
-63.38376931610912
 30
0
 11
68.801311140694
 21
-66.38376931610912
 31
0
  0
LINE
  8
1
 62
7
 10
67.20687665034302
 20
-40.49350967879298
 30
0
 11
67.20687665034302
 21
-63.38376931610912
 31
0
  0
LINE
  8
1
 62
7
 10
68.68000000000006
 20
-40.59726678595166
 30
0
 11
68.68000000000006
 21
-63.38376931610912
 31
0
  0
LINE
  8
1
 62
7
 10
69.06411360257107
 20
-40.710902816062
 30
0
 11
69.06411360257107
 21
-63.38376931610912
 31
0
  0
LINE
  8
1
 62
7
 10
67.20687665034302
 20
-14.49999999999989
 30
0
 11
67.20687665034302
 21
-38.04349537409394
 31
0
  0
LINE
  8
1
 62
7
 10
68.68000000000006
 20
-15.69999999999993
 30
0
 11
68.68000000000006
 21
-38.11456951847379
 31
0
  0
LINE
  8
1
 62
7
 10
69.06411360257107
 20
-15.69999999999993
 30
0
 11
69.06411360257107
 21
-38.26088851136296
 31
0
  0
LINE
  8
1
 62
7
 10
79.70000000000005
 20
-15.64733266756707
 30
0
 11
80.10000000000014
 21
-15.24733266756709
 31
0
  0
LINE
  8
1
 62
7
 10
79.70000000000005
 20
15.75266733243302
 30
0
 11
80.10000000000014
 21
15.35266733243304
 31
0
  0
LINE
  8
1
 62
7
 10
60.25
 20
-10.81332974472184
 30
0
 11
60.25
 21
-16.99999999999989
 31
0
  0
LINE
  8
1
 62
7
 10
43.25
 20
-10.81332974472184
 30
0
 11
60.25
 21
-10.81332974472184
 31
0
  0
LINE
  8
1
 62
7
 10
43.25
 20
-16.99999999999989
 30
0
 11
43.25
 21
-10.81332974472184
 31
0
  0
LINE
  8
1
 62
3
 10
-92.2877346344219
 20
5.684341886080801e-014
 30
0
 11
-48.64500100222494
 21
5.684341886080801e-014
 31
0
  0
LINE
  8
1
 62
7
 10
79.70000000000005
 20
-15.64733266756707
 30
0
 11
68.10000000000014
 21
-15.64733266756707
 31
0
  0
LINE
  8
1
 62
7
 10
66.5
 20
-16.99999999999989
 30
0
 11
38.5
 21
-16.99999999999989
 31
0
  0
LINE
  8
1
 62
7
 10
68.10000000000014
 20
-10.12066685231434
 30
0
 11
68.10000000000014
 21
-11.98475092040542
 31
0
  0
LINE
  8
1
 62
7
 10
66.5
 20
-10.12066685231434
 30
0
 11
68.10000000000014
 21
-10.12066685231434
 31
0
  0
LINE
  8
1
 62
7
 10
68.10000000000014
 20
-11.98475092040542
 30
0
 11
66.5
 21
-11.9847509204053
 31
0
  0
LINE
  8
1
 62
7
 10
68.10000000000014
 20
-13.80780799608044
 30
0
 11
79.70000000000005
 21
-13.80780799608044
 31
0
  0
LINE
  8
1
 62
7
 10
80.10000000000014
 20
-11.63932695565825
 30
0
 11
70.5
 21
-11.63932695565825
 31
0
  0
LINE
  8
1
 62
7
 10
79.70000000000005
 20
-9.758246055160726
 30
0
 11
68
 21
-9.758246055160612
 31
0
  0
LINE
  8
1
 62
7
 10
70.5
 20
-9.758246055160726
 30
0
 11
70.5
 21
-12.86789495383834
 31
0
  0
LINE
  8
1
 62
7
 10
68.10000000000014
 20
-15.64733266756707
 30
0
 11
68.10000000000014
 21
-12.86789495383834
 31
0
  0
LINE
  8
1
 62
7
 10
79.70000000000005
 20
15.75266733243302
 30
0
 11
68.10000000000014
 21
15.75266733243302
 31
0
  0
LINE
  8
1
 62
7
 10
68.10000000000014
 20
15.75266733243302
 30
0
 11
68.10000000000014
 21
-9.758246055160726
 31
0
  0
LINE
  8
1
 62
7
 10
25
 20
1.250000000000114
 30
0
 11
25
 21
-1.249999999999886
 31
0
  0
LINE
  8
1
 62
7
 10
37
 20
4.100000000000023
 30
0
 11
35.10000000000014
 21
4.100000000000023
 31
0
  0
LINE
  8
1
 62
7
 10
38.5
 20
17.00000000000011
 30
0
 11
66.5
 21
17.00000000000011
 31
0
  0
LINE
  8
1
 62
7
 10
66.5
 20
17.00000000000011
 30
0
 11
66.5
 21
-16.99999999999989
 31
0
  0
LINE
  8
1
 62
7
 10
37
 20
-15.49999999999989
 30
0
 11
37
 21
15.50000000000011
 31
0
  0
LINE
  8
1
 62
7
 10
35
 20
3.500000000000114
 30
0
 11
35
 21
-3.499999999999886
 31
0
  0
LINE
  8
1
 62
7
 10
35
 20
3.500000000000114
 30
0
 11
35.10000000000014
 21
3.500000000000114
 31
0
  0
LINE
  8
1
 62
7
 10
35
 20
-3.499999999999886
 30
0
 11
35.10000000000014
 21
-3.499999999999886
 31
0
  0
LINE
  8
1
 62
3
 10
22.41643210502798
 20
1.13686837721616e-013
 30
0
 11
81.89458842742715
 21
-1.13686837721616e-013
 31
0
  0
LINE
  8
1
 62
2
 10
102.1000000000001
 20
-18.81246974367707
 30
0
 11
102.1000000000001
 21
-33.04356930757309
 31
0
  0
LINE
  8
1
 62
7
 10
-76.52504054700603
 20
-15.69789303887381
 30
0
 11
-79.18235797013404
 21
-30.76828902960818
 31
0
  0
LINE
  8
1
 62
7
 10
-75.11301318178698
 20
-16.21286822875226
 30
0
 11
-77.89180978918489
 21
-31.97220690870648
 31
0
  0
LINE
  8
1
 62
7
 10
-73.67797867435888
 20
-16.5973634313097
 30
0
 11
-76.41964068819789
 21
-32.14610136592722
 31
0
  0
LINE
  8
1
 62
7
 10
-72.2204631999
 20
-16.85436273425643
 30
0
 11
-74.83164121537493
 21
-31.66308914119389
 31
0
  0
LINE
  8
1
 62
7
 10
-70.74046675841191
 20
-16.98386613759357
 30
0
 11
-73.35543770692698
 21
-31.81410333673574
 31
0
  0
LINE
  8
1
 62
7
 10
-69.23746317471591
 20
-16.98288955360971
 30
0
 11
-71.99948871175684
 21
-32.64711476714291
 31
0
  0
LINE
  8
1
 62
7
 10
70.5
 20
-10.54658801917594
 30
0
 11
73.70000000000005
 21
-10.54658801917594
 31
0
  0
LINE
  8
1
 62
7
 10
73.70000000000005
 20
-10.54658801917594
 30
0
 11
73.70000000000005
 21
-11.22151500934683
 31
0
  0
LINE
  8
1
 62
7
 10
73.70000000000005
 20
-11.22151500934683
 30
0
 11
70.5
 21
-11.22151500934683
 31
0
  0
LINE
  8
1
 62
7
 10
70.5
 20
-12.86789495383834
 30
0
 11
68
 21
-12.86789495383834
 31
0
  0
LINE
  8
1
 62
7
 10
80.10000000000014
 20
-15.24733266756709
 30
0
 11
80.10000000000014
 21
15.35266733243304
 31
0
  0
LINE
  8
1
 62
7
 10
79.70000000000005
 20
-13.80780799608044
 30
0
 11
80.10000000000014
 21
-13.40780799608046
 31
0
  0
LINE
  8
1
 62
7
 10
79.70000000000005
 20
-9.758246055160726
 30
0
 11
80.10000000000014
 21
-9.358246055160748
 31
0
  0
ARC
  8
1
 62
2
  6
CENTER
 10
-70
 20
5.684341886080801e-014
 30
0
 40
13
 50
180
 51
0
  0
ARC
  8
1
 62
2
  6
CENTER
 10
-70
 20
5.684341886080801e-014
 30
0
 40
13
 50
0
 51
180
  0
ARC
  8
1
 62
7
 10
-70
 20
5.684341886080801e-014
 30
0
 40
17.00000000000114
 50
0
 51
180
  0
ARC
  8
1
 62
7
 10
-70
 20
5.684341886080801e-014
 30
0
 40
17
 50
180
 51
330.0000000000011
  0
ARC
  8
1
 62
7
 10
-70
 20
5.684341886080801e-014
 30
0
 40
17.00000000000061
 50
330.0000000000011
 51
0
  0
CIRCLE
  8
1
 62
2
 10
-81.258330249198
 20
-6.49999999999994
 30
0
 40
1.299999999999898
  0
CIRCLE
  8
1
 62
7
 10
-81.258330249198
 20
-6.49999999999994
 30
0
 40
0.7999999999991019
  0
CIRCLE
  8
1
 62
7
 10
-70
 20
13
 30
0
 40
0.7999999999998977
  0
CIRCLE
  8
1
 62
7
 10
-58.74166975080198
 20
-6.499999999999943
 30
0
 40
0.7999999999999545
  0
CIRCLE
  8
1
 62
2
 10
-70
 20
13
 30
0
 40
1.299999999999898
  0
CIRCLE
  8
1
 62
2
 10
-58.74166975080198
 20
-6.499999999999943
 30
0
 40
1.299999999999045
  0
CIRCLE
  8
1
 62
7
 10
-70
 20
5.684341886080801e-014
 30
0
 40
4.100000000000136
  0
CIRCLE
  8
1
 62
7
 10
-70
 20
5.684341886080801e-014
 30
0
 40
3.5
  0
CIRCLE
  8
1
 62
7
 10
-70
 20
5.684341886080801e-014
 30
0
 40
1.25
  0
POLYLINE
  8
1
 62
2
 66
1
  0
VERTEX
  8
1
 10
67.20687665034302
 20
-40.49350967879298
 30
0
 42
0.005990442273310203
  0
VERTEX
  8
1
 10
67.39632609595306
 20
-40.57922384347855
 30
0
 42
0.01857273981292736
  0
VERTEX
  8
1
 10
67.58511077358259
 20
-40.65369977030222
 30
0
 42
0.03402482871153467
  0
VERTEX
  8
1
 10
67.77256591525111
 20
-40.7056992214021
 30
0
 42
0.0521955466510204
  0
VERTEX
  8
1
 10
67.95802675297811
 20
-40.72398395891629
 30
0
 42
0.06953214956647669
  0
VERTEX
  8
1
 10
68.14082851878311
 20
-40.69731574498292
 30
0
 42
0.02555657270421778
  0
VERTEX
  8
1
 10
68.21716659984035
 20
-40.67075737327016
 30
0
 42
0.00484508663557276
  0
VERTEX
  8
1
 10
68.2931452617963
 20
-40.63902753323776
 30
0
 42
-0.005930739902744891
  0
VERTEX
  8
1
 10
68.36899868224573
 20
-40.60698980798235
 30
0
 42
-0.02057384356734856
  0
VERTEX
  8
1
 10
68.44496103878342
 20
-40.57950778060055
 30
0
 42
-0.0371074140257098
  0
VERTEX
  8
1
 10
68.52126650900414
 20
-40.56144503418898
 30
0
 42
-0.05823850215070208
  0
VERTEX
  8
1
 10
68.62849019206085
 20
-40.55804151025733
 30
0
 42
-0.04328891620603536
  0
VERTEX
  8
1
 10
68.736611032222
 20
-40.57683470652985
 30
0
 42
-0.02844427389343476
  0
VERTEX
  8
1
 10
68.84540474021151
 20
-40.61227544295549
 30
0
 42
-0.01584602465895538
  0
VERTEX
  8
1
 10
68.95464702675324
 20
-40.65881453948323
 30
0
 42
-0.005067418684644333
  0
VERTEX
  8
1
 10
69.06411360257107
 20
-40.710902816062
 30
0
  0
SEQEND
  8
1
  0
POLYLINE
  8
1
 62
2
 66
1
  0
VERTEX
  8
1
 10
67.20687665034302
 20
-38.04349537409394
 30
0
 42
0.00599044227334018
  0
VERTEX
  8
1
 10
67.39632609595306
 20
-38.12920953877956
 30
0
 42
0.01857273981290881
  0
VERTEX
  8
1
 10
67.58511077358259
 20
-38.20368546560327
 30
0
 42
0.03402482871160815
  0
VERTEX
  8
1
 10
67.77256591525112
 20
-38.25568491670317
 30
0
 42
0.05219554665095005
  0
VERTEX
  8
1
 10
67.95802675297813
 20
-38.27396965421738
 30
0
 42
0.06953214956664733
  0
VERTEX
  8
1
 10
68.14082851878311
 20
-38.24730144028399
 30
0
 42
0.02555657270413057
  0
VERTEX
  8
1
 10
68.21716659984034
 20
-38.22074306857121
 30
0
 42
0.004845086635631103
  0
VERTEX
  8
1
 10
68.29314526179628
 20
-38.18901322853878
 30
0
 42
-0.005930739902819057
  0
VERTEX
  8
1
 10
68.36899868224572
 20
-38.15697550328335
 30
0
 42
-0.02057384356752228
  0
VERTEX
  8
1
 10
68.44496103878342
 20
-38.12949347590152
 30
0
 42
-0.03710741402562197
  0
VERTEX
  8
1
 10
68.52126650900414
 20
-38.11143072948994
 30
0
 42
-0.05823850215078719
  0
VERTEX
  8
1
 10
68.62849019206084
 20
-38.10802720555828
 30
0
 42
-0.04328891620612702
  0
VERTEX
  8
1
 10
68.736611032222
 20
-38.1268204018308
 30
0
 42
-0.02844427389346966
  0
VERTEX
  8
1
 10
68.84540474021149
 20
-38.16226113825644
 30
0
 42
-0.01584602465899736
  0
VERTEX
  8
1
 10
68.95464702675324
 20
-38.20880023478418
 30
0
 42
-0.005067418684697182
  0
VERTEX
  8
1
 10
69.06411360257107
 20
-38.26088851136296
 30
0
  0
SEQEND
  8
1
  0
POLYLINE
  8
1
 62
2
 66
1
  0
VERTEX
  8
1
 10
-79.18235797013404
 20
-30.76828902960818
 30
0
 42
0.005170064670154954
  0
VERTEX
  8
1
 10
-78.8193268868917
 20
-31.16563581773654
 30
0
 42
0.0161402123300618
  0
VERTEX
  8
1
 10
-78.45078862455425
 20
-31.5360077221637
 30
0
 42
0.03034149105093371
  0
VERTEX
  8
1
 10
-78.07123600402653
 20
-31.85242985918844
 30
0
 42
0.04896367517861275
  0
VERTEX
  8
1
 10
-77.67516184621346
 20
-32.08792734510956
 30
0
 42
0.1620152067505069
  0
VERTEX
  8
1
 10
-76.69584593521553
 20
-32.20336646508437
 30
0
 42
0.0195649204330238
  0
VERTEX
  8
1
 10
-76.10495108348977
 20
-32.05686676888554
 30
0
 42
0.01964145103430516
  0
VERTEX
  8
1
 10
-75.49820913005247
 20
-31.85483499053994
 30
0
 42
-0.0231554227899408
  0
VERTEX
  8
1
 10
-74.88945478811355
 20
-31.67607991295814
 30
0
 42
-0.05731697120745022
  0
VERTEX
  8
1
 10
-74.2925227708829
 20
-31.59941031905072
 30
0
 42
-0.05892285154389111
  0
VERTEX
  8
1
 10
-73.81257212608574
 20
-31.65846707936754
 30
0
 42
-0.0442322291133385
  0
VERTEX
  8
1
 10
-73.34685070326989
 20
-31.8178465925521
 30
0
 42
-0.02920648449533621
  0
VERTEX
  8
1
 10
-72.89180119693999
 20
-32.05246817038747
 30
0
 42
-0.01630218331385482
  0
VERTEX
  8
1
 10
-72.44386630160076
 20
-32.33725112465672
 30
0
 42
-0.00521644226857846
  0
VERTEX
  8
1
 10
-71.99948871175684
 20
-32.64711476714291
 30
0
  0
SEQEND
  8
1
  0
ARC
  8
1
 62
7
 10
38.5
 20
15.50000000000011
 30
0
 40
1.5
 50
90
 51
180
  0
ARC
  8
1
 62
7
 10
38.5
 20
-15.49999999999989
 30
0
 40
1.5
 50
180
 51
270
  0
LINE
  8
1
 62
2
 10
6.616676980998569
 20
-69.72859832042582
 30
0
 11
48.5038746832787
 21
-69.72859832042582
 31
0
  0
LINE
  8
1
 62
2
 10
48.5038746832787
 20
-69.72859832042582
 30
0
 11
66.82855428562219
 21
-52.40391871808225
 31
0
  0
SOLID
  8
1
 62
2
 10
64.60181741175542
 20
-55.1432552346578
 30
0
 11
63.96869916936954
 21
-54.47359269495054
 31
0
 12
66.82855428562219
 22
-52.40391871808225
 32
0
 13
66.82855428562219
 23
-52.40391871808225
 33
0
  0
LINE
  8
1
 62
2
 10
64.20422801210496
 20
-26.99999999999989
 30
0
 11
40.02248035771504
 21
-26.99999999999989
 31
0
  0
LINE
  8
1
 62
2
 10
40.02248035771504
 20
-26.99999999999989
 30
0
 11
47.205947382361
 21
-16.99999999999989
 31
0
  0
SOLID
  8
1
 62
2
 10
45.53821219062773
 20
-20.11142748376624
 30
0
 11
44.78974219900054
 21
-19.57376653338714
 31
0
 12
47.205947382361
 22
-16.99999999999989
 32
0
 13
47.205947382361
 23
-16.99999999999989
 33
0
  0
TEXT
  8
1
 62
2
 10
111.4268232171691
 20
-56.29109508747397
 30
0
 40
3.2
  1
(FROM MOTOR CASE)
 50
90
 41
0.6300000000000001
 72
1
 73
2
 11
109.8268232171691
 21
-39.15509508747397
 31
0
  0
TEXT
  8
1
 62
2
 10
-140.25
 20
93.5
 30
0
 40
5
  1
DME34SM
 41
0.9
 72
1
 73
2
 11
-124.5
 21
96
 31
0
  0
TEXT
  8
1
 62
2
 10
105.3000000000001
 20
-38.93648758321875
 30
0
 40
2
  1
+1.181
 50
90
 41
0.63
  0
TEXT
  8
1
 62
2
 10
107.7000000000001
 20
-38.93648758321875
 30
0
 40
2
  1
 0
 50
90
 41
0.63
  0
TEXT
  8
1
 62
2
 10
107.1000000000001
 20
-50.48283135636094
 30
0
 40
3.2
  1
(11.811   )
 50
90
 41
0.6300000000000001
 72
1
 73
2
 11
105.5000000000001
 21
-39.39483135636094
 31
0
  0
TEXT
  8
1
 62
2
 10
94.29643201557721
 20
-63.46032988547574
 30
0
 40
3.2
  1
(0.118)
 50
90
 41
0.6300000000000001
 72
1
 73
2
 11
92.6964320155772
 21
-56.40432988547575
 31
0
  0
TEXT
  8
1
 62
2
 10
45.35700959971504
 20
-25.98506293279738
 30
0
 40
3.2
  1
NAME PLATE
 41
0.54
 72
1
 73
2
 11
53.99700959971504
 21
-24.38506293279738
 31
0
  0
TEXT
  8
1
 62
2
 10
36.13600000000005
 20
22.7983645630168
 30
0
 40
3.2
  1
(0.0787)
 41
0.6300000000000001
 72
1
 73
2
 11
44.20000000000005
 21
24.3983645630168
 31
0
  0
TEXT
  8
1
 62
2
 10
52.14400000000005
 20
34.79238891534131
 30
0
 40
3.2
  1
(1.697)
 41
0.6300000000000001
 72
1
 73
2
 11
59.20000000000005
 21
36.39238891534131
 31
0
  0
TEXT
  8
1
 62
2
 10
23.944
 20
34.7923889153413
 30
0
 40
3.2
  1
(0.472)
 41
0.6300000000000001
 72
1
 73
2
 11
31
 21
36.3923889153413
 31
0
  0
TEXT
  8
1
 62
2
 10
106.3084407270186
 20
-10.07999999999994
 30
0
 40
3.2
  1
(1.26DIA.)
 50
90
 41
0.6300000000000001
 72
1
 73
2
 11
104.7084407270186
 21
6.039613253960852e-014
 31
0
  0
TEXT
  8
1
 62
2
 10
3.70949852911485
 20
17.93080602710265
 30
0
 40
2
  1
 %%p0.00787
 50
90
 41
0.63
 72
1
 73
2
 11
2.70949852911485
 21
24.86080602710265
 31
0
  0
TEXT
  8
1
 62
2
 10
4.309498529114849
 20
2.094462253960845
 30
0
 40
3.2
  1
(0.323DIA.     )
 50
90
 41
0.6300000000000001
 72
1
 73
2
 11
2.70949852911485
 21
18.22246225396085
 31
0
  0
TEXT
  8
1
 62
2
 10
15.2
 20
22.99080602710266
 30
0
 40
2
  1
 0
 50
90
 41
0.63
  0
TEXT
  8
1
 62
2
 10
17.6
 20
22.99080602710266
 30
0
 40
2
  1
-0.000394
 50
90
 41
0.63
  0
TEXT
  8
1
 62
2
 10
17
 20
2.278462253960843
 30
0
 40
3.2
  1
(0.0984DIA.      )
 50
90
 41
0.6300000000000001
 72
1
 73
2
 11
15.4
 21
20.42246225396085
 31
0
  0
TEXT
  8
1
 62
2
 10
-89.9036094600072
 20
-46.98481685313675
 30
0
 40
3.5
  1
(3-M2.6 DEPTH 0.118MAX)
 41
0.7020000000000001
 73
2
 11
-89.9036094600072
 21
-45.23481685313675
 31
0
  0
TEXT
  8
1
 62
2
 10
-88.9036094600072
 20
-54.00433206764751
 30
0
 40
3.5
  1
P=120%%d P.C.D=ƒÓ26
 41
0.9
 73
2
 11
-88.9036094600072
 21
-52.25433206764751
 31
0
  0
TEXT
  8
1
 62
2
 10
8.03299105845552
 20
-69.08294683936366
 30
0
 40
3.5
  1
UL1007 AWG24
 41
0.8100000000000001
 73
2
 11
8.03299105845552
 21
-67.33294683936366
 31
0
  0
TEXT
  8
1
 62
2
 10
8.03299105845552
 20
-61.98632485030186
 30
0
 40
3.5
  1
LEAD WIRES
 41
0.9
 73
2
 11
8.03299105845552
 21
-60.23632485030186
 31
0
  0
TEXT
  8
1
 62
2
 10
-89.9036094600072
 20
-61.00433206764744
 30
0
 40
3.5
  1
(P.C.D=1.024DIA.     )
 41
0.8550000000000001
 73
2
 11
-89.9036094600072
 21
-59.25433206764744
 31
0
  0
TEXT
  8
1
 62
2
 10
-46.73311552688724
 20
-53.50433206764751
 30
0
 40
2.5
  1
%%p0.2
 41
0.7200000000000001
 72
1
 73
2
 11
-41.33311552688724
 21
-52.25433206764751
 31
0
  0
TEXT
  8
1
 62
2
 10
-55.84059513522905
 20
-60.50433206764744
 30
0
 40
2.5
  1
%%p0.00787
 41
0.7200000000000001
 72
1
 73
2
 11
-46.84059513522905
 21
-59.25433206764744
 31
0
  0
TEXT
  8
1
 62
2
 10
94.30844072701861
 20
-11.08799999999994
 30
0
 40
3.2
  1
(1.236DIA.)
 50
90
 41
0.6300000000000001
 72
1
 73
2
 11
92.7084407270186
 21
6.039613253960852e-014
 31
0
  0
DIMENSION
  8
1
  6
CONTINUOUS
 62
2
  2
*D0
  3
DMST_1
 10
11.9399591802382
 20
1.25000000000011
 30
0
 11
8.539959180238196
 21
20.55287632032995
 31
0
 12
0
 22
0
 32
0
 70
0
  1
ƒÓ<>
 13
25
 23
-1.249999999999886
 33
0
 14
25
 24
1.250000000000114
 34
0
 50
90
 53
0
  0
DIMENSION
  8
1
  6
CONTINUOUS
 62
2
  2
*D1
  3
DMST_2
 10
-0.1843952082356708
 20
4.100000000000041
 30
0
 11
-2.784395208235674
 21
19.99262017983133
 31
0
 12
0
 22
0
 32
0
 70
0
  1
ƒÓ<>
 13
35.10000000000014
 23
-4.099999999999909
 33
0
 14
35.10000000000014
 24
4.100000000000023
 34
0
 50
90
 53
0
  0
DIMENSION
  8
1
  6
CONTINUOUS
 62
2
  2
*D2
  3
DMST_3
 10
90.09999999999991
 20
-63.38376931610912
 30
0
 11
87.5
 21
-54.94681048990014
 31
0
 12
0
 22
0
 32
0
 70
0
  1
(<>
 13
68.801311140694
 23
-66.38376931610912
 33
0
 14
69.06411360257107
 24
-63.38376931610912
 34
0
 50
90
 53
0
  0
DIMENSION
  8
1
  6
CONTINUOUS
 62
2
  2
*D3
  3
DMST_4
 10
37
 20
26.968470825326
 30
0
 11
43.6125857815056
 21
29.568470825326
 31
0
 12
0
 22
0
 32
0
 70
0
 13
35
 23
3.500000000000114
 33
0
 14
37
 24
15.50000000000011
 34
0
 53
0
  0
DIMENSION
  8
1
  6
CONTINUOUS
 62
2
  2
*D4
  3
DMST_3
 10
90.09999999999999
 20
15.75266733243303
 30
0
 11
87.5
 21
0.05266733243297494
 31
0
 12
0
 22
0
 32
0
 70
0
  1
ƒÓ31.4
 13
79.70000000000005
 23
-15.64733266756707
 33
0
 14
79.70000000000005
 24
15.75266733243302
 34
0
 50
90
 53
0
  0
DIMENSION
  8
1
  6
CONTINUOUS
 62
2
  2
*D5
  3
DMST_4
 10
102.1181625646513
 20
17.00000000000011
 30
0
 11
99.51816256465131
 21
1.13686837721616e-013
 31
0
 12
0
 22
0
 32
0
 70
0
  1
34
 13
66.5
 23
-16.99999999999989
 33
0
 14
66.5
 24
17.00000000000011
 34
0
 50
90
 53
0
  0
DIMENSION
  8
1
  6
CONTINUOUS
 62
2
  2
*D6
  3
DMST_5
 10
80.10000000000014
 20
39.1065130041879
 30
0
 11
58.55000000000007
 21
41.7065130041879
 31
0
 12
0
 22
0
 32
0
 70
0
 13
37
 23
15.50000000000011
 33
0
 14
80.10000000000014
 24
15.35266733243304
 34
0
 53
0
  0
DIMENSION
  8
1
  6
CONTINUOUS
 62
2
  2
*D7
  3
DMST_4
 10
37
 20
39.1065130041879
 30
0
 11
31
 21
41.7065130041879
 31
0
 12
0
 22
0
 32
0
 70
0
 13
25
 23
1.250000000000114
 33
0
 14
37
 24
15.50000000000011
 34
0
 53
0
  0
INSERT
  8
0
  2
___R___O_______R
 10
0.5
 20
-3.75
 30
0
  0
INSERT
  8
1
  2
*D8
 10
0
 20
0
 30
0
  0
INSERT
  8
1
  2
*D9
 10
0
 20
0
 30
0
  0
ENDSEC
  0
EOF
