  0
SECTION
  2
HEADER
  9
$ACADVER
  1
AC1009
  9
$INSBASE
 10
0
 20
0
  9
$EXTMIN
 10
-194.5
 20
-146
  9
$EXTMAX
 10
194.5
 20
146
  9
$LIMMIN
 10
-194.5
 20
-146
  9
$LIMMAX
 10
194.5
 20
146
  9
$VIEWCTR
 10
10
 20
10
  9
$VIEWSIZE
 40
10
  9
$SNAPMODE
 70
0
  9
$SNAPUNIT
 10
1
 20
1
  9
$SNAPBASE
 10
0
 20
0
  9
$SNAPANG
 50
0
  9
$SNAPSTYLE
 70
0
  9
$SNAPISOPAIR
 70
0
  9
$GRIDMODE
 70
0
  9
$GRIDUNIT
 10
0
 20
0
  9
$ORTHOMODE
 70
0
  9
$REGENMODE
 70
1
  9
$FILLMODE
 70
1
  9
$QTEXTMODE
 70
0
  9
$DRAGMODE
 70
2
  9
$LTSCALE
 40
1
  9
$OSMODE
 70
0
  9
$ATTMODE
 70
1
  9
$TEXTSIZE
 40
3.5
  9
$TRACEWID
 40
0.5
  9
$TEXTSTYLE
  7
STANDARD
  9
$CLAYER
  8
0
  9
$CELTYPE
  6
BYLAYER
  9
$CECOLOR
 62
256
  9
$DIMSCALE
 40
1
  9
$DIMASZ
 40
0.18
  9
$DIMEXO
 40
0.0625
  9
$DIMDLI
 40
0.38
  9
$DIMRND
 40
0
  9
$DIMDLE
 40
0
  9
$DIMEXE
 40
0.18
  9
$DIMTP
 40
0
  9
$DIMTM
 40
0
  9
$DIMTXT
 40
0.18
  9
$DIMCEN
 40
0.09
  9
$DIMTSZ
 40
0
  9
$DIMTOL
 70
0
  9
$DIMLIM
 70
0
  9
$DIMTIH
 70
1
  9
$DIMTOH
 70
1
  9
$DIMSE1
 70
0
  9
$DIMSE2
 70
0
  9
$DIMTAD
 70
0
  9
$DIMZIN
 70
0
  9
$DIMBLK
  1

  9
$DIMASO
 70
1
  9
$DIMSHO
 70
1
  9
$DIMPOST
  1

  9
$DIMAPOST
  1

  9
$DIMALT
 70
0
  9
$DIMALTD
 70
2
  9
$DIMALTF
 40
25.4
  9
$DIMLFAC
 40
1
  9
$DIMTOFL
 70
0
  9
$DIMTVP
 40
0
  9
$DIMTIX
 70
0
  9
$DIMSOXD
 70
0
  9
$DIMSAH
 70
0
  9
$DIMBLK1
  1

  9
$DIMBLK2
  1

  9
$DIMSTYLE
  2
*UNNAMED
  9
$DIMCLRD
 70
0
  9
$DIMCLRE
 70
0
  9
$DIMCLRT
 70
0
  9
$DIMTFAC
 40
1
  9
$DIMGAP
 40
0.09
  9
$LUNITS
 70
2
  9
$LUPREC
 70
4
  9
$AXISMODE
 70
0
  9
$AXISUNIT
 10
0
 20
0
  9
$SKETCHINC
 40
0.1
  9
$FILLETRAD
 40
2
  9
$AUNITS
 70
0
  9
$AUPREC
 70
0
  9
$MENU
  1
ACAD
  9
$ELEVATION
 40
0
  9
$THICKNESS
 40
0
  9
$VIEWDIR
 10
0
 20
0
 30
1
  9
$LIMCHECK
 70
0
  9
$BLIPMODE
 70
1
  9
$CHAMFERA
 40
0
  9
$CHAMFERB
 40
0
  9
$FASTZOOM
 70
1
  9
$SKPOLY
 70
0
  9
$ANGBASE
 50
0
  9
$ANGDIR
 70
0
  9
$PDMODE
 70
0
  9
$PDSIZE
 40
0
  9
$PLINEWID
 40
0
  9
$COORDS
 70
2
  0
ENDSEC
  0
SECTION
  2
TABLES
  0
TABLE
  2
DIMSTYLE
 70
7
  0
DIMSTYLE
  2
DMST_1
 70
0
  3
)
  4

  5

  6

  7

 40
1
 41
3.2
 42
1
 43
7
 44
1
 45
0
 46
0
 47
0
 48
0
140
3.2
141
0
142
0
143
25.4
144
1
145
0
146
1
147
0.09
 71
0
 72
0
 73
1
 74
1
 75
0
 76
0
 77
1
 78
9
170
0
171
2
172
0
173
0
174
0
175
0
176
2
177
2
178
2
  0
DIMSTYLE
  2
DMST_2
 70
0
  3

  4

  5

  6

  7

 40
1
 41
3.2
 42
1
 43
7
 44
1
 45
0
 46
0
 47
30
 48
0
140
3.2
141
0
142
0
143
25.4
144
1
145
0
146
0.6
147
0.09
 71
1
 72
0
 73
0
 74
0
 75
0
 76
0
 77
1
 78
9
170
0
171
2
172
0
173
0
174
0
175
0
176
2
177
2
178
2
  0
DIMSTYLE
  2
DMST_3
 70
0
  3
)
  4

  5

  6

  7

 40
1
 41
3.2
 42
1
 43
7
 44
1
 45
0
 46
0
 47
0
 48
0
140
3.2
141
0
142
0
143
25.4
144
1
145
0
146
1
147
0.09
 71
0
 72
0
 73
0
 74
0
 75
0
 76
0
 77
1
 78
9
170
0
171
2
172
0
173
0
174
0
175
0
176
2
177
2
178
2
  0
DIMSTYLE
  2
DMST_4
 70
0
  3

  4

  5

  6

  7

 40
1
 41
3.2
 42
1
 43
7
 44
1
 45
0
 46
0
 47
0
 48
0
140
3.2
141
0
142
0
143
25.4
144
1
145
0
146
1
147
0.09
 71
0
 72
0
 73
0
 74
0
 75
0
 76
0
 77
1
 78
9
170
0
171
2
172
0
173
0
174
0
175
0
176
2
177
2
178
2
  0
DIMSTYLE
  2
DMST_5
 70
0
  3

  4

  5

  6

  7

 40
1
 41
3.2
 42
1
 43
7
 44
1
 45
0
 46
0
 47
0
 48
0.02
140
3.2
141
0
142
0
143
25.4
144
1
145
0
146
0.6
147
0.09
 71
1
 72
0
 73
0
 74
0
 75
0
 76
0
 77
1
 78
9
170
0
171
2
172
0
173
0
174
0
175
0
176
2
177
2
178
2
  0
DIMSTYLE
  2
DMST_6
 70
0
  3

  4

  5

  6

  7

 40
1
 41
3.2
 42
1
 43
7
 44
1
 45
0
 46
0
 47
0.3
 48
0.3
140
3.2
141
0
142
0
143
25.4
144
1
145
0
146
0.6
147
0.09
 71
1
 72
0
 73
0
 74
0
 75
0
 76
0
 77
1
 78
9
170
0
171
2
172
0
173
0
174
0
175
0
176
2
177
2
178
2
  0
DIMSTYLE
  2
DMST_7
 70
0
  3
HOLE
  4

  5

  6

  7

 40
1
 41
3.2
 42
1
 43
7
 44
1
 45
0
 46
0
 47
0.1
 48
0
140
3.2
141
0
142
0
143
25.4
144
1
145
0
146
0.6
147
0.09
 71
1
 72
0
 73
1
 74
1
 75
0
 76
0
 77
1
 78
9
170
0
171
2
172
0
173
0
174
0
175
0
176
2
177
2
178
2
  0
ENDTAB
  0
TABLE
  2
LTYPE
 70
9
  0
LTYPE
  2
CONTINUOUS
 70
64
  3
Solid line
 72
65
 73
0
 40
0
  0
LTYPE
  2
BORDER
 70
64
  3
__ __ . __ __ .
 72
65
 73
6
 40
17.91447368421053
 49
5.118421052631579
 49
-2.559210526315789
 49
5.118421052631579
 49
-2.559210526315789
 49
0
 49
-2.559210526315789
  0
LTYPE
  2
CENTER
 70
64
  3
____ _ ____ _
 72
65
 73
4
 40
20.47368421052632
 49
12.79605263157895
 49
-2.559210526315789
 49
2.559210526315789
 49
-2.559210526315789
  0
LTYPE
  2
DASHDOT
 70
64
  3
__ . __ . __ .
 72
65
 73
4
 40
10.23684210526316
 49
5.118421052631579
 49
-2.559210526315789
 49
0
 49
-2.559210526315789
  0
LTYPE
  2
DASHED
 70
64
  3
__ __ __ __ __
 72
65
 73
2
 40
7.677631578947368
 49
5.118421052631579
 49
-2.559210526315789
  0
LTYPE
  2
DIVIDE
 70
64
  3
__ . . __ . . 
 72
65
 73
6
 40
12.79605263157895
 49
5.118421052631579
 49
-2.559210526315789
 49
0
 49
-2.559210526315789
 49
0
 49
-2.559210526315789
  0
LTYPE
  2
DOT
 70
64
  3
..............
 72
65
 73
4
 40
5.118421052631579
 49
0
 49
-2.559210526315789
 49
0
 49
-2.559210526315789
  0
LTYPE
  2
HIDDEN
 70
64
  3
_ _ _ _ _ _ _
 72
65
 73
2
 40
3.838815789473684
 49
2.559210526315789
 49
-1.279605263157895
  0
LTYPE
  2
PHANTOM
 70
64
  3
_____ _ _ _____ _ _ 
 72
65
 73
6
 40
25.59210526315789
 49
12.79605263157895
 49
-2.559210526315789
 49
2.559210526315789
 49
-2.559210526315789
 49
2.559210526315789
 49
-2.559210526315789
  0
ENDTAB
  0
TABLE
  2
LAYER
 70
3
  0
LAYER
  2
1
 70
0
 62
7
  6
CONTINUOUS
  0
LAYER
  2
0
 70
0
 62
7
  6
CONTINUOUS
  0
ENDTAB
  0
TABLE
  2
STYLE
 70
4
  0
STYLE
  2
STANDARD
 70
0
 40
0
 41
1
 50
0
 71
0
 42
3.5
  3
txt
  4

  0
STYLE
  2
SIMPLEX
 70
0
 40
0
 41
1
 50
0
 71
0
 42
3.5
  3
simplex
  4

  0
STYLE
  2
COMPLEX
 70
0
 40
0
 41
1
 50
0
 71
0
 42
3.5
  3
complex
  4

  0
STYLE
  2
ITALIC
 70
0
 40
0
 41
1
 50
0
 71
0
 42
3.5
  3
italic
  4

  0
ENDTAB
  0
TABLE
  2
VIEW
 70
0
  0
ENDTAB
  0
ENDSEC
  0
SECTION
  2
BLOCKS
  0
BLOCK
  8
0
  2
___R___O_______R
 70
0
 10
0.5000000000000568
 20
-3.75
 30
0
  0
LINE
  8
1
 62
4
  6
PHANTOM
 10
-194.5
 20
-146
 30
0
 11
194.5
 21
-146
 31
0
  0
LINE
  8
1
 62
4
  6
PHANTOM
 10
194.5
 20
146
 30
0
 11
-194.5
 21
146
 31
0
  0
LINE
  8
1
 62
4
  6
PHANTOM
 10
194.5
 20
146
 30
0
 11
194.5
 21
129
 31
0
  0
LINE
  8
1
 62
4
  6
PHANTOM
 10
-194.5
 20
-146
 30
0
 11
-194.5
 21
146
 31
0
  0
LINE
  8
1
 62
4
  6
PHANTOM
 10
194.5
 20
-136.5
 30
0
 11
194.5
 21
-146
 31
0
  0
TEXT
  8
1
 62
4
 10
178.746911898274
 20
-142.6071298819256
 30
0
 40
5
  1
A3
 41
0.9
 72
1
 73
2
 11
183.246911898274
 21
-140.1071298819256
 31
0
  0
ENDBLK
  8
0
  0
BLOCK
  8
0
  2
DME34B5C
 70
0
 10
517.605112944844
 20
223.449848733199
 30
0
  0
INSERT
  8
0
  2
___R___O_______R
 10
0.5000000000000568
 20
-3.75
 30
0
  0
ENDBLK
  8
0
  0
BLOCK
  8
1
  2
*D0
 70
1
 10
0
 20
0
 30
0
  0
LINE
  8
1
 62
2
 10
-56.4454505681282
 20
59.59636038091556
 30
0
 11
-43.16017724757443
 21
59.59636038091556
 31
0
  0
LINE
  8
1
 62
2
 10
-58.04545056812834
 20
59.59636038091556
 30
0
 11
-56.4454505681282
 21
59.59636038091556
 31
0
  0
LINE
  8
1
 62
2
 10
-64.44545056812835
 20
59.59636038091556
 30
0
 11
-58.04545056812834
 21
59.59636038091556
 31
0
  0
LINE
  8
1
 62
2
 10
-56.4454505681282
 20
36.7455660377359
 30
0
 11
-56.4454505681282
 21
60.59636038091556
 31
0
  0
LINE
  8
1
 62
2
 10
-58.04545056812834
 20
50.5
 30
0
 11
-58.04545056812834
 21
60.59636038091556
 31
0
  0
SOLID
  8
1
 62
2
 10
-58.04545056812834
 20
59.59636038091556
 30
0
 11
-61.24545056812834
 21
59.18036038091556
 31
0
 12
-61.24545056812834
 22
60.01236038091555
 32
0
 13
-61.24545056812834
 23
60.01236038091555
 33
0
  0
SOLID
  8
1
 62
2
 10
-56.4454505681282
 20
59.59636038091556
 30
0
 11
-53.2454505681282
 21
60.01236038091555
 31
0
 12
-53.2454505681282
 22
59.18036038091556
 32
0
 13
-53.2454505681282
 23
59.18036038091556
 33
0
  0
TEXT
  8
1
 62
2
 10
-50.12017724757443
 20
60.59636038091556
 30
0
 40
3.2
  1
1.6
 41
0.9
  0
TEXT
  8
1
 62
2
 10
-52.20017724757443
 20
60.59636038091556
 30
0
 40
3.2
  1
(
 41
0.9
  0
TEXT
  8
1
 62
2
 10
-43.64017724757443
 20
60.59636038091556
 30
0
 40
3.2
  1
)
 41
0.9
  0
ENDBLK
  8
0
  0
BLOCK
  8
1
  2
*D1
 70
1
 10
0
 20
0
 30
0
  0
LINE
  8
1
 62
2
 10
-58.04545056812835
 20
-1.440335041579793
 30
0
 11
4.552004268605611
 21
-1.440335041579793
 31
0
  0
LINE
  8
1
 62
2
 10
4.552004268605611
 20
30.39999999999998
 30
0
 11
4.552004268605611
 21
-2.440335041579793
 31
0
  0
LINE
  8
1
 62
2
 10
-58.04545056812835
 20
14.49999999999994
 30
0
 11
-58.04545056812835
 21
-2.440335041579793
 31
0
  0
SOLID
  8
1
 62
2
 10
-58.04545056812835
 20
-1.440335041579793
 30
0
 11
-54.84545056812834
 21
-1.024335041579793
 31
0
 12
-54.84545056812834
 22
-1.856335041579793
 32
0
 13
-54.84545056812834
 23
-1.856335041579793
 33
0
  0
SOLID
  8
1
 62
2
 10
4.552004268605611
 20
-1.440335041579793
 30
0
 11
1.35200426860561
 21
-1.856335041579792
 31
0
 12
1.35200426860561
 22
-1.024335041579793
 32
0
 13
1.35200426860561
 23
-1.024335041579793
 33
0
  0
TEXT
  8
1
 62
2
 10
-33.59472314976137
 20
0.359664958420207
 30
0
 40
3.2
  1
300
 41
0.9
  0
TEXT
  8
1
 62
2
 10
-24.31472314976137
 20
2.439664958420207
 30
0
 40
1.92
  1
+30
 41
0.9
  0
TEXT
  8
1
 62
2
 10
-22.58672314976137
 20
-0.4403350415797929
 30
0
 40
1.92
  1
 0
 41
0.9
  0
ENDBLK
  8
0
  0
BLOCK
  8
1
  2
*D2
 70
1
 10
0
 20
0
 30
0
  0
LINE
  8
1
 62
2
 10
1.552004268605618
 20
10.49999999999997
 30
0
 11
-10.35609416704545
 21
10.49999999999997
 31
0
  0
LINE
  8
1
 62
2
 10
1.552004268605618
 20
10.49999999999997
 30
0
 11
4.552004268605614
 21
10.49999999999997
 31
0
  0
LINE
  8
1
 62
2
 10
10.95200426860561
 20
10.49999999999997
 30
0
 11
4.552004268605614
 21
10.49999999999997
 31
0
  0
LINE
  8
1
 62
2
 10
4.552004268605614
 20
30.39999999999998
 30
0
 11
4.552004268605614
 21
9.49999999999997
 31
0
  0
LINE
  8
1
 62
2
 10
1.552004268605618
 20
29.83999999999997
 30
0
 11
1.552004268605618
 21
9.49999999999997
 31
0
  0
SOLID
  8
1
 62
2
 10
4.552004268605614
 20
10.49999999999997
 30
0
 11
7.752004268605615
 21
10.91599999999997
 31
0
 12
7.752004268605615
 22
10.08399999999997
 32
0
 13
7.752004268605615
 23
10.08399999999997
 33
0
  0
SOLID
  8
1
 62
2
 10
1.552004268605618
 20
10.49999999999997
 30
0
 11
-1.647995731394383
 21
10.08399999999997
 31
0
 12
-1.647995731394383
 22
10.91599999999997
 32
0
 13
-1.647995731394383
 23
10.91599999999997
 33
0
  0
TEXT
  8
1
 62
2
 10
-8.276094167045446
 20
11.49999999999997
 30
0
 40
3.2
  1
3
 41
0.9
  0
TEXT
  8
1
 62
2
 10
-10.35609416704545
 20
11.49999999999997
 30
0
 40
3.2
  1
(
 41
0.9
  0
TEXT
  8
1
 62
2
 10
-4.756094167045445
 20
11.49999999999997
 30
0
 40
3.2
  1
)
 41
0.9
  0
ENDBLK
  8
0
  0
BLOCK
  8
1
  2
*D3
 70
1
 10
0
 20
0
 30
0
  0
LINE
  8
1
 62
2
 10
-36.03404379727844
 20
15.49999999999994
 30
0
 11
-36.03404379727844
 21
49.5
 31
0
  0
LINE
  8
1
 62
2
 10
-57.04545056812835
 20
49.5
 30
0
 11
-35.03404379727844
 21
49.5
 31
0
  0
LINE
  8
1
 62
2
 10
-57.04545056812835
 20
15.49999999999994
 30
0
 11
-35.03404379727844
 21
15.49999999999994
 31
0
  0
SOLID
  8
1
 62
2
 10
-36.03404379727844
 20
49.5
 30
0
 11
-35.61804379727844
 21
46.3
 31
0
 12
-36.45004379727844
 22
46.3
 32
0
 13
-36.45004379727844
 23
46.3
 33
0
  0
SOLID
  8
1
 62
2
 10
-36.03404379727844
 20
15.49999999999994
 30
0
 11
-36.45004379727844
 21
18.69999999999994
 31
0
 12
-35.61804379727844
 22
18.69999999999994
 32
0
 13
-35.61804379727844
 23
18.69999999999994
 33
0
  0
TEXT
  8
1
 62
2
 10
-37.03404379727844
 20
31.92222222222216
 30
0
 40
3.2
  1
34
 50
90
 41
0.9
  0
TEXT
  8
1
 62
2
 10
-37.03404379727844
 20
28.27777777777772
 30
0
 40
3.2
  1
ƒÓ
 50
90
 41
0.9
  0
ENDBLK
  8
0
  0
BLOCK
  8
1
  2
*D4
 70
1
 10
0
 20
0
 30
0
  0
LINE
  8
1
 62
2
 10
-67.44545056812821
 20
-59.99917762258051
 30
0
 11
-60.85661176419529
 21
-59.99917762258051
 31
0
  0
LINE
  8
1
 62
2
 10
-73.44545056812821
 20
-59.99917762258051
 30
0
 11
-67.44545056812821
 21
-59.99917762258051
 31
0
  0
LINE
  8
1
 62
2
 10
-79.84545056812821
 20
-59.99917762258051
 30
0
 11
-73.44545056812821
 21
-59.99917762258051
 31
0
  0
LINE
  8
1
 62
2
 10
-67.44545056812821
 20
-39
 30
0
 11
-67.44545056812821
 21
-60.99917762258051
 31
0
  0
LINE
  8
1
 62
2
 10
-73.44545056812821
 20
-36.5
 30
0
 11
-73.44545056812821
 21
-60.99917762258051
 31
0
  0
SOLID
  8
1
 62
2
 10
-73.44545056812821
 20
-59.99917762258051
 30
0
 11
-76.64545056812821
 21
-60.41517762258051
 31
0
 12
-76.64545056812821
 22
-59.58317762258051
 32
0
 13
-76.64545056812821
 23
-59.58317762258051
 33
0
  0
SOLID
  8
1
 62
2
 10
-67.44545056812821
 20
-59.99917762258051
 30
0
 11
-64.24545056812821
 21
-59.58317762258051
 31
0
 12
-64.24545056812821
 22
-60.41517762258051
 32
0
 13
-64.24545056812821
 23
-60.41517762258051
 33
0
  0
TEXT
  8
1
 62
2
 10
-62.77661176419529
 20
-58.99917762258051
 30
0
 40
3.2
  1
6
 41
0.9
  0
ENDBLK
  8
0
  0
BLOCK
  8
1
  2
*D5
 70
1
 10
0
 20
0
 30
0
  0
LINE
  8
1
 62
2
 10
-52.42474494266911
 20
-23.60000000000002
 30
0
 11
-52.42474494266911
 21
-30.00000000000002
 31
0
  0
LINE
  8
1
 62
2
 10
-52.42474494266911
 20
-38.00000000000001
 30
0
 11
-52.42474494266911
 21
-30.00000000000002
 31
0
  0
LINE
  8
1
 62
2
 10
-52.42474494266911
 20
-38.00000000000001
 30
0
 11
-52.42474494266911
 21
-56.87907039421704
 31
0
  0
LINE
  8
1
 62
2
 10
-66.44545056812795
 20
-38.00000000000001
 30
0
 11
-51.42474494266911
 21
-38.00000000000001
 31
0
  0
LINE
  8
1
 62
2
 10
-66.44545056812795
 20
-30.00000000000002
 30
0
 11
-51.42474494266911
 21
-30.00000000000002
 31
0
  0
SOLID
  8
1
 62
2
 10
-52.42474494266911
 20
-30.00000000000002
 30
0
 11
-52.84074494266911
 21
-26.80000000000002
 31
0
 12
-52.00874494266911
 22
-26.80000000000002
 32
0
 13
-52.00874494266911
 23
-26.80000000000002
 33
0
  0
SOLID
  8
1
 62
2
 10
-52.42474494266911
 20
-38.00000000000001
 30
0
 11
-52.00874494266911
 21
-41.20000000000002
 31
0
 12
-52.8407449426691
 22
-41.20000000000002
 32
0
 13
-52.8407449426691
 23
-41.20000000000002
 33
0
  0
TEXT
  8
1
 62
2
 10
-54.22474494266911
 20
-53.23462594977259
 30
0
 40
3.2
  1
8
 50
90
 41
0.9
  0
TEXT
  8
1
 62
2
 10
-56.30474494266911
 20
-49.7146259497726
 30
0
 40
1.92
  1
 0
 50
90
 41
0.9
  0
TEXT
  8
1
 62
2
 10
-53.42474494266912
 20
-49.7146259497726
 30
0
 40
1.92
  1
-0.02
 50
90
 41
0.9
  0
TEXT
  8
1
 62
2
 10
-54.22474494266911
 20
-56.87907039421704
 30
0
 40
3.2
  1
ƒÓ
 50
90
 41
0.9
  0
ENDBLK
  8
0
  0
BLOCK
  8
1
  2
*D6
 70
1
 10
0
 20
0
 30
0
  0
LINE
  8
1
 62
2
 10
-83.6454505681283
 20
-72.0651551624796
 30
0
 11
-67.44545056812821
 21
-72.0651551624796
 31
0
  0
LINE
  8
1
 62
2
 10
-67.44545056812821
 20
-39
 30
0
 11
-67.44545056812821
 21
-73.0651551624796
 31
0
  0
LINE
  8
1
 62
2
 10
-83.6454505681283
 20
-51
 30
0
 11
-83.6454505681283
 21
-73.0651551624796
 31
0
  0
SOLID
  8
1
 62
2
 10
-83.6454505681283
 20
-72.0651551624796
 30
0
 11
-80.44545056812829
 21
-71.6491551624796
 31
0
 12
-80.44545056812829
 22
-72.4811551624796
 32
0
 13
-80.44545056812829
 23
-72.4811551624796
 33
0
  0
SOLID
  8
1
 62
2
 10
-67.44545056812821
 20
-72.0651551624796
 30
0
 11
-70.64545056812821
 21
-72.4811551624796
 31
0
 12
-70.64545056812821
 22
-71.6491551624796
 32
0
 13
-70.64545056812821
 23
-71.6491551624796
 33
0
  0
TEXT
  8
1
 62
2
 10
-79.42545056812824
 20
-71.0651551624796
 30
0
 40
3.2
  1
16.2
 41
0.9
  0
ENDBLK
  8
0
  0
BLOCK
  8
1
  2
*D7
 70
1
 10
0
 20
0
 30
0
  0
LINE
  8
1
 62
2
 10
-102.3454505681283
 20
-72.01514455194949
 30
0
 11
-83.6454505681283
 21
-72.01514455194949
 31
0
  0
LINE
  8
1
 62
2
 10
-83.6454505681283
 20
-51
 30
0
 11
-83.6454505681283
 21
-73.01514455194949
 31
0
  0
LINE
  8
1
 62
2
 10
-102.3454505681283
 20
-49.5
 30
0
 11
-102.3454505681283
 21
-73.01514455194949
 31
0
  0
SOLID
  8
1
 62
2
 10
-102.3454505681283
 20
-72.01514455194949
 30
0
 11
-99.1454505681283
 21
-71.59914455194949
 31
0
 12
-99.1454505681283
 22
-72.43114455194949
 32
0
 13
-99.1454505681283
 23
-72.43114455194949
 33
0
  0
SOLID
  8
1
 62
2
 10
-83.6454505681283
 20
-72.01514455194949
 30
0
 11
-86.8454505681283
 21
-72.43114455194949
 31
0
 12
-86.8454505681283
 22
-71.59914455194949
 32
0
 13
-86.8454505681283
 23
-71.59914455194949
 33
0
  0
TEXT
  8
1
 62
2
 10
-96.87545056812829
 20
-71.01514455194949
 30
0
 40
3.2
  1
18.7
 41
0.9
  0
ENDBLK
  8
0
  0
BLOCK
  8
1
  2
*D8
 70
1
 10
0
 20
0
 30
0
  0
LINE
  8
1
 62
2
 10
-112.381606091637
 20
-50
 30
0
 11
-112.381606091637
 21
50
 31
0
  0
LINE
  8
1
 62
2
 10
-101.8454505681283
 20
-50
 30
0
 11
-113.381606091637
 21
-50
 31
0
  0
LINE
  8
1
 62
2
 10
-101.8454505681283
 20
50
 30
0
 11
-113.381606091637
 21
50
 31
0
  0
SOLID
  8
1
 62
2
 10
-112.381606091637
 20
50
 30
0
 11
-111.965606091637
 21
46.8
 31
0
 12
-112.797606091637
 22
46.8
 32
0
 13
-112.797606091637
 23
46.8
 33
0
  0
SOLID
  8
1
 62
2
 10
-112.381606091637
 20
-50
 30
0
 11
-112.797606091637
 21
-46.8
 31
0
 12
-111.965606091637
 22
-46.8
 32
0
 13
-111.965606091637
 23
-46.8
 33
0
  0
TEXT
  8
1
 62
2
 10
-113.381606091637
 20
-3.359999999999999
 30
0
 40
3.2
  1
100
 50
90
 41
0.9
  0
ENDBLK
  8
0
  0
BLOCK
  8
1
  2
*D9
 70
1
 10
0
 20
0
 30
0
  0
LINE
  8
1
 62
2
 10
87.45454943187161
 20
-70.98098862596869
 30
0
 11
117.4545494318717
 21
-70.98098862596869
 31
0
  0
LINE
  8
1
 62
2
 10
87.45454943187161
 20
-49
 30
0
 11
87.45454943187161
 21
-71.98098862596869
 31
0
  0
LINE
  8
1
 62
2
 10
117.4545494318717
 20
-49
 30
0
 11
117.4545494318717
 21
-71.98098862596869
 31
0
  0
SOLID
  8
1
 62
2
 10
87.45454943187161
 20
-70.98098862596869
 30
0
 11
90.65454943187162
 21
-70.5649886259687
 31
0
 12
90.65454943187162
 22
-71.39698862596869
 32
0
 13
90.65454943187162
 23
-71.39698862596869
 33
0
  0
SOLID
  8
1
 62
2
 10
117.4545494318717
 20
-70.98098862596869
 30
0
 11
114.2545494318717
 21
-71.39698862596869
 31
0
 12
114.2545494318717
 22
-70.5649886259687
 32
0
 13
114.2545494318717
 23
-70.5649886259687
 33
0
  0
TEXT
  8
1
 62
2
 10
96.8305494318717
 20
-69.98098862596869
 30
0
 40
3.2
  1
30
 41
0.9
  0
TEXT
  8
1
 62
2
 10
103.2305494318717
 20
-69.34098862596869
 30
0
 40
1.92
  1
%%p0.3
 41
0.9
  0
ENDBLK
  8
0
  0
BLOCK
  8
1
  2
*D10
 70
1
 10
0
 20
0
 30
0
  0
LINE
  8
1
 62
2
 10
83.45454943187161
 20
-71.00220269295089
 30
0
 11
71.4098821697597
 21
-71.00220269295089
 31
0
  0
LINE
  8
1
 62
2
 10
83.45454943187161
 20
-71.00220269295089
 30
0
 11
87.45454943187161
 21
-71.00220269295089
 31
0
  0
LINE
  8
1
 62
2
 10
93.85454943187162
 20
-71.00220269295089
 30
0
 11
87.45454943187161
 21
-71.00220269295089
 31
0
  0
LINE
  8
1
 62
2
 10
87.45454943187161
 20
-49
 30
0
 11
87.45454943187161
 21
-72.00220269295089
 31
0
  0
LINE
  8
1
 62
2
 10
83.45454943187161
 20
-49.5
 30
0
 11
83.45454943187161
 21
-72.00220269295089
 31
0
  0
SOLID
  8
1
 62
2
 10
83.45454943187161
 20
-71.00220269295089
 30
0
 11
80.25454943187161
 21
-71.41820269295089
 31
0
 12
80.25454943187161
 22
-70.58620269295089
 32
0
 13
80.25454943187161
 23
-70.58620269295089
 33
0
  0
SOLID
  8
1
 62
2
 10
87.45454943187161
 20
-71.00220269295089
 30
0
 11
90.65454943187162
 21
-70.58620269295089
 31
0
 12
90.65454943187162
 22
-71.41820269295089
 32
0
 13
90.65454943187162
 23
-71.41820269295089
 33
0
  0
TEXT
  8
1
 62
2
 10
73.48988216975971
 20
-70.00220269295089
 30
0
 40
3.2
  1
4
 41
0.9
  0
TEXT
  8
1
 62
2
 10
71.4098821697597
 20
-70.00220269295089
 30
0
 40
3.2
  1
(
 41
0.9
  0
TEXT
  8
1
 62
2
 10
77.00988216975971
 20
-70.00220269295089
 30
0
 40
3.2
  1
)
 41
0.9
  0
ENDBLK
  8
0
  0
BLOCK
  8
1
  2
*D11
 70
1
 10
0
 20
0
 30
0
  0
LINE
  8
1
 62
2
 10
143.430794156185
 20
-50
 30
0
 11
143.430794156185
 21
-61.4952974957321
 31
0
  0
LINE
  8
1
 62
2
 10
143.430794156185
 20
-50
 30
0
 11
143.430794156185
 21
-46
 31
0
  0
LINE
  8
1
 62
2
 10
143.430794156185
 20
-39.59999999999999
 30
0
 11
143.430794156185
 21
-46
 31
0
  0
LINE
  8
1
 62
2
 10
120.4545494318717
 20
-46
 30
0
 11
144.430794156185
 21
-46
 31
0
  0
LINE
  8
1
 62
2
 10
120.9545494318717
 20
-50
 30
0
 11
144.430794156185
 21
-50
 31
0
  0
SOLID
  8
1
 62
2
 10
143.430794156185
 20
-46
 30
0
 11
143.014794156185
 21
-42.8
 31
0
 12
143.846794156185
 22
-42.8
 32
0
 13
143.846794156185
 23
-42.8
 33
0
  0
SOLID
  8
1
 62
2
 10
143.430794156185
 20
-50
 30
0
 11
143.846794156185
 21
-53.2
 31
0
 12
143.014794156185
 22
-53.2
 32
0
 13
143.014794156185
 23
-53.2
 33
0
  0
TEXT
  8
1
 62
2
 10
142.430794156185
 20
-59.4152974957321
 30
0
 40
3.2
  1
4
 50
90
 41
0.9
  0
TEXT
  8
1
 62
2
 10
142.430794156185
 20
-61.4952974957321
 30
0
 40
3.2
  1
(
 50
90
 41
0.9
  0
TEXT
  8
1
 62
2
 10
142.430794156185
 20
-55.8952974957321
 30
0
 40
3.2
  1
)
 50
90
 41
0.9
  0
ENDBLK
  8
0
  0
BLOCK
  8
1
  2
*D12
 70
1
 10
0
 20
0
 30
0
  0
LINE
  8
1
 62
2
 10
155.340275668329
 20
-50
 30
0
 11
155.340275668329
 21
-20
 31
0
  0
LINE
  8
1
 62
2
 10
122.4545494318716
 20
-20
 30
0
 11
156.340275668329
 21
-20
 31
0
  0
LINE
  8
1
 62
2
 10
120.9545494318717
 20
-50
 30
0
 11
156.340275668329
 21
-50
 31
0
  0
SOLID
  8
1
 62
2
 10
155.340275668329
 20
-20
 30
0
 11
155.756275668329
 21
-23.2
 31
0
 12
154.924275668329
 22
-23.2
 32
0
 13
154.924275668329
 23
-23.2
 33
0
  0
SOLID
  8
1
 62
2
 10
155.340275668329
 20
-50
 30
0
 11
154.924275668329
 21
-46.8
 31
0
 12
155.756275668329
 22
-46.8
 32
0
 13
155.756275668329
 23
-46.8
 33
0
  0
TEXT
  8
1
 62
2
 10
154.340275668329
 20
-37.4
 30
0
 40
3.2
  1
30
 50
90
 41
0.9
  0
TEXT
  8
1
 62
2
 10
154.340275668329
 20
-39.48
 30
0
 40
3.2
  1
(
 50
90
 41
0.9
  0
TEXT
  8
1
 62
2
 10
154.340275668329
 20
-31
 30
0
 40
3.2
  1
)
 50
90
 41
0.9
  0
ENDBLK
  8
0
  0
BLOCK
  8
1
  2
*D13
 70
1
 10
0
 20
0
 30
0
  0
LINE
  8
1
 62
2
 10
143.439812126686
 20
-46
 30
0
 11
143.439812126686
 21
-24
 31
0
  0
LINE
  8
1
 62
2
 10
120.4545494318717
 20
-24
 30
0
 11
144.439812126686
 21
-24
 31
0
  0
LINE
  8
1
 62
2
 10
120.4545494318717
 20
-46
 30
0
 11
144.439812126686
 21
-46
 31
0
  0
SOLID
  8
1
 62
2
 10
143.439812126686
 20
-24
 30
0
 11
143.855812126686
 21
-27.2
 31
0
 12
143.023812126686
 22
-27.2
 32
0
 13
143.023812126686
 23
-27.2
 33
0
  0
SOLID
  8
1
 62
2
 10
143.439812126686
 20
-46
 30
0
 11
143.023812126686
 21
-42.8
 31
0
 12
143.855812126686
 22
-42.8
 32
0
 13
143.855812126686
 23
-42.8
 33
0
  0
TEXT
  8
1
 62
2
 10
142.439812126686
 20
-40.624
 30
0
 40
3.2
  1
22
 50
90
 41
0.9
  0
TEXT
  8
1
 62
2
 10
141.799812126686
 20
-34.224
 30
0
 40
1.92
  1
%%p0.3
 50
90
 41
0.9
  0
ENDBLK
  8
0
  0
BLOCK
  8
1
  2
*D14
 70
1
 10
0
 20
0
 30
0
  0
LINE
  8
1
 62
2
 10
131.483623414956
 20
-42
 30
0
 11
131.483623414956
 21
-28
 31
0
  0
LINE
  8
1
 62
2
 10
122.4545494318716
 20
-28
 30
0
 11
132.483623414956
 21
-28
 31
0
  0
LINE
  8
1
 62
2
 10
122.4545494318716
 20
-42
 30
0
 11
132.483623414956
 21
-42
 31
0
  0
SOLID
  8
1
 62
2
 10
131.483623414956
 20
-28
 30
0
 11
131.899623414956
 21
-31.2
 31
0
 12
131.067623414956
 22
-31.2
 32
0
 13
131.067623414956
 23
-31.2
 33
0
  0
SOLID
  8
1
 62
2
 10
131.483623414956
 20
-42
 30
0
 11
131.067623414956
 21
-38.8
 31
0
 12
131.899623414956
 22
-38.8
 32
0
 13
131.899623414956
 23
-38.8
 33
0
  0
TEXT
  8
1
 62
2
 10
130.483623414956
 20
-36.92
 30
0
 40
3.2
  1
14
 50
90
 41
0.9
  0
TEXT
  8
1
 62
2
 10
130.483623414956
 20
-39
 30
0
 40
3.2
  1
(
 50
90
 41
0.9
  0
TEXT
  8
1
 62
2
 10
130.483623414956
 20
-31.48
 30
0
 40
3.2
  1
)
 50
90
 41
0.9
  0
ENDBLK
  8
0
  0
BLOCK
  8
1
  2
*D15
 70
1
 10
0
 20
0
 30
0
  0
LINE
  8
1
 62
2
 10
73.3842531645668
 20
-34
 30
0
 11
73.3842531645668
 21
-25.8990469901436
 31
0
  0
LINE
  8
1
 62
2
 10
73.3842531645668
 20
-46
 30
0
 11
73.3842531645668
 21
-34
 31
0
  0
LINE
  8
1
 62
2
 10
95.1545494318716
 20
-34
 30
0
 11
72.3842531645668
 21
-34
 31
0
  0
LINE
  8
1
 62
2
 10
88.45454943187161
 20
-46
 30
0
 11
72.3842531645668
 21
-46
 31
0
  0
SOLID
  8
1
 62
2
 10
73.3842531645668
 20
-34
 30
0
 11
73.8002531645668
 21
-37.2
 31
0
 12
72.9682531645668
 22
-37.2
 32
0
 13
72.9682531645668
 23
-37.2
 33
0
  0
SOLID
  8
1
 62
2
 10
73.3842531645668
 20
-46
 30
0
 11
72.9682531645668
 21
-42.8
 31
0
 12
73.8002531645668
 22
-42.8
 32
0
 13
73.8002531645668
 23
-42.8
 33
0
  0
TEXT
  8
1
 62
2
 10
72.3842531645668
 20
-29.7390469901436
 30
0
 40
3.2
  1
12
 50
90
 41
0.9
  0
ENDBLK
  8
0
  0
BLOCK
  8
1
  2
*D16
 70
1
 10
0
 20
0
 30
0
  0
LINE
  8
1
 62
2
 10
61.4207864305562
 20
-50
 30
0
 11
61.4207864305562
 21
-34
 31
0
  0
LINE
  8
1
 62
2
 10
95.1545494318716
 20
-34
 30
0
 11
60.4207864305562
 21
-34
 31
0
  0
LINE
  8
1
 62
2
 10
83.95454943187161
 20
-50
 30
0
 11
60.4207864305562
 21
-50
 31
0
  0
SOLID
  8
1
 62
2
 10
61.4207864305562
 20
-34
 30
0
 11
61.8367864305562
 21
-37.2
 31
0
 12
61.00478643055619
 22
-37.2
 32
0
 13
61.00478643055619
 23
-37.2
 33
0
  0
SOLID
  8
1
 62
2
 10
61.4207864305562
 20
-50
 30
0
 11
61.00478643055619
 21
-46.8
 31
0
 12
61.8367864305562
 22
-46.8
 32
0
 13
61.8367864305562
 23
-46.8
 33
0
  0
TEXT
  8
1
 62
2
 10
60.4207864305562
 20
-43.92
 30
0
 40
3.2
  1
16
 50
90
 41
0.9
  0
TEXT
  8
1
 62
2
 10
60.4207864305562
 20
-46
 30
0
 40
3.2
  1
(
 50
90
 41
0.9
  0
TEXT
  8
1
 62
2
 10
60.4207864305562
 20
-38.48
 30
0
 40
3.2
  1
)
 50
90
 41
0.9
  0
ENDBLK
  8
0
  0
BLOCK
  8
1
  2
*D17
 70
1
 10
0
 20
0
 30
0
  0
LINE
  8
1
 62
2
 10
61.4207864305562
 20
-34
 30
0
 11
61.4207864305562
 21
32.5
 31
0
  0
LINE
  8
1
 62
2
 10
95.1545494318716
 20
-34
 30
0
 11
60.4207864305562
 21
-34
 31
0
  0
LINE
  8
1
 62
2
 10
88.75454943187151
 20
32.5
 30
0
 11
60.4207864305562
 21
32.5
 31
0
  0
SOLID
  8
1
 62
2
 10
61.4207864305562
 20
32.5
 30
0
 11
61.8367864305562
 21
29.3
 31
0
 12
61.00478643055619
 22
29.3
 32
0
 13
61.00478643055619
 23
29.3
 33
0
  0
SOLID
  8
1
 62
2
 10
61.4207864305562
 20
-34
 30
0
 11
61.00478643055619
 21
-30.8
 31
0
 12
61.8367864305562
 22
-30.8
 32
0
 13
61.8367864305562
 23
-30.8
 33
0
  0
TEXT
  8
1
 62
2
 10
60.4207864305562
 20
-5.11
 30
0
 40
3.2
  1
66.5
 50
90
 41
0.9
  0
TEXT
  8
1
 62
2
 10
60.4207864305562
 20
-7.19
 30
0
 40
3.2
  1
(
 50
90
 41
0.9
  0
TEXT
  8
1
 62
2
 10
60.4207864305562
 20
5.21
 30
0
 40
3.2
  1
)
 50
90
 41
0.9
  0
ENDBLK
  8
0
  0
BLOCK
  8
1
  2
*D18
 70
1
 10
0
 20
0
 30
0
  0
LINE
  8
1
 62
2
 10
91.45454943187161
 20
-60.1502088032148
 30
0
 11
113.4545494318716
 21
-60.1502088032148
 31
0
  0
LINE
  8
1
 62
2
 10
113.4545494318716
 20
-51
 30
0
 11
113.4545494318716
 21
-61.1502088032148
 31
0
  0
LINE
  8
1
 62
2
 10
91.45454943187161
 20
-51
 30
0
 11
91.45454943187161
 21
-61.1502088032148
 31
0
  0
SOLID
  8
1
 62
2
 10
91.45454943187161
 20
-60.1502088032148
 30
0
 11
94.65454943187162
 21
-59.73420880321481
 31
0
 12
94.65454943187162
 22
-60.5662088032148
 32
0
 13
94.65454943187162
 23
-60.5662088032148
 33
0
  0
SOLID
  8
1
 62
2
 10
113.4545494318716
 20
-60.1502088032148
 30
0
 11
110.2545494318716
 21
-60.5662088032148
 31
0
 12
110.2545494318716
 22
-59.73420880321481
 32
0
 13
110.2545494318716
 23
-59.73420880321481
 33
0
  0
TEXT
  8
1
 62
2
 10
100.0545494318716
 20
-59.1502088032148
 30
0
 40
3.2
  1
22
 41
0.9
  0
TEXT
  8
1
 62
2
 10
97.97454943187159
 20
-59.1502088032148
 30
0
 40
3.2
  1
(
 41
0.9
  0
TEXT
  8
1
 62
2
 10
106.4545494318716
 20
-59.1502088032148
 30
0
 40
3.2
  1
)
 41
0.9
  0
ENDBLK
  8
0
  0
BLOCK
  8
1
  2
*D19
 70
1
 10
0
 20
0
 30
0
  0
LINE
  8
1
 62
2
 10
83.45454943187161
 20
-84.04455028567179
 30
0
 11
121.4545494318716
 21
-84.04455028567179
 31
0
  0
LINE
  8
1
 62
2
 10
121.4545494318716
 20
-49.5
 30
0
 11
121.4545494318716
 21
-85.04455028567179
 31
0
  0
LINE
  8
1
 62
2
 10
83.45454943187161
 20
-49.5
 30
0
 11
83.45454943187161
 21
-85.04455028567179
 31
0
  0
SOLID
  8
1
 62
2
 10
83.45454943187161
 20
-84.04455028567179
 30
0
 11
86.65454943187162
 21
-83.62855028567179
 31
0
 12
86.65454943187162
 22
-84.46055028567179
 32
0
 13
86.65454943187162
 23
-84.46055028567179
 33
0
  0
SOLID
  8
1
 62
2
 10
121.4545494318716
 20
-84.04455028567179
 30
0
 11
118.2545494318716
 21
-84.46055028567179
 31
0
 12
118.2545494318716
 22
-83.62855028567179
 32
0
 13
118.2545494318716
 23
-83.62855028567179
 33
0
  0
TEXT
  8
1
 62
2
 10
100.0545494318716
 20
-83.04455028567179
 30
0
 40
3.2
  1
38
 41
0.9
  0
ENDBLK
  8
0
  0
BLOCK
  8
1
  2
*D20
 70
1
 10
0
 20
0
 30
0
  0
LINE
  8
1
 62
2
 10
-102.3454505681283
 20
72.0869741474841
 30
0
 11
-58.04545056812835
 21
72.0869741474841
 31
0
  0
LINE
  8
1
 62
2
 10
-102.3454505681283
 20
49.5
 30
0
 11
-102.3454505681283
 21
73.0869741474841
 31
0
  0
LINE
  8
1
 62
2
 10
-58.04545056812835
 20
50.5
 30
0
 11
-58.04545056812835
 21
73.0869741474841
 31
0
  0
SOLID
  8
1
 62
2
 10
-102.3454505681283
 20
72.0869741474841
 30
0
 11
-99.1454505681283
 21
72.5029741474841
 31
0
 12
-99.1454505681283
 22
71.6709741474841
 32
0
 13
-99.1454505681283
 23
71.6709741474841
 33
0
  0
SOLID
  8
1
 62
2
 10
-58.04545056812835
 20
72.0869741474841
 30
0
 11
-61.24545056812836
 21
71.6709741474841
 31
0
 12
-61.24545056812836
 22
72.5029741474841
 32
0
 13
-61.24545056812836
 23
72.5029741474841
 33
0
  0
TEXT
  8
1
 62
2
 10
-84.55545056812832
 20
73.0869741474841
 30
0
 40
3.2
  1
44.3
 41
0.9
  0
ENDBLK
  8
0
  0
BLOCK
  8
1
  2
*D21
 70
1
 10
0
 20
0
 30
0
  0
LINE
  8
1
 62
2
 10
-72.16907736348463
 20
-33.21204604038809
 30
0
 11
-47.69126891874644
 21
-18.10095939544399
 31
0
  0
LINE
  8
1
 62
2
 10
-47.69126891874644
 20
-18.10095939544399
 30
0
 11
-17.74282447430199
 21
-18.10095939544399
 31
0
  0
SOLID
  8
1
 62
2
 10
-72.16907736348463
 20
-33.21204604038809
 30
0
 11
-69.66467375837752
 21
-31.17709675779491
 31
0
 12
-69.22762196211279
 22
-31.88505842863717
 32
0
 13
-69.22762196211279
 23
-31.88505842863717
 33
0
  0
TEXT
  8
1
 62
2
 10
-38.84682447430199
 20
-16.30095939544399
 30
0
 40
3.2
  1
3
 41
0.9
  0
TEXT
  8
1
 62
2
 10
-35.32682447430199
 20
-14.22095939544399
 30
0
 40
1.92
  1
+0.1
 41
0.9
  0
TEXT
  8
1
 62
2
 10
-35.32682447430199
 20
-17.10095939544399
 30
0
 40
1.92
  1
 0
 41
0.9
  0
TEXT
  8
1
 62
2
 10
-42.49126891874643
 20
-16.30095939544399
 30
0
 40
3.2
  1
ƒÓ
 41
0.9
  0
TEXT
  8
1
 62
2
 10
-29.26282447430199
 20
-16.30095939544399
 30
0
 40
3.2
  1
HOLE
 41
0.9
  0
ENDBLK
  8
0
  0
BLOCK
  8
1
  2
*D22
 70
1
 10
0
 20
0
 30
0
  0
LINE
  8
1
 62
2
 10
61.06614490422581
 20
-65.01120777891499
 30
0
 11
7.546144904225798
 21
-65.01120777891499
 31
0
  0
LINE
  8
1
 62
2
 10
85.83181779860882
 20
-47.16907743388036
 30
0
 11
61.06614490422581
 21
-65.01120777891499
 31
0
  0
SOLID
  8
1
 62
2
 10
85.83181779860882
 20
-47.16907743388036
 30
0
 11
83.47861529163548
 21
-49.3771295078076
 31
0
 12
82.99227907914126
 22
-48.70207314837028
 32
0
 13
82.99227907914126
 23
-48.70207314837028
 33
0
  0
TEXT
  8
1
 62
2
 10
19.3861449042258
 20
-64.01120777891499
 30
0
 40
3.2
  1
4
 41
0.9
  0
TEXT
  8
1
 62
2
 10
7.546144904225798
 20
-64.01120777891499
 30
0
 40
3.2
  1
 4-M
 41
0.9
  0
TEXT
  8
1
 62
2
 10
22.9061449042258
 20
-64.01120777891499
 30
0
 40
3.2
  1
 DEPTH 6MAX
 41
0.9
  0
ENDBLK
  8
0
  0
ENDSEC
  0
SECTION
  2
ENTITIES
  0
LINE
  8
1
 62
7
 10
-81.29545056812835
 20
15.5
 30
0
 11
-81.29545056812835
 21
21.68667025527799
 31
0
  0
LINE
  8
1
 62
7
 10
-81.29545056812835
 20
21.68667025527799
 30
0
 11
-64.29545056812835
 21
21.68667025527799
 31
0
  0
LINE
  8
1
 62
7
 10
-64.29545056812835
 20
21.68667025527799
 30
0
 11
-64.29545056812835
 21
15.5
 31
0
  0
LINE
  8
1
 62
7
 10
99.96738785976059
 20
48.30550623403803
 30
0
 11
100.8194645331984
 21
47.41061693472574
 31
0
  0
LINE
  8
1
 62
7
 10
103.8739282901863
 20
47.43269445400153
 30
0
 11
105.0482344403621
 21
48.28837540967191
 31
0
  0
LINE
  8
1
 62
7
 10
99.86086442338107
 20
16.71162459032814
 30
0
 11
101.0351705735568
 21
17.56730554599829
 31
0
  0
LINE
  8
1
 62
7
 10
104.0896343305447
 20
17.58938306527409
 30
0
 11
104.9417110039825
 21
16.69449376596191
 31
0
  0
LINE
  8
1
 62
7
 10
109.9379767295229
 20
22.67442960191062
 30
0
 11
110.4036068966926
 21
25.20405019628259
 31
0
  0
LINE
  8
1
 62
7
 10
108.3054039107935
 20
22.97493915507971
 30
0
 11
108.7611912055622
 21
25.4510865544375
 31
0
  0
LINE
  8
1
 62
7
 10
95.63715376700047
 20
41.35902921214034
 30
0
 11
98.04840869815256
 21
40.9151867485001
 31
0
  0
LINE
  8
1
 62
7
 10
95.93766332016951
 20
42.99160203086984
 30
0
 11
98.32276937681336
 21
42.5525728205829
 31
0
  0
LINE
  8
1
 62
2
 10
97.299087963514
 20
39.981575343413
 30
0
 11
94.28271791562257
 21
44.35891380582302
 31
0
  0
LINE
  8
1
 62
2
 10
110.4182316649578
 20
20.94315120896124
 30
0
 11
107.8770431999539
 21
24.63090895468952
 31
0
  0
LINE
  8
1
 62
2
 10
91.40013695481581
 20
24.88254044571414
 30
0
 11
94.35518817622197
 21
26.9188298646792
 31
0
  0
LINE
  8
1
 62
2
 10
110.6534147481226
 20
38.14973715855172
 30
0
 11
113.7723878674342
 21
40.2989831394284
 31
0
  0
LINE
  8
1
 62
7
 10
-48.27150387007514
 20
30.84000000000009
 30
0
 11
-47.74985339895861
 21
30.84000000000009
 31
0
  0
LINE
  8
1
 62
7
 10
-52.71930227460372
 20
22.92749978646401
 30
0
 11
-48.73438154032733
 21
30.5290615306771
 31
0
  0
LINE
  8
1
 62
7
 10
-58.04545056812843
 20
21.99468437849521
 30
0
 11
-54.10793528536014
 21
21.99468437849521
 31
0
  0
LINE
  8
1
 62
7
 10
-52.71930227460372
 20
42.07250021353622
 30
0
 11
-48.73438154032741
 21
34.47093846932302
 31
0
  0
LINE
  8
1
 62
7
 10
-58.04545056812843
 20
43.00531562150491
 30
0
 11
-54.10793528536014
 21
43.00531562150491
 31
0
  0
LINE
  8
1
 62
7
 10
-45.24985339895842
 20
30.84000000000009
 30
0
 11
-42.19768713624553
 21
30.84000000000009
 31
0
  0
LINE
  8
1
 62
7
 10
-45.24985339895842
 20
32.5
 30
0
 11
-42.19768713624553
 21
32.5
 31
0
  0
LINE
  8
1
 62
7
 10
-54.02641619698552
 20
23.85426684020899
 30
0
 11
-49.73146141443451
 21
32.21488219755162
 31
0
  0
LINE
  8
1
 62
7
 10
-58.04545056812843
 20
23.65468437849523
 30
0
 11
-54.51588763371653
 21
23.65468437849523
 31
0
  0
LINE
  8
1
 62
7
 10
-49.03221650481844
 20
32.5
 30
0
 11
-47.74985339895842
 21
32.5
 31
0
  0
LINE
  8
1
 62
7
 10
-54.02641619698552
 20
41.14573315979101
 30
0
 11
-49.73146141443451
 21
32.78511780244844
 31
0
  0
LINE
  8
1
 62
7
 10
-58.04545056812843
 20
41.34531562150499
 30
0
 11
-54.51588763371653
 21
41.34531562150499
 31
0
  0
LINE
  8
1
 62
7
 10
-47.74985339895842
 20
29.83206015269019
 30
0
 11
-45.24985339895842
 21
29.83206015269019
 31
0
  0
LINE
  8
1
 62
7
 10
-44.35996089817392
 20
34.3727155357015
 30
0
 11
-44.48877890583883
 21
37.08373147786074
 31
0
  0
LINE
  8
1
 62
7
 10
-44.98821540526453
 20
37.56000000000012
 30
0
 11
-48.01149139265245
 21
37.56000000000012
 31
0
  0
LINE
  8
1
 62
7
 10
-48.51092789207812
 20
37.08373147786074
 30
0
 11
-48.63974589974311
 21
34.3727155357015
 31
0
  0
LINE
  8
1
 62
7
 10
-45.24985339895842
 20
29.83206015269019
 30
0
 11
-45.24985339895842
 21
34.16000000000003
 31
0
  0
LINE
  8
1
 62
7
 10
-47.74985339895842
 20
34.16000000000003
 30
0
 11
-47.74985339895842
 21
29.83206015269019
 31
0
  0
LINE
  8
1
 62
7
 10
-48.27150387007522
 20
34.16000000000003
 30
0
 11
-42.19768713624553
 21
34.16000000000003
 31
0
  0
LINE
  8
1
 62
2
 10
-9.088796085170245
 20
53
 30
0
 11
64.19825078252717
 21
53
 31
0
  0
LINE
  8
1
 62
3
 10
-105.6286698636285
 20
32.5
 30
0
 11
-53.60449994376644
 21
32.5
 31
0
  0
LINE
  8
1
 62
7
 10
-57.20033335589291
 20
28.28494051088546
 30
0
 11
-58.04545056812835
 21
27.89360076662359
 31
0
  0
LINE
  8
1
 62
7
 10
-56.44545056812821
 20
29.25443396226405
 30
0
 11
-56.44545056812821
 21
35.7455660377359
 31
0
  0
LINE
  8
1
 62
7
 10
-57.20033335589291
 20
36.71505948911437
 30
0
 11
-58.04545056812835
 21
37.10639923337641
 31
0
  0
LINE
  8
1
 62
7
 10
-28.94996726624335
 20
30.83999999999997
 30
0
 11
1.552004268605614
 21
30.83999999999997
 31
0
  0
LINE
  8
1
 62
7
 10
-28.94996726624335
 20
34.16000000000003
 30
0
 11
1.552004268605614
 21
34.16000000000003
 31
0
  0
LINE
  8
1
 62
7
 10
1.552004268605614
 20
30.83999999999997
 30
0
 11
1.552004268605614
 21
34.16000000000003
 31
0
  0
LINE
  8
1
 62
7
 10
1.552004268605614
 20
31.39999999999998
 30
0
 11
4.552004268605614
 21
31.39999999999998
 31
0
  0
LINE
  8
1
 62
7
 10
1.552004268605614
 20
32.09999999999997
 30
0
 11
4.552004268605614
 21
32.09999999999997
 31
0
  0
LINE
  8
1
 62
7
 10
1.552004268605614
 20
32.90000000000003
 30
0
 11
4.552004268605614
 21
32.90000000000003
 31
0
  0
LINE
  8
1
 62
7
 10
1.552004268605614
 20
33.59999999999997
 30
0
 11
4.552004268605614
 21
33.59999999999997
 31
0
  0
LINE
  8
1
 62
7
 10
-86.0454505681284
 20
49.5
 30
0
 11
-58.04545056812835
 21
49.5
 31
0
  0
LINE
  8
1
 62
7
 10
-86.0454505681284
 20
15.49999999999994
 30
0
 11
-58.04545056812835
 21
15.49999999999994
 31
0
  0
LINE
  8
1
 62
7
 10
-58.04545056812835
 20
49.5
 30
0
 11
-58.04545056812835
 21
15.49999999999994
 31
0
  0
LINE
  8
1
 62
7
 10
-28.94996726624335
 20
32.5
 30
0
 11
1.552004268605614
 21
32.5
 31
0
  0
LINE
  8
1
 62
3
 10
85.4545494318716
 20
32.5
 30
0
 11
80.4545494318716
 21
32.5
 31
0
  0
LINE
  8
1
 62
7
 10
-67.44545056812821
 20
-30
 30
0
 11
-84.14545056812825
 21
-30
 31
0
  0
LINE
  8
1
 62
7
 10
-67.44545056812821
 20
-38
 30
0
 11
-67.44545056812821
 21
-30
 31
0
  0
LINE
  8
1
 62
7
 10
-84.14545056812825
 20
-38
 30
0
 11
-67.44545056812821
 21
-38
 31
0
  0
LINE
  8
1
 62
3
 10
-73.44545056812821
 20
-28.5
 30
0
 11
-73.44545056812821
 21
-35.5
 31
0
  0
LINE
  8
1
 62
2
 10
-47.32024708403118
 20
-25
 30
0
 11
-17.26646327453126
 21
-25
 31
0
  0
LINE
  8
1
 62
3
 10
-73.44545056812821
 20
-35.5
 30
0
 11
-73.44545056812821
 21
-39.5
 31
0
  0
LINE
  8
1
 62
7
 10
-100.8454505681283
 20
-50
 30
0
 11
-83.6454505681283
 21
-50
 31
0
  0
LINE
  8
1
 62
7
 10
-83.6454505681283
 20
-41.99978233438486
 30
0
 11
-83.6454505681283
 21
-50
 31
0
  0
LINE
  8
1
 62
7
 10
-89.14545056812825
 20
-19.99978233438486
 30
0
 11
-89.14545056812825
 21
50
 31
0
  0
LINE
  8
1
 62
7
 10
-87.5454505681284
 20
-19.99978233438486
 30
0
 11
-87.5454505681284
 21
50
 31
0
  0
LINE
  8
1
 62
3
 10
-90.35695414895112
 20
-7
 30
0
 11
-84.42649023083426
 21
-7
 31
0
  0
LINE
  8
1
 62
7
 10
-100.8454505681283
 20
50
 30
0
 11
-87.5454505681284
 21
50
 31
0
  0
LINE
  8
1
 62
7
 10
-102.3454505681283
 20
-48.5
 30
0
 11
-102.3454505681283
 21
48.5
 31
0
  0
LINE
  8
1
 62
3
 10
102.4545494318716
 20
-52.83101478188751
 30
0
 11
102.4545494318716
 21
52.42049871496301
 31
0
  0
LINE
  8
1
 62
7
 10
-86.58228666548725
 20
-9.688605838392562
 30
0
 11
-87.43673499385331
 21
-9.743070232887703
 31
0
  0
LINE
  8
1
 62
7
 10
-86.58228666548725
 20
-4.311394161607438
 30
0
 11
-87.43673499385331
 21
-4.256929767112297
 31
0
  0
LINE
  8
1
 62
3
 10
87.45454943187161
 20
-48
 30
0
 11
87.45454943187161
 21
-53
 31
0
  0
LINE
  8
1
 62
2
 10
7.6176085685042
 20
-72
 30
0
 11
60.8512676758433
 21
-72
 31
0
  0
LINE
  8
1
 62
3
 10
96.1545494318716
 20
-34
 30
0
 11
113.7545494318716
 21
-34
 31
0
  0
LINE
  8
1
 62
3
 10
80.38293088182661
 20
-24
 30
0
 11
93.45454943187161
 21
-24
 31
0
  0
LINE
  8
1
 62
3
 10
119.4545494318717
 20
-24
 30
0
 11
124.3677898443996
 21
-24
 31
0
  0
LINE
  8
1
 62
3
 10
119.4545494318717
 20
-46
 30
0
 11
124.4545494318716
 21
-46
 31
0
  0
LINE
  8
1
 62
3
 10
85.45454943187161
 20
-46
 30
0
 11
93.51682344918851
 21
-46
 31
0
  0
LINE
  8
1
 62
3
 10
117.4545494318717
 20
-48
 30
0
 11
117.4545494318717
 21
-53.00000000000001
 31
0
  0
LINE
  8
1
 62
7
 10
118.7545494318716
 20
-37.60000000000002
 30
0
 11
118.7545494318716
 21
-38
 31
0
  0
LINE
  8
1
 62
7
 10
118.1545494318717
 20
-37.60000000000002
 30
0
 11
118.1545494318717
 21
-38
 31
0
  0
LINE
  8
1
 62
7
 10
118.1545494318717
 20
-40.39999999999998
 30
0
 11
118.1545494318717
 21
-40
 31
0
  0
LINE
  8
1
 62
7
 10
117.0545494318717
 20
-39.30000000000001
 30
0
 11
117.4545494318717
 21
-39.30000000000001
 31
0
  0
LINE
  8
1
 62
7
 10
117.0545494318717
 20
-38.69999999999999
 30
0
 11
117.4545494318717
 21
-38.69999999999999
 31
0
  0
LINE
  8
1
 62
7
 10
116.9545494318717
 20
-38.80000000000001
 30
0
 11
116.9545494318717
 21
-39.19999999999999
 31
0
  0
LINE
  8
1
 62
7
 10
119.9545494318717
 20
-38.80000000000001
 30
0
 11
119.9545494318717
 21
-39.19999999999999
 31
0
  0
LINE
  8
1
 62
7
 10
118.2545494318716
 20
-40.5
 30
0
 11
118.6545494318717
 21
-40.5
 31
0
  0
LINE
  8
1
 62
7
 10
118.2545494318716
 20
-37.5
 30
0
 11
118.6545494318717
 21
-37.5
 31
0
  0
LINE
  8
1
 62
7
 10
118.7545494318716
 20
-40
 30
0
 11
118.7545494318716
 21
-40.39999999999992
 31
0
  0
LINE
  8
1
 62
7
 10
119.4604317848128
 20
-39.30000000000001
 30
0
 11
119.8545494318716
 21
-39.30000000000001
 31
0
  0
LINE
  8
1
 62
7
 10
119.4604317848128
 20
-38.69999999999999
 30
0
 11
119.8545494318716
 21
-38.69999999999999
 31
0
  0
LINE
  8
1
 62
7
 10
86.75454943187155
 20
-37.60000000000002
 30
0
 11
86.7545494318716
 21
-38.00000000000011
 31
0
  0
LINE
  8
1
 62
7
 10
86.15454943187169
 20
-37.60000000000008
 30
0
 11
86.15454943187169
 21
-38.00000000000011
 31
0
  0
LINE
  8
1
 62
7
 10
86.15454943187169
 20
-40.40000000000009
 30
0
 11
86.15454943187169
 21
-40.00000000000011
 31
0
  0
LINE
  8
1
 62
7
 10
85.05454943187161
 20
-39.30000000000007
 30
0
 11
85.45454943187161
 21
-39.30000000000007
 31
0
  0
LINE
  8
1
 62
7
 10
85.05454943187161
 20
-38.7000000000001
 30
0
 11
85.45454943187161
 21
-38.7000000000001
 31
0
  0
LINE
  8
1
 62
7
 10
84.95454943187161
 20
-38.80000000000007
 30
0
 11
84.95454943187161
 21
-39.2000000000001
 31
0
  0
LINE
  8
1
 62
7
 10
87.95454943187161
 20
-38.80000000000007
 30
0
 11
87.95454943187161
 21
-39.2000000000001
 31
0
  0
LINE
  8
1
 62
7
 10
86.2545494318716
 20
-40.50000000000011
 30
0
 11
86.65454943187169
 21
-40.50000000000011
 31
0
  0
LINE
  8
1
 62
7
 10
86.2545494318716
 20
-37.50000000000011
 30
0
 11
86.65454943187169
 21
-37.50000000000011
 31
0
  0
LINE
  8
1
 62
7
 10
86.7545494318716
 20
-40.00000000000011
 30
0
 11
86.75454943187155
 21
-40.39999999999998
 31
0
  0
LINE
  8
1
 62
7
 10
87.46043178481281
 20
-39.30000000000007
 30
0
 11
87.85454943187159
 21
-39.30000000000007
 31
0
  0
LINE
  8
1
 62
7
 10
87.46043178481281
 20
-38.7000000000001
 30
0
 11
87.85454943187159
 21
-38.7000000000001
 31
0
  0
LINE
  8
1
 62
7
 10
117.7545494318716
 20
-5.600000000000023
 30
0
 11
117.7545494318716
 21
-6
 31
0
  0
LINE
  8
1
 62
7
 10
117.1545494318717
 20
-5.600000000000023
 30
0
 11
117.1545494318717
 21
-6
 31
0
  0
LINE
  8
1
 62
7
 10
117.1545494318717
 20
-8.400000000000006
 30
0
 11
117.1545494318717
 21
-8
 31
0
  0
LINE
  8
1
 62
7
 10
116.0545494318717
 20
-7.300000000000011
 30
0
 11
116.4545494318717
 21
-7.300000000000011
 31
0
  0
LINE
  8
1
 62
7
 10
116.0545494318717
 20
-6.700000000000017
 30
0
 11
116.4545494318717
 21
-6.700000000000017
 31
0
  0
LINE
  8
1
 62
7
 10
115.9545494318717
 20
-6.800000000000011
 30
0
 11
115.9545494318717
 21
-7.200000000000017
 31
0
  0
LINE
  8
1
 62
7
 10
118.9545494318717
 20
-6.800000000000011
 30
0
 11
118.9545494318716
 21
-7.199999999999989
 31
0
  0
LINE
  8
1
 62
7
 10
117.2545494318716
 20
-8.5
 30
0
 11
117.6545494318717
 21
-8.5
 31
0
  0
LINE
  8
1
 62
7
 10
117.2545494318716
 20
-5.5
 30
0
 11
117.6545494318717
 21
-5.5
 31
0
  0
LINE
  8
1
 62
7
 10
117.7545494318716
 20
-8
 30
0
 11
117.7545494318716
 21
-8.400000000000034
 31
0
  0
LINE
  8
1
 62
7
 10
118.4604317848128
 20
-7.300000000000011
 30
0
 11
118.8545494318716
 21
-7.300000000000011
 31
0
  0
LINE
  8
1
 62
7
 10
118.4604317848128
 20
-6.700000000000017
 30
0
 11
118.8545494318716
 21
-6.700000000000017
 31
0
  0
LINE
  8
1
 62
7
 10
87.75454943187155
 20
-5.600000000000023
 30
0
 11
87.7545494318716
 21
-6
 31
0
  0
LINE
  8
1
 62
7
 10
87.15454943187169
 20
-5.600000000000023
 30
0
 11
87.15454943187169
 21
-6
 31
0
  0
LINE
  8
1
 62
7
 10
87.15454943187169
 20
-8.400000000000006
 30
0
 11
87.15454943187169
 21
-8
 31
0
  0
LINE
  8
1
 62
7
 10
86.05454943187161
 20
-7.300000000000011
 30
0
 11
86.45454943187161
 21
-7.300000000000011
 31
0
  0
LINE
  8
1
 62
7
 10
86.05454943187161
 20
-6.700000000000017
 30
0
 11
86.45454943187161
 21
-6.700000000000017
 31
0
  0
LINE
  8
1
 62
7
 10
85.95454943187161
 20
-6.800000000000011
 30
0
 11
85.95454943187161
 21
-7.200000000000017
 31
0
  0
LINE
  8
1
 62
7
 10
88.95454943187161
 20
-6.800000000000011
 30
0
 11
88.9545494318716
 21
-7.199999999999989
 31
0
  0
LINE
  8
1
 62
7
 10
87.2545494318716
 20
-8.5
 30
0
 11
87.65454943187169
 21
-8.5
 31
0
  0
LINE
  8
1
 62
7
 10
87.2545494318716
 20
-5.5
 30
0
 11
87.65454943187169
 21
-5.5
 31
0
  0
LINE
  8
1
 62
7
 10
87.7545494318716
 20
-8
 30
0
 11
87.75454943187155
 21
-8.399999999999977
 31
0
  0
LINE
  8
1
 62
7
 10
88.46043178481281
 20
-7.300000000000011
 30
0
 11
88.85454943187159
 21
-7.300000000000011
 31
0
  0
LINE
  8
1
 62
7
 10
88.46043178481281
 20
-6.700000000000017
 30
0
 11
88.85454943187159
 21
-6.700000000000017
 31
0
  0
LINE
  8
1
 62
7
 10
-85.72673051075196
 20
-40.30000000000001
 30
0
 11
-84.6454505681283
 21
-40.30000000000001
 31
0
  0
LINE
  8
1
 62
3
 10
80.4545494318716
 20
32.5
 30
0
 11
89.75454943187151
 21
32.5
 31
0
  0
LINE
  8
1
 62
3
 10
111.4545494318716
 20
-24
 30
0
 11
119.4545494318717
 21
-24
 31
0
  0
LINE
  8
1
 62
3
 10
87.45454943187161
 20
-30
 30
0
 11
87.45454943187161
 21
-18
 31
0
  0
LINE
  8
1
 62
7
 10
83.45454943187161
 20
48.5
 30
0
 11
83.45454943187161
 21
-48.5
 31
0
  0
LINE
  8
1
 62
7
 10
83.45454943187161
 20
-28
 30
0
 11
87.45454943187161
 21
-28
 31
0
  0
LINE
  8
1
 62
7
 10
84.95454943187161
 20
50
 30
0
 11
119.9545494318717
 21
50
 31
0
  0
LINE
  8
1
 62
3
 10
98.95802516474659
 20
11.30000000000001
 30
0
 11
105.9545494318716
 21
11.30000000000001
 31
0
  0
LINE
  8
1
 62
7
 10
121.4545494318716
 20
48.5
 30
0
 11
121.4545494318716
 21
-48.5
 31
0
  0
LINE
  8
1
 62
3
 10
87.45454943187161
 20
-3.25
 30
0
 11
87.45454943187161
 21
-10.75
 31
0
  0
LINE
  8
1
 62
3
 10
98.95802516474659
 20
-1.999999999999972
 30
0
 11
105.9545494318716
 21
-1.999999999999972
 31
0
  0
LINE
  8
1
 62
3
 10
117.4545494318717
 20
-3.25
 30
0
 11
117.4545494318717
 21
-10.75
 31
0
  0
LINE
  8
1
 62
3
 10
113.7101341353207
 20
-7
 30
0
 11
121.2045494318717
 21
-7
 31
0
  0
LINE
  8
1
 62
3
 10
97.95744526011779
 20
-17.30000000000001
 30
0
 11
106.9516536036254
 21
-17.30000000000001
 31
0
  0
LINE
  8
1
 62
7
 10
87.45454943187161
 20
-20
 30
0
 11
83.45454943187161
 21
-20
 31
0
  0
LINE
  8
1
 62
3
 10
117.4545494318717
 20
-18
 30
0
 11
117.4545494318717
 21
-30
 31
0
  0
LINE
  8
1
 62
3
 10
86.45454943187161
 20
-35.25
 30
0
 11
86.45454943187161
 21
-42.72784244866239
 31
0
  0
LINE
  8
1
 62
3
 10
114.7045494318716
 20
-39
 30
0
 11
122.2045494318717
 21
-39
 31
0
  0
LINE
  8
1
 62
3
 10
118.4545494318717
 20
-35.25
 30
0
 11
118.4545494318717
 21
-42.75000000000011
 31
0
  0
LINE
  8
1
 62
7
 10
84.95454943187161
 20
-50
 30
0
 11
119.9545494318717
 21
-50
 31
0
  0
LINE
  8
1
 62
7
 10
83.45454943187161
 20
-42
 30
0
 11
87.45454943187161
 21
-42
 31
0
  0
LINE
  8
1
 62
7
 10
91.45454943187161
 20
-46
 30
0
 11
91.45454943187161
 21
-50
 31
0
  0
LINE
  8
1
 62
7
 10
113.4545494318716
 20
-50
 30
0
 11
113.4545494318716
 21
-46
 31
0
  0
LINE
  8
1
 62
7
 10
117.4545494318717
 20
-42
 30
0
 11
121.4545494318716
 21
-42
 31
0
  0
LINE
  8
1
 62
3
 10
117.4545494318717
 20
-40.26523759228189
 30
0
 11
117.4545494318717
 21
-48
 31
0
  0
LINE
  8
1
 62
3
 10
111.4545494318716
 20
-46
 30
0
 11
119.4545494318717
 21
-46
 31
0
  0
LINE
  8
1
 62
3
 10
80.45454943187161
 20
-46
 30
0
 11
85.45454943187161
 21
-46
 31
0
  0
LINE
  8
1
 62
3
 10
87.45454943187161
 20
-40.7982997581766
 30
0
 11
87.45454943187161
 21
-48
 31
0
  0
LINE
  8
1
 62
7
 10
117.4545494318717
 20
-20
 30
0
 11
121.4545494318716
 21
-20
 31
0
  0
LINE
  8
1
 62
7
 10
117.4545494318717
 20
-28
 30
0
 11
121.4545494318716
 21
-28
 31
0
  0
LINE
  8
1
 62
3
 10
83.70454943187161
 20
-7
 30
0
 11
91.20454943187161
 21
-7
 31
0
  0
LINE
  8
1
 62
3
 10
90.36179148386151
 20
-34
 30
0
 11
96.1545494318716
 21
-34
 31
0
  0
LINE
  8
1
 62
7
 10
-83.6454505681283
 20
-41.99978233438486
 30
0
 11
-89.14545056812841
 21
-41.99978233438486
 31
0
  0
LINE
  8
1
 62
7
 10
-89.14545056812841
 20
-41.99978233438486
 30
0
 11
-89.1454505681283
 21
-27.99978233438489
 31
0
  0
LINE
  8
1
 62
7
 10
-84.1454505681283
 20
-39.80000000000001
 30
0
 11
-84.1454505681283
 21
-27.99978233438489
 31
0
  0
LINE
  8
1
 62
3
 10
-95.91445687727656
 20
-23.99978233438489
 30
0
 11
-80.10499315487908
 21
-23.99978233438489
 31
0
  0
LINE
  8
1
 62
7
 10
-83.6454505681283
 20
-27.99978233438489
 30
0
 11
-89.1454505681283
 21
-27.99978233438489
 31
0
  0
LINE
  8
1
 62
7
 10
-87.54545056812839
 20
-41.99978233438486
 30
0
 11
-87.54545056812839
 21
-27.99978233438489
 31
0
  0
LINE
  8
1
 62
3
 10
-96.03070293405887
 20
-46
 30
0
 11
-79.64000892774976
 21
-46
 31
0
  0
LINE
  8
1
 62
3
 10
-90.66490140024949
 20
-39
 30
0
 11
-84.41514630662772
 21
-39
 31
0
  0
LINE
  8
1
 62
7
 10
-83.6454505681283
 20
-27.99978233438489
 30
0
 11
-83.6454505681283
 21
-19.99978233438489
 31
0
  0
LINE
  8
1
 62
7
 10
-89.14545056812825
 20
-19.99978233438486
 30
0
 11
-83.6454505681283
 21
-19.99978233438489
 31
0
  0
LINE
  8
1
 62
3
 10
82.70454943187161
 20
-39.00000000000011
 30
0
 11
90.20454943187161
 21
-39
 31
0
  0
LINE
  8
1
 62
7
 10
-86.58228666548692
 20
-41.6886058383925
 30
0
 11
-87.43673499385362
 21
-41.74307023288765
 31
0
  0
LINE
  8
1
 62
7
 10
-86.58228666548692
 20
-36.31139416160738
 30
0
 11
-87.43673499385362
 21
-36.25692976711224
 31
0
  0
LINE
  8
1
 62
3
 10
89.75454943187151
 20
32.5
 30
0
 11
124.4545494318717
 21
32.5
 31
0
  0
LINE
  8
1
 62
3
 10
-63.93685537951379
 20
-34
 30
0
 11
-105.495371703775
 21
-34
 31
0
  0
ARC
  8
1
 62
7
 10
102.4545494318715
 20
32.49999999999591
 30
0
 40
15.00000000000404
 50
84.57024852980651
 51
96.25799940474722
  0
ARC
  8
1
 62
7
 10
102.4545494318717
 20
32.49999999999284
 30
0
 40
14.99999999999303
 50
264.5702485298021
 51
276.2579994047514
  0
ARC
  8
1
 62
7
 10
109.1216903201582
 20
22.82468437849519
 30
0
 40
1.499999999999874
 50
113.1662440113206
 51
45.97425304828219
  0
ARC
  8
1
 62
7
 10
109.1216903201582
 20
22.82468437849519
 30
0
 40
0.8299999999999806
 50
169.570248529802
 51
349.570248529799
  0
ARC
  8
1
 62
7
 10
95.78740854358499
 20
42.17531562150492
 30
0
 40
0.8300000000002037
 50
79.57024852980507
 51
259.5702485298008
  0
ARC
  8
1
 62
7
 10
95.78740854358499
 20
42.17531562150492
 30
0
 40
1.500000000000001
 50
23.16624401132678
 51
315.9742530482862
  0
ARC
  8
1
 62
2
 10
102.4545494318753
 20
32.50000000000119
 30
0
 40
11.75000000000401
 50
205.1007234232493
 51
224.6061065769597
  0
ARC
  8
1
 62
2
 10
102.4545494318692
 20
32.5000000000033
 30
0
 40
11.7500000000041
 50
294.1453436956404
 51
317.5528710436215
  0
ARC
  8
1
 62
2
 10
102.4545494318701
 20
32.49999999999943
 30
0
 40
11.75000000000153
 50
26.03591087683082
 51
44.12883063517779
  0
ARC
  8
1
 62
2
 10
102.4545494318716
 20
32.5
 30
0
 40
11.75000000000003
 50
111.0760478574857
 51
135.4514359609864
  0
ARC
  8
1
 62
7
 10
-90.54545056812812
 20
-7
 30
0
 40
4.999999999999736
 50
3.439812767515508
 51
29.11616583179595
  0
ARC
  8
1
 62
7
 10
-83.95216623297223
 20
-7
 30
0
 40
1.630135299472676
 50
169.3951937212566
 51
190.6048062787434
  0
ARC
  8
1
 62
7
 10
-90.54545056812812
 20
-7
 30
0
 40
4.999999999999661
 50
330.8838341682035
 51
356.5601872324845
  0
ARC
  8
1
 62
7
 10
117.4516082554011
 20
-40.00294117647059
 30
0
 40
0.7029473295325234
 50
0.2397298960812085
 51
89.76027010391822
  0
ARC
  8
1
 62
7
 10
119.4574906083423
 20
-40.00294117647059
 30
0
 40
0.7029473295325017
 50
89.76027010392632
 51
179.7602701039189
  0
ARC
  8
1
 62
7
 10
119.4574906083423
 20
-37.99705882352941
 30
0
 40
0.7029473295326228
 50
180.2397298960811
 51
270.2397298960737
  0
ARC
  8
1
 62
7
 10
117.4516082554011
 20
-37.99705882352941
 30
0
 40
0.7029473295325022
 50
270.2397298960818
 51
359.7602701039188
  0
ARC
  8
1
 62
7
 10
85.451608255401
 20
-40.0029411764707
 30
0
 40
0.7029473295326086
 50
0.2397298960811795
 51
89.76027010391707
  0
ARC
  8
1
 62
7
 10
87.4574906083422
 20
-40.0029411764707
 30
0
 40
0.7029473295325519
 50
89.76027010391707
 51
179.7602701039188
  0
ARC
  8
1
 62
7
 10
87.4574906083422
 20
-37.99705882352953
 30
0
 40
0.7029473295325234
 50
180.23972989608
 51
270.239729896083
  0
ARC
  8
1
 62
7
 10
85.451608255401
 20
-37.99705882352953
 30
0
 40
0.7029473295324951
 50
270.239729896083
 51
359.76027010392
  0
ARC
  8
1
 62
7
 10
116.4516082554011
 20
-8.002941176470586
 30
0
 40
0.7029473295325234
 50
0.2397298960806294
 51
89.7602701039182
  0
ARC
  8
1
 62
7
 10
118.4574906083423
 20
-8.002941176470586
 30
0
 40
0.7029473295324946
 50
89.76027010392632
 51
179.7602701039194
  0
ARC
  8
1
 62
7
 10
118.4574906083423
 20
-5.997058823529414
 30
0
 40
0.7029473295326228
 50
180.2397298960806
 51
270.2397298960736
  0
ARC
  8
1
 62
7
 10
116.4516082554011
 20
-5.997058823529414
 30
0
 40
0.7029473295325235
 50
270.2397298960818
 51
359.7602701039194
  0
ARC
  8
1
 62
7
 10
86.451608255401
 20
-8.002941176470586
 30
0
 40
0.7029473295326086
 50
0.2397298960806003
 51
89.76027010391704
  0
ARC
  8
1
 62
7
 10
88.4574906083422
 20
-8.002941176470586
 30
0
 40
0.7029473295324951
 50
89.76027010391704
 51
179.7602701039194
  0
ARC
  8
1
 62
7
 10
88.4574906083422
 20
-5.997058823529414
 30
0
 40
0.7029473295325234
 50
180.2397298960806
 51
270.239729896083
  0
ARC
  8
1
 62
7
 10
86.451608255401
 20
-5.997058823529414
 30
0
 40
0.7029473295325235
 50
270.239729896083
 51
359.7602701039194
  0
ARC
  8
1
 62
7
 10
117.4545494318717
 20
-24
 30
0
 40
4.000000000000222
 50
181.355782470379
 51
270
  0
ARC
  8
1
 62
7
 10
102.4545494318716
 20
-17.16821766561512
 30
0
 40
12.9999999999999
 50
327.8050344420641
 51
343.2209762704188
  0
ARC
  8
1
 62
7
 10
117.4545494318717
 20
-24
 30
0
 40
4.000000000000053
 50
112.5559005732173
 51
129.6702282421045
  0
ARC
  8
1
 62
7
 10
102.4545494318739
 20
-17.16821766561389
 30
0
 40
13.00000000000264
 50
196.7790237295835
 51
212.1949655579348
  0
ARC
  8
1
 62
7
 10
87.45454943187161
 20
-24
 30
0
 40
4
 50
270
 51
358.6442175296209
  0
ARC
  8
1
 62
7
 10
87.45454943187161
 20
-24
 30
0
 40
3.999999999999928
 50
50.32977175789681
 51
69.52276900774648
  0
ARC
  8
1
 62
7
 10
-90.54545056812839
 20
-38.99999999999994
 30
0
 40
4.999999999999992
 50
3.439812767515333
 51
29.1161658317943
  0
ARC
  8
1
 62
7
 10
-83.95216623297242
 20
-38.99999999999994
 30
0
 40
1.630135299472509
 50
169.3951937212555
 51
190.6048062787443
  0
ARC
  8
1
 62
7
 10
-90.54545056812839
 20
-38.99999999999994
 30
0
 40
5.000000000000012
 50
330.8838341682056
 51
356.5601872324848
  0
CIRCLE
  8
1
 62
7
 10
92.77923381036679
 20
25.83285911171333
 30
0
 40
1.000000000000071
  0
CIRCLE
  8
1
 62
7
 10
112.1298650533763
 20
39.16714088828684
 30
0
 40
0.9999999999999376
  0
CIRCLE
  8
1
 62
7
 10
102.4545494318716
 20
32.5
 30
0
 40
15.9999999999999
  0
CIRCLE
  8
1
 62
7
 10
102.4545494318716
 20
32.5
 30
0
 40
5
  0
CIRCLE
  8
1
 62
7
 10
102.4545494318716
 20
32.5
 30
0
 40
1.5
  0
CIRCLE
  8
1
 62
7
 10
102.4545494318716
 20
32.5
 30
0
 40
1
  0
CIRCLE
  8
1
 62
7
 10
102.4545494318716
 20
32.5
 30
0
 40
17
  0
CIRCLE
  8
1
 62
7
 10
102.4545494318716
 20
32.5
 30
0
 40
15.9999999999999
  0
CIRCLE
  8
1
 62
7
 10
102.4545494318716
 20
32.5
 30
0
 40
5
  0
CIRCLE
  8
1
 62
7
 10
102.4545494318716
 20
32.5
 30
0
 40
1.5
  0
CIRCLE
  8
1
 62
7
 10
102.4545494318716
 20
32.5
 30
0
 40
1
  0
CIRCLE
  8
1
 62
7
 10
102.4545494318716
 20
32.5
 30
0
 40
17
  0
CIRCLE
  8
1
 62
7
 10
-73.44545056812821
 20
-34
 30
0
 40
1.5
  0
CIRCLE
  8
1
 62
7
 10
118.4545494318717
 20
-39
 30
0
 40
2.75
  0
CIRCLE
  8
1
 62
7
 10
86.45454943187161
 20
-39.00000000000011
 30
0
 40
2.75
  0
CIRCLE
  8
1
 62
7
 10
117.4545494318717
 20
-7
 30
0
 40
2.7500000000001
  0
CIRCLE
  8
1
 62
7
 10
87.45454943187161
 20
-7
 30
0
 40
2.75
  0
CIRCLE
  8
1
 62
7
 10
102.4545494318716
 20
-34
 30
0
 40
4
  0
CIRCLE
  8
1
 62
7
 10
102.4545494318716
 20
11.30000000000001
 30
0
 40
2.5
  0
CIRCLE
  8
1
 62
7
 10
102.4545494318716
 20
-1.868217665615134
 30
0
 40
2.5
  0
CIRCLE
  8
1
 62
7
 10
102.4545494318716
 20
-17.16821766561512
 30
0
 40
3
  0
CIRCLE
  8
1
 62
7
 10
87.45454943187161
 20
-24
 30
0
 40
1.5
  0
CIRCLE
  8
1
 62
2
 10
87.45454943187161
 20
-24
 30
0
 40
2
  0
CIRCLE
  8
1
 62
7
 10
117.4545494318717
 20
-24
 30
0
 40
1.5
  0
CIRCLE
  8
1
 62
2
 10
117.4545494318717
 20
-24
 30
0
 40
2
  0
CIRCLE
  8
1
 62
7
 10
87.45454943187161
 20
-46
 30
0
 40
1.5
  0
CIRCLE
  8
1
 62
2
 10
87.45454943187161
 20
-46
 30
0
 40
2
  0
CIRCLE
  8
1
 62
7
 10
117.4545494318717
 20
-46
 30
0
 40
1.5
  0
CIRCLE
  8
1
 62
2
 10
117.4545494318717
 20
-46
 30
0
 40
2
  0
CIRCLE
  8
1
 62
7
 10
102.4545494318716
 20
-34
 30
0
 40
5.5
  0
CIRCLE
  8
1
 62
7
 10
102.4545494318716
 20
-34
 30
0
 40
6.299999999999997
  0
POLYLINE
  8
1
 62
2
 66
1
  0
VERTEX
  8
1
 10
108.6274296777893
 20
25.4877601980092
 30
0
 42
0.0008805711202828537
  0
VERTEX
  8
1
 10
108.6697011450123
 20
25.47568941581821
 30
0
 42
0.002644711703704347
  0
VERTEX
  8
1
 10
108.7120210689899
 20
25.46392686250955
 30
0
 42
0.004422816416742837
  0
VERTEX
  8
1
 10
108.7544379064763
 20
25.45278076696554
 30
0
 42
0.006215752142697223
  0
VERTEX
  8
1
 10
108.7970001142263
 20
25.44255935806852
 30
0
 42
0.008023928025068735
  0
VERTEX
  8
1
 10
108.8397561489942
 20
25.43357086470081
 30
0
 42
0.02850467902962033
  0
VERTEX
  8
1
 10
108.9968414163224
 20
25.41236757023205
 30
0
 42
0.0106856814059347
  0
VERTEX
  8
1
 10
109.1559196906984
 20
25.40348111713119
 30
0
 42
0.002898486791578386
  0
VERTEX
  8
1
 10
109.3157884307761
 20
25.39890176236344
 30
0
 42
-0.01213382583588194
  0
VERTEX
  8
1
 10
109.4752450952092
 20
25.39061976289398
 30
0
 42
-0.02493838620170218
  0
VERTEX
  8
1
 10
109.6330871426516
 20
25.37062537568801
 30
0
 42
-0.02102005308160874
  0
VERTEX
  8
1
 10
109.7717418768371
 20
25.33863480838233
 30
0
 42
-0.007571192884206801
  0
VERTEX
  8
1
 10
109.9091115073026
 20
25.29856898975876
 30
0
 42
0.005633645166474602
  0
VERTEX
  8
1
 10
110.0461491561389
 20
25.2580218559763
 30
0
 42
0.01907355029078939
  0
VERTEX
  8
1
 10
110.1838079454369
 20
25.22458734319396
 30
0
 42
0.03322122341371199
  0
VERTEX
  8
1
 10
110.3230409972872
 20
25.20585938757074
 30
0
 42
0.01516070082921103
  0
VERTEX
  8
1
 10
110.3722396398933
 20
25.20403976455993
 30
0
 42
0.00696665523005704
  0
VERTEX
  8
1
 10
110.4216853239163
 20
25.20439992272483
 30
0
 42
0.009479313839453789
  0
VERTEX
  8
1
 10
110.4713162890022
 20
25.20639491677152
 30
0
 42
0.001394941718137887
  0
VERTEX
  8
1
 10
110.5210707747964
 20
25.20947980140606
 30
0
 42
0.00401156388969296
  0
VERTEX
  8
1
 10
110.570887020945
 20
25.21310963133453
 30
0
  0
SEQEND
  8
1
  0
POLYLINE
  8
1
 62
2
 66
1
  0
VERTEX
  8
1
 10
98.10667387005741
 20
40.74703016311844
 30
0
 42
-0.003029259462718915
  0
VERTEX
  8
1
 10
98.0866862762674
 20
40.79783470925363
 30
0
 42
-0.009295256951832845
  0
VERTEX
  8
1
 10
98.06815999846003
 20
40.84853872213034
 30
0
 42
-0.01615836029120064
  0
VERTEX
  8
1
 10
98.05255635261797
 20
40.89904166849007
 30
0
 42
-0.02388695630760805
  0
VERTEX
  8
1
 10
98.04133665472386
 20
40.94924301507437
 30
0
 42
-0.03239089993771604
  0
VERTEX
  8
1
 10
98.03596222076037
 20
40.99904222862472
 30
0
 42
-0.08465012033187594
  0
VERTEX
  8
1
 10
98.05534859636651
 20
41.1347212107567
 30
0
 42
-0.04413284591477585
  0
VERTEX
  8
1
 10
98.11152174766927
 20
41.26817299895082
 30
0
 42
-0.01108135967760365
  0
VERTEX
  8
1
 10
98.18517101939172
 20
41.40102969978691
 30
0
 42
0.01810236028227416
  0
VERTEX
  8
1
 10
98.25698575625691
 20
41.53492341984479
 30
0
 42
0.05045145884016313
  0
VERTEX
  8
1
 10
98.30765530298798
 20
41.67148626570429
 30
0
 42
0.04232233621323542
  0
VERTEX
  8
1
 10
98.31974345652874
 20
41.74195827502605
 30
0
 42
0.01984777916926895
  0
VERTEX
  8
1
 10
98.3230148224965
 20
41.81365924880907
 30
0
 42
0.03063717158841279
  0
VERTEX
  8
1
 10
98.31896653921841
 20
41.88672158335223
 30
0
 42
0.007510884164143273
  0
VERTEX
  8
1
 10
98.30909574502155
 20
41.96127767495436
 30
0
 42
0.01879300864610916
  0
VERTEX
  8
1
 10
98.294899578233
 20
42.03745991991434
 30
0
 42
0.002259050056868421
  0
VERTEX
  8
1
 10
98.27465809718872
 20
42.13140944438235
 30
0
 42
-0.01159081285307809
  0
VERTEX
  8
1
 10
98.25624033351907
 20
42.22525438502633
 30
0
 42
-0.02783487577107404
  0
VERTEX
  8
1
 10
98.24560131778564
 20
42.31632137527413
 30
0
 42
-0.04946532788465916
  0
VERTEX
  8
1
 10
98.24869608055003
 20
42.40193704855351
 30
0
 42
-0.07557294823314063
  0
VERTEX
  8
1
 10
98.27147965237377
 20
42.47942803829233
 30
0
 42
-0.05491221947983341
  0
VERTEX
  8
1
 10
98.30276014750993
 20
42.52923826729511
 30
0
 42
-0.03872474018256909
  0
VERTEX
  8
1
 10
98.34476431842884
 20
42.57453299510123
 30
0
 42
-0.02477074001709369
  0
VERTEX
  8
1
 10
98.39481124618484
 20
42.61644109700986
 30
0
 42
-0.01364045017706054
  0
VERTEX
  8
1
 10
98.4502200118322
 20
42.65609144832016
 30
0
 42
-0.004344365109695244
  0
VERTEX
  8
1
 10
98.50830969642526
 20
42.6946129243313
 30
0
  0
SEQEND
  8
1
  0
POLYLINE
  8
1
 62
2
 66
1
  0
VERTEX
  8
1
 10
-42.19768713624553
 20
34.16000000000003
 30
0
 42
0.004627892300625121
  0
VERTEX
  8
1
 10
-42.30981424864181
 20
33.99161622019884
 30
0
 42
0.01432161089923761
  0
VERTEX
  8
1
 10
-42.41306845391221
 20
33.82304402115226
 30
0
 42
0.02620784398769353
  0
VERTEX
  8
1
 10
-42.49857684493087
 20
33.65409498361485
 30
0
 42
0.04090712517605396
  0
VERTEX
  8
1
 10
-42.5574665145719
 20
33.48458068834125
 30
0
 42
0.05807845058508018
  0
VERTEX
  8
1
 10
-42.58086455570943
 20
33.31431271608602
 30
0
 42
0.06215230223738522
  0
VERTEX
  8
1
 10
-42.56363294818081
 20
33.14859265971606
 30
0
 42
0.04094631376563207
  0
VERTEX
  8
1
 10
-42.51070833121553
 20
32.98314439371367
 30
0
 42
0.03762017696353737
  0
VERTEX
  8
1
 10
-42.42808177606817
 20
32.81912488428766
 30
0
 42
0.0203101865874324
  0
VERTEX
  8
1
 10
-42.32174435399331
 20
32.65769109764684
 30
0
 42
0.02175284297821673
  0
VERTEX
  8
1
 10
-42.19768713624553
 20
32.5
 30
0
 42
0.005899236995797911
  0
VERTEX
  8
1
 10
-42.05351415419325
 20
32.33624207193615
 30
0
 42
-0.006290958371966387
  0
VERTEX
  8
1
 10
-41.91153710644069
 20
32.17646288339154
 30
0
 42
-0.02391488501226315
  0
VERTEX
  8
1
 10
-41.78737625193129
 20
32.01903318449647
 30
0
 42
-0.04938818170599817
  0
VERTEX
  8
1
 10
-41.6966518496084
 20
31.86232372538119
 30
0
 42
-0.08501367003322571
  0
VERTEX
  8
1
 10
-41.65498415841544
 20
31.704705256176
 30
0
 42
-0.09457323444288891
  0
VERTEX
  8
1
 10
-41.67626577305757
 20
31.53518870020005
 30
0
 42
-0.05996756665695975
  0
VERTEX
  8
1
 10
-41.75572004164896
 20
31.3633891473846
 30
0
 42
-0.03390202050799477
  0
VERTEX
  8
1
 10
-41.87880380070229
 20
31.18987734693955
 30
0
 42
-0.01714841413814078
  0
VERTEX
  8
1
 10
-42.03097388673024
 20
31.01522404807476
 30
0
 42
-0.005242237567674846
  0
VERTEX
  8
1
 10
-42.19768713624553
 20
30.84000000000009
 30
0
  0
SEQEND
  8
1
  0
POLYLINE
  8
1
 62
2
 66
1
  0
VERTEX
  8
1
 10
-28.94996726624335
 20
34.16000000000003
 30
0
 42
0.004627892300650212
  0
VERTEX
  8
1
 10
-29.06209437863962
 20
33.99161622019885
 30
0
 42
0.01432161089922473
  0
VERTEX
  8
1
 10
-29.16534858391001
 20
33.82304402115226
 30
0
 42
0.02620784398768975
  0
VERTEX
  8
1
 10
-29.25085697492867
 20
33.65409498361485
 30
0
 42
0.04090712517606886
  0
VERTEX
  8
1
 10
-29.30974664456969
 20
33.48458068834125
 30
0
 42
0.05807845058503473
  0
VERTEX
  8
1
 10
-29.33314468570723
 20
33.31431271608602
 30
0
 42
0.06215230223741888
  0
VERTEX
  8
1
 10
-29.31591307817861
 20
33.14859265971604
 30
0
 42
0.04094631376559332
  0
VERTEX
  8
1
 10
-29.26298846121334
 20
32.98314439371365
 30
0
 42
0.03762017696359669
  0
VERTEX
  8
1
 10
-29.18036190606599
 20
32.81912488428765
 30
0
 42
0.02031018658737348
  0
VERTEX
  8
1
 10
-29.07402448399114
 20
32.65769109764683
 30
0
 42
0.02175284297830195
  0
VERTEX
  8
1
 10
-28.94996726624335
 20
32.5
 30
0
 42
0.00589923699573718
  0
VERTEX
  8
1
 10
-28.80579428419104
 20
32.33624207193615
 30
0
 42
-0.006290958371956173
  0
VERTEX
  8
1
 10
-28.66381723643846
 20
32.17646288339154
 30
0
 42
-0.02391488501226881
  0
VERTEX
  8
1
 10
-28.53965638192902
 20
32.01903318449646
 30
0
 42
-0.04938818170597524
  0
VERTEX
  8
1
 10
-28.44893197960611
 20
31.86232372538119
 30
0
 42
-0.0850136700332606
  0
VERTEX
  8
1
 10
-28.40726428841312
 20
31.704705256176
 30
0
 42
-0.09457323444292398
  0
VERTEX
  8
1
 10
-28.42854590305525
 20
31.53518870020003
 30
0
 42
-0.05996756665692521
  0
VERTEX
  8
1
 10
-28.50800017164665
 20
31.36338914738457
 30
0
 42
-0.03390202050799521
  0
VERTEX
  8
1
 10
-28.63108393070002
 20
31.18987734693949
 30
0
 42
-0.01714841413816977
  0
VERTEX
  8
1
 10
-28.78325401672802
 20
31.01522404807466
 30
0
 42
-0.005242237567706044
  0
VERTEX
  8
1
 10
-28.94996726624335
 20
30.83999999999997
 30
0
  0
SEQEND
  8
1
  0
ARC
  8
1
 62
7
 10
-48.27150387007522
 20
34.66000000000003
 30
0
 40
0.500000000000029
 50
202.2174691218171
 51
270
  0
ARC
  8
1
 62
7
 10
-48.27150387007514
 20
30.34000000000009
 30
0
 40
0.5
 50
90
 51
157.7825308781822
  0
ARC
  8
1
 62
7
 10
-54.10793528536014
 20
23.49468437849521
 30
0
 40
1.5
 50
270
 51
337.7825308781746
  0
ARC
  8
1
 62
7
 10
-54.10793528536014
 20
41.50531562150491
 30
0
 40
1.500000000000056
 50
22.2174691218293
 51
90
  0
ARC
  8
1
 62
7
 10
-54.51588763371653
 20
40.64531562150484
 30
0
 40
0.6999999999999307
 50
45.63354565636069
 51
90
  0
ARC
  8
1
 62
7
 10
-54.51588763371653
 20
24.35468437849522
 30
0
 40
0.6999999999999922
 50
270
 51
314.3664543436354
  0
ARC
  8
1
 62
7
 10
-49.03221650481844
 20
33.5
 30
0
 40
1.000000000000067
 50
225.6335456563425
 51
270
  0
ARC
  8
1
 62
7
 10
-49.03221650481844
 20
31.5
 30
0
 40
1
 50
90
 51
134.3664543436553
  0
ARC
  8
1
 62
7
 10
-44.55955627675733
 20
34.36000000000001
 30
0
 40
0.1999999999999744
 50
270
 51
3.645191185459635
  0
ARC
  8
1
 62
7
 10
-48.01149139265245
 20
37.06000000000012
 30
0
 40
0.5
 50
90
 51
177.2795508940625
  0
ARC
  8
1
 62
7
 10
-44.98821540526453
 20
37.06000000000012
 30
0
 40
0.5000000000000515
 50
2.720449105937282
 51
90
  0
ARC
  8
1
 62
7
 10
-48.44015052115974
 20
34.36000000000001
 30
0
 40
0.2000000000000418
 50
176.3548088145397
 51
192.3470653506466
  0
ARC
  8
1
 62
7
 10
-57.44545056812821
 20
29.25443396226405
 30
0
 40
0.9999999999999873
 50
284.1887607106474
 51
0
  0
ARC
  8
1
 62
7
 10
-57.44545056812821
 20
35.7455660377359
 30
0
 40
1
 50
0
 51
75.81123928935085
  0
ARC
  8
1
 62
7
 10
-86.0454505681284
 20
48
 30
0
 40
1.5
 50
90
 51
180
  0
ARC
  8
1
 62
7
 10
-86.0454505681284
 20
16.99999999999994
 30
0
 40
1.5
 50
180
 51
270
  0
ARC
  8
1
 62
7
 10
-100.8454505681283
 20
48.5
 30
0
 40
1.5
 50
90
 51
180
  0
ARC
  8
1
 62
7
 10
-87.44545056812821
 20
-9.643450763078533
 30
0
 40
0.09999999999990905
 50
180
 51
275.0000000000779
  0
ARC
  8
1
 62
7
 10
-87.44545056812821
 20
-4.356549236921467
 30
0
 40
0.1000000000000072
 50
84.99999999992211
 51
180
  0
ARC
  8
1
 62
7
 10
-86.6140932022562
 20
-9.189618519697206
 30
0
 40
0.5000000000000155
 50
273.6472232847663
 51
330.8838341682045
  0
ARC
  8
1
 62
7
 10
-86.6140932022562
 20
-4.810381480302794
 30
0
 40
0.5000000000000373
 50
29.11616583178974
 51
86.35277671523369
  0
ARC
  8
1
 62
7
 10
118.2545494318716
 20
-37.59999999999991
 30
0
 40
0.09999999999990905
 50
90
 51
180
  0
ARC
  8
1
 62
7
 10
118.6545494318717
 20
-37.60000000000002
 30
0
 40
0.09999999999989484
 50
0
 51
90
  0
ARC
  8
1
 62
7
 10
119.8545494318716
 20
-38.80000000000001
 30
0
 40
0.1000000000000938
 50
0
 51
90
  0
ARC
  8
1
 62
7
 10
119.8545494318716
 20
-39.19999999999999
 30
0
 40
0.1000000000000227
 50
270
 51
0
  0
ARC
  8
1
 62
7
 10
118.6545494318717
 20
-40.39999999999998
 30
0
 40
0.1000000000000227
 50
270
 51
0
  0
ARC
  8
1
 62
7
 10
118.2545494318716
 20
-40.39999999999992
 30
0
 40
0.09999999999989484
 50
180
 51
270
  0
ARC
  8
1
 62
7
 10
117.0545494318717
 20
-39.19999999999999
 30
0
 40
0.1000000000000085
 50
180
 51
270
  0
ARC
  8
1
 62
7
 10
117.0545494318717
 20
-38.80000000000001
 30
0
 40
0.1000000000000227
 50
90
 51
180
  0
ARC
  8
1
 62
7
 10
86.25454943187155
 20
-37.60000000000002
 30
0
 40
0.09999999999991616
 50
90
 51
180
  0
ARC
  8
1
 62
7
 10
86.65454943187169
 20
-37.60000000000008
 30
0
 40
0.09999999999986642
 50
0
 51
90
  0
ARC
  8
1
 62
7
 10
87.85454943187159
 20
-38.80000000000007
 30
0
 40
0.1000000000000227
 50
0
 51
90
  0
ARC
  8
1
 62
7
 10
87.85454943187159
 20
-39.2000000000001
 30
0
 40
0.09999999999996589
 50
270
 51
0
  0
ARC
  8
1
 62
7
 10
86.65454943187169
 20
-40.40000000000009
 30
0
 40
0.1000000000000156
 50
270
 51
0
  0
ARC
  8
1
 62
7
 10
86.25454943187155
 20
-40.39999999999998
 30
0
 40
0.09999999999986642
 50
180
 51
270
  0
ARC
  8
1
 62
7
 10
85.05454943187161
 20
-39.2000000000001
 30
0
 40
0.09999999999999432
 50
180
 51
270
  0
ARC
  8
1
 62
7
 10
85.05454943187161
 20
-38.80000000000007
 30
0
 40
0.09999999999996589
 50
90
 51
180
  0
ARC
  8
1
 62
7
 10
117.2545494318716
 20
-5.600000000000023
 30
0
 40
0.1000000000000227
 50
90
 51
180
  0
ARC
  8
1
 62
7
 10
117.6545494318717
 20
-5.600000000000023
 30
0
 40
0.09999999999989484
 50
0
 51
90
  0
ARC
  8
1
 62
7
 10
118.8545494318716
 20
-6.800000000000011
 30
0
 40
0.1000000000000938
 50
0
 51
90
  0
ARC
  8
1
 62
7
 10
118.8545494318716
 20
-7.200000000000017
 30
0
 40
0.09999999999999432
 50
270
 51
0
  0
ARC
  8
1
 62
7
 10
117.6545494318717
 20
-8.400000000000006
 30
0
 40
0.09999999999999432
 50
270
 51
0
  0
ARC
  8
1
 62
7
 10
117.2545494318716
 20
-8.400000000000034
 30
0
 40
0.09999999999989484
 50
180
 51
270
  0
ARC
  8
1
 62
7
 10
116.0545494318717
 20
-7.199999999999989
 30
0
 40
0.1000000000000085
 50
180
 51
270
  0
ARC
  8
1
 62
7
 10
116.0545494318717
 20
-6.800000000000011
 30
0
 40
0.09999999999999432
 50
90
 51
180
  0
ARC
  8
1
 62
7
 10
87.25454943187155
 20
-5.600000000000023
 30
0
 40
0.1000000000000227
 50
90
 51
180
  0
ARC
  8
1
 62
7
 10
87.65454943187169
 20
-5.600000000000023
 30
0
 40
0.09999999999986642
 50
0
 51
90
  0
ARC
  8
1
 62
7
 10
88.85454943187159
 20
-6.800000000000011
 30
0
 40
0.1000000000000227
 50
0
 51
90
  0
ARC
  8
1
 62
7
 10
88.85454943187159
 20
-7.200000000000017
 30
0
 40
0.09999999999999432
 50
270
 51
0
  0
ARC
  8
1
 62
7
 10
87.65454943187169
 20
-8.400000000000006
 30
0
 40
0.09999999999999432
 50
270
 51
0
  0
ARC
  8
1
 62
7
 10
87.25454943187155
 20
-8.399999999999977
 30
0
 40
0.09999999999986642
 50
180
 51
270
  0
ARC
  8
1
 62
7
 10
86.05454943187174
 20
-7.199999999999989
 30
0
 40
0.1000000000001222
 50
180
 51
270
  0
ARC
  8
1
 62
7
 10
86.05454943187161
 20
-6.800000000000011
 30
0
 40
0.09999999999999432
 50
90
 51
180
  0
ARC
  8
1
 62
7
 10
119.9545494318717
 20
48.5
 30
0
 40
1.499999999999901
 50
0
 51
90
  0
ARC
  8
1
 62
7
 10
84.95454943187161
 20
48.5
 30
0
 40
1.5
 50
90
 51
180
  0
ARC
  8
1
 62
7
 10
87.45454943187161
 20
-24
 30
0
 40
3.999999999999976
 50
69.52276900774648
 51
90
  0
ARC
  8
1
 62
7
 10
117.4545494318717
 20
-24
 30
0
 40
4
 50
90
 51
112.5559005732173
  0
ARC
  8
1
 62
7
 10
119.9545494318717
 20
-48.5
 30
0
 40
1.5
 50
270
 51
0
  0
ARC
  8
1
 62
7
 10
84.95454943187161
 20
-48.5
 30
0
 40
1.5
 50
180
 51
270
  0
ARC
  8
1
 62
7
 10
87.45454943187161
 20
-46
 30
0
 40
4
 50
0
 51
90
  0
ARC
  8
1
 62
7
 10
117.4545494318717
 20
-46
 30
0
 40
4
 50
90
 51
180
  0
ARC
  8
1
 62
7
 10
-100.8454505681283
 20
-48.5
 30
0
 40
1.5
 50
180
 51
270
  0
ARC
  8
1
 62
7
 10
-84.64500452846386
 20
-39.79894741542859
 30
0
 40
0.5
 50
270
 51
0
  0
ARC
  8
1
 62
7
 10
-87.44545056812839
 20
-41.64345076307848
 30
0
 40
0.09999999999999432
 50
180
 51
275.0000000000046
  0
ARC
  8
1
 62
7
 10
-87.44545056812839
 20
-36.35654923692141
 30
0
 40
0.09999999999999609
 50
84.99999999999511
 51
180
  0
ARC
  8
1
 62
7
 10
-86.61409320225602
 20
-41.18961851969715
 30
0
 40
0.5000000000000175
 50
273.6472232847827
 51
330.8838341682007
  0
ARC
  8
1
 62
7
 10
-86.61409320225602
 20
-36.81038148030274
 30
0
 40
0.5000000000000153
 50
29.11616583179859
 51
86.35277671521742
  0
LINE
  8
1
 62
2
 10
64.19825078252706
 20
60
 30
0
 11
-5.068672246160943
 21
60
 31
0
  0
LINE
  8
1
 62
2
 10
-5.068672246160943
 20
60
 30
0
 11
-19.90867224616098
 21
34.16000000000003
 31
0
  0
SOLID
  8
1
 62
2
 10
-18.56518900030549
 20
37.42456343552826
 30
0
 11
-17.76603589074248
 21
36.96560708313216
 31
0
 12
-19.90867224616098
 22
34.16000000000003
 32
0
 13
-19.90867224616098
 23
34.16000000000003
 33
0
  0
LINE
  8
1
 62
2
 10
-60.37132662192234
 20
5.499999999999943
 30
0
 11
-84.58175552267558
 21
5.499999999999943
 31
0
  0
LINE
  8
1
 62
2
 10
-84.58175552267558
 20
5.499999999999943
 30
0
 11
-78.14219508012157
 21
15.49999999999994
 31
0
  0
SOLID
  8
1
 62
2
 10
-79.64972657509568
 20
12.30787367916874
 30
0
 11
-80.4245417712654
 21
12.80682060792316
 31
0
 12
-78.14219508012157
 22
15.49999999999994
 32
0
 13
-78.14219508012157
 23
15.49999999999994
 33
0
  0
TEXT
  8
1
 62
2
 10
-4.059215497707964
 20
53.84007951662431
 30
0
 40
3.5
  1
UL1007 AWG22
 41
0.9
 73
2
 11
-4.059215497707964
 21
55.59007951662431
 31
0
  0
TEXT
  8
1
 62
2
 10
-3.476103327509986
 20
60.83742555899988
 30
0
 40
3.5
  1
LEAD WIRES (RED,BLACK)
 41
0.9
 73
2
 11
-3.476103327509986
 21
62.58742555899988
 31
0
  0
TEXT
  8
1
 62
2
 10
-140.25
 20
93.5
 30
0
 40
5
  1
DME34SL
 41
0.9
 72
1
 73
2
 11
-124.5
 21
96
 31
0
  0
TEXT
  8
1
 62
2
 10
-80.53134709453926
 20
6.249461668913966
 30
0
 40
3
  1
NAME PLATE
 41
0.6300000000000001
 72
1
 73
2
 11
-71.08134709453925
 21
7.749461668913966
 31
0
  0
TEXT
  8
1
 62
2
 10
-54.57170209393243
 20
55.29896330718409
 30
0
 40
3.2
  1
(0.063)
 41
0.6300000000000001
 72
1
 73
2
 11
-47.51570209393243
 21
56.89896330718409
 31
0
  0
TEXT
  8
1
 62
2
 10
-86.7698452612506
 20
67.80804654405068
 30
0
 40
3.2
  1
(1.744)
 41
0.6300000000000001
 72
1
 73
2
 11
-79.7138452612506
 21
69.40804654405069
 31
0
  0
TEXT
  8
1
 62
2
 10
-37.86668365692439
 20
-6.50000000000006
 30
0
 40
3.2
  1
(11.811   )
 41
0.6300000000000001
 72
1
 73
2
 11
-26.77868365692439
 21
-4.900000000000061
 31
0
  0
TEXT
  8
1
 62
2
 10
-14.00116419563753
 20
6.410717045350986
 30
0
 40
3.2
  1
(0.118)
 41
0.6300000000000001
 72
1
 73
2
 11
-6.945164195637524
 21
8.010717045350987
 31
0
  0
TEXT
  8
1
 62
2
 10
-31.85570732549209
 20
21.412
 30
0
 40
3.2
  1
(1.339DIA.)
 50
90
 41
0.6300000000000001
 72
1
 73
2
 11
-33.45570732549209
 21
32.5
 31
0
  0
TEXT
  8
1
 62
2
 10
-26.50531095234837
 20
-4.700000000000061
 30
0
 40
2
  1
+1.181
 41
0.63
  0
TEXT
  8
1
 62
2
 10
-26.50531095234837
 20
-7.10000000000006
 30
0
 40
2
  1
 0
 41
0.63
  0
TEXT
  8
1
 62
2
 10
-68.70844567096228
 20
-64.2010366928159
 30
0
 40
3.2
  1
(0.236)
 41
0.6300000000000001
 72
1
 73
2
 11
-61.65244567096228
 21
-62.60103669281591
 31
0
  0
TEXT
  8
1
 62
2
 10
-82.26787980363528
 20
-76.20103669281586
 30
0
 40
3.2
  1
(0.638)
 41
0.6300000000000001
 72
1
 73
2
 11
-75.21187980363528
 21
-74.60103669281585
 31
0
  0
TEXT
  8
1
 62
2
 10
-100.2678798036353
 20
-76.20103669281586
 30
0
 40
3.2
  1
(0.736)
 41
0.6300000000000001
 72
1
 73
2
 11
-93.21187980363528
 21
-74.60103669281585
 31
0
  0
TEXT
  8
1
 62
2
 10
-44.07310093214427
 20
-23.99339821528707
 30
0
 40
3.5
  1
(0.118DIA.     HOLE)
 41
0.468
 73
2
 11
-44.07310093214427
 21
-22.24339821528707
 31
0
  0
TEXT
  8
1
 62
2
 10
-47.44545056812812
 20
-66.28854714371258
 30
0
 40
3.2
  1
(0.315DIA.      )
 50
90
 41
0.5850000000000001
 72
1
 73
2
 11
-49.04545056812812
 21
-50.37654714371257
 31
0
  0
TEXT
  8
1
 62
2
 10
-32.67363731869113
 20
-22.04339821528707
 30
0
 40
2
  1
+0.00394
 41
0.45
  0
TEXT
  8
1
 62
2
 10
-32.67363731869113
 20
-24.44339821528707
 30
0
 40
2
  1
 0
 41
0.45
  0
TEXT
  8
1
 62
2
 10
-49.24545056812812
 20
-49.02137782119907
 30
0
 40
2
  1
 0
 50
90
 41
0.5850000000000001
  0
TEXT
  8
1
 62
2
 10
-46.84545056812812
 20
-49.02137782119907
 30
0
 40
2
  1
-0.000787
 50
90
 41
0.5850000000000001
  0
TEXT
  8
1
 62
2
 10
147.0520156590621
 20
-36.15430190324949
 30
0
 40
2
  1
%%p0.0118
 50
90
 41
0.63
 72
1
 73
2
 11
146.0520156590621
 21
-30.48430190324949
 31
0
  0
TEXT
  8
1
 62
2
 10
100.1390799371887
 20
-74.60130188074081
 30
0
 40
2
  1
%%p0.0118
 41
0.63
 72
1
 73
2
 11
105.8090799371887
 21
-73.60130188074081
 31
0
  0
TEXT
  8
1
 62
2
 10
9.702062155310891
 20
-70.82622100642161
 30
0
 40
3.5
  1
(4-M4 DEPTH 0.236MAX)
 41
0.675
 73
2
 11
9.702062155310891
 21
-69.07622100642161
 31
0
  0
TEXT
  8
1
 62
2
 10
-108.1479843409378
 20
-6.720024752687067
 30
0
 40
3.2
  1
(3.937)
 50
90
 41
0.6300000000000001
 72
1
 73
2
 11
-109.7479843409378
 21
0.335975247312934
 31
0
  0
TEXT
  8
1
 62
2
 10
159.6520156590621
 20
-42.056
 30
0
 40
3.2
  1
(1.181)
 50
90
 41
0.6300000000000001
 72
1
 73
2
 11
158.0520156590621
 21
-35
 31
0
  0
TEXT
  8
1
 62
2
 10
135.6520156590621
 20
-42.056
 30
0
 40
3.2
  1
(0.551)
 50
90
 41
0.6300000000000001
 72
1
 73
2
 11
134.0520156590621
 21
-35
 31
0
  0
TEXT
  8
1
 62
2
 10
147.5644208912784
 20
-65.04878305744479
 30
0
 40
3.2
  1
(0.157)
 50
90
 41
0.6300000000000001
 72
1
 73
2
 11
145.9644208912784
 21
-57.99278305744479
 31
0
  0
TEXT
  8
1
 62
2
 10
147.6520156590621
 20
-46.08078305744479
 30
0
 40
3.2
  1
(0.866    )
 50
90
 41
0.6300000000000001
 72
1
 73
2
 11
146.0520156590621
 21
-34.99278305744479
 31
0
  0
TEXT
  8
1
 62
2
 10
77.56442089127843
 20
-34.54878305744479
 30
0
 40
3.2
  1
(0.472)
 50
90
 41
0.6300000000000001
 72
1
 73
2
 11
75.96442089127842
 21
-27.49278305744479
 31
0
  0
TEXT
  8
1
 62
2
 10
65.56442089127842
 20
-7.83189836856079
 30
0
 40
3.2
  1
(2.618)
 50
90
 41
0.6300000000000001
 72
1
 73
2
 11
63.96442089127842
 21
-0.7758983685607888
 31
0
  0
TEXT
  8
1
 62
2
 10
65.56442089127842
 20
-48.32389836856079
 30
0
 40
3.2
  1
(0.63)
 50
90
 41
0.6300000000000001
 72
1
 73
2
 11
63.96442089127842
 21
-42.27589836856079
 31
0
  0
TEXT
  8
1
 62
2
 10
95.24459878299341
 20
-64.20206144019991
 30
0
 40
3.2
  1
(0.866)
 41
0.6300000000000001
 72
1
 73
2
 11
102.3005987829934
 21
-62.60206144019991
 31
0
  0
TEXT
  8
1
 62
2
 10
91.21259878299341
 20
-75.20130188074081
 30
0
 40
3.2
  1
(1.181    )
 41
0.6300000000000001
 72
1
 73
2
 11
102.3005987829934
 21
-73.60130188074081
 31
0
  0
TEXT
  8
1
 62
2
 10
95.24459878299341
 20
-88.20206144019993
 30
0
 40
3.2
  1
(1.496)
 41
0.6300000000000001
 72
1
 73
2
 11
102.3005987829934
 21
-86.60206144019992
 31
0
  0
TEXT
  8
1
 62
2
 10
67.60533435522801
 20
-75.20130188074081
 30
0
 40
3.2
  1
(0.157)
 41
0.6300000000000001
 72
1
 73
2
 11
74.66133435522801
 21
-73.60130188074081
 31
0
  0
DIMENSION
  8
1
  6
CONTINUOUS
 62
2
  2
*D0
  3
DMST_1
 10
-56.4454505681282
 20
59.59636038091556
 30
0
 11
-47.68017724757443
 21
62.19636038091556
 31
0
 12
0
 22
0
 32
0
 70
0
  1
(<>
 13
-58.04545056812835
 23
49.5
 33
0
 14
-56.44545056812821
 24
35.7455660377359
 34
0
 53
0
  0
DIMENSION
  8
1
  6
CONTINUOUS
 62
2
  2
*D1
  3
DMST_2
 10
4.552004268605611
 20
-1.440335041579793
 30
0
 11
-26.74672314976137
 21
1.959664958420207
 31
0
 12
0
 22
0
 32
0
 70
0
  1
300
 13
-58.04545056812835
 23
15.49999999999994
 33
0
 14
4.552004268605614
 24
31.39999999999998
 34
0
 53
0
  0
DIMENSION
  8
1
  6
CONTINUOUS
 62
2
  2
*D2
  3
DMST_3
 10
1.552004268605618
 20
10.49999999999997
 30
0
 11
-7.316094167045446
 21
13.09999999999997
 31
0
 12
0
 22
0
 32
0
 70
0
  1
(<>
 13
4.552004268605614
 23
31.39999999999998
 33
0
 14
1.552004268605614
 24
30.83999999999997
 34
0
 53
0
  0
DIMENSION
  8
1
  6
CONTINUOUS
 62
2
  2
*D3
  3
DMST_4
 10
-36.03404379727844
 20
15.49999999999994
 30
0
 11
-38.63404379727844
 21
32.49999999999994
 31
0
 12
0
 22
0
 32
0
 70
1
  1
ƒÓ<>
 13
-58.04545056812835
 23
49.5
 33
0
 14
-58.04545056812835
 24
15.49999999999994
 34
0
 53
0
  0
DIMENSION
  8
1
  6
CONTINUOUS
 62
2
  2
*D4
  3
DMST_4
 10
-67.44545056812821
 20
-59.99917762258051
 30
0
 11
-61.81661176419529
 21
-57.39917762258051
 31
0
 12
0
 22
0
 32
0
 70
0
 13
-73.44545056812821
 23
-35.5
 33
0
 14
-67.44545056812821
 24
-38
 34
0
 53
0
  0
DIMENSION
  8
1
  6
CONTINUOUS
 62
2
  2
*D5
  3
DMST_5
 10
-52.42474494266911
 20
-38.00000000000001
 30
0
 11
-55.82474494266911
 21
-49.91284817199482
 31
0
 12
0
 22
0
 32
0
 70
0
  1
ƒÓ<>
 13
-67.44545056812821
 23
-30
 33
0
 14
-67.44545056812821
 24
-38
 34
0
 50
90
 53
0
  0
DIMENSION
  8
1
  6
CONTINUOUS
 62
2
  2
*D6
  3
DMST_4
 10
-67.44545056812821
 20
-72.0651551624796
 30
0
 11
-75.54545056812825
 21
-69.4651551624796
 31
0
 12
0
 22
0
 32
0
 70
0
 13
-83.6454505681283
 23
-50
 33
0
 14
-67.44545056812821
 24
-38
 34
0
 53
0
  0
DIMENSION
  8
1
  6
CONTINUOUS
 62
2
  2
*D7
  3
DMST_4
 10
-83.6454505681283
 20
-72.01514455194949
 30
0
 11
-92.99545056812829
 21
-69.4151445519495
 31
0
 12
0
 22
0
 32
0
 70
0
 13
-102.3454505681283
 23
-48.5
 33
0
 14
-83.6454505681283
 24
-50
 34
0
 53
0
  0
DIMENSION
  8
1
  6
CONTINUOUS
 62
2
  2
*D8
  3
DMST_4
 10
-112.381606091637
 20
-50
 30
0
 11
-114.981606091637
 21
4.440892098500626e-016
 31
0
 12
0
 22
0
 32
0
 70
0
 13
-100.8454505681283
 23
50
 33
0
 14
-100.8454505681283
 24
-50
 34
0
 50
90
 53
0
  0
DIMENSION
  8
1
  6
CONTINUOUS
 62
2
  2
*D9
  3
DMST_6
 10
117.4545494318717
 20
-70.98098862596869
 30
0
 11
102.4545494318717
 21
-68.3809886259687
 31
0
 12
0
 22
0
 32
0
 70
0
 13
87.45454943187161
 23
-48
 33
0
 14
117.4545494318717
 24
-48
 34
0
 53
0
  0
DIMENSION
  8
1
  6
CONTINUOUS
 62
2
  2
*D10
  3
DMST_3
 10
83.45454943187161
 20
-71.00220269295089
 30
0
 11
74.4498821697597
 21
-68.40220269295089
 31
0
 12
0
 22
0
 32
0
 70
0
  1
(<>
 13
87.45454943187161
 23
-48
 33
0
 14
83.45454943187161
 24
-48.5
 34
0
 53
0
  0
DIMENSION
  8
1
  6
CONTINUOUS
 62
2
  2
*D11
  3
DMST_3
 10
143.430794156185
 20
-50
 30
0
 11
140.830794156185
 21
-58.4552974957321
 31
0
 12
0
 22
0
 32
0
 70
0
  1
(<>
 13
119.4545494318717
 23
-46
 33
0
 14
119.9545494318717
 24
-50
 34
0
 50
90
 53
0
  0
DIMENSION
  8
1
  6
CONTINUOUS
 62
2
  2
*D12
  3
DMST_3
 10
155.340275668329
 20
-20
 30
0
 11
152.740275668329
 21
-35
 31
0
 12
0
 22
0
 32
0
 70
0
  1
(<>
 13
119.9545494318717
 23
-50
 33
0
 14
121.4545494318716
 24
-20
 34
0
 50
90
 53
0
  0
DIMENSION
  8
1
  6
CONTINUOUS
 62
2
  2
*D13
  3
DMST_6
 10
143.439812126686
 20
-24
 30
0
 11
140.839812126686
 21
-35
 31
0
 12
0
 22
0
 32
0
 70
0
 13
119.4545494318717
 23
-46
 33
0
 14
119.4545494318717
 24
-24
 34
0
 50
90
 53
0
  0
DIMENSION
  8
1
  6
CONTINUOUS
 62
2
  2
*D14
  3
DMST_3
 10
131.483623414956
 20
-28
 30
0
 11
128.883623414956
 21
-35
 31
0
 12
0
 22
0
 32
0
 70
0
  1
(<>
 13
121.4545494318716
 23
-42
 33
0
 14
121.4545494318716
 24
-28
 34
0
 50
90
 53
0
  0
DIMENSION
  8
1
  6
CONTINUOUS
 62
2
  2
*D15
  3
DMST_4
 10
73.3842531645668
 20
-34
 30
0
 11
70.78425316456681
 21
-27.8190469901436
 31
0
 12
0
 22
0
 32
0
 70
0
 13
89.45454943187161
 23
-46
 33
0
 14
96.1545494318716
 24
-34
 34
0
 50
90
 53
0
  0
DIMENSION
  8
1
  6
CONTINUOUS
 62
2
  2
*D16
  3
DMST_3
 10
61.4207864305562
 20
-34
 30
0
 11
58.8207864305562
 21
-42
 31
0
 12
0
 22
0
 32
0
 70
0
  1
(<>
 13
84.95454943187161
 23
-50
 33
0
 14
96.1545494318716
 24
-34
 34
0
 50
90
 53
0
  0
DIMENSION
  8
1
  6
CONTINUOUS
 62
2
  2
*D17
  3
DMST_3
 10
61.4207864305562
 20
-34
 30
0
 11
58.8207864305562
 21
-0.75
 31
0
 12
0
 22
0
 32
0
 70
0
  1
(<>
 13
89.75454943187151
 23
32.5
 33
0
 14
96.1545494318716
 24
-34
 34
0
 50
90
 53
0
  0
DIMENSION
  8
1
  6
CONTINUOUS
 62
2
  2
*D18
  3
DMST_3
 10
91.45454943187161
 20
-60.1502088032148
 30
0
 11
102.4545494318716
 21
-57.5502088032148
 31
0
 12
0
 22
0
 32
0
 70
0
  1
(<>
 13
113.4545494318716
 23
-50
 33
0
 14
91.45454943187161
 24
-50
 34
0
 53
0
  0
DIMENSION
  8
1
  6
CONTINUOUS
 62
2
  2
*D19
  3
DMST_4
 10
83.45454943187161
 20
-84.04455028567179
 30
0
 11
102.4545494318716
 21
-81.4445502856718
 31
0
 12
0
 22
0
 32
0
 70
0
 13
121.4545494318716
 23
-48.5
 33
0
 14
83.45454943187161
 24
-48.5
 34
0
 53
0
  0
DIMENSION
  8
1
  6
CONTINUOUS
 62
2
  2
*D20
  3
DMST_4
 10
-58.04545056812835
 20
72.0869741474841
 30
0
 11
-80.19545056812832
 21
74.68697414748409
 31
0
 12
0
 22
0
 32
0
 70
0
 13
-102.3454505681283
 23
48.5
 33
0
 14
-58.04545056812835
 24
49.5
 34
0
 53
0
  0
DIMENSION
  8
1
  6
CONTINUOUS
 62
2
  2
*D21
  3
DMST_7
 10
-74.7218237727717
 20
-34.78795395961192
 30
0
 11
-30.11704669652421
 21
-14.70095939544399
 31
0
 12
0
 22
0
 32
0
 70
3
  1
ƒÓ<>
 15
-72.16907736348469
 25
-33.21204604038812
 35
0
 40
0
 53
0
  0
INSERT
  8
0
  2
DME34B5C
 10
517.605112944844
 20
223.449848733199
 30
0
  0
INSERT
  8
1
  2
*D22
 10
0
 20
0
 30
0
  0
ENDSEC
  0
EOF
