  0
SECTION
  2
HEADER
  9
$ACADVER
  1
AC1009
  9
$INSBASE
 10
0
 20
0
  9
$EXTMIN
 10
-194.5
 20
-146
  9
$EXTMAX
 10
194.5
 20
146
  9
$LIMMIN
 10
-194.5
 20
-146
  9
$LIMMAX
 10
194.5
 20
146
  9
$VIEWCTR
 10
10
 20
10
  9
$VIEWSIZE
 40
10
  9
$SNAPMODE
 70
0
  9
$SNAPUNIT
 10
1
 20
1
  9
$SNAPBASE
 10
0
 20
0
  9
$SNAPANG
 50
0
  9
$SNAPSTYLE
 70
0
  9
$SNAPISOPAIR
 70
0
  9
$GRIDMODE
 70
0
  9
$GRIDUNIT
 10
0
 20
0
  9
$ORTHOMODE
 70
0
  9
$REGENMODE
 70
1
  9
$FILLMODE
 70
1
  9
$QTEXTMODE
 70
0
  9
$DRAGMODE
 70
2
  9
$LTSCALE
 40
1
  9
$OSMODE
 70
0
  9
$ATTMODE
 70
1
  9
$TEXTSIZE
 40
3.5
  9
$TRACEWID
 40
0.5
  9
$TEXTSTYLE
  7
STANDARD
  9
$CLAYER
  8
0
  9
$CELTYPE
  6
BYLAYER
  9
$CECOLOR
 62
256
  9
$DIMSCALE
 40
1
  9
$DIMASZ
 40
0.18
  9
$DIMEXO
 40
0.0625
  9
$DIMDLI
 40
0.38
  9
$DIMRND
 40
0
  9
$DIMDLE
 40
0
  9
$DIMEXE
 40
0.18
  9
$DIMTP
 40
0
  9
$DIMTM
 40
0
  9
$DIMTXT
 40
0.18
  9
$DIMCEN
 40
0.09
  9
$DIMTSZ
 40
0
  9
$DIMTOL
 70
0
  9
$DIMLIM
 70
0
  9
$DIMTIH
 70
1
  9
$DIMTOH
 70
1
  9
$DIMSE1
 70
0
  9
$DIMSE2
 70
0
  9
$DIMTAD
 70
0
  9
$DIMZIN
 70
0
  9
$DIMBLK
  1

  9
$DIMASO
 70
1
  9
$DIMSHO
 70
1
  9
$DIMPOST
  1

  9
$DIMAPOST
  1

  9
$DIMALT
 70
0
  9
$DIMALTD
 70
2
  9
$DIMALTF
 40
25.4
  9
$DIMLFAC
 40
1
  9
$DIMTOFL
 70
0
  9
$DIMTVP
 40
0
  9
$DIMTIX
 70
0
  9
$DIMSOXD
 70
0
  9
$DIMSAH
 70
0
  9
$DIMBLK1
  1

  9
$DIMBLK2
  1

  9
$DIMSTYLE
  2
*UNNAMED
  9
$DIMCLRD
 70
0
  9
$DIMCLRE
 70
0
  9
$DIMCLRT
 70
0
  9
$DIMTFAC
 40
1
  9
$DIMGAP
 40
0.09
  9
$LUNITS
 70
2
  9
$LUPREC
 70
4
  9
$AXISMODE
 70
0
  9
$AXISUNIT
 10
0
 20
0
  9
$SKETCHINC
 40
0.1
  9
$FILLETRAD
 40
2
  9
$AUNITS
 70
0
  9
$AUPREC
 70
0
  9
$MENU
  1
ACAD
  9
$ELEVATION
 40
0
  9
$THICKNESS
 40
0
  9
$VIEWDIR
 10
0
 20
0
 30
1
  9
$LIMCHECK
 70
0
  9
$BLIPMODE
 70
1
  9
$CHAMFERA
 40
0
  9
$CHAMFERB
 40
0
  9
$FASTZOOM
 70
1
  9
$SKPOLY
 70
0
  9
$ANGBASE
 50
0
  9
$ANGDIR
 70
0
  9
$PDMODE
 70
0
  9
$PDSIZE
 40
0
  9
$PLINEWID
 40
0
  9
$COORDS
 70
2
  0
ENDSEC
  0
SECTION
  2
TABLES
  0
TABLE
  2
DIMSTYLE
 70
7
  0
DIMSTYLE
  2
DMST_1
 70
0
  3
)
  4

  5

  6

  7

 40
1
 41
3.2
 42
1
 43
7
 44
1
 45
0
 46
0
 47
0
 48
0
140
3.2
141
0
142
0
143
25.4
144
1
145
0
146
1
147
0.09
 71
0
 72
0
 73
1
 74
1
 75
0
 76
0
 77
1
 78
9
170
0
171
2
172
0
173
0
174
0
175
0
176
2
177
2
178
2
  0
DIMSTYLE
  2
DMST_2
 70
0
  3

  4

  5

  6

  7

 40
1
 41
3.2
 42
1
 43
7
 44
1
 45
0
 46
0
 47
30
 48
0
140
3.2
141
0
142
0
143
25.4
144
1
145
0
146
0.6
147
0.09
 71
1
 72
0
 73
0
 74
0
 75
0
 76
0
 77
1
 78
9
170
0
171
2
172
0
173
0
174
0
175
0
176
2
177
2
178
2
  0
DIMSTYLE
  2
DMST_3
 70
0
  3
)
  4

  5

  6

  7

 40
1
 41
3.2
 42
1
 43
7
 44
1
 45
0
 46
0
 47
0
 48
0
140
3.2
141
0
142
0
143
25.4
144
1
145
0
146
1
147
0.09
 71
0
 72
0
 73
0
 74
0
 75
0
 76
0
 77
1
 78
9
170
0
171
2
172
0
173
0
174
0
175
0
176
2
177
2
178
2
  0
DIMSTYLE
  2
DMST_4
 70
0
  3

  4

  5

  6

  7

 40
1
 41
3.2
 42
1
 43
7
 44
1
 45
0
 46
0
 47
0
 48
0
140
3.2
141
0
142
0
143
25.4
144
1
145
0
146
1
147
0.09
 71
0
 72
0
 73
0
 74
0
 75
0
 76
0
 77
1
 78
9
170
0
171
2
172
0
173
0
174
0
175
0
176
2
177
2
178
2
  0
DIMSTYLE
  2
DMST_5
 70
0
  3

  4

  5

  6

  7

 40
1
 41
3.2
 42
1
 43
7
 44
1
 45
0
 46
0
 47
0
 48
0.02
140
3.2
141
0
142
0
143
25.4
144
1
145
0
146
0.6
147
0.09
 71
1
 72
0
 73
0
 74
0
 75
0
 76
0
 77
1
 78
9
170
0
171
2
172
0
173
0
174
0
175
0
176
2
177
2
178
2
  0
DIMSTYLE
  2
DMST_6
 70
0
  3

  4

  5

  6

  7

 40
1
 41
3.2
 42
1
 43
7
 44
1
 45
0
 46
0
 47
0.3
 48
0.3
140
3.2
141
0
142
0
143
25.4
144
1
145
0
146
0.6
147
0.09
 71
1
 72
0
 73
0
 74
0
 75
0
 76
0
 77
1
 78
9
170
0
171
2
172
0
173
0
174
0
175
0
176
2
177
2
178
2
  0
DIMSTYLE
  2
DMST_7
 70
0
  3

  4

  5

  6

  7

 40
1
 41
3.2
 42
1
 43
7
 44
1
 45
0
 46
0
 47
0
 48
0
140
3.2
141
0
142
0
143
25.4
144
1
145
0
146
1
147
0.09
 71
0
 72
0
 73
1
 74
1
 75
0
 76
0
 77
1
 78
9
170
0
171
2
172
0
173
0
174
0
175
0
176
2
177
2
178
2
  0
ENDTAB
  0
TABLE
  2
LTYPE
 70
9
  0
LTYPE
  2
CONTINUOUS
 70
64
  3
Solid line
 72
65
 73
0
 40
0
  0
LTYPE
  2
BORDER
 70
64
  3
__ __ . __ __ .
 72
65
 73
6
 40
17.91447368421053
 49
5.118421052631579
 49
-2.559210526315789
 49
5.118421052631579
 49
-2.559210526315789
 49
0
 49
-2.559210526315789
  0
LTYPE
  2
CENTER
 70
64
  3
____ _ ____ _
 72
65
 73
4
 40
20.47368421052632
 49
12.79605263157895
 49
-2.559210526315789
 49
2.559210526315789
 49
-2.559210526315789
  0
LTYPE
  2
DASHDOT
 70
64
  3
__ . __ . __ .
 72
65
 73
4
 40
10.23684210526316
 49
5.118421052631579
 49
-2.559210526315789
 49
0
 49
-2.559210526315789
  0
LTYPE
  2
DASHED
 70
64
  3
__ __ __ __ __
 72
65
 73
2
 40
7.677631578947368
 49
5.118421052631579
 49
-2.559210526315789
  0
LTYPE
  2
DIVIDE
 70
64
  3
__ . . __ . . 
 72
65
 73
6
 40
12.79605263157895
 49
5.118421052631579
 49
-2.559210526315789
 49
0
 49
-2.559210526315789
 49
0
 49
-2.559210526315789
  0
LTYPE
  2
DOT
 70
64
  3
..............
 72
65
 73
4
 40
5.118421052631579
 49
0
 49
-2.559210526315789
 49
0
 49
-2.559210526315789
  0
LTYPE
  2
HIDDEN
 70
64
  3
_ _ _ _ _ _ _
 72
65
 73
2
 40
3.838815789473684
 49
2.559210526315789
 49
-1.279605263157895
  0
LTYPE
  2
PHANTOM
 70
64
  3
_____ _ _ _____ _ _ 
 72
65
 73
6
 40
25.59210526315789
 49
12.79605263157895
 49
-2.559210526315789
 49
2.559210526315789
 49
-2.559210526315789
 49
2.559210526315789
 49
-2.559210526315789
  0
ENDTAB
  0
TABLE
  2
LAYER
 70
3
  0
LAYER
  2
1
 70
0
 62
7
  6
CONTINUOUS
  0
LAYER
  2
0
 70
0
 62
7
  6
CONTINUOUS
  0
ENDTAB
  0
TABLE
  2
STYLE
 70
4
  0
STYLE
  2
STANDARD
 70
0
 40
0
 41
1
 50
0
 71
0
 42
3.5
  3
txt
  4

  0
STYLE
  2
SIMPLEX
 70
0
 40
0
 41
1
 50
0
 71
0
 42
3.5
  3
simplex
  4

  0
STYLE
  2
COMPLEX
 70
0
 40
0
 41
1
 50
0
 71
0
 42
3.5
  3
complex
  4

  0
STYLE
  2
ITALIC
 70
0
 40
0
 41
1
 50
0
 71
0
 42
3.5
  3
italic
  4

  0
ENDTAB
  0
TABLE
  2
VIEW
 70
0
  0
ENDTAB
  0
ENDSEC
  0
SECTION
  2
BLOCKS
  0
BLOCK
  8
0
  2
___R___O_______R
 70
0
 10
0.5000000000000568
 20
-3.75
 30
0
  0
LINE
  8
1
 62
4
  6
PHANTOM
 10
194.5
 20
-136.5
 30
0
 11
194.5
 21
-146
 31
0
  0
LINE
  8
1
 62
4
  6
PHANTOM
 10
-194.5
 20
-146
 30
0
 11
-194.5
 21
146
 31
0
  0
LINE
  8
1
 62
4
  6
PHANTOM
 10
194.5
 20
146
 30
0
 11
194.5
 21
129
 31
0
  0
LINE
  8
1
 62
4
  6
PHANTOM
 10
194.5
 20
146
 30
0
 11
-194.5
 21
146
 31
0
  0
LINE
  8
1
 62
4
  6
PHANTOM
 10
-194.5
 20
-146
 30
0
 11
194.5
 21
-146
 31
0
  0
TEXT
  8
1
 62
4
 10
178.746911898274
 20
-142.6071298819256
 30
0
 40
5
  1
A3
 41
0.9
 72
1
 73
2
 11
183.246911898274
 21
-140.1071298819256
 31
0
  0
ENDBLK
  8
0
  0
BLOCK
  8
1
  2
*D0
 70
1
 10
0
 20
0
 30
0
  0
LINE
  8
1
 62
2
 10
20.80000000000008
 20
58.1898375200639
 30
0
 11
34.17290936644533
 21
58.1898375200639
 31
0
  0
LINE
  8
1
 62
2
 10
19.20000000000005
 20
58.1898375200639
 30
0
 11
20.80000000000008
 21
58.1898375200639
 31
0
  0
LINE
  8
1
 62
2
 10
12.80000000000006
 20
58.1898375200639
 30
0
 11
19.20000000000005
 21
58.1898375200639
 31
0
  0
LINE
  8
1
 62
2
 10
20.80000000000008
 20
35.49556603773591
 30
0
 11
20.80000000000008
 21
59.1898375200639
 31
0
  0
LINE
  8
1
 62
2
 10
19.20000000000005
 20
49.25000000000001
 30
0
 11
19.20000000000005
 21
59.1898375200639
 31
0
  0
SOLID
  8
1
 62
2
 10
19.20000000000005
 20
58.1898375200639
 30
0
 11
16.00000000000005
 21
57.7738375200639
 31
0
 12
16.00000000000005
 22
58.60583752006389
 32
0
 13
16.00000000000005
 23
58.60583752006389
 33
0
  0
SOLID
  8
1
 62
2
 10
20.80000000000008
 20
58.1898375200639
 30
0
 11
24.00000000000008
 21
58.60583752006389
 31
0
 12
24.00000000000008
 22
57.7738375200639
 32
0
 13
24.00000000000008
 23
57.7738375200639
 33
0
  0
TEXT
  8
1
 62
2
 10
27.21290936644533
 20
59.1898375200639
 30
0
 40
3.2
  1
1.6
 41
0.9
  0
TEXT
  8
1
 62
2
 10
25.13290936644533
 20
59.1898375200639
 30
0
 40
3.2
  1
(
 41
0.9
  0
TEXT
  8
1
 62
2
 10
33.69290936644533
 20
59.1898375200639
 30
0
 40
3.2
  1
)
 41
0.9
  0
ENDBLK
  8
0
  0
BLOCK
  8
1
  2
*D1
 70
1
 10
0
 20
0
 30
0
  0
LINE
  8
1
 62
2
 10
19.20000000000006
 20
-2.75643022744908
 30
0
 11
81.79745483673381
 21
-2.75643022744908
 31
0
  0
LINE
  8
1
 62
2
 10
19.20000000000006
 20
13.25000000000001
 30
0
 11
19.20000000000006
 21
-3.75643022744908
 31
0
  0
LINE
  8
1
 62
2
 10
81.79745483673381
 20
29.14999999999999
 30
0
 11
81.79745483673381
 21
-3.75643022744908
 31
0
  0
SOLID
  8
1
 62
2
 10
19.20000000000006
 20
-2.75643022744908
 30
0
 11
22.40000000000006
 21
-2.34043022744908
 31
0
 12
22.40000000000006
 22
-3.17243022744908
 32
0
 13
22.40000000000006
 23
-3.17243022744908
 33
0
  0
SOLID
  8
1
 62
2
 10
81.79745483673381
 20
-2.75643022744908
 30
0
 11
78.5974548367338
 21
-3.172430227449079
 31
0
 12
78.5974548367338
 22
-2.34043022744908
 32
0
 13
78.5974548367338
 23
-2.34043022744908
 33
0
  0
TEXT
  8
1
 62
2
 10
43.65072741836693
 20
-0.9564302274490801
 30
0
 40
3.2
  1
300
 41
0.9
  0
TEXT
  8
1
 62
2
 10
52.93072741836694
 20
1.12356977255092
 30
0
 40
1.92
  1
+30
 41
0.9
  0
TEXT
  8
1
 62
2
 10
54.65872741836694
 20
-1.75643022744908
 30
0
 40
1.92
  1
 0
 41
0.9
  0
ENDBLK
  8
0
  0
BLOCK
  8
1
  2
*D2
 70
1
 10
0
 20
0
 30
0
  0
LINE
  8
1
 62
2
 10
78.79745483673379
 20
9.250827743488799
 30
0
 11
67.77998974893892
 21
9.250827743488799
 31
0
  0
LINE
  8
1
 62
2
 10
78.79745483673379
 20
9.250827743488799
 30
0
 11
81.79745483673379
 21
9.250827743488799
 31
0
  0
LINE
  8
1
 62
2
 10
88.1974548367338
 20
9.250827743488799
 30
0
 11
81.79745483673379
 21
9.250827743488799
 31
0
  0
LINE
  8
1
 62
2
 10
81.79745483673379
 20
29.14999999999999
 30
0
 11
81.79745483673379
 21
8.250827743488799
 31
0
  0
LINE
  8
1
 62
2
 10
78.79745483673379
 20
28.58999999999999
 30
0
 11
78.79745483673379
 21
8.250827743488799
 31
0
  0
SOLID
  8
1
 62
2
 10
81.79745483673379
 20
9.250827743488799
 30
0
 11
84.9974548367338
 21
9.666827743488799
 31
0
 12
84.9974548367338
 22
8.834827743488798
 32
0
 13
84.9974548367338
 23
8.834827743488798
 33
0
  0
SOLID
  8
1
 62
2
 10
78.79745483673379
 20
9.250827743488799
 30
0
 11
75.59745483673379
 21
8.8348277434888
 31
0
 12
75.59745483673379
 22
9.666827743488799
 32
0
 13
75.59745483673379
 23
9.666827743488799
 33
0
  0
TEXT
  8
1
 62
2
 10
69.85998974893893
 20
10.2508277434888
 30
0
 40
3.2
  1
3
 41
0.9
  0
TEXT
  8
1
 62
2
 10
67.77998974893892
 20
10.2508277434888
 30
0
 40
3.2
  1
(
 41
0.9
  0
TEXT
  8
1
 62
2
 10
73.37998974893893
 20
10.2508277434888
 30
0
 40
3.2
  1
)
 41
0.9
  0
ENDBLK
  8
0
  0
BLOCK
  8
1
  2
*D3
 70
1
 10
0
 20
0
 30
0
  0
LINE
  8
1
 62
2
 10
41.31388712949032
 20
14.25000000000001
 30
0
 11
41.31388712949032
 21
48.25000000000001
 31
0
  0
LINE
  8
1
 62
2
 10
20.20000000000005
 20
48.25000000000001
 30
0
 11
42.31388712949032
 21
48.25000000000001
 31
0
  0
LINE
  8
1
 62
2
 10
20.20000000000005
 20
14.25000000000001
 30
0
 11
42.31388712949032
 21
14.25000000000001
 31
0
  0
SOLID
  8
1
 62
2
 10
41.31388712949032
 20
48.25000000000001
 30
0
 11
41.72988712949032
 21
45.05000000000001
 31
0
 12
40.89788712949031
 22
45.05000000000001
 32
0
 13
40.89788712949031
 23
45.05000000000001
 33
0
  0
SOLID
  8
1
 62
2
 10
41.31388712949032
 20
14.25000000000001
 30
0
 11
40.89788712949031
 21
17.45000000000001
 31
0
 12
41.72988712949032
 22
17.45000000000001
 32
0
 13
41.72988712949032
 23
17.45000000000001
 33
0
  0
TEXT
  8
1
 62
2
 10
40.31388712949032
 20
30.67222222222223
 30
0
 40
3.2
  1
34
 50
90
 41
0.9
  0
TEXT
  8
1
 62
2
 10
40.31388712949032
 20
27.02777777777779
 30
0
 40
3.2
  1
ƒÓ
 50
90
 41
0.9
  0
ENDBLK
  8
0
  0
BLOCK
  8
1
  2
*D4
 70
1
 10
0
 20
0
 30
0
  0
LINE
  8
1
 62
2
 10
-36.5
 20
57.3159105113614
 30
0
 11
-14.49999999999999
 21
57.3159105113614
 31
0
  0
LINE
  8
1
 62
2
 10
-14.49999999999999
 20
48.25
 30
0
 11
-14.49999999999999
 21
58.3159105113614
 31
0
  0
LINE
  8
1
 62
2
 10
-36.5
 20
22.27700676729668
 30
0
 11
-36.5
 21
58.3159105113614
 31
0
  0
SOLID
  8
1
 62
2
 10
-36.5
 20
57.3159105113614
 30
0
 11
-33.3
 21
57.7319105113614
 31
0
 12
-33.3
 22
56.89991051136141
 32
0
 13
-33.3
 23
56.89991051136141
 33
0
  0
SOLID
  8
1
 62
2
 10
-14.49999999999999
 20
57.3159105113614
 30
0
 11
-17.69999999999999
 21
56.89991051136141
 31
0
 12
-17.69999999999999
 22
57.7319105113614
 32
0
 13
-17.69999999999999
 23
57.7319105113614
 33
0
  0
TEXT
  8
1
 62
2
 10
-27.89999999999999
 20
58.3159105113614
 30
0
 40
3.2
  1
22
 41
0.9
  0
ENDBLK
  8
0
  0
BLOCK
  8
1
  2
*D5
 70
1
 10
0
 20
0
 30
0
  0
LINE
  8
1
 62
2
 10
163.5
 20
57.3159105113614
 30
0
 11
175
 21
57.3159105113614
 31
0
  0
LINE
  8
1
 62
2
 10
175
 20
44.25000000000004
 30
0
 11
175
 21
58.3159105113614
 31
0
  0
LINE
  8
1
 62
2
 10
163.5
 20
44.25
 30
0
 11
163.5
 21
58.3159105113614
 31
0
  0
SOLID
  8
1
 62
2
 10
163.5
 20
57.3159105113614
 30
0
 11
166.7
 21
57.7319105113614
 31
0
 12
166.7
 22
56.89991051136141
 32
0
 13
166.7
 23
56.89991051136141
 33
0
  0
SOLID
  8
1
 62
2
 10
175
 20
57.3159105113614
 30
0
 11
171.8
 21
56.89991051136141
 31
0
 12
171.8
 22
57.7319105113614
 32
0
 13
171.8
 23
57.7319105113614
 33
0
  0
TEXT
  8
1
 62
2
 10
167.81
 20
58.3159105113614
 30
0
 40
3.2
  1
11
 41
0.9
  0
TEXT
  8
1
 62
2
 10
165.73
 20
58.3159105113614
 30
0
 40
3.2
  1
(
 41
0.9
  0
TEXT
  8
1
 62
2
 10
172.29
 20
58.3159105113614
 30
0
 40
3.2
  1
)
 41
0.9
  0
ENDBLK
  8
0
  0
BLOCK
  8
1
  2
*D6
 70
1
 10
0
 20
0
 30
0
  0
LINE
  8
1
 62
2
 10
115
 20
57.3159105113614
 30
0
 11
126.5
 21
57.3159105113614
 31
0
  0
LINE
  8
1
 62
2
 10
126.5
 20
44.25
 30
0
 11
126.5
 21
58.3159105113614
 31
0
  0
LINE
  8
1
 62
2
 10
115
 20
44.25
 30
0
 11
115
 21
58.3159105113614
 31
0
  0
SOLID
  8
1
 62
2
 10
115
 20
57.3159105113614
 30
0
 11
118.2
 21
57.7319105113614
 31
0
 12
118.2
 22
56.89991051136141
 32
0
 13
118.2
 23
56.89991051136141
 33
0
  0
SOLID
  8
1
 62
2
 10
126.5
 20
57.3159105113614
 30
0
 11
123.3
 21
56.89991051136141
 31
0
 12
123.3
 22
57.7319105113614
 32
0
 13
123.3
 23
57.7319105113614
 33
0
  0
TEXT
  8
1
 62
2
 10
119.31
 20
58.3159105113614
 30
0
 40
3.2
  1
11
 41
0.9
  0
TEXT
  8
1
 62
2
 10
117.23
 20
58.3159105113614
 30
0
 40
3.2
  1
(
 41
0.9
  0
TEXT
  8
1
 62
2
 10
123.79
 20
58.3159105113614
 30
0
 40
3.2
  1
)
 41
0.9
  0
ENDBLK
  8
0
  0
BLOCK
  8
1
  2
*D7
 70
1
 10
0
 20
0
 30
0
  0
LINE
  8
1
 62
2
 10
-53.5
 20
-10.24999999999999
 30
0
 11
-39.49999999999999
 21
-10.24999999999999
 31
0
  0
LINE
  8
1
 62
2
 10
-39.49999999999999
 20
-18.25000000000001
 30
0
 11
-39.49999999999999
 21
-9.249999999999991
 31
0
  0
LINE
  8
1
 62
2
 10
-53.5
 20
-19.25000000000001
 30
0
 11
-53.5
 21
-9.249999999999991
 31
0
  0
SOLID
  8
1
 62
2
 10
-53.5
 20
-10.24999999999999
 30
0
 11
-50.3
 21
-9.833999999999991
 31
0
 12
-50.3
 22
-10.66599999999999
 32
0
 13
-50.3
 23
-10.66599999999999
 33
0
  0
SOLID
  8
1
 62
2
 10
-39.49999999999999
 20
-10.24999999999999
 30
0
 11
-42.7
 21
-10.66599999999999
 31
0
 12
-42.7
 22
-9.833999999999991
 32
0
 13
-42.7
 23
-9.833999999999991
 33
0
  0
TEXT
  8
1
 62
2
 10
-48.42
 20
-9.249999999999991
 30
0
 40
3.2
  1
14
 41
0.9
  0
ENDBLK
  8
0
  0
BLOCK
  8
1
  2
*D8
 70
1
 10
0
 20
0
 30
0
  0
LINE
  8
1
 62
2
 10
-74.96524210975855
 20
-33.65000000000001
 30
0
 11
-74.96524210975855
 21
-27.25000000000001
 31
0
  0
LINE
  8
1
 62
2
 10
-74.96524210975855
 20
-27.25000000000001
 30
0
 11
-74.96524210975855
 21
-19.25000000000001
 31
0
  0
LINE
  8
1
 62
2
 10
-74.96524210975855
 20
-19.25000000000001
 30
0
 11
-74.96524210975855
 21
2.07665869286361
 31
0
  0
LINE
  8
1
 62
2
 10
-54.5
 20
-27.25000000000001
 30
0
 11
-75.96524210975855
 21
-27.25000000000001
 31
0
  0
LINE
  8
1
 62
2
 10
-40.50000000000001
 20
-19.25000000000001
 30
0
 11
-75.96524210975855
 21
-19.25000000000001
 31
0
  0
SOLID
  8
1
 62
2
 10
-74.96524210975855
 20
-19.25000000000001
 30
0
 11
-75.38124210975855
 21
-16.05000000000001
 31
0
 12
-74.54924210975855
 22
-16.05000000000001
 32
0
 13
-74.54924210975855
 23
-16.05000000000001
 33
0
  0
SOLID
  8
1
 62
2
 10
-74.96524210975855
 20
-27.25000000000001
 30
0
 11
-74.54924210975855
 21
-30.45000000000001
 31
0
 12
-75.38124210975855
 22
-30.45000000000001
 32
0
 13
-75.38124210975855
 23
-30.45000000000001
 33
0
  0
TEXT
  8
1
 62
2
 10
-76.76524210975856
 20
-8.211341307136388
 30
0
 40
3.2
  1
8
 50
90
 41
0.9
  0
TEXT
  8
1
 62
2
 10
-78.84524210975856
 20
-4.691341307136388
 30
0
 40
1.92
  1
 0
 50
90
 41
0.9
  0
TEXT
  8
1
 62
2
 10
-75.96524210975855
 20
-4.691341307136388
 30
0
 40
1.92
  1
-0.02
 50
90
 41
0.9
  0
TEXT
  8
1
 62
2
 10
-76.76524210975856
 20
-11.85578575158083
 30
0
 40
3.2
  1
ƒÓ
 50
90
 41
0.9
  0
ENDBLK
  8
0
  0
BLOCK
  8
1
  2
*D9
 70
1
 10
0
 20
0
 30
0
  0
LINE
  8
1
 62
2
 10
-62.92692826673143
 20
-33.65000000000001
 30
0
 11
-62.92692826673143
 21
-27.25000000000001
 31
0
  0
LINE
  8
1
 62
2
 10
-62.92692826673143
 20
-27.25000000000001
 30
0
 11
-62.92692826673143
 21
-20.25000000000001
 31
0
  0
LINE
  8
1
 62
2
 10
-62.92692826673143
 20
-20.25000000000001
 30
0
 11
-62.92692826673143
 21
-10.6054867277327
 31
0
  0
LINE
  8
1
 62
2
 10
-54.49999999999999
 20
-27.25000000000001
 30
0
 11
-63.92692826673143
 21
-27.25000000000001
 31
0
  0
LINE
  8
1
 62
2
 10
-54.49999999999999
 20
-20.25000000000001
 30
0
 11
-63.92692826673143
 21
-20.25000000000001
 31
0
  0
SOLID
  8
1
 62
2
 10
-62.92692826673143
 20
-20.25000000000001
 30
0
 11
-63.34292826673143
 21
-17.05000000000001
 31
0
 12
-62.51092826673143
 22
-17.05000000000001
 32
0
 13
-62.51092826673143
 23
-17.05000000000001
 33
0
  0
SOLID
  8
1
 62
2
 10
-62.92692826673143
 20
-27.25000000000001
 30
0
 11
-62.51092826673143
 21
-30.45000000000001
 31
0
 12
-63.34292826673143
 22
-30.45000000000001
 32
0
 13
-63.34292826673143
 23
-30.45000000000001
 33
0
  0
TEXT
  8
1
 62
2
 10
-63.92692826673143
 20
-12.5254867277327
 30
0
 40
3.2
  1
7
 50
90
 41
0.9
  0
ENDBLK
  8
0
  0
BLOCK
  8
1
  2
*D10
 70
1
 10
0
 20
0
 30
0
  0
LINE
  8
1
 62
2
 10
-149.4562364348919
 20
69.30722910344591
 30
0
 11
-89.45623643489208
 21
69.30722910344591
 31
0
  0
LINE
  8
1
 62
2
 10
-89.45623643489208
 20
44.25000000000001
 30
0
 11
-89.45623643489208
 21
70.30722910344591
 31
0
  0
LINE
  8
1
 62
2
 10
-149.4562364348919
 20
44.25000000000001
 30
0
 11
-149.4562364348919
 21
70.30722910344591
 31
0
  0
SOLID
  8
1
 62
2
 10
-149.4562364348919
 20
69.30722910344591
 30
0
 11
-146.256236434892
 21
69.7232291034459
 31
0
 12
-146.256236434892
 22
68.89122910344591
 32
0
 13
-146.256236434892
 23
68.89122910344591
 33
0
  0
SOLID
  8
1
 62
2
 10
-89.45623643489208
 20
69.30722910344591
 30
0
 11
-92.65623643489208
 21
68.89122910344591
 31
0
 12
-92.65623643489208
 22
69.7232291034459
 32
0
 13
-92.65623643489208
 23
69.7232291034459
 33
0
  0
TEXT
  8
1
 62
2
 10
-121.856236434892
 20
70.30722910344591
 30
0
 40
3.2
  1
60
 41
0.9
  0
ENDBLK
  8
0
  0
BLOCK
  8
1
  2
*D11
 70
1
 10
0
 20
0
 30
0
  0
LINE
  8
1
 62
2
 10
-171.4915159331527
 20
-47.25000000000001
 30
0
 11
-171.4915159331527
 21
47.25000000000001
 31
0
  0
LINE
  8
1
 62
2
 10
-146.456236434892
 20
47.25000000000001
 30
0
 11
-172.4915159331527
 21
47.25000000000001
 31
0
  0
LINE
  8
1
 62
2
 10
-146.456236434892
 20
-47.25000000000001
 30
0
 11
-172.4915159331527
 21
-47.25000000000001
 31
0
  0
SOLID
  8
1
 62
2
 10
-171.4915159331527
 20
-47.25000000000001
 30
0
 11
-171.9075159331527
 21
-44.05
 31
0
 12
-171.0755159331527
 22
-44.05
 32
0
 13
-171.0755159331527
 23
-44.05
 33
0
  0
SOLID
  8
1
 62
2
 10
-171.4915159331527
 20
47.25000000000001
 30
0
 11
-171.0755159331527
 21
44.05
 31
0
 12
-171.9075159331527
 22
44.05
 32
0
 13
-171.9075159331527
 23
44.05
 33
0
  0
TEXT
  8
1
 62
2
 10
-172.4915159331527
 20
-4.359999999999986
 30
0
 40
3.2
  1
94.5
 50
90
 41
0.9
  0
ENDBLK
  8
0
  0
BLOCK
  8
1
  2
*D12
 70
1
 10
0
 20
0
 30
0
  0
LINE
  8
1
 62
2
 10
-159.456236434892
 20
-47.25000000000001
 30
0
 11
-159.456236434892
 21
-23.25000000000001
 31
0
  0
LINE
  8
1
 62
2
 10
-150.4562364348919
 20
-23.25000000000001
 30
0
 11
-160.456236434892
 21
-23.25000000000001
 31
0
  0
LINE
  8
1
 62
2
 10
-146.4562364348919
 20
-47.25000000000001
 30
0
 11
-160.456236434892
 21
-47.25000000000001
 31
0
  0
SOLID
  8
1
 62
2
 10
-159.456236434892
 20
-23.25000000000001
 30
0
 11
-159.040236434892
 21
-26.45000000000001
 31
0
 12
-159.872236434892
 22
-26.45000000000001
 32
0
 13
-159.872236434892
 23
-26.45000000000001
 33
0
  0
SOLID
  8
1
 62
2
 10
-159.456236434892
 20
-47.25000000000001
 30
0
 11
-159.872236434892
 21
-44.05
 31
0
 12
-159.040236434892
 22
-44.05
 32
0
 13
-159.040236434892
 23
-44.05
 33
0
  0
TEXT
  8
1
 62
2
 10
-160.456236434892
 20
-37.65000000000001
 30
0
 40
3.2
  1
24
 50
90
 41
0.9
  0
ENDBLK
  8
0
  0
BLOCK
  8
1
  2
*D13
 70
1
 10
0
 20
0
 30
0
  0
LINE
  8
1
 62
2
 10
-159.456236434892
 20
-23.25000000000001
 30
0
 11
-159.456236434892
 21
16.75000000000001
 31
0
  0
LINE
  8
1
 62
2
 10
-150.4562364348919
 20
16.75000000000001
 30
0
 11
-160.456236434892
 21
16.75000000000001
 31
0
  0
LINE
  8
1
 62
2
 10
-150.4562364348919
 20
-23.25000000000001
 30
0
 11
-160.456236434892
 21
-23.25000000000001
 31
0
  0
SOLID
  8
1
 62
2
 10
-159.456236434892
 20
16.75000000000001
 30
0
 11
-159.040236434892
 21
13.55000000000001
 31
0
 12
-159.872236434892
 22
13.55000000000001
 32
0
 13
-159.872236434892
 23
13.55000000000001
 33
0
  0
SOLID
  8
1
 62
2
 10
-159.456236434892
 20
-23.25000000000001
 30
0
 11
-159.872236434892
 21
-20.05000000000002
 31
0
 12
-159.040236434892
 22
-20.05000000000002
 32
0
 13
-159.040236434892
 23
-20.05000000000002
 33
0
  0
TEXT
  8
1
 62
2
 10
-160.456236434892
 20
-8.874000000000017
 30
0
 40
3.2
  1
40
 50
90
 41
0.9
  0
TEXT
  8
1
 62
2
 10
-161.096236434892
 20
-2.474000000000014
 30
0
 40
1.92
  1
%%p0.3
 50
90
 41
0.9
  0
ENDBLK
  8
0
  0
BLOCK
  8
1
  2
*D14
 70
1
 10
0
 20
0
 30
0
  0
LINE
  8
1
 62
2
 10
-159.456236434892
 20
31.25000000000001
 30
0
 11
-159.456236434892
 21
47.25000000000001
 31
0
  0
LINE
  8
1
 62
2
 10
-146.456236434892
 20
47.25000000000001
 30
0
 11
-160.456236434892
 21
47.25000000000001
 31
0
  0
LINE
  8
1
 62
2
 10
-126.456236434892
 20
31.25000000000001
 30
0
 11
-160.456236434892
 21
31.25000000000001
 31
0
  0
SOLID
  8
1
 62
2
 10
-159.456236434892
 20
31.25000000000001
 30
0
 11
-159.872236434892
 21
34.45000000000001
 31
0
 12
-159.040236434892
 22
34.45000000000001
 32
0
 13
-159.040236434892
 23
34.45000000000001
 33
0
  0
SOLID
  8
1
 62
2
 10
-159.456236434892
 20
47.25000000000001
 30
0
 11
-159.040236434892
 21
44.05
 31
0
 12
-159.872236434892
 22
44.05
 32
0
 13
-159.872236434892
 23
44.05
 33
0
  0
TEXT
  8
1
 62
2
 10
-160.456236434892
 20
37.33000000000001
 30
0
 40
3.2
  1
16
 50
90
 41
0.9
  0
ENDBLK
  8
0
  0
BLOCK
  8
1
  2
*D15
 70
1
 10
0
 20
0
 30
0
  0
LINE
  8
1
 62
2
 10
-139.4562364348919
 20
57.3159105113614
 30
0
 11
-99.45623643489208
 21
57.3159105113614
 31
0
  0
LINE
  8
1
 62
2
 10
-99.45623643489208
 20
48.3593059936909
 30
0
 11
-99.45623643489208
 21
58.3159105113614
 31
0
  0
LINE
  8
1
 62
2
 10
-139.4562364348919
 20
48.25
 30
0
 11
-139.4562364348919
 21
58.3159105113614
 31
0
  0
SOLID
  8
1
 62
2
 10
-139.4562364348919
 20
57.3159105113614
 30
0
 11
-136.256236434892
 21
57.7319105113614
 31
0
 12
-136.256236434892
 22
56.89991051136141
 32
0
 13
-136.256236434892
 23
56.89991051136141
 33
0
  0
SOLID
  8
1
 62
2
 10
-99.45623643489208
 20
57.3159105113614
 30
0
 11
-102.6562364348921
 21
56.89991051136141
 31
0
 12
-102.6562364348921
 22
57.7319105113614
 32
0
 13
-102.6562364348921
 23
57.7319105113614
 33
0
  0
TEXT
  8
1
 62
2
 10
-125.080236434892
 20
58.3159105113614
 30
0
 40
3.2
  1
40
 41
0.9
  0
TEXT
  8
1
 62
2
 10
-118.680236434892
 20
58.9559105113614
 30
0
 40
1.92
  1
%%p0.3
 41
0.9
  0
ENDBLK
  8
0
  0
BLOCK
  8
1
  2
*D16
 70
1
 10
0
 20
0
 30
0
  0
LINE
  8
1
 62
2
 10
-53.5
 20
-0.2499999999999889
 30
0
 11
-36.5
 21
-0.2499999999999889
 31
0
  0
LINE
  8
1
 62
2
 10
-36.5
 20
-17.7229932327033
 30
0
 11
-36.5
 21
0.7500000000000111
 31
0
  0
LINE
  8
1
 62
2
 10
-53.5
 20
-19.25000000000001
 30
0
 11
-53.5
 21
0.7500000000000111
 31
0
  0
SOLID
  8
1
 62
2
 10
-53.5
 20
-0.2499999999999889
 30
0
 11
-50.3
 21
0.1660000000000112
 31
0
 12
-50.3
 22
-0.6659999999999891
 32
0
 13
-50.3
 23
-0.6659999999999891
 33
0
  0
SOLID
  8
1
 62
2
 10
-36.5
 20
-0.2499999999999889
 30
0
 11
-39.7
 21
-0.6659999999999883
 31
0
 12
-39.7
 22
0.1660000000000113
 32
0
 13
-39.7
 23
0.1660000000000113
 33
0
  0
TEXT
  8
1
 62
2
 10
-46.92
 20
0.7500000000000111
 30
0
 40
3.2
  1
17
 41
0.9
  0
ENDBLK
  8
0
  0
BLOCK
  8
1
  2
*D17
 70
1
 10
0
 20
0
 30
0
  0
LINE
  8
1
 62
2
 10
-36.49999999999999
 20
9.749999999999981
 30
0
 11
-47.49173007942997
 21
9.749999999999981
 31
0
  0
LINE
  8
1
 62
2
 10
-36.49999999999999
 20
9.749999999999981
 30
0
 11
-35.99999999999999
 21
9.749999999999981
 31
0
  0
LINE
  8
1
 62
2
 10
-29.59999999999999
 20
9.749999999999981
 30
0
 11
-35.99999999999999
 21
9.749999999999981
 31
0
  0
LINE
  8
1
 62
2
 10
-35.99999999999999
 20
-15.21301556963091
 30
0
 11
-35.99999999999999
 21
10.74999999999998
 31
0
  0
LINE
  8
1
 62
2
 10
-36.49999999999999
 20
-17.7229932327033
 30
0
 11
-36.49999999999999
 21
10.74999999999998
 31
0
  0
SOLID
  8
1
 62
2
 10
-36.49999999999999
 20
9.749999999999981
 30
0
 11
-39.69999999999999
 21
9.333999999999982
 31
0
 12
-39.69999999999999
 22
10.16599999999998
 32
0
 13
-39.69999999999999
 23
10.16599999999998
 33
0
  0
SOLID
  8
1
 62
2
 10
-35.99999999999999
 20
9.749999999999981
 30
0
 11
-32.79999999999998
 21
10.16599999999998
 31
0
 12
-32.79999999999998
 22
9.33399999999998
 32
0
 13
-32.79999999999998
 23
9.33399999999998
 33
0
  0
TEXT
  8
1
 62
2
 10
-47.49173007942997
 20
10.74999999999998
 30
0
 40
3.2
  1
0.5
 41
0.9
  0
ENDBLK
  8
0
  0
BLOCK
  8
1
  2
*D18
 70
1
 10
0
 20
0
 30
0
  0
LINE
  8
1
 62
2
 10
185
 20
15.25000000000001
 30
0
 11
185
 21
47.25000000000001
 31
0
  0
LINE
  8
1
 62
2
 10
172
 20
47.25000000000001
 30
0
 11
186
 21
47.25000000000001
 31
0
  0
LINE
  8
1
 62
2
 10
170.25
 20
15.25000000000001
 30
0
 11
186
 21
15.25000000000001
 31
0
  0
SOLID
  8
1
 62
2
 10
185
 20
47.25000000000001
 30
0
 11
185.416
 21
44.05000000000001
 31
0
 12
184.584
 22
44.05000000000001
 32
0
 13
184.584
 23
44.05000000000001
 33
0
  0
SOLID
  8
1
 62
2
 10
185
 20
15.25000000000001
 30
0
 11
184.584
 21
18.45000000000001
 31
0
 12
185.416
 22
18.45000000000001
 32
0
 13
185.416
 23
18.45000000000001
 33
0
  0
TEXT
  8
1
 62
2
 10
184
 20
28.85000000000001
 30
0
 40
3.2
  1
32
 50
90
 41
0.9
  0
TEXT
  8
1
 62
2
 10
184
 20
26.77000000000001
 30
0
 40
3.2
  1
(
 50
90
 41
0.9
  0
TEXT
  8
1
 62
2
 10
184
 20
35.25000000000001
 30
0
 40
3.2
  1
)
 50
90
 41
0.9
  0
ENDBLK
  8
0
  0
BLOCK
  8
1
  2
*D19
 70
1
 10
0
 20
0
 30
0
  0
LINE
  8
1
 62
2
 10
-36.5
 20
69.83610094123921
 30
0
 11
19.20000000000004
 21
69.83610094123921
 31
0
  0
LINE
  8
1
 62
2
 10
-36.5
 20
22.27700676729668
 30
0
 11
-36.5
 21
70.83610094123921
 31
0
  0
LINE
  8
1
 62
2
 10
19.20000000000005
 20
49.25
 30
0
 11
19.20000000000004
 21
70.83610094123921
 31
0
  0
SOLID
  8
1
 62
2
 10
-36.5
 20
69.83610094123921
 30
0
 11
-33.3
 21
70.25210094123921
 31
0
 12
-33.3
 22
69.42010094123921
 32
0
 13
-33.3
 23
69.42010094123921
 33
0
  0
SOLID
  8
1
 62
2
 10
19.20000000000004
 20
69.83610094123921
 30
0
 11
16.00000000000004
 21
69.42010094123921
 31
0
 12
16.00000000000004
 22
70.25210094123921
 32
0
 13
16.00000000000004
 23
70.25210094123921
 33
0
  0
TEXT
  8
1
 62
2
 10
-13.00999999999998
 20
70.83610094123921
 30
0
 40
3.2
  1
55.7
 41
0.9
  0
ENDBLK
  8
0
  0
BLOCK
  8
1
  2
*D20
 70
1
 10
0
 20
0
 30
0
  0
LINE
  8
1
 62
2
 10
-98.23105500449474
 20
-24.8308005764832
 30
0
 11
-73.0644513178752
 21
-57.3022212403035
 31
0
  0
LINE
  8
1
 62
2
 10
-73.0644513178752
 20
-57.3022212403035
 30
0
 11
-22.1044513178752
 21
-57.3022212403035
 31
0
  0
SOLID
  8
1
 62
2
 10
-98.23105500449474
 20
-24.8308005764832
 30
0
 11
-95.94195819595053
 21
-27.10524376133367
 31
0
 12
-96.59957123576754
 22
-27.61491923637895
 32
0
 13
-96.59957123576754
 23
-27.61491923637895
 33
0
  0
TEXT
  8
1
 62
2
 10
-58.5844513178752
 20
-56.3022212403035
 30
0
 40
3.2
  1
4
 41
0.9
  0
TEXT
  8
1
 62
2
 10
-67.86445131787519
 20
-56.3022212403035
 30
0
 40
3.2
  1
4-M
 41
0.9
  0
TEXT
  8
1
 62
2
 10
-55.0644513178752
 20
-56.3022212403035
 30
0
 40
3.2
  1
 DEPTH 6MAX
 41
0.9
  0
ENDBLK
  8
0
  0
ENDSEC
  0
SECTION
  2
ENTITIES
  0
LINE
  8
1
 62
7
 10
12.8454842061981
 20
14.24999999999998
 30
0
 11
12.8454842061981
 21
20.55155335215279
 31
0
  0
LINE
  8
1
 62
7
 10
-4.154515793801906
 20
20.55155335215279
 30
0
 11
-4.154515793801906
 21
14.24999999999998
 31
0
  0
LINE
  8
1
 62
7
 10
-4.154515793801906
 20
20.55155335215279
 30
0
 11
12.8454842061981
 21
20.55155335215279
 31
0
  0
LINE
  8
1
 62
7
 10
137.6096205493291
 20
41.14574703304511
 30
0
 11
137.1201414584338
 21
38.62063277352618
 31
0
  0
LINE
  8
1
 62
7
 10
139.2392850584844
 20
40.82984580227942
 30
0
 11
138.7601529781015
 21
38.35810947917237
 31
0
  0
LINE
  8
1
 62
7
 10
151.7334978114868
 20
22.32703583691109
 30
0
 11
149.3265383553795
 21
22.7936112886777
 31
0
  0
LINE
  8
1
 62
7
 10
151.4175965807214
 20
20.69737132775559
 30
0
 11
149.0367394168067
 21
21.15888699808669
 31
0
  0
LINE
  8
1
 62
3
 10
150.0846353438319
 20
23.72011049276109
 30
0
 11
153.0595662689689
 21
19.3145042608137
 31
0
  0
LINE
  8
1
 62
3
 10
137.1457234434097
 20
42.88148006321502
 30
0
 11
139.652000866641
 21
39.16990768972569
 31
0
  0
LINE
  8
1
 62
3
 10
156.1257991397463
 20
38.76281031147342
 30
0
 11
153.1516649281585
 21
36.75449559251413
 31
0
  0
LINE
  8
1
 62
3
 10
136.7481884386287
 20
25.6778793632677
 30
0
 11
133.6090737620474
 21
23.5581598882962
 31
0
  0
LINE
  8
1
 62
7
 10
28.9739466980533
 20
29.59
 30
0
 11
29.49559716916986
 21
29.59
 31
0
  0
LINE
  8
1
 62
7
 10
24.52614829352469
 20
21.6150189903023
 30
0
 11
28.51106902780113
 21
29.27906153067708
 31
0
  0
LINE
  8
1
 62
7
 10
19.20000000000005
 20
20.68220358233348
 30
0
 11
23.1375152827683
 21
20.68220358233348
 31
0
  0
LINE
  8
1
 62
7
 10
24.52614829352469
 20
40.88498100969339
 30
0
 11
28.51106902780101
 21
33.22093846932297
 31
0
  0
LINE
  8
1
 62
7
 10
19.20000000000005
 20
41.81779641766219
 30
0
 11
23.1375152827683
 21
41.81779641766219
 31
0
  0
LINE
  8
1
 62
7
 10
31.99559716916998
 20
29.59
 30
0
 11
35.04776343188293
 21
29.59
 31
0
  0
LINE
  8
1
 62
7
 10
31.99559716916998
 20
31.25000000000001
 30
0
 11
35.04776343188293
 21
31.25000000000001
 31
0
  0
LINE
  8
1
 62
7
 10
23.21903437114293
 20
22.5417860440473
 30
0
 11
27.51398915369396
 21
30.96488219755157
 31
0
  0
LINE
  8
1
 62
7
 10
19.20000000000005
 20
22.34220358233348
 30
0
 11
22.7295629344119
 21
22.34220358233348
 31
0
  0
LINE
  8
1
 62
7
 10
28.21323406331
 20
31.25000000000001
 30
0
 11
29.49559716916998
 21
31.25000000000001
 31
0
  0
LINE
  8
1
 62
7
 10
23.21903437114293
 20
39.9582139559483
 30
0
 11
27.51398915369396
 21
31.53511780244828
 31
0
  0
LINE
  8
1
 62
7
 10
19.20000000000005
 20
40.15779641766218
 30
0
 11
22.7295629344119
 21
40.15779641766218
 31
0
  0
LINE
  8
1
 62
7
 10
29.49559716916998
 20
28.58206015269009
 30
0
 11
31.99559716916998
 21
28.58206015269009
 31
0
  0
LINE
  8
1
 62
7
 10
32.8854896699545
 20
33.1227155357014
 30
0
 11
32.75667166228961
 21
35.83373147786058
 31
0
  0
LINE
  8
1
 62
7
 10
32.25723516286394
 20
36.31000000000007
 30
0
 11
29.23395917547602
 21
36.31000000000007
 31
0
  0
LINE
  8
1
 62
7
 10
28.73452267605037
 20
35.83373147786058
 30
0
 11
28.60570466838534
 21
33.1227155357014
 31
0
  0
LINE
  8
1
 62
7
 10
31.99559716916998
 20
28.58206015269009
 30
0
 11
31.99559716916998
 21
32.90999999999998
 31
0
  0
LINE
  8
1
 62
7
 10
29.49559716916998
 20
32.90999999999998
 30
0
 11
29.49559716916998
 21
28.58206015269009
 31
0
  0
LINE
  8
1
 62
7
 10
28.97394669805318
 20
32.90999999999998
 30
0
 11
35.04776343188293
 21
32.90999999999998
 31
0
  0
LINE
  8
1
 62
2
 10
40.16547652514395
 20
57.25000000000001
 30
0
 11
99.83072096446483
 21
57.25000000000001
 31
0
  0
LINE
  8
1
 62
7
 10
20.04511721223538
 20
27.03494051088548
 30
0
 11
19.20000000000005
 21
26.64360076662361
 31
0
  0
LINE
  8
1
 62
7
 10
20.80000000000008
 20
28.00443396226412
 30
0
 11
20.80000000000008
 21
34.49556603773591
 31
0
  0
LINE
  8
1
 62
7
 10
20.04511721223538
 20
35.46505948911438
 30
0
 11
19.20000000000005
 21
35.85639923337642
 31
0
  0
LINE
  8
1
 62
7
 10
48.29548330188494
 20
29.58999999999999
 30
0
 11
78.79745483673379
 21
29.58999999999999
 31
0
  0
LINE
  8
1
 62
7
 10
48.29548330188494
 20
32.90999999999998
 30
0
 11
78.79745483673379
 21
32.90999999999998
 31
0
  0
LINE
  8
1
 62
7
 10
78.79745483673379
 20
30.14999999999999
 30
0
 11
81.79745483673379
 21
30.14999999999999
 31
0
  0
LINE
  8
1
 62
7
 10
78.79745483673379
 20
30.84999999999998
 30
0
 11
81.79745483673379
 21
30.84999999999998
 31
0
  0
LINE
  8
1
 62
7
 10
78.79745483673379
 20
31.64999999999999
 30
0
 11
81.79745483673379
 21
31.64999999999999
 31
0
  0
LINE
  8
1
 62
7
 10
78.79745483673379
 20
32.34999999999998
 30
0
 11
81.79745483673379
 21
32.34999999999998
 31
0
  0
LINE
  8
1
 62
7
 10
78.79745483673379
 20
32.90999999999998
 30
0
 11
78.79745483673379
 21
29.58999999999999
 31
0
  0
LINE
  8
1
 62
7
 10
-8.799999999999955
 20
48.25000000000001
 30
0
 11
19.20000000000005
 21
48.25000000000001
 31
0
  0
LINE
  8
1
 62
7
 10
-8.799999999999955
 20
14.25000000000001
 30
0
 11
19.20000000000005
 21
14.25000000000001
 31
0
  0
LINE
  8
1
 62
3
 10
-35.83466636605459
 20
31.25000000000001
 30
0
 11
24.29454958215298
 21
31.25000000000001
 31
0
  0
LINE
  8
1
 62
7
 10
19.20000000000005
 20
48.25000000000001
 30
0
 11
19.20000000000005
 21
14.25000000000001
 31
0
  0
LINE
  8
1
 62
7
 10
-36.5
 20
21.27700676729667
 30
0
 11
-36.5
 21
12.22299323270342
 31
0
  0
LINE
  8
1
 62
7
 10
48.29548330188494
 20
31.25000000000001
 30
0
 11
78.79745483673379
 21
31.25000000000001
 31
0
  0
LINE
  8
1
 62
7
 10
-107.4215295173192
 20
45.02135057081991
 30
0
 11
-119.456236434892
 21
47.25000000000001
 31
0
  0
LINE
  8
1
 62
7
 10
-30
 20
4.364285714285714
 30
0
 11
-30.64142135623728
 21
4.272654091966004
 31
0
  0
LINE
  8
1
 62
7
 10
-30.64142135623728
 20
-5.972654091966191
 30
0
 11
-30
 21
-6.064285714285901
 31
0
  0
LINE
  8
1
 62
7
 10
-31.5
 20
3.282704598304903
 30
0
 11
-31.5
 21
-4.982704598305091
 31
0
  0
LINE
  8
1
 62
7
 10
-36.02773500981123
 20
11.72376305610079
 30
0
 11
-28
 21
11.25000000000001
 31
0
  0
LINE
  8
1
 62
7
 10
-28
 20
22.25000000000001
 30
0
 11
-36.02773500981123
 21
21.77623694389941
 31
0
  0
LINE
  8
1
 62
7
 10
-30.64142135623728
 20
22.57265409196602
 30
0
 11
-30
 21
22.66428571428561
 31
0
  0
LINE
  8
1
 62
7
 10
-28
 20
17.7499999999999
 30
0
 11
-30
 21
17.75000000000001
 31
0
  0
LINE
  8
1
 62
7
 10
-30
 20
17.75000000000001
 30
0
 11
-30
 21
15.75000000000001
 31
0
  0
LINE
  8
1
 62
7
 10
-30
 20
15.75000000000001
 30
0
 11
-28
 21
15.75000000000001
 31
0
  0
LINE
  8
1
 62
7
 10
-11.56639151906335
 20
-46.20403352100782
 30
0
 11
-12.79128442572539
 21
-46.24961946980922
 31
0
  0
LINE
  8
1
 62
3
 10
-15.49999999999999
 20
-42.75000000000001
 30
0
 11
-8.900000000000084
 21
-42.75000000000001
 31
0
  0
LINE
  8
1
 62
7
 10
-11.56639151906335
 20
-39.29596647899221
 30
0
 11
-12.79128442572539
 21
-39.25038053019081
 31
0
  0
LINE
  8
1
 62
7
 10
-11.56639151906335
 20
-21.70403352100782
 30
0
 11
-12.79128442572539
 21
-21.74961946980922
 31
0
  0
LINE
  8
1
 62
3
 10
-15.49999999999999
 20
-18.25000000000001
 30
0
 11
-8.900000000000084
 21
-18.25000000000001
 31
0
  0
LINE
  8
1
 62
7
 10
-11.56639151906335
 20
-14.79596647899221
 30
0
 11
-12.79128442572539
 21
-14.75038053019081
 31
0
  0
LINE
  8
1
 62
7
 10
-11.56639151906335
 20
6.295966478992185
 30
0
 11
-12.79128442572539
 21
6.25038053019081
 31
0
  0
LINE
  8
1
 62
3
 10
-15.49999999999999
 20
9.750000000000014
 30
0
 11
-8.900000000000084
 21
9.750000000000014
 31
0
  0
LINE
  8
1
 62
7
 10
-11.56639151906335
 20
13.20403352100779
 30
0
 11
-12.79128442572539
 21
13.24961946980922
 31
0
  0
LINE
  8
1
 62
7
 10
-11.56639151906335
 20
13.29596647899218
 30
0
 11
-12.79128442572539
 21
13.25038053019081
 31
0
  0
LINE
  8
1
 62
3
 10
-15.49999999999999
 20
16.75000000000001
 30
0
 11
-8.900000000000084
 21
16.75000000000001
 31
0
  0
LINE
  8
1
 62
7
 10
-11.56639151906335
 20
20.20403352100779
 30
0
 11
-12.79128442572539
 21
20.24961946980922
 31
0
  0
LINE
  8
1
 62
7
 10
168.3000000000001
 20
-42.35000000000001
 30
0
 11
168.9
 21
-42.35000000000001
 31
0
  0
LINE
  8
1
 62
7
 10
168.2
 20
-43.05
 30
0
 11
168.2
 21
-42.45
 31
0
  0
LINE
  8
1
 62
7
 10
168.9
 20
-43.14999999999999
 30
0
 11
168.3000000000001
 21
-43.14999999999999
 31
0
  0
LINE
  8
1
 62
7
 10
170.1
 20
-44.95
 30
0
 11
170.1
 21
-44.35000000000001
 31
0
  0
LINE
  8
1
 62
7
 10
170.7999999999999
 20
-45.05
 30
0
 11
170.2
 21
-45.05
 31
0
  0
LINE
  8
1
 62
7
 10
170.9
 20
-44.35000000000001
 30
0
 11
170.9
 21
-44.95
 31
0
  0
LINE
  8
1
 62
7
 10
172.6999999999999
 20
-43.14999999999999
 30
0
 11
172.1
 21
-43.14999999999999
 31
0
  0
LINE
  8
1
 62
7
 10
172.7999999999999
 20
-42.45
 30
0
 11
172.7999999999999
 21
-43.05
 31
0
  0
LINE
  8
1
 62
7
 10
172.1
 20
-42.35000000000001
 30
0
 11
172.6999999999999
 21
-42.35000000000001
 31
0
  0
LINE
  8
1
 62
7
 10
170.9
 20
-40.55
 30
0
 11
170.9
 21
-41.14999999999999
 31
0
  0
LINE
  8
1
 62
7
 10
170.2
 20
-40.45
 30
0
 11
170.7999999999999
 21
-40.45
 31
0
  0
LINE
  8
1
 62
7
 10
170.1
 20
-41.14999999999999
 30
0
 11
170.1
 21
-40.55
 31
0
  0
LINE
  8
1
 62
7
 10
117.3000000000001
 20
-17.85000000000001
 30
0
 11
117.9
 21
-17.85000000000001
 31
0
  0
LINE
  8
1
 62
7
 10
117.2
 20
-18.55
 30
0
 11
117.2
 21
-17.95
 31
0
  0
LINE
  8
1
 62
7
 10
117.9
 20
-18.64999999999999
 30
0
 11
117.3000000000001
 21
-18.64999999999999
 31
0
  0
LINE
  8
1
 62
7
 10
119.1
 20
-20.45
 30
0
 11
119.1
 21
-19.85000000000001
 31
0
  0
LINE
  8
1
 62
7
 10
119.7999999999999
 20
-20.55
 30
0
 11
119.2
 21
-20.55
 31
0
  0
LINE
  8
1
 62
7
 10
119.9
 20
-19.85000000000001
 30
0
 11
119.9
 21
-20.45
 31
0
  0
LINE
  8
1
 62
7
 10
121.6999999999999
 20
-18.64999999999999
 30
0
 11
121.1
 21
-18.64999999999999
 31
0
  0
LINE
  8
1
 62
7
 10
121.7999999999999
 20
-17.95
 30
0
 11
121.7999999999999
 21
-18.55
 31
0
  0
LINE
  8
1
 62
7
 10
121.1
 20
-17.85000000000001
 30
0
 11
121.6999999999999
 21
-17.85000000000001
 31
0
  0
LINE
  8
1
 62
7
 10
119.9
 20
-16.05
 30
0
 11
119.9
 21
-16.64999999999999
 31
0
  0
LINE
  8
1
 62
7
 10
119.2
 20
-15.95
 30
0
 11
119.7999999999999
 21
-15.95
 31
0
  0
LINE
  8
1
 62
7
 10
119.1
 20
-16.64999999999999
 30
0
 11
119.1
 21
-16.05
 31
0
  0
LINE
  8
1
 62
7
 10
168.3000000000001
 20
10.14999999999999
 30
0
 11
168.9
 21
10.14999999999999
 31
0
  0
LINE
  8
1
 62
7
 10
168.2
 20
9.450000000000003
 30
0
 11
168.2
 21
10.04999999999997
 31
0
  0
LINE
  8
1
 62
7
 10
168.9
 20
9.34999999999998
 30
0
 11
168.3000000000001
 21
9.34999999999998
 31
0
  0
LINE
  8
1
 62
7
 10
170.1
 20
7.549999999999969
 30
0
 11
170.1
 21
8.149999999999992
 31
0
  0
LINE
  8
1
 62
7
 10
170.7999999999999
 20
7.450000000000003
 30
0
 11
170.2
 21
7.450000000000003
 31
0
  0
LINE
  8
1
 62
7
 10
170.9
 20
8.149999999999992
 30
0
 11
170.9
 21
7.549999999999969
 31
0
  0
LINE
  8
1
 62
7
 10
172.6999999999999
 20
9.34999999999998
 30
0
 11
172.1
 21
9.34999999999998
 31
0
  0
LINE
  8
1
 62
7
 10
172.7999999999999
 20
10.04999999999997
 30
0
 11
172.7999999999999
 21
9.450000000000003
 31
0
  0
LINE
  8
1
 62
7
 10
172.1
 20
10.14999999999999
 30
0
 11
172.6999999999999
 21
10.14999999999999
 31
0
  0
LINE
  8
1
 62
7
 10
170.9
 20
11.95
 30
0
 11
170.9
 21
11.34999999999998
 31
0
  0
LINE
  8
1
 62
7
 10
170.2
 20
12.04999999999997
 30
0
 11
170.7999999999999
 21
12.04999999999997
 31
0
  0
LINE
  8
1
 62
7
 10
170.1
 20
11.34999999999998
 30
0
 11
170.1
 21
11.95
 31
0
  0
LINE
  8
1
 62
7
 10
118.5500000000001
 20
17.14999999999999
 30
0
 11
119.15
 21
17.14999999999999
 31
0
  0
LINE
  8
1
 62
7
 10
118.45
 20
16.45
 30
0
 11
118.45
 21
17.04999999999997
 31
0
  0
LINE
  8
1
 62
7
 10
119.15
 20
16.34999999999998
 30
0
 11
118.5500000000001
 21
16.34999999999998
 31
0
  0
LINE
  8
1
 62
7
 10
120.35
 20
14.54999999999997
 30
0
 11
120.35
 21
15.14999999999999
 31
0
  0
LINE
  8
1
 62
7
 10
121.0499999999999
 20
14.45
 30
0
 11
120.45
 21
14.45
 31
0
  0
LINE
  8
1
 62
7
 10
121.15
 20
15.14999999999999
 30
0
 11
121.15
 21
14.54999999999997
 31
0
  0
LINE
  8
1
 62
7
 10
122.9499999999999
 20
16.34999999999998
 30
0
 11
122.35
 21
16.34999999999998
 31
0
  0
LINE
  8
1
 62
7
 10
123.0499999999999
 20
17.04999999999997
 30
0
 11
123.0499999999999
 21
16.45
 31
0
  0
LINE
  8
1
 62
7
 10
122.35
 20
17.14999999999999
 30
0
 11
122.9499999999999
 21
17.14999999999999
 31
0
  0
LINE
  8
1
 62
7
 10
121.15
 20
18.95
 30
0
 11
121.15
 21
18.34999999999998
 31
0
  0
LINE
  8
1
 62
7
 10
120.45
 20
19.04999999999997
 30
0
 11
121.0499999999999
 21
19.04999999999997
 31
0
  0
LINE
  8
1
 62
7
 10
120.35
 20
18.34999999999998
 30
0
 11
120.35
 21
18.95
 31
0
  0
LINE
  8
1
 62
7
 10
-11.40000000000008
 20
-30.9918669205634
 30
0
 11
-12.90000000000008
 21
-30.9918669205634
 31
0
  0
LINE
  8
1
 62
7
 10
-12.90000000000008
 20
47.25000000000001
 30
0
 11
-12.90000000000008
 21
-47.25000000000001
 31
0
  0
LINE
  8
1
 62
7
 10
-108.2110142807134
 20
17.75000000000001
 30
0
 11
-104.3552159204585
 21
17.75000000000001
 31
0
  0
LINE
  8
1
 62
7
 10
-109.056236434892
 20
15.75000000000001
 30
0
 11
-104.3552159204585
 21
15.75000000000001
 31
0
  0
LINE
  8
1
 62
3
 10
169.25
 20
13.25000000000001
 30
0
 11
169.25
 21
25.25000000000001
 31
0
  0
LINE
  8
1
 62
3
 10
163.4442108240314
 20
19.25000000000001
 30
0
 11
175
 21
19.25000000000001
 31
0
  0
LINE
  8
1
 62
7
 10
171
 20
45.75000000000001
 30
0
 11
166
 21
45.75000000000001
 31
0
  0
LINE
  8
1
 62
7
 10
173.5
 20
39.25000000000001
 30
0
 11
173.5
 21
43.25000000000001
 31
0
  0
LINE
  8
1
 62
7
 10
166
 20
36.75000000000001
 30
0
 11
171
 21
36.75000000000001
 31
0
  0
LINE
  8
1
 62
7
 10
163.5
 20
43.25000000000001
 30
0
 11
163.5
 21
39.25000000000001
 31
0
  0
LINE
  8
1
 62
7
 10
116.5
 20
43.25000000000001
 30
0
 11
116.5
 21
39.25000000000001
 31
0
  0
LINE
  8
1
 62
7
 10
124
 20
45.75000000000001
 30
0
 11
119
 21
45.75000000000001
 31
0
  0
LINE
  8
1
 62
7
 10
126.5
 20
39.25000000000001
 30
0
 11
126.5
 21
43.25000000000001
 31
0
  0
LINE
  8
1
 62
7
 10
119
 20
36.75000000000001
 30
0
 11
124
 21
36.75000000000001
 31
0
  0
LINE
  8
1
 62
7
 10
145.9505243733251
 20
-30.9918669205634
 30
0
 11
150.8194599972971
 21
-28.44363893044719
 31
0
  0
LINE
  8
1
 62
7
 10
139.1805400027026
 20
-18.05636106955289
 30
0
 11
144.0494756266748
 21
-15.5081330794366
 31
0
  0
LINE
  8
1
 62
7
 10
145.5672014791921
 20
-29.72520520771361
 30
0
 11
149.9971692363874
 21
-27.40671740955541
 31
0
  0
LINE
  8
1
 62
7
 10
140.0028307636121
 20
-19.0932825904447
 30
0
 11
144.4327985208074
 21
-16.77479479228641
 31
0
  0
LINE
  8
1
 62
3
 10
119.5
 20
-39.32394952935
 30
0
 11
119.5
 21
-46.066949151842
 31
0
  0
LINE
  8
1
 62
3
 10
133.7999999999997
 20
1.150170926205007
 30
0
 11
133.7999999999997
 21
-4.889644558334012
 31
0
  0
LINE
  8
1
 62
3
 10
138.1999999999998
 20
3.666760711430001
 30
0
 11
138.1999999999998
 21
-2.804470164861996
 31
0
  0
LINE
  8
1
 62
3
 10
151.2999999999997
 20
11.64794545885702
 30
0
 11
151.2999999999997
 21
4.745299190811991
 31
0
  0
LINE
  8
1
 62
3
 10
120.75
 20
21.25000000000001
 30
0
 11
120.75
 21
12.25000000000001
 31
0
  0
LINE
  8
1
 62
3
 10
116.033409923285
 20
-42.75000000000001
 30
0
 11
122.8376020048918
 21
-42.75000000000001
 31
0
  0
LINE
  8
1
 62
3
 10
130.977647870387
 20
-1.850000000000009
 30
0
 11
136.6124385181788
 21
-1.850000000000009
 31
0
  0
LINE
  8
1
 62
3
 10
135.0756774324168
 20
0.2199999999999847
 30
0
 11
141.1658046982129
 21
0.2199999999999847
 31
0
  0
LINE
  8
1
 62
3
 10
147.8820198137628
 20
8.149999999999992
 30
0
 11
154.5982349293129
 21
8.149999999999992
 31
0
  0
LINE
  8
1
 62
7
 10
175
 20
-43.25000000000001
 30
0
 11
175
 21
43.25000000000004
 31
0
  0
LINE
  8
1
 62
7
 10
120.75
 20
24.75000000000001
 30
0
 11
117.5
 21
24.75000000000001
 31
0
  0
LINE
  8
1
 62
7
 10
127.25
 20
31.25000000000001
 30
0
 11
127.25
 21
43.25000000000001
 31
0
  0
LINE
  8
1
 62
3
 10
134.2000000000001
 20
-23.25000000000001
 30
0
 11
155.8
 21
-23.25000000000001
 31
0
  0
LINE
  8
1
 62
7
 10
169.25
 20
14.25000000000001
 30
0
 11
172.5
 21
14.25000000000001
 31
0
  0
LINE
  8
1
 62
7
 10
119
 20
47.25000000000001
 30
0
 11
139.255437353462
 21
47.25000000000001
 31
0
  0
LINE
  8
1
 62
7
 10
162.75
 20
43.25000000000001
 30
0
 11
162.75
 21
31.25000000000001
 31
0
  0
LINE
  8
1
 62
7
 10
115
 20
-43.25000000000001
 30
0
 11
115
 21
43.25000000000001
 31
0
  0
LINE
  8
1
 62
7
 10
119
 20
-47.25000000000001
 30
0
 11
171
 21
-47.25000000000001
 31
0
  0
LINE
  8
1
 62
3
 10
145
 20
-51.25000000000001
 30
0
 11
145
 21
51.24999999999999
 31
0
  0
LINE
  8
1
 62
3
 10
-56.86903757315348
 20
-23.25000000000001
 30
0
 11
-8.006599104008494
 21
-23.25000000000001
 31
0
  0
LINE
  8
1
 62
7
 10
-39.5
 20
-19.25000000000001
 30
0
 11
-36.5
 21
-19.25000000000001
 31
0
  0
LINE
  8
1
 62
7
 10
-39.5
 20
-20.25000000000001
 30
0
 11
-39.5
 21
-19.25000000000001
 31
0
  0
LINE
  8
1
 62
7
 10
-53.5
 20
-20.25000000000001
 30
0
 11
-39.5
 21
-20.25000000000001
 31
0
  0
LINE
  8
1
 62
7
 10
-53.5
 20
-27.25000000000001
 30
0
 11
-53.5
 21
-20.25000000000001
 31
0
  0
LINE
  8
1
 62
7
 10
-36.5
 20
-27.25000000000001
 30
0
 11
-53.5
 21
-27.25000000000001
 31
0
  0
LINE
  8
1
 62
7
 10
-30
 20
-33.25000000000001
 30
0
 11
-30
 21
-28.63196843679519
 31
0
  0
LINE
  8
1
 62
7
 10
-35.53834824944244
 20
-30.78551167311981
 30
0
 11
-30
 21
-31.25000000000001
 31
0
  0
LINE
  8
1
 62
7
 10
-30
 20
-15.25000000000001
 30
0
 11
-35.53834824944244
 21
-15.71448832688021
 31
0
  0
LINE
  8
1
 62
7
 10
-28
 20
46.25000000000001
 30
0
 11
-28
 21
-46.25000000000001
 31
0
  0
LINE
  8
1
 62
7
 10
-30
 20
-33.25000000000001
 30
0
 11
-28
 21
-33.25000000000001
 31
0
  0
LINE
  8
1
 62
7
 10
-30
 20
26.75000000000001
 30
0
 11
-30
 21
22.13196843679528
 31
0
  0
LINE
  8
1
 62
7
 10
-28
 20
26.75000000000003
 30
0
 11
-30
 21
26.75000000000001
 31
0
  0
LINE
  8
1
 62
7
 10
-30.64142135623728
 20
25.62734590803389
 30
0
 11
-30
 21
25.53571428571429
 31
0
  0
LINE
  8
1
 62
7
 10
-31.5
 20
35.88270459830501
 30
0
 11
-31.5
 21
26.61729540169507
 31
0
  0
LINE
  8
1
 62
7
 10
-28.85857864376271
 20
37.12734590803389
 30
0
 11
-30.64142135623728
 21
36.87265409196608
 31
0
  0
LINE
  8
1
 62
7
 10
-14.49999999999999
 20
-47.25000000000001
 30
0
 11
-14.49999999999999
 21
47.25000000000001
 31
0
  0
LINE
  8
1
 62
7
 10
-27
 20
-47.25000000000001
 30
0
 11
-12.90000000000008
 21
-47.25000000000001
 31
0
  0
LINE
  8
1
 62
7
 10
-14.49999999999999
 20
47.25000000000001
 30
0
 11
-27
 21
47.25000000000001
 31
0
  0
LINE
  8
1
 62
7
 10
-92.45623643489205
 20
-41.4181829468336
 30
0
 11
-92.45623643489205
 21
41.41818294683357
 31
0
  0
LINE
  8
1
 62
7
 10
-94.55725694932568
 20
-24.25000000000001
 30
0
 11
-92.45623643489205
 21
-24.25000000000001
 31
0
  0
LINE
  8
1
 62
7
 10
-94.55725694932568
 20
-22.25000000000001
 30
0
 11
-92.45623643489205
 21
-22.25000000000001
 31
0
  0
LINE
  8
1
 62
7
 10
-111.5189825016983
 20
-24.25000000000001
 30
0
 11
-104.3552159204585
 21
-24.25000000000001
 31
0
  0
LINE
  8
1
 62
7
 10
-111.5189825016983
 20
-22.25000000000001
 30
0
 11
-104.3552159204585
 21
-22.25000000000001
 31
0
  0
LINE
  8
1
 62
7
 10
-134.5572569493256
 20
-24.25000000000001
 30
0
 11
-127.3934903680858
 21
-24.25000000000001
 31
0
  0
LINE
  8
1
 62
7
 10
-134.5572569493256
 20
-22.25000000000001
 30
0
 11
-127.3934903680858
 21
-22.25000000000001
 31
0
  0
LINE
  8
1
 62
7
 10
-146.4562364348919
 20
-41.4181829468336
 30
0
 11
-146.4562364348919
 21
41.41818294683357
 31
0
  0
LINE
  8
1
 62
7
 10
-146.4562364348919
 20
-24.25000000000001
 30
0
 11
-144.3552159204584
 21
-24.25000000000001
 31
0
  0
LINE
  8
1
 62
7
 10
-146.4562364348919
 20
-22.25000000000001
 30
0
 11
-144.3552159204584
 21
-22.25000000000001
 31
0
  0
LINE
  8
1
 62
7
 10
-98.45623643489205
 20
-33.25000000000001
 30
0
 11
-98.45623643489205
 21
-28.14897948556641
 31
0
  0
LINE
  8
1
 62
7
 10
-100.456236434892
 20
-33.25000000000001
 30
0
 11
-98.45623643489205
 21
-33.25000000000001
 31
0
  0
LINE
  8
1
 62
7
 10
-100.456236434892
 20
-28.14897948556641
 30
0
 11
-100.456236434892
 21
-33.25000000000001
 31
0
  0
LINE
  8
1
 62
7
 10
-98.45623643489205
 20
11.85102051443359
 30
0
 11
-98.45623643489205
 21
-18.35102051443361
 31
0
  0
LINE
  8
1
 62
7
 10
-100.456236434892
 20
11.85102051443359
 30
0
 11
-100.456236434892
 21
-18.35102051443361
 31
0
  0
LINE
  8
1
 62
7
 10
-98.45623643489205
 20
26.75000000000001
 30
0
 11
-98.45623643489205
 21
21.64897948556639
 31
0
  0
LINE
  8
1
 62
7
 10
-100.456236434892
 20
26.75000000000001
 30
0
 11
-98.45623643489205
 21
26.75000000000001
 31
0
  0
LINE
  8
1
 62
7
 10
-100.456236434892
 20
21.64897948556639
 30
0
 11
-100.456236434892
 21
26.75000000000001
 31
0
  0
LINE
  8
1
 62
7
 10
-94.55725694932568
 20
15.75000000000001
 30
0
 11
-92.45623643489205
 21
15.75000000000001
 31
0
  0
LINE
  8
1
 62
7
 10
-94.55725694932568
 20
17.75000000000001
 30
0
 11
-92.45623643489205
 21
17.75000000000001
 31
0
  0
LINE
  8
1
 62
7
 10
-134.5572569493256
 20
15.75000000000001
 30
0
 11
-116.2562364348919
 21
15.75000000000001
 31
0
  0
LINE
  8
1
 62
7
 10
-134.5572569493256
 20
17.75000000000001
 30
0
 11
-117.1014585890705
 21
17.75000000000001
 31
0
  0
LINE
  8
1
 62
7
 10
-146.4562364348919
 20
15.75000000000001
 30
0
 11
-144.3552159204584
 21
15.75000000000001
 31
0
  0
LINE
  8
1
 62
7
 10
-146.4562364348919
 20
17.75000000000001
 30
0
 11
-144.3552159204584
 21
17.75000000000001
 31
0
  0
LINE
  8
1
 62
7
 10
-138.4562364348919
 20
-33.25000000000001
 30
0
 11
-138.4562364348919
 21
-28.14897948556641
 31
0
  0
LINE
  8
1
 62
7
 10
-140.4562364348919
 20
-33.25000000000001
 30
0
 11
-138.4562364348919
 21
-33.25000000000001
 31
0
  0
LINE
  8
1
 62
7
 10
-140.4562364348919
 20
-28.14897948556641
 30
0
 11
-140.4562364348919
 21
-33.25000000000001
 31
0
  0
LINE
  8
1
 62
7
 10
-138.4562364348919
 20
11.85102051443359
 30
0
 11
-138.4562364348919
 21
-18.35102051443361
 31
0
  0
LINE
  8
1
 62
7
 10
-140.4562364348919
 20
11.85102051443359
 30
0
 11
-140.4562364348919
 21
-18.35102051443361
 31
0
  0
LINE
  8
1
 62
7
 10
-138.4562364348919
 20
26.75000000000001
 30
0
 11
-138.4562364348919
 21
21.64897948556639
 31
0
  0
LINE
  8
1
 62
7
 10
-140.4562364348919
 20
26.75000000000001
 30
0
 11
-138.4562364348919
 21
26.75000000000001
 31
0
  0
LINE
  8
1
 62
7
 10
-140.4562364348919
 20
26.75000000000001
 30
0
 11
-140.4562364348919
 21
21.64897948556639
 31
0
  0
LINE
  8
1
 62
3
 10
-119.0258674992225
 20
2.138752246048384
 30
0
 11
-102.9193234034902
 21
-3.826634456074814
 31
0
  0
LINE
  8
1
 62
7
 10
-109.8191510360983
 20
-6.069869423256691
 30
0
 11
-115.2191510360983
 21
-4.069869423256691
 31
0
  0
LINE
  8
1
 62
7
 10
-112.0933218336859
 20
4.369869423256674
 30
0
 11
-106.6933218336859
 21
2.369869423256702
 31
0
  0
LINE
  8
1
 62
3
 10
-99.45623643489205
 20
47.3593059936909
 30
0
 11
-99.45623643489205
 21
-50.25000000000001
 31
0
  0
LINE
  8
1
 62
3
 10
-139.4562364348919
 20
47.25000000000001
 30
0
 11
-139.4562364348919
 21
-50.25
 31
0
  0
LINE
  8
1
 62
3
 10
-149.4562364348919
 20
16.75000000000001
 30
0
 11
-86.45623643489205
 21
16.75000000000001
 31
0
  0
LINE
  8
1
 62
3
 10
-149.4562364348919
 20
-23.25000000000001
 30
0
 11
-86.45623643489205
 21
-23.25000000000001
 31
0
  0
LINE
  8
1
 62
3
 10
-119.456236434892
 20
51.25000000000001
 30
0
 11
-119.456236434892
 21
-51.25000000000001
 31
0
  0
LINE
  8
1
 62
3
 10
-125.456236434892
 20
31.25000000000001
 30
0
 11
-110.456236434892
 21
31.25000000000001
 31
0
  0
LINE
  8
1
 62
3
 10
-132.256236434892
 20
8.149999999999992
 30
0
 11
-119.256236434892
 21
8.149999999999992
 31
0
  0
LINE
  8
1
 62
3
 10
-125.756236434892
 20
14.64999999999999
 30
0
 11
-125.756236434892
 21
1.649999999999991
 31
0
  0
LINE
  8
1
 62
3
 10
-112.656236434892
 20
24.95
 30
0
 11
-112.656236434892
 21
11.95
 31
0
  0
LINE
  8
1
 62
3
 10
-119.156236434892
 20
18.45
 30
0
 11
-106.156236434892
 21
18.45
 31
0
  0
LINE
  8
1
 62
7
 10
-119.456236434892
 20
47.25000000000001
 30
0
 11
-145.6383256950743
 21
42.40146495181808
 31
0
  0
LINE
  8
1
 62
7
 10
-93.27414717470975
 20
42.40146495181808
 30
0
 11
-104.1615003816428
 21
44.41764147162048
 31
0
  0
LINE
  8
1
 62
7
 10
-119.456236434892
 20
-47.25000000000001
 30
0
 11
-93.27414717470975
 21
-42.40146495181811
 31
0
  0
LINE
  8
1
 62
7
 10
-145.6383256950743
 20
-42.40146495181811
 30
0
 11
-119.456236434892
 21
-47.25000000000001
 31
0
  0
LINE
  8
1
 62
7
 10
-89.45623643489205
 20
-43.25000000000001
 30
0
 11
-89.45623643489205
 21
43.25000000000001
 31
0
  0
LINE
  8
1
 62
7
 10
-145.4562364348919
 20
-47.25000000000001
 30
0
 11
-93.45623643489205
 21
-47.25000000000001
 31
0
  0
LINE
  8
1
 62
7
 10
-25
 20
47.25000000000001
 30
0
 11
-25
 21
-47.25000000000001
 31
0
  0
LINE
  8
1
 62
7
 10
-28
 20
42.25000000000001
 30
0
 11
-25
 21
42.25000000000001
 31
0
  0
LINE
  8
1
 62
7
 10
-28
 20
-42.25000000000001
 30
0
 11
-25
 21
-42.25000000000001
 31
0
  0
LINE
  8
1
 62
7
 10
-14.49999999999999
 20
47.25000000000001
 30
0
 11
-10.29999999999991
 21
47.25000000000004
 31
0
  0
LINE
  8
1
 62
7
 10
-12.90000000000008
 20
39.89999999999999
 30
0
 11
-10.79999999999995
 21
39.89999999999999
 31
0
  0
LINE
  8
1
 62
7
 10
-12.90000000000008
 20
20.39999999999999
 30
0
 11
-10.79999999999995
 21
20.39999999999999
 31
0
  0
LINE
  8
1
 62
7
 10
-36
 20
-28.27783407997201
 30
0
 11
-36
 21
-30.286984430369
 31
0
  0
LINE
  8
1
 62
7
 10
-36
 20
-18.2220717301165
 30
0
 11
-36
 21
-16.21301556963091
 31
0
  0
LINE
  8
1
 62
7
 10
-30
 20
-17.8680315632047
 30
0
 11
-30
 21
11.36803156320481
 31
0
  0
LINE
  8
1
 62
3
 10
-39.14881184975251
 20
16.75000000000001
 30
0
 11
-23.27019400765749
 21
16.75000000000001
 31
0
  0
LINE
  8
1
 62
7
 10
-122.1019877459566
 20
-20.25000000000001
 30
0
 11
-116.8104851238274
 21
-20.25000000000001
 31
0
  0
LINE
  8
1
 62
7
 10
157.5
 20
16.75000000000001
 30
0
 11
157.5
 21
6.750000000000014
 31
0
  0
LINE
  8
1
 62
7
 10
160
 20
16.75000000000001
 30
0
 11
160
 21
6.750000000000014
 31
0
  0
LINE
  8
1
 62
7
 10
151.2439580109853
 20
-11.8986569800288
 30
0
 11
164.0258499886097
 21
4.642614991014185
 31
0
  0
LINE
  8
1
 62
7
 10
167.1909899941781
 20
2.196824986711093
 30
0
 11
154.409098016554
 21
-14.3444469843319
 31
0
  0
LINE
  8
1
 62
7
 10
125
 20
9.250000000000014
 30
0
 11
125
 21
-10.755811097706
 31
0
  0
LINE
  8
1
 62
7
 10
127.5
 20
-10.75000000000001
 30
0
 11
127.5
 21
9.250000000000014
 31
0
  0
LINE
  8
1
 62
7
 10
126.9671116266729
 20
-21.75222368525921
 30
0
 11
132.3456909021317
 21
-22.8068470726041
 31
0
  0
LINE
  8
1
 62
7
 10
127.736769469557
 20
-17.82696868655061
 30
0
 11
133.1153487450158
 21
-18.8815920738955
 31
0
  0
LINE
  8
1
 62
7
 10
124.6468993986962
 20
-36.2963787469932
 30
0
 11
133.6425675348037
 21
-29.4173384076169
 31
0
  0
LINE
  8
1
 62
7
 10
136.0723679650869
 20
-32.59476973952572
 30
0
 11
127.0766998289794
 21
-39.47381007890199
 31
0
  0
LINE
  8
1
 62
7
 10
155.6278698074318
 20
-30.70629693217809
 30
0
 11
163.4289321881345
 21
-38.50735931288069
 31
0
  0
LINE
  8
1
 62
7
 10
166.2573593128807
 20
-35.67893218813451
 30
0
 11
158.456296932178
 21
-27.87786980743191
 31
0
  0
LINE
  8
1
 62
3
 10
116.25
 20
16.75000000000001
 30
0
 11
125.25
 21
16.75000000000001
 31
0
  0
LINE
  8
1
 62
3
 10
174
 20
-42.75000000000001
 30
0
 11
174.4160916152368
 21
-42.75000000000001
 31
0
  0
LINE
  8
1
 62
7
 10
-11.40000000000008
 20
-21.6801690413139
 30
0
 11
-11.40000000000008
 21
-30.9918669205634
 31
0
  0
LINE
  8
1
 62
7
 10
-30
 20
15.75000000000001
 30
0
 11
-30
 21
17.75000000000001
 31
0
  0
LINE
  8
1
 62
7
 10
-30
 20
-22.25000000000001
 30
0
 11
-30
 21
-24.25000000000001
 31
0
  0
LINE
  8
1
 62
7
 10
-28
 20
-17.75000000000001
 30
0
 11
-36.02773500981112
 21
-18.22376305610059
 31
0
  0
LINE
  8
1
 62
7
 10
-36.02773500981112
 20
-28.27623694389929
 30
0
 11
-28
 21
-28.7499999999999
 31
0
  0
LINE
  8
1
 62
7
 10
-36.5
 20
-18.7229932327033
 30
0
 11
-36.5
 21
-27.77700676729661
 31
0
  0
LINE
  8
1
 62
7
 10
-28
 20
-22.25000000000001
 30
0
 11
-30
 21
-22.25000000000001
 31
0
  0
LINE
  8
1
 62
7
 10
-28
 20
-24.25000000000001
 30
0
 11
-30
 21
-24.25000000000001
 31
0
  0
LINE
  8
1
 62
7
 10
-31.5
 20
11.28270459830487
 30
0
 11
-31.5
 21
5.025785323693881
 31
0
  0
LINE
  8
1
 62
2
 10
-14.49999999999999
 20
24.75000000000001
 30
0
 11
-12.90000000000008
 21
24.75000000000001
 31
0
  0
LINE
  8
1
 62
2
 10
-72.69068014033576
 20
-64.25000000000001
 30
0
 11
-22.19068014033575
 21
-64.25000000000001
 31
0
  0
LINE
  8
1
 62
3
 10
-149.4562364348919
 20
16.75000000000001
 30
0
 11
-153.4562364348919
 21
16.75000000000001
 31
0
  0
LINE
  8
1
 62
7
 10
-149.4562364348919
 20
43.25000000000001
 30
0
 11
-149.4562364348919
 21
-43.25000000000001
 31
0
  0
LINE
  8
1
 62
3
 10
-149.4562364348919
 20
-23.25000000000001
 30
0
 11
-153.4562364348919
 21
-23.25000000000001
 31
0
  0
LINE
  8
1
 62
3
 10
-99.45623643489205
 20
47.3593059936909
 30
0
 11
-99.45623643489205
 21
50.25000000000001
 31
0
  0
LINE
  8
1
 62
3
 10
-139.4562364348919
 20
47.25000000000001
 30
0
 11
-139.4562364348919
 21
50.25000000000001
 31
0
  0
LINE
  8
1
 62
7
 10
-145.4562364348919
 20
47.25000000000001
 30
0
 11
-93.45623643489205
 21
47.25000000000001
 31
0
  0
LINE
  8
1
 62
3
 10
-125.456236434892
 20
31.25000000000001
 30
0
 11
-128.456236434892
 21
31.25000000000001
 31
0
  0
LINE
  8
1
 62
3
 10
127.976988059924
 20
42.74999999999999
 30
0
 11
135.28740521038
 21
42.74999999999999
 31
0
  0
LINE
  8
1
 62
3
 10
155.1129386781931
 20
42.74999999999999
 30
0
 11
161.310901044885
 21
42.74999999999999
 31
0
  0
LINE
  8
1
 62
3
 10
131.7
 20
47.24999999999999
 30
0
 11
131.7
 21
38.68331000869898
 31
0
  0
LINE
  8
1
 62
3
 10
158.3
 20
46.233079364373
 30
0
 11
158.3
 21
38.970920269867
 31
0
  0
LINE
  8
1
 62
3
 10
166
 20
9.750000000000014
 30
0
 11
175
 21
9.750000000000014
 31
0
  0
LINE
  8
1
 62
3
 10
170.5
 20
14.25000000000001
 30
0
 11
170.5
 21
5.250000000000014
 31
0
  0
LINE
  8
1
 62
3
 10
166
 20
-42.75000000000001
 30
0
 11
175
 21
-42.75000000000001
 31
0
  0
LINE
  8
1
 62
3
 10
170.5
 20
-38.25000000000001
 30
0
 11
170.5
 21
-47.25000000000001
 31
0
  0
LINE
  8
1
 62
3
 10
119.5
 20
-13.75000000000001
 30
0
 11
119.5
 21
-22.75000000000001
 31
0
  0
LINE
  8
1
 62
3
 10
115
 20
-18.25000000000001
 30
0
 11
124
 21
-18.25000000000001
 31
0
  0
LINE
  8
1
 62
7
 10
164.2867489613315
 20
18.64490568738788
 30
0
 11
162.75
 21
31.25000000000001
 31
0
  0
LINE
  8
1
 62
3
 10
111.5465326903838
 20
31.25000000000001
 30
0
 11
177.6938493032267
 21
31.25000000000001
 31
0
  0
LINE
  8
1
 62
7
 10
150.744562646538
 20
47.25000000000001
 30
0
 11
171
 21
47.25000000000001
 31
0
  0
LINE
  8
1
 62
7
 10
159.3682586059194
 20
35.55733614121489
 30
0
 11
160.0941108742501
 21
36.55733614121505
 31
0
  0
LINE
  8
1
 62
3
 10
-106.1562364348921
 20
45.89793268284798
 30
0
 11
-106.1562364348921
 21
39.23958352937179
 31
0
  0
LINE
  8
1
 62
3
 10
-103.0988973796969
 20
42.75000000000007
 30
0
 11
-109.300674019792
 21
42.75000000000007
 31
0
  0
LINE
  8
1
 62
7
 10
159.942920471376
 20
32.55733614121489
 30
0
 11
160.9970479931862
 21
31.55733614121489
 31
0
  0
LINE
  8
1
 62
7
 10
129.0029520068137
 20
30.94266385878508
 30
0
 11
130.0570795286237
 21
29.94266385878508
 31
0
  0
LINE
  8
1
 62
7
 10
130.6317413940801
 20
26.94266385878508
 30
0
 11
129.9058891257498
 21
25.94266385878508
 31
0
  0
LINE
  8
1
 62
7
 10
-10.29999999999991
 20
15.75000000000001
 30
0
 11
-10.29999999999991
 21
47.25000000000004
 31
0
  0
LINE
  8
1
 62
7
 10
120
 20
36.74999999999996
 30
0
 11
120
 21
40.24999999999996
 31
0
  0
LINE
  8
1
 62
7
 10
170
 20
36.74999999999996
 30
0
 11
170
 21
40.24999999999996
 31
0
  0
LINE
  8
1
 62
7
 10
120
 20
40.24999999999996
 30
0
 11
126.5
 21
41.69444444444447
 31
0
  0
LINE
  8
1
 62
7
 10
163.5
 20
41.69444444444447
 30
0
 11
170
 21
40.24999999999996
 31
0
  0
ARC
  8
1
 62
7
 10
138.4244528039068
 20
40.98779641766221
 30
0
 40
1.499999999999754
 50
292.6255895257046
 51
225.4335985626695
  0
ARC
  8
1
 62
7
 10
138.4244528039068
 20
40.98779641766221
 30
0
 40
0.8299999999998847
 50
349.0295940441905
 51
169.0295940441843
  0
ARC
  8
1
 62
7
 10
151.5755471961041
 20
21.51220358233351
 30
0
 40
0.830000000000186
 50
259.0295940442005
 51
79.02959404419607
  0
ARC
  8
1
 62
7
 10
151.5755471961041
 20
21.51220358233351
 30
0
 40
1.500000000000122
 50
202.6255895257159
 51
135.4335985626805
  0
ARC
  8
1
 62
3
 10
145.0000000000018
 20
31.2499999999966
 30
0
 40
11.7500000000041
 50
24.56006893763668
 51
44.06545209134672
  0
ARC
  8
1
 62
3
 10
145.0000000000077
 20
31.24999999999461
 30
0
 40
11.75000000000397
 50
113.6046892100262
 51
137.0122165580079
  0
ARC
  8
1
 62
3
 10
145.0000000000066
 20
31.2499999999994
 30
0
 40
11.75000000000164
 50
205.4952563912224
 51
223.5881761495691
  0
ARC
  8
1
 62
3
 10
145.0000000000052
 20
31.24999999999848
 30
0
 40
11.75000000000066
 50
290.5353933718724
 51
314.9107814753711
  0
ARC
  8
1
 62
7
 10
-9.425000000000061
 20
-42.75000000000001
 30
0
 40
0.9250000000001039
 50
161.0753555839507
 51
198.9246444160485
  0
ARC
  8
1
 62
7
 10
-18.29492957746492
 20
-42.76521753674309
 30
0
 40
8.000000000000034
 50
338.4952052003295
 51
357.9599648354466
  0
ARC
  8
1
 62
7
 10
-18.29492957746492
 20
-42.73478246325699
 30
0
 40
7.999999999999964
 50
2.040035164553977
 51
21.50479479967101
  0
ARC
  8
1
 62
7
 10
-9.425000000000061
 20
-18.25000000000001
 30
0
 40
0.9250000000001062
 50
161.0753555839503
 51
198.9246444160485
  0
ARC
  8
1
 62
7
 10
-18.29492957746492
 20
-18.26521753674309
 30
0
 40
8.000000000000034
 50
338.4952052003295
 51
357.9599648354466
  0
ARC
  8
1
 62
7
 10
-18.29492957746492
 20
-18.23478246325699
 30
0
 40
7.999999999999964
 50
2.040035164554003
 51
21.50479479967101
  0
ARC
  8
1
 62
7
 10
-9.425000000000061
 20
9.750000000000014
 30
0
 40
0.9249999999999842
 50
161.0753555839513
 51
198.9246444160519
  0
ARC
  8
1
 62
7
 10
-18.29492957746492
 20
9.734782463256877
 30
0
 40
8.000000000000023
 50
338.4952052003297
 51
357.9599648354469
  0
ARC
  8
1
 62
7
 10
-18.29492957746492
 20
9.765217536742981
 30
0
 40
8.000000000000073
 50
2.040035164553961
 51
21.504794799671
  0
ARC
  8
1
 62
7
 10
-9.425000000000061
 20
16.75000000000001
 30
0
 40
0.925000000000089
 50
161.0753555839534
 51
198.9246444160497
  0
ARC
  8
1
 62
7
 10
-18.29492957746492
 20
16.73478246325688
 30
0
 40
8.000000000000025
 50
338.4952052003297
 51
357.9599648354467
  0
ARC
  8
1
 62
7
 10
-18.29492957746492
 20
16.76521753674298
 30
0
 40
7.999999999999964
 50
2.040035164553977
 51
21.50479479967101
  0
ARC
  8
1
 62
7
 10
145
 20
-23.25000000000001
 30
0
 40
7.800000000000038
 50
138.2523439171434
 51
276.9995818175419
  0
ARC
  8
1
 62
7
 10
145
 20
-23.25000000000001
 30
0
 40
7.799999999999843
 50
318.2523439171416
 51
96.99958181754271
  0
ARC
  8
1
 62
7
 10
145
 20
-23.25000000000001
 30
0
 40
6.500000000000133
 50
140.2458278153837
 51
275.0060979193
  0
ARC
  8
1
 62
7
 10
145
 20
-23.25000000000001
 30
0
 40
6.499999999999819
 50
320.2458278153803
 51
95.00609791930431
  0
ARC
  8
1
 62
7
 10
169.25
 20
19.25000000000001
 30
0
 40
4.999999999999939
 50
186.9509076652039
 51
270
  0
ARC
  8
1
 62
7
 10
-108.256236434892
 20
-1.850000000000009
 30
0
 40
4.50000000000006
 50
249.6768631703356
 51
69.6768631703381
  0
ARC
  8
1
 62
7
 10
-113.656236434892
 20
0.1499999999999915
 30
0
 40
4.499999999999986
 50
69.67686317033814
 51
249.6768631703356
  0
ARC
  8
1
 62
7
 10
158.75
 20
7.031250000000014
 30
0
 40
1.28125
 50
192.6803834918198
 51
347.3196165081802
  0
ARC
  8
1
 62
7
 10
158.75
 20
16.46875000000001
 30
0
 40
1.28125
 50
12.68038349181982
 51
167.3196165081802
  0
ARC
  8
1
 62
7
 10
126.2493376133996
 20
-10.46793933682791
 30
0
 40
1.282074343774989
 50
192.9755909515071
 51
347.2907696670898
  0
ARC
  8
1
 62
7
 10
126.25
 20
8.97289613913479
 30
0
 40
1.280346261644253
 50
12.49936792538156
 51
167.5006320746185
  0
ARC
  8
1
 62
7
 10
131.7
 20
42.74999999999999
 30
0
 40
2.300000000000016
 50
30.8254486064992
 51
247.4771219263434
  0
ARC
  8
1
 62
7
 10
138.2
 20
16.75
 30
0
 40
1.500000000000537
 50
193.9114582810324
 51
295.838626088404
  0
ARC
  8
1
 62
7
 10
158.3
 20
42.74999999999999
 30
0
 40
1.499999999999998
 50
285.7310845793643
 51
0
  0
ARC
  8
1
 62
7
 10
158.3
 20
42.74999999999999
 30
0
 40
1.5
 50
0
 51
155.9663448877936
  0
ARC
  8
1
 62
7
 10
-119.456236434892
 20
31.25000000000001
 30
0
 40
17.00000000000007
 50
32.44358033691593
 51
49.25384913024112
  0
ARC
  8
1
 62
7
 10
144.9999999999959
 20
31.24999999999928
 30
0
 40
15.00000000000396
 50
5.000000000001509
 51
16.68775087494233
  0
ARC
  8
1
 62
7
 10
144.9999999999929
 20
31.24999999999859
 30
0
 40
14.99999999999293
 50
184.9999999999971
 51
196.6877508749464
  0
ARC
  8
1
 62
7
 10
-119.456236434892
 20
31.25000000000001
 30
0
 40
17.00000000000002
 50
70.25007720435721
 51
109.7499227956425
  0
CIRCLE
  8
1
 62
7
 10
154.7377964176698
 20
37.8255471960967
 30
0
 40
1.000000000000178
  0
CIRCLE
  8
1
 62
7
 10
135.2622035823412
 20
24.67445280389888
 30
0
 40
0.9999999999999316
  0
CIRCLE
  8
1
 62
2
 10
-139.4562364348919
 20
-23.25000000000001
 30
0
 40
2
  0
CIRCLE
  8
1
 62
7
 10
169.25
 20
19.25000000000001
 30
0
 40
3.5
  0
CIRCLE
  8
1
 62
7
 10
169.25
 20
19.25000000000001
 30
0
 40
1.899999999999807
  0
CIRCLE
  8
1
 62
7
 10
133.7999999999997
 20
-1.850000000000009
 30
0
 40
1.5
  0
CIRCLE
  8
1
 62
7
 10
138.1999999999998
 20
0.2199999999999847
 30
0
 40
1.5
  0
CIRCLE
  8
1
 62
7
 10
151.2999999999997
 20
8.149999999999992
 30
0
 40
1.5
  0
CIRCLE
  8
1
 62
7
 10
119.5
 20
-42.75000000000001
 30
0
 40
1.5
  0
CIRCLE
  8
1
 62
7
 10
145
 20
-23.25000000000001
 30
0
 40
4
  0
CIRCLE
  8
1
 62
7
 10
-125.756236434892
 20
8.149999999999992
 30
0
 40
4.5
  0
CIRCLE
  8
1
 62
7
 10
-112.656236434892
 20
18.45
 30
0
 40
4.5
  0
CIRCLE
  8
1
 62
7
 10
-99.45623643489205
 20
16.75000000000001
 30
0
 40
1.399999999999977
  0
CIRCLE
  8
1
 62
2
 10
-99.45623643489205
 20
16.75000000000001
 30
0
 40
2
  0
CIRCLE
  8
1
 62
7
 10
-99.45623643489205
 20
-23.25000000000001
 30
0
 40
1.399999999999977
  0
CIRCLE
  8
1
 62
7
 10
-139.4562364348919
 20
-23.25000000000001
 30
0
 40
1.400000000000205
  0
CIRCLE
  8
1
 62
2
 10
-99.45623643489205
 20
-23.25000000000001
 30
0
 40
1.999999999999957
  0
CIRCLE
  8
1
 62
7
 10
-139.4562364348919
 20
16.75000000000001
 30
0
 40
1.400000000000205
  0
CIRCLE
  8
1
 62
2
 10
-139.4562364348919
 20
16.75000000000001
 30
0
 40
2
  0
CIRCLE
  8
1
 62
7
 10
-119.456236434892
 20
-23.25000000000001
 30
0
 40
5.5
  0
CIRCLE
  8
1
 62
7
 10
-119.456236434892
 20
31.25000000000001
 30
0
 40
6
  0
CIRCLE
  8
1
 62
7
 10
120.75
 20
16.75000000000001
 30
0
 40
3.5
  0
CIRCLE
  8
1
 62
7
 10
170.5
 20
9.750000000000014
 30
0
 40
3.5
  0
CIRCLE
  8
1
 62
7
 10
119.5
 20
-18.25000000000001
 30
0
 40
3.5
  0
CIRCLE
  8
1
 62
7
 10
170.5
 20
-42.75000000000001
 30
0
 40
3.5
  0
CIRCLE
  8
1
 62
7
 10
-99.45623643489205
 20
-23.25000000000001
 30
0
 40
5.000000000000114
  0
CIRCLE
  8
1
 62
7
 10
-119.456236434892
 20
-23.25000000000001
 30
0
 40
8
  0
CIRCLE
  8
1
 62
7
 10
-119.456236434892
 20
-23.25000000000001
 30
0
 40
4
  0
CIRCLE
  8
1
 62
7
 10
-139.4562364348919
 20
-23.25000000000001
 30
0
 40
5
  0
CIRCLE
  8
1
 62
7
 10
-99.45623643489205
 20
16.75000000000001
 30
0
 40
5.000000000000114
  0
CIRCLE
  8
1
 62
7
 10
-139.4562364348919
 20
16.75000000000001
 30
0
 40
5
  0
CIRCLE
  8
1
 62
7
 10
169.25
 20
19.25000000000001
 30
0
 40
4
  0
CIRCLE
  8
1
 62
7
 10
-106.1562364348921
 20
42.75000000000007
 30
0
 40
2.599999999999994
  0
CIRCLE
  8
1
 62
7
 10
145
 20
31.25000000000001
 30
0
 40
17
  0
CIRCLE
  8
1
 62
7
 10
145
 20
31.25000000000001
 30
0
 40
1
  0
CIRCLE
  8
1
 62
7
 10
145
 20
31.25000000000001
 30
0
 40
1.5
  0
CIRCLE
  8
1
 62
7
 10
145
 20
31.25000000000001
 30
0
 40
5
  0
CIRCLE
  8
1
 62
7
 10
145
 20
31.25000000000001
 30
0
 40
16
  0
POLYLINE
  8
1
 62
2
 66
1
  0
VERTEX
  8
1
 10
138.8935624959968
 20
38.3201752864178
 30
0
 42
0.0008805711206555003
  0
VERTEX
  8
1
 10
138.8514068113607
 20
38.33264440734725
 30
0
 42
0.002644711703513165
  0
VERTEX
  8
1
 10
138.8091997636609
 20
38.34480577035778
 30
0
 42
0.004422816416794741
  0
VERTEX
  8
1
 10
138.7668899898339
 20
38.35635161753051
 30
0
 42
0.006215752142595744
  0
VERTEX
  8
1
 10
138.7244261268158
 20
38.36697419094653
 30
0
 42
0.008023928025205579
  0
VERTEX
  8
1
 10
138.6817568115432
 20
38.37636573268692
 30
0
 42
0.02850467902933277
  0
VERTEX
  8
1
 10
138.5248786133244
 20
38.39905034931373
 30
0
 42
0.01068568140611052
  0
VERTEX
  8
1
 10
138.3658912743229
 20
38.40943747906178
 30
0
 42
0.002898486791291613
  0
VERTEX
  8
1
 10
138.2060728627698
 20
38.41552516111389
 30
0
 42
-0.01213382583583986
  0
VERTEX
  8
1
 10
138.0467014468961
 20
38.42531143465286
 30
0
 42
-0.02493838620170073
  0
VERTEX
  8
1
 10
137.8890550949329
 20
38.44679433886149
 30
0
 42
-0.02102005308168316
  0
VERTEX
  8
1
 10
137.7507083986812
 20
38.480091836437
 30
0
 42
-0.007571192884269254
  0
VERTEX
  8
1
 10
137.6137229474986
 20
38.52145209949835
 30
0
 42
0.005633645166469884
  0
VERTEX
  8
1
 10
137.4770740048843
 20
38.56329052369129
 30
0
 42
0.01907355029080399
  0
VERTEX
  8
1
 10
137.3397368343374
 20
38.59802250466156
 30
0
 42
0.03322122341364847
  0
VERTEX
  8
1
 10
137.2006866993569
 20
38.6180634380549
 30
0
 42
0.01516070082925178
  0
VERTEX
  8
1
 10
137.151507417178
 20
38.62034722144056
 30
0
 42
0.006966655230119715
  0
VERTEX
  8
1
 10
137.1020605360327
 20
38.62045365179355
 30
0
 42
0.009479313839406934
  0
VERTEX
  8
1
 10
137.0524129556626
 20
38.61892706737202
 30
0
 42
0.001394941718194453
  0
VERTEX
  8
1
 10
137.0026315758093
 20
38.61631180643416
 30
0
 42
0.004011563889629121
  0
VERTEX
  8
1
 10
136.9527832962144
 20
38.61315220723812
 30
0
  0
SEQEND
  8
1
  0
POLYLINE
  8
1
 62
2
 66
1
  0
VERTEX
  8
1
 10
149.2698625132485
 20
22.96231018133279
 30
0
 42
-0.003029259462665624
  0
VERTEX
  8
1
 10
149.2893698223897
 20
22.91131929289579
 30
0
 42
-0.009295256951408785
  0
VERTEX
  8
1
 10
149.3074168292448
 20
22.860442722308
 30
0
 42
-0.01615836029124915
  0
VERTEX
  8
1
 10
149.3225432315279
 20
22.80979478741867
 30
0
 42
-0.02388695630751238
  0
VERTEX
  8
1
 10
149.3332887269528
 20
22.75948980607699
 30
0
 42
-0.03239089993642316
  0
VERTEX
  8
1
 10
149.3381930132337
 20
22.70964209613219
 30
0
 42
-0.08465012033206201
  0
VERTEX
  8
1
 10
149.3175272255889
 20
22.57415208553171
 30
0
 42
-0.0441328459148734
  0
VERTEX
  8
1
 10
149.2600973159548
 20
22.44123629196712
 30
0
 42
-0.01108135967773612
  0
VERTEX
  8
1
 10
149.1851976792292
 20
22.30908046500267
 30
0
 42
0.01810236028261711
  0
VERTEX
  8
1
 10
149.1121227103097
 20
22.17587035420262
 30
0
 42
0.05045145883981386
  0
VERTEX
  8
1
 10
149.0601668040939
 20
22.03979170913119
 30
0
 42
0.04232233621356007
  0
VERTEX
  8
1
 10
149.0474142105567
 20
21.9694369018189
 30
0
 42
0.0198477791687947
  0
VERTEX
  8
1
 10
149.0434664154802
 20
21.89776998901552
 30
0
 42
0.03063717158913567
  0
VERTEX
  8
1
 10
149.0468250978913
 20
21.82467270740492
 30
0
 42
0.007510884163564774
  0
VERTEX
  8
1
 10
149.055991936817
 20
21.75002679367095
 30
0
 42
0.01879300864637748
  0
VERTEX
  8
1
 10
149.069468611284
 20
21.6737139844975
 30
0
 42
0.002259050057170938
  0
VERTEX
  8
1
 10
149.088822677735
 20
21.57957764287306
 30
0
 42
-0.01159081285357106
  0
VERTEX
  8
1
 10
149.1063540948638
 20
21.48556308912462
 30
0
 42
-0.02783487577057737
  0
VERTEX
  8
1
 10
149.1161333232799
 20
21.39439976283522
 30
0
 42
-0.04946532788405394
  0
VERTEX
  8
1
 10
149.1122308235932
 20
21.30881710358791
 30
0
 42
-0.0755729482331048
  0
VERTEX
  8
1
 10
149.0887170564132
 20
21.23154455096569
 30
0
 42
-0.0549122194797784
  0
VERTEX
  8
1
 10
149.0569679415519
 20
21.18203170420053
 30
0
 42
-0.03872474018270763
  0
VERTEX
  8
1
 10
149.0145382368765
 20
21.13713534685639
 30
0
 42
-0.02477074001751362
  0
VERTEX
  8
1
 10
148.9640980898406
 20
21.09570135657803
 30
0
 42
-0.01364045017660471
  0
VERTEX
  8
1
 10
148.9083176478976
 20
21.05657561101018
 30
0
 42
-0.004344365109434892
  0
VERTEX
  8
1
 10
148.8498670585011
 20
21.01860398779759
 30
0
  0
SEQEND
  8
1
  0
POLYLINE
  8
1
 62
2
 66
1
  0
VERTEX
  8
1
 10
35.04776343188293
 20
32.90999999999998
 30
0
 42
0.004627892300634891
  0
VERTEX
  8
1
 10
34.93563631948666
 20
32.7416162201988
 30
0
 42
0.01432161089923872
  0
VERTEX
  8
1
 10
34.83238211421626
 20
32.57304402115221
 30
0
 42
0.02620784398767709
  0
VERTEX
  8
1
 10
34.7468737231976
 20
32.40409498361481
 30
0
 42
0.04090712517608265
  0
VERTEX
  8
1
 10
34.68798405355658
 20
32.23458068834121
 30
0
 42
0.05807845058503406
  0
VERTEX
  8
1
 10
34.66458601241904
 20
32.06431271608599
 30
0
 42
0.06215230223745744
  0
VERTEX
  8
1
 10
34.68181761994767
 20
31.89859265971603
 30
0
 42
0.0409463137655075
  0
VERTEX
  8
1
 10
34.73474223691294
 20
31.73314439371365
 30
0
 42
0.03762017696369042
  0
VERTEX
  8
1
 10
34.8173687920603
 20
31.56912488428765
 30
0
 42
0.02031018658727469
  0
VERTEX
  8
1
 10
34.92370621413515
 20
31.40769109764683
 30
0
 42
0.02175284297839378
  0
VERTEX
  8
1
 10
35.04776343188293
 20
31.25000000000001
 30
0
 42
0.005899236995637201
  0
VERTEX
  8
1
 10
35.19193641393522
 20
31.08624207193616
 30
0
 42
-0.006290958371931081
  0
VERTEX
  8
1
 10
35.33391346168777
 20
30.92646288339155
 30
0
 42
-0.02391488501227192
  0
VERTEX
  8
1
 10
35.45807431619719
 20
30.76903318449647
 30
0
 42
-0.04938818170599939
  0
VERTEX
  8
1
 10
35.54879871852008
 20
30.6123237253812
 30
0
 42
-0.08501367003327481
  0
VERTEX
  8
1
 10
35.59046640971305
 20
30.45470525617601
 30
0
 42
-0.09457323444296407
  0
VERTEX
  8
1
 10
35.56918479507093
 20
30.28518870020004
 30
0
 42
-0.05996756665700299
  0
VERTEX
  8
1
 10
35.48973052647954
 20
30.11338914738458
 30
0
 42
-0.03390202050797987
  0
VERTEX
  8
1
 10
35.3666467674262
 20
29.9398773469395
 30
0
 42
-0.01714841413812945
  0
VERTEX
  8
1
 10
35.21447668139822
 20
29.76522404807469
 30
0
 42
-0.005242237567664187
  0
VERTEX
  8
1
 10
35.04776343188293
 20
29.59
 30
0
  0
SEQEND
  8
1
  0
POLYLINE
  8
1
 62
2
 66
1
  0
VERTEX
  8
1
 10
48.29548330188494
 20
32.90999999999998
 30
0
 42
0.004627892300634891
  0
VERTEX
  8
1
 10
48.18335618948867
 20
32.7416162201988
 30
0
 42
0.0143216108992325
  0
VERTEX
  8
1
 10
48.08010198421827
 20
32.57304402115221
 30
0
 42
0.02620784398768064
  0
VERTEX
  8
1
 10
47.99459359319961
 20
32.40409498361481
 30
0
 42
0.04090712517610156
  0
VERTEX
  8
1
 10
47.93570392355858
 20
32.2345806883412
 30
0
 42
0.05807845058500286
  0
VERTEX
  8
1
 10
47.91230588242105
 20
32.06431271608598
 30
0
 42
0.06215230223749044
  0
VERTEX
  8
1
 10
47.92953748994968
 20
31.89859265971602
 30
0
 42
0.04094631376549299
  0
VERTEX
  8
1
 10
47.98246210691496
 20
31.73314439371364
 30
0
 42
0.03762017696370357
  0
VERTEX
  8
1
 10
48.06508866206232
 20
31.56912488428765
 30
0
 42
0.02031018658724906
  0
VERTEX
  8
1
 10
48.17142608413717
 20
31.40769109764684
 30
0
 42
0.02175284297840867
  0
VERTEX
  8
1
 10
48.29548330188494
 20
31.25000000000001
 30
0
 42
0.005899236995627485
  0
VERTEX
  8
1
 10
48.43965628393724
 20
31.08624207193616
 30
0
 42
-0.006290958371931081
  0
VERTEX
  8
1
 10
48.58163333168979
 20
30.92646288339155
 30
0
 42
-0.02391488501232169
  0
VERTEX
  8
1
 10
48.7057941861992
 20
30.76903318449647
 30
0
 42
-0.04938818170598493
  0
VERTEX
  8
1
 10
48.7965185885221
 20
30.6123237253812
 30
0
 42
-0.08501367003327481
  0
VERTEX
  8
1
 10
48.83818627971507
 20
30.45470525617601
 30
0
 42
-0.09457323444292465
  0
VERTEX
  8
1
 10
48.81690466507295
 20
30.28518870020004
 30
0
 42
-0.05996756665681435
  0
VERTEX
  8
1
 10
48.73745039648156
 20
30.11338914738457
 30
0
 42
-0.03390202050796954
  0
VERTEX
  8
1
 10
48.61436663742821
 20
29.9398773469395
 30
0
 42
-0.01714841413816222
  0
VERTEX
  8
1
 10
48.46219655140023
 20
29.76522404807468
 30
0
 42
-0.005242237567696052
  0
VERTEX
  8
1
 10
48.29548330188494
 20
29.58999999999999
 30
0
  0
SEQEND
  8
1
  0
ARC
  8
1
 62
7
 10
28.97394669805318
 20
33.40999999999998
 30
0
 40
0.500000000000012
 50
202.2174691218188
 51
270
  0
ARC
  8
1
 62
7
 10
28.9739466980533
 20
29.09
 30
0
 40
0.5
 50
90
 51
157.7825308781744
  0
ARC
  8
1
 62
7
 10
23.1375152827683
 20
22.18220358233349
 30
0
 40
1.500000000000011
 50
270
 51
337.7825308781744
  0
ARC
  8
1
 62
7
 10
23.1375152827683
 20
40.31779641766219
 30
0
 40
1.499999999999987
 50
22.217469121826
 51
90
  0
ARC
  8
1
 62
7
 10
22.7295629344119
 20
39.45779641766206
 30
0
 40
0.7000000000000014
 50
45.63354565636392
 51
90
  0
ARC
  8
1
 62
7
 10
22.7295629344119
 20
23.0422035823335
 30
0
 40
0.7000000000000206
 50
270
 51
314.3664543436385
  0
ARC
  8
1
 62
7
 10
28.21323406331
 20
32.25000000000001
 30
0
 40
1.000000000000166
 50
225.6335456563504
 51
270
  0
ARC
  8
1
 62
7
 10
28.21323406331
 20
30.25000000000001
 30
0
 40
1
 50
90
 51
134.3664543436564
  0
ARC
  8
1
 62
7
 10
32.68589429137116
 20
33.10999999999997
 30
0
 40
0.1999999999999886
 50
270
 51
3.645191185442646
  0
ARC
  8
1
 62
7
 10
29.23395917547602
 20
35.81000000000007
 30
0
 40
0.5
 50
90
 51
177.2795508940746
  0
ARC
  8
1
 62
7
 10
32.25723516286394
 20
35.81000000000007
 30
0
 40
0.5000000000000109
 50
2.720449105925276
 51
90
  0
ARC
  8
1
 62
7
 10
28.8053000469687
 20
33.10999999999997
 30
0
 40
0.2000000000000236
 50
176.3548088145577
 51
192.3470653506697
  0
ARC
  8
1
 62
7
 10
19.80000000000008
 20
28.00443396226412
 30
0
 40
1.000000000000036
 50
284.1887607106467
 51
0
  0
ARC
  8
1
 62
7
 10
19.80000000000008
 20
34.49556603773591
 30
0
 40
1
 50
0
 51
75.81123928935085
  0
ARC
  8
1
 62
7
 10
-8.799999999999955
 20
46.75000000000001
 30
0
 40
1.5
 50
90
 51
180
  0
ARC
  8
1
 62
7
 10
-10.80000000000017
 20
20.89999999999998
 30
0
 40
0.4999999999999893
 50
270.0000000000252
 51
0
  0
ARC
  8
1
 62
7
 10
-36
 20
21.27700676729661
 30
0
 40
0.5000000000000926
 50
93.17983011986011
 51
180
  0
ARC
  8
1
 62
7
 10
-36
 20
12.22299323270342
 30
0
 40
0.5
 50
180
 51
266.8201698801388
  0
ARC
  8
1
 62
7
 10
-30.5
 20
21.58270459830489
 30
0
 40
0.9999999999999589
 50
98.13010235415466
 51
152.1220809242138
  0
ARC
  8
1
 62
7
 10
-12.80000000000017
 20
-39.35000000000001
 30
0
 40
0.1000000000000249
 50
84.99999999999349
 51
180
  0
ARC
  8
1
 62
7
 10
-12.80000000000017
 20
-46.14999999999999
 30
0
 40
0.09999999999991083
 50
180
 51
275.0000000000051
  0
ARC
  8
1
 62
7
 10
-11.59614394027721
 20
-45.40458696655161
 30
0
 40
0.7999999999999961
 50
272.1313517246148
 51
338.4952052003327
  0
ARC
  8
1
 62
7
 10
-11.59614394027721
 20
-40.09541303344839
 30
0
 40
0.800000000000026
 50
21.50479479966728
 51
87.86864827538516
  0
ARC
  8
1
 62
7
 10
-12.80000000000017
 20
-14.85000000000001
 30
0
 40
0.1000000000000266
 50
84.99999999999358
 51
180
  0
ARC
  8
1
 62
7
 10
-12.80000000000017
 20
-21.64999999999999
 30
0
 40
0.09999999999991083
 50
180
 51
275.0000000000051
  0
ARC
  8
1
 62
7
 10
-11.59614394027721
 20
-20.90458696655161
 30
0
 40
0.7999999999999961
 50
272.1313517246148
 51
338.4952052003325
  0
ARC
  8
1
 62
7
 10
-11.59614394027721
 20
-15.59541303344839
 30
0
 40
0.8000000000000268
 50
21.5047947996674
 51
87.86864827538516
  0
ARC
  8
1
 62
7
 10
-12.80000000000017
 20
13.14999999999999
 30
0
 40
0.1000000000000567
 50
84.99999999999508
 51
180
  0
ARC
  8
1
 62
7
 10
-12.80000000000017
 20
6.34999999999998
 30
0
 40
0.09999999999991083
 50
180
 51
275.000000000008
  0
ARC
  8
1
 62
7
 10
-11.59614394027709
 20
7.095413033448395
 30
0
 40
0.7999999999999906
 50
272.1313517246061
 51
338.4952052003291
  0
ARC
  8
1
 62
7
 10
-11.59614394027709
 20
12.40458696655158
 30
0
 40
0.7999999999999143
 50
21.50479479967057
 51
87.8686482753939
  0
ARC
  8
1
 62
7
 10
-12.80000000000017
 20
20.14999999999999
 30
0
 40
0.1000000000000532
 50
84.9999999999949
 51
180
  0
ARC
  8
1
 62
7
 10
-12.80000000000017
 20
13.34999999999998
 30
0
 40
0.09999999999991083
 50
180
 51
275.000000000008
  0
ARC
  8
1
 62
7
 10
-11.59614394027721
 20
14.09541303344839
 30
0
 40
0.7999999999999961
 50
272.1313517246148
 51
338.4952052003326
  0
ARC
  8
1
 62
7
 10
-11.59614394027721
 20
19.40458696655158
 30
0
 40
0.8000000000000274
 50
21.50479479966752
 51
87.86864827538524
  0
ARC
  8
1
 62
7
 10
172.6999999999999
 20
-42.45
 30
0
 40
0.09999999999999432
 50
0
 51
90
  0
ARC
  8
1
 62
7
 10
172.6999999999999
 20
-43.05
 30
0
 40
0.09999999999999432
 50
270
 51
0
  0
ARC
  8
1
 62
7
 10
170.7999999999999
 20
-44.95
 30
0
 40
0.09999999999999432
 50
270
 51
0
  0
ARC
  8
1
 62
7
 10
170.2
 20
-44.95
 30
0
 40
0.09999999999999432
 50
180
 51
270
  0
ARC
  8
1
 62
7
 10
168.3000000000001
 20
-43.05
 30
0
 40
0.100000000000108
 50
180
 51
270
  0
ARC
  8
1
 62
7
 10
168.3000000000001
 20
-42.45
 30
0
 40
0.09999999999999432
 50
90
 51
180
  0
ARC
  8
1
 62
7
 10
170.7999999999999
 20
-40.55
 30
0
 40
0.100000000000108
 50
0
 51
90
  0
ARC
  8
1
 62
7
 10
170.2
 20
-40.55
 30
0
 40
0.09999999999999432
 50
90
 51
180
  0
ARC
  8
1
 62
7
 10
172.1
 20
-44.35000000000001
 30
0
 40
1.200000000000017
 50
90
 51
180
  0
ARC
  8
1
 62
7
 10
168.9
 20
-44.35000000000001
 30
0
 40
1.199999999999989
 50
0
 51
90
  0
ARC
  8
1
 62
7
 10
172.1
 20
-41.14999999999999
 30
0
 40
1.199999999999989
 50
180
 51
270
  0
ARC
  8
1
 62
7
 10
168.9
 20
-41.14999999999999
 30
0
 40
1.200000000000017
 50
270
 51
0
  0
ARC
  8
1
 62
7
 10
121.6999999999999
 20
-17.95
 30
0
 40
0.09999999999999432
 50
0
 51
90
  0
ARC
  8
1
 62
7
 10
121.6999999999999
 20
-18.55
 30
0
 40
0.09999999999999076
 50
270
 51
0
  0
ARC
  8
1
 62
7
 10
119.7999999999999
 20
-20.45
 30
0
 40
0.1000000000000014
 50
270
 51
0
  0
ARC
  8
1
 62
7
 10
119.2
 20
-20.45
 30
0
 40
0.1000000000000085
 50
180
 51
270
  0
ARC
  8
1
 62
7
 10
117.3000000000001
 20
-18.55
 30
0
 40
0.1000000000000938
 50
180
 51
270
  0
ARC
  8
1
 62
7
 10
117.3000000000001
 20
-17.95
 30
0
 40
0.09999999999999076
 50
90
 51
180
  0
ARC
  8
1
 62
7
 10
119.7999999999999
 20
-16.05
 30
0
 40
0.100000000000108
 50
0
 51
90
  0
ARC
  8
1
 62
7
 10
119.2
 20
-16.05
 30
0
 40
0.1000000000000014
 50
90
 51
180
  0
ARC
  8
1
 62
7
 10
121.1
 20
-19.85000000000001
 30
0
 40
1.200000000000017
 50
90
 51
180
  0
ARC
  8
1
 62
7
 10
117.9
 20
-19.85000000000001
 30
0
 40
1.199999999999989
 50
0
 51
90
  0
ARC
  8
1
 62
7
 10
121.1
 20
-16.64999999999999
 30
0
 40
1.199999999999989
 50
180
 51
270
  0
ARC
  8
1
 62
7
 10
117.9
 20
-16.64999999999999
 30
0
 40
1.200000000000017
 50
270
 51
0
  0
ARC
  8
1
 62
7
 10
172.6999999999999
 20
10.04999999999997
 30
0
 40
0.09999999999999432
 50
0
 51
90
  0
ARC
  8
1
 62
7
 10
172.6999999999999
 20
9.450000000000003
 30
0
 40
0.1000000000000227
 50
270
 51
0
  0
ARC
  8
1
 62
7
 10
170.7999999999999
 20
7.549999999999969
 30
0
 40
0.09999999999996589
 50
270
 51
0
  0
ARC
  8
1
 62
7
 10
170.2
 20
7.549999999999969
 30
0
 40
0.09999999999999432
 50
180
 51
270
  0
ARC
  8
1
 62
7
 10
168.3000000000001
 20
9.450000000000003
 30
0
 40
0.100000000000108
 50
180
 51
270
  0
ARC
  8
1
 62
7
 10
168.3000000000001
 20
10.04999999999997
 30
0
 40
0.1000000000000192
 50
90
 51
180
  0
ARC
  8
1
 62
7
 10
170.7999999999999
 20
11.95
 30
0
 40
0.100000000000108
 50
0
 51
90
  0
ARC
  8
1
 62
7
 10
170.2
 20
11.95
 30
0
 40
0.09999999999997122
 50
90
 51
180
  0
ARC
  8
1
 62
7
 10
172.1
 20
8.149999999999992
 30
0
 40
1.199999999999989
 50
90
 51
180
  0
ARC
  8
1
 62
7
 10
168.9
 20
8.149999999999992
 30
0
 40
1.199999999999989
 50
0
 51
90
  0
ARC
  8
1
 62
7
 10
172.1
 20
11.34999999999998
 30
0
 40
1.199999999999989
 50
180
 51
270
  0
ARC
  8
1
 62
7
 10
168.9
 20
11.34999999999998
 30
0
 40
1.19999999999999
 50
270
 51
0
  0
ARC
  8
1
 62
7
 10
122.9499999999999
 20
17.04999999999997
 30
0
 40
0.09999999999999432
 50
0
 51
90
  0
ARC
  8
1
 62
7
 10
122.9499999999999
 20
16.45
 30
0
 40
0.1000000000000192
 50
270
 51
0
  0
ARC
  8
1
 62
7
 10
121.0499999999999
 20
14.54999999999997
 30
0
 40
0.09999999999997122
 50
270
 51
0
  0
ARC
  8
1
 62
7
 10
120.45
 20
14.54999999999997
 30
0
 40
0.1000000000000085
 50
180
 51
270
  0
ARC
  8
1
 62
7
 10
118.5500000000001
 20
16.45
 30
0
 40
0.1000000000000938
 50
180
 51
270
  0
ARC
  8
1
 62
7
 10
118.5500000000001
 20
17.04999999999997
 30
0
 40
0.1000000000000227
 50
90
 51
180
  0
ARC
  8
1
 62
7
 10
121.0499999999999
 20
18.95
 30
0
 40
0.100000000000108
 50
0
 51
90
  0
ARC
  8
1
 62
7
 10
120.45
 20
18.95
 30
0
 40
0.09999999999996945
 50
90
 51
180
  0
ARC
  8
1
 62
7
 10
122.35
 20
15.14999999999999
 30
0
 40
1.19999999999999
 50
90
 51
180
  0
ARC
  8
1
 62
7
 10
119.15
 20
15.14999999999999
 30
0
 40
1.199999999999989
 50
0
 51
90
  0
ARC
  8
1
 62
7
 10
122.35
 20
18.34999999999998
 30
0
 40
1.199999999999989
 50
180
 51
270
  0
ARC
  8
1
 62
7
 10
119.15
 20
18.34999999999998
 30
0
 40
1.199999999999989
 50
270
 51
0
  0
ARC
  8
1
 62
7
 10
171
 20
43.25000000000001
 30
0
 40
2.5
 50
0
 51
90
  0
ARC
  8
1
 62
7
 10
166
 20
43.25000000000001
 30
0
 40
2.5
 50
90
 51
180
  0
ARC
  8
1
 62
7
 10
171
 20
39.25000000000001
 30
0
 40
2.5
 50
270
 51
0
  0
ARC
  8
1
 62
7
 10
166
 20
39.25000000000001
 30
0
 40
2.5
 50
180
 51
270
  0
ARC
  8
1
 62
7
 10
124
 20
43.25000000000001
 30
0
 40
2.5
 50
0
 51
90
  0
ARC
  8
1
 62
7
 10
124
 20
39.25000000000001
 30
0
 40
2.5
 50
270
 51
0
  0
ARC
  8
1
 62
7
 10
119
 20
39.25000000000001
 30
0
 40
2.5
 50
180
 51
270
  0
ARC
  8
1
 62
7
 10
119
 20
43.25000000000001
 30
0
 40
2.5
 50
90
 51
180
  0
ARC
  8
1
 62
7
 10
158.75
 20
43.25000000000001
 30
0
 40
4
 50
0
 51
90
  0
ARC
  8
1
 62
7
 10
131.25
 20
43.25000000000001
 30
0
 40
4
 50
90
 51
180
  0
ARC
  8
1
 62
7
 10
172.5
 20
11.75000000000001
 30
0
 40
2.5
 50
0
 51
90
  0
ARC
  8
1
 62
7
 10
117.5
 20
22.25000000000001
 30
0
 40
2.5
 50
90
 51
180
  0
ARC
  8
1
 62
7
 10
120.75
 20
31.25000000000001
 30
0
 40
6.5
 50
270
 51
0
  0
ARC
  8
1
 62
7
 10
171
 20
43.25000000000001
 30
0
 40
4
 50
0
 51
90
  0
ARC
  8
1
 62
7
 10
171
 20
-43.25000000000001
 30
0
 40
4
 50
270
 51
0
  0
ARC
  8
1
 62
7
 10
119
 20
-43.25000000000001
 30
0
 40
4
 50
180
 51
270
  0
ARC
  8
1
 62
7
 10
119
 20
43.25000000000001
 30
0
 40
4
 50
90
 51
180
  0
ARC
  8
1
 62
7
 10
-35.5
 20
-30.286984430369
 30
0
 40
0.5
 50
180
 51
265.6012946449962
  0
ARC
  8
1
 62
7
 10
-35.5
 20
-16.21301556963091
 30
0
 40
0.4999999999999175
 50
94.39870535500478
 51
180
  0
ARC
  8
1
 62
7
 10
-30.5
 20
26.61729540169507
 30
0
 40
1
 50
180
 51
261.8698976458458
  0
ARC
  8
1
 62
7
 10
-29
 20
38.11729540169507
 30
0
 40
1.00000000000001
 50
278.1301023541549
 51
0
  0
ARC
  8
1
 62
7
 10
-30.5
 20
35.88270459830501
 30
0
 40
0.9999999999999026
 50
98.1301023541551
 51
180
  0
ARC
  8
1
 62
7
 10
-27
 20
-46.25000000000001
 30
0
 40
1
 50
180
 51
270
  0
ARC
  8
1
 62
7
 10
-27
 20
46.25000000000001
 30
0
 40
1
 50
90
 51
180
  0
ARC
  8
1
 62
7
 10
-93.45623643489205
 20
-41.4181829468336
 30
0
 40
1.000000000000046
 50
280.4914770123303
 51
0
  0
ARC
  8
1
 62
7
 10
-93.45623643489205
 20
41.41818294683357
 30
0
 40
1
 50
0
 51
79.50852298766964
  0
ARC
  8
1
 62
7
 10
-145.4562364348919
 20
41.41818294683357
 30
0
 40
1.000000000000062
 50
100.4914770123352
 51
180
  0
ARC
  8
1
 62
7
 10
-145.4562364348919
 20
-41.4181829468336
 30
0
 40
1
 50
180
 51
259.5085229876648
  0
ARC
  8
1
 62
7
 10
-93.45623643489205
 20
43.25000000000001
 30
0
 40
4
 50
0
 51
90
  0
ARC
  8
1
 62
7
 10
-93.45623643489205
 20
-43.25000000000001
 30
0
 40
4
 50
270
 51
0
  0
ARC
  8
1
 62
7
 10
-145.4562364348919
 20
-43.25000000000001
 30
0
 40
4
 50
180
 51
270
  0
ARC
  8
1
 62
7
 10
-145.4562364348919
 20
43.25000000000001
 30
0
 40
4
 50
90
 51
180
  0
ARC
  8
1
 62
7
 10
-10.79999999999995
 20
40.39999999999999
 30
0
 40
0.5
 50
270
 51
0
  0
ARC
  8
1
 62
7
 10
152.8265280137696
 20
-13.12155198218029
 30
0
 40
1.999999999999954
 50
142.3057595333113
 51
322.30575953331
  0
ARC
  8
1
 62
7
 10
165.6084199913939
 20
3.419719988862695
 30
0
 40
1.999999999999933
 50
322.3057595333067
 51
142.3057595333093
  0
ARC
  8
1
 62
7
 10
127.3519405481149
 20
-19.7895961859049
 30
0
 40
1.999999999999993
 50
78.90627698843964
 51
258.9062769884429
  0
ARC
  8
1
 62
7
 10
132.7305198235738
 20
-20.84421957324982
 30
0
 40
1.999999999999977
 50
258.9062769884404
 51
78.9062769884422
  0
ARC
  8
1
 62
7
 10
125.8617996138378
 20
-37.88509441294759
 30
0
 40
1.999999999999999
 50
127.4053566314087
 51
307.4053566314084
  0
ARC
  8
1
 62
7
 10
134.8574677499453
 20
-31.00605407357129
 30
0
 40
2.00000000000003
 50
307.405356631408
 51
127.4053566314087
  0
ARC
  8
1
 62
7
 10
157.0420833698049
 20
-29.29208336980501
 30
0
 40
1.999999999999991
 50
45.00000000000043
 51
224.9999999999995
  0
ARC
  8
1
 62
7
 10
164.8431457505076
 20
-37.09314575050762
 30
0
 40
1.999999999999991
 50
224.9999999999993
 51
45
  0
ARC
  8
1
 62
7
 10
-36
 20
-18.7229932327033
 30
0
 40
0.4999999999999941
 50
93.17983011984771
 51
180
  0
ARC
  8
1
 62
7
 10
-36
 20
-27.77700676729661
 30
0
 40
0.5
 50
180
 51
266.8201698801522
  0
ARC
  8
1
 62
7
 10
-30.5
 20
3.282704598304903
 30
0
 40
0.9999999999999311
 50
98.13010235415487
 51
180
  0
ARC
  8
1
 62
7
 10
-30.5
 20
-4.982704598305091
 30
0
 40
1
 50
180
 51
261.8698976458451
  0
ARC
  8
1
 62
7
 10
-30.5
 20
11.28270459830487
 30
0
 40
0.9999999999999711
 50
170.0399662975989
 51
180
  0
ARC
  8
1
 62
7
 10
-30.5
 20
5.025785323693881
 30
0
 40
1
 50
180
 51
240.6381359591541
  0
ARC
  8
1
 62
7
 10
-8.799999999999955
 20
15.75000000000001
 30
0
 40
1.499999999999956
 50
180
 51
270
  0
LINE
  8
1
 62
2
 10
40.16547652514395
 20
64.25000000000001
 30
0
 11
108.049783701039
 21
64.25000000000001
 31
0
  0
LINE
  8
1
 62
2
 10
108.049783701039
 20
64.25000000000001
 30
0
 11
71.25186567757692
 21
32.90999999999998
 31
0
  0
SOLID
  8
1
 62
2
 10
73.61767724935015
 20
35.5301635947677
 30
0
 11
74.21521241449639
 21
34.82856659338969
 31
0
 12
71.25186567757692
 22
32.90999999999998
 32
0
 13
71.25186567757692
 23
32.90999999999998
 33
0
  0
LINE
  8
1
 62
2
 10
16.87412394620596
 20
-0.2500000000000142
 30
0
 11
-8.336304954547018
 21
-0.2500000000000142
 31
0
  0
LINE
  8
1
 62
2
 10
-8.336304954547018
 20
-0.2500000000000142
 30
0
 11
2.56369504545296
 21
14.25000000000001
 31
0
  0
SOLID
  8
1
 62
2
 10
0.8289311743916528
 20
11.17544052453973
 30
0
 11
0.09228727233210643
 21
11.72919352677759
 31
0
 12
2.56369504545296
 22
14.25000000000001
 32
0
 13
2.56369504545296
 23
14.25000000000001
 33
0
  0
TEXT
  8
1
 62
2
 10
-142.5
 20
93.5
 30
0
 40
5
  1
DME34S5C
 41
0.9
 72
1
 73
2
 11
-124.5
 21
96
 31
0
  0
TEXT
  8
1
 62
2
 10
51.36941910017768
 20
-5.950000000000161
 30
0
 40
2
  1
+1.181
 41
0.63
  0
TEXT
  8
1
 62
2
 10
51.36941910017768
 20
-8.350000000000161
 30
0
 40
2
  1
 0
 41
0.63
  0
TEXT
  8
1
 62
2
 10
45.39611491193035
 20
20.16200000000001
 30
0
 40
3.2
  1
(1.339DIA.)
 50
90
 41
0.6300000000000001
 72
1
 73
2
 11
43.79611491193035
 21
31.25000000000001
 31
0
  0
TEXT
  8
1
 62
2
 10
64.19627654507696
 20
5.05609143528432
 30
0
 40
3.2
  1
(0.118)
 41
0.6300000000000001
 72
1
 73
2
 11
71.25227654507695
 21
6.656091435284321
 31
0
  0
TEXT
  8
1
 62
2
 10
39.90635168732386
 20
-7.74999999999999
 30
0
 40
3.2
  1
(11.811   )
 41
0.6300000000000001
 72
1
 73
2
 11
50.99435168732386
 21
-6.14999999999999
 31
0
  0
TEXT
  8
1
 62
2
 10
22.85973463101202
 20
54.03677402711256
 30
0
 40
3.2
  1
(0.063)
 41
0.6300000000000001
 72
1
 73
2
 11
29.91573463101202
 21
55.63677402711256
 31
0
  0
TEXT
  8
1
 62
2
 10
-15.64026536898799
 20
66.05306639442912
 30
0
 40
3.2
  1
(2.193)
 41
0.6300000000000001
 72
1
 73
2
 11
-8.584265368987985
 21
67.65306639442913
 31
0
  0
TEXT
  8
1
 62
2
 10
40.73673876640531
 20
65.25854775958395
 30
0
 40
3.5
  1
LEAD WIRES (RED,BLACK)
 41
0.9
 73
2
 11
40.73673876640531
 21
67.00854775958395
 31
0
  0
TEXT
  8
1
 62
2
 10
40.73673876640531
 20
58.25308797483892
 30
0
 40
3.5
  1
UL1007 AWG22
 41
0.9
 73
2
 11
40.73673876640531
 21
60.00308797483892
 31
0
  0
TEXT
  8
1
 62
2
 10
-3.285896526410701
 20
0.4994616689140088
 30
0
 40
3
  1
NAME PLATE
 41
0.6300000000000001
 72
1
 73
2
 11
6.1641034735893
 21
1.999461668914009
 31
0
  0
TEXT
  8
1
 62
2
 10
-126.512236434892
 20
65.05306639442912
 30
0
 40
3.2
  1
(2.362)
 41
0.6300000000000001
 72
1
 73
2
 11
-119.456236434892
 21
66.65306639442913
 31
0
  0
TEXT
  8
1
 62
2
 10
-32.64026536898798
 20
53.03677402711256
 30
0
 40
3.2
  1
(0.866)
 41
0.6300000000000001
 72
1
 73
2
 11
-25.58426536898798
 21
54.63677402711256
 31
0
  0
TEXT
  8
1
 62
2
 10
114.702
 20
53.03677402711256
 30
0
 40
3.2
  1
(0.433)
 41
0.54
 72
1
 73
2
 11
120.75
 21
54.63677402711256
 31
0
  0
TEXT
  8
1
 62
2
 10
163.202
 20
53.03677402711256
 30
0
 40
3.2
  1
(0.433)
 41
0.54
 72
1
 73
2
 11
169.25
 21
54.63677402711256
 31
0
  0
TEXT
  8
1
 62
2
 10
-130.544236434892
 20
53.03677402711256
 30
0
 40
3.2
  1
(1.575    )
 41
0.6300000000000001
 72
1
 73
2
 11
-119.456236434892
 21
54.63677402711256
 31
0
  0
TEXT
  8
1
 62
2
 10
-167.2587466798172
 20
-6.06597680894201
 30
0
 40
3.2
  1
(3.72)
 50
90
 41
0.6300000000000001
 72
1
 73
2
 11
-168.8587466798172
 21
-0.01797680894200937
 31
0
  0
TEXT
  8
1
 62
2
 10
-155.2587466798172
 20
-14.33799999999999
 30
0
 40
3.2
  1
(1.575    )
 50
90
 41
0.6300000000000001
 72
1
 73
2
 11
-156.8587466798172
 21
-3.249999999999986
 31
0
  0
TEXT
  8
1
 62
2
 10
-155.2587466798172
 20
33.20147840257302
 30
0
 40
3.2
  1
(0.63)
 50
90
 41
0.6300000000000001
 72
1
 73
2
 11
-156.8587466798172
 21
39.24947840257302
 31
0
  0
TEXT
  8
1
 62
2
 10
-69.99999999999999
 20
-22.15397680894201
 30
0
 40
3.2
  1
(0.315DIA.      )
 50
90
 41
0.6300000000000001
 72
1
 73
2
 11
-71.59999999999999
 21
-5.017976808942009
 31
0
  0
TEXT
  8
1
 62
2
 10
-58.80032579457815
 20
-19.07397680894201
 30
0
 40
3.2
  1
(0.276)
 50
90
 41
0.6300000000000001
 72
1
 73
2
 11
-60.40032579457815
 21
-12.01797680894201
 31
0
  0
TEXT
  8
1
 62
2
 10
-53.14826536898798
 20
5.402793055844065
 30
0
 40
3.2
  1
(0.0197)
 41
0.6300000000000001
 72
1
 73
2
 11
-45.08426536898798
 21
7.002793055844066
 31
0
  0
TEXT
  8
1
 62
2
 10
-52.14026536898798
 20
-4.597206944155963
 30
0
 40
3.2
  1
(0.669)
 41
0.6300000000000001
 72
1
 73
2
 11
-45.08426536898798
 21
-2.997206944155963
 31
0
  0
TEXT
  8
1
 62
2
 10
-53.14026536898798
 20
-14.59720694415599
 30
0
 40
3.2
  1
(0.551)
 41
0.6300000000000001
 72
1
 73
2
 11
-46.08426536898798
 21
-12.99720694415599
 31
0
  0
TEXT
  8
1
 62
2
 10
189.2008521839611
 20
25.20200000000001
 30
0
 40
3.2
  1
(1.26)
 50
90
 41
0.6300000000000001
 72
1
 73
2
 11
187.6008521839611
 21
31.25000000000001
 31
0
  0
TEXT
  8
1
 62
2
 10
-155.2587466798172
 20
-42.07397680894201
 30
0
 40
3.2
  1
(0.945)
 50
90
 41
0.6300000000000001
 72
1
 73
2
 11
-156.8587466798172
 21
-35.01797680894201
 31
0
  0
TEXT
  8
1
 62
2
 10
-120.9857726137482
 20
53.63677402711256
 30
0
 40
2
  1
%%p0.0118
 41
0.63
 72
1
 73
2
 11
-115.3157726137482
 21
54.63677402711256
 31
0
  0
TEXT
  8
1
 62
2
 10
-155.8587466798174
 20
-4.779536178856089
 30
0
 40
2
  1
%%p0.0118
 50
90
 41
0.63
 72
1
 73
2
 11
-156.8587466798174
 21
0.8904638211439111
 31
0
  0
TEXT
  8
1
 62
2
 10
-71.8
 20
-3.420011650184021
 30
0
 40
2
  1
 0
 50
90
 41
0.63
  0
TEXT
  8
1
 62
2
 10
-69.39999999999999
 20
-3.420011650184021
 30
0
 40
2
  1
-0.000787
 50
90
 41
0.63
  0
TEXT
  8
1
 62
2
 10
-68.91775428359279
 20
-63.734769879772
 30
0
 40
3.5
  1
(4-M4 DEPTH 0.236MAX)
 41
0.666
 73
2
 11
-68.91775428359279
 21
-61.984769879772
 31
0
  0
DIMENSION
  8
1
  6
CONTINUOUS
 62
2
  2
*D0
  3
DMST_1
 10
20.80000000000008
 20
58.1898375200639
 30
0
 11
29.65290936644533
 21
60.7898375200639
 31
0
 12
0
 22
0
 32
0
 70
0
  1
(<>
 13
19.20000000000005
 23
48.25000000000001
 33
0
 14
20.80000000000008
 24
34.49556603773591
 34
0
 53
0
  0
DIMENSION
  8
1
  6
CONTINUOUS
 62
2
  2
*D1
  3
DMST_2
 10
19.20000000000006
 20
-2.75643022744908
 30
0
 11
50.49872741836693
 21
0.64356977255092
 31
0
 12
0
 22
0
 32
0
 70
0
  1
300
 13
81.79745483673379
 23
30.14999999999999
 33
0
 14
19.20000000000005
 24
14.25000000000001
 34
0
 53
0
  0
DIMENSION
  8
1
  6
CONTINUOUS
 62
2
  2
*D2
  3
DMST_3
 10
78.79745483673379
 20
9.250827743488799
 30
0
 11
70.81998974893892
 21
11.8508277434888
 31
0
 12
0
 22
0
 32
0
 70
0
  1
(<>
 13
81.79745483673379
 23
30.14999999999999
 33
0
 14
78.79745483673379
 24
29.58999999999999
 34
0
 53
0
  0
DIMENSION
  8
1
  6
CONTINUOUS
 62
2
  2
*D3
  3
DMST_4
 10
41.31388712949032
 20
48.25000000000001
 30
0
 11
38.71388712949032
 21
31.25000000000001
 31
0
 12
0
 22
0
 32
0
 70
1
  1
ƒÓ<>
 13
19.20000000000005
 23
14.25000000000001
 33
0
 14
19.20000000000005
 24
48.25000000000001
 34
0
 53
0
  0
DIMENSION
  8
1
  6
CONTINUOUS
 62
2
  2
*D4
  3
DMST_4
 10
-14.49999999999999
 20
57.3159105113614
 30
0
 11
-25.49999999999999
 21
59.9159105113614
 31
0
 12
0
 22
0
 32
0
 70
0
 13
-36.5
 23
21.27700676729667
 33
0
 14
-14.49999999999999
 24
47.25000000000001
 34
0
 53
0
  0
DIMENSION
  8
1
  6
CONTINUOUS
 62
2
  2
*D5
  3
DMST_3
 10
175
 20
57.3159105113614
 30
0
 11
169.25
 21
59.9159105113614
 31
0
 12
0
 22
0
 32
0
 70
0
  1
11
 13
163.5
 23
43.25000000000001
 33
0
 14
175
 24
43.25000000000004
 34
0
 53
0
  0
DIMENSION
  8
1
  6
CONTINUOUS
 62
2
  2
*D6
  3
DMST_3
 10
126.5
 20
57.3159105113614
 30
0
 11
120.75
 21
59.9159105113614
 31
0
 12
0
 22
0
 32
0
 70
0
  1
11
 13
115
 23
43.25000000000001
 33
0
 14
126.5
 24
43.25000000000001
 34
0
 53
0
  0
DIMENSION
  8
1
  6
CONTINUOUS
 62
2
  2
*D7
  3
DMST_4
 10
-53.5
 20
-10.24999999999999
 30
0
 11
-46.5
 21
-7.649999999999991
 31
0
 12
0
 22
0
 32
0
 70
0
 13
-39.5
 23
-19.25000000000001
 33
0
 14
-53.5
 24
-20.25000000000001
 34
0
 53
0
  0
DIMENSION
  8
1
  6
CONTINUOUS
 62
2
  2
*D8
  3
DMST_5
 10
-74.96524210975855
 20
-19.25000000000001
 30
0
 11
-78.36524210975856
 21
-4.88956352935861
 31
0
 12
0
 22
0
 32
0
 70
0
  1
ƒÓ<>
 13
-53.5
 23
-27.25000000000001
 33
0
 14
-39.5
 24
-19.25000000000001
 34
0
 50
90
 53
0
  0
DIMENSION
  8
1
  6
CONTINUOUS
 62
2
  2
*D9
  3
DMST_4
 10
-62.92692826673143
 20
-20.25000000000001
 30
0
 11
-65.52692826673143
 21
-11.5654867277327
 31
0
 12
0
 22
0
 32
0
 70
1
 13
-53.5
 23
-27.25000000000001
 33
0
 14
-53.5
 24
-20.25000000000001
 34
0
 53
0
  0
DIMENSION
  8
1
  6
CONTINUOUS
 62
2
  2
*D10
  3
DMST_4
 10
-89.45623643489208
 20
69.30722910344591
 30
0
 11
-119.456236434892
 21
71.9072291034459
 31
0
 12
0
 22
0
 32
0
 70
1
 13
-149.4562364348919
 23
43.25000000000001
 33
0
 14
-89.45623643489205
 24
43.25000000000001
 34
0
 53
0
  0
DIMENSION
  8
1
  6
CONTINUOUS
 62
2
  2
*D11
  3
DMST_4
 10
-171.4915159331527
 20
47.25000000000001
 30
0
 11
-174.0915159331527
 21
1.4210854715202e-014
 31
0
 12
0
 22
0
 32
0
 70
0
 13
-145.4562364348919
 23
-47.25000000000001
 33
0
 14
-145.4562364348919
 24
47.25000000000001
 34
0
 50
90
 53
0
  0
DIMENSION
  8
1
  6
CONTINUOUS
 62
2
  2
*D12
  3
DMST_4
 10
-159.456236434892
 20
-23.25000000000001
 30
0
 11
-162.056236434892
 21
-35.25000000000001
 31
0
 12
0
 22
0
 32
0
 70
0
 13
-145.4562364348919
 23
-47.25000000000001
 33
0
 14
-149.4562364348919
 24
-23.25000000000001
 34
0
 50
90
 53
0
  0
DIMENSION
  8
1
  6
CONTINUOUS
 62
2
  2
*D13
  3
DMST_6
 10
-159.456236434892
 20
-23.25000000000001
 30
0
 11
-162.056236434892
 21
-3.250000000000014
 31
0
 12
0
 22
0
 32
0
 70
0
 13
-149.4562364348919
 23
16.75000000000001
 33
0
 14
-149.4562364348919
 24
-23.25000000000001
 34
0
 50
90
 53
0
  0
DIMENSION
  8
1
  6
CONTINUOUS
 62
2
  2
*D14
  3
DMST_4
 10
-159.456236434892
 20
31.25000000000001
 30
0
 11
-162.056236434892
 21
39.25000000000001
 31
0
 12
0
 22
0
 32
0
 70
0
 13
-145.4562364348919
 23
47.25000000000001
 33
0
 14
-125.456236434892
 24
31.25000000000001
 34
0
 50
90
 53
0
  0
DIMENSION
  8
1
  6
CONTINUOUS
 62
2
  2
*D15
  3
DMST_6
 10
-99.45623643489208
 20
57.3159105113614
 30
0
 11
-119.456236434892
 21
59.9159105113614
 31
0
 12
0
 22
0
 32
0
 70
0
 13
-139.4562364348919
 23
47.25000000000001
 33
0
 14
-99.45623643489205
 24
47.3593059936909
 34
0
 53
0
  0
DIMENSION
  8
1
  6
CONTINUOUS
 62
2
  2
*D16
  3
DMST_7
 10
-36.5
 20
-0.2499999999999889
 30
0
 11
-44.99999999999999
 21
2.350000000000011
 31
0
 12
0
 22
0
 32
0
 70
0
 13
-53.5
 23
-20.25000000000001
 33
0
 14
-36.5
 24
-18.7229932327033
 34
0
 53
0
  0
DIMENSION
  8
1
  6
CONTINUOUS
 62
2
  2
*D17
  3
DMST_7
 10
-36.49999999999999
 20
9.749999999999981
 30
0
 11
-44.57173007942997
 21
12.34999999999998
 31
0
 12
0
 22
0
 32
0
 70
0
 13
-36
 23
-16.21301556963091
 33
0
 14
-36.5
 24
-18.7229932327033
 34
0
 53
0
  0
DIMENSION
  8
1
  6
CONTINUOUS
 62
2
  2
*D18
  3
DMST_3
 10
185
 20
47.25000000000001
 30
0
 11
182.4
 21
31.25000000000001
 31
0
 12
0
 22
0
 32
0
 70
0
  1
(<>
 13
169.25
 23
15.25000000000001
 33
0
 14
171
 24
47.25000000000001
 34
0
 50
90
 53
0
  0
DIMENSION
  8
1
  6
CONTINUOUS
 62
2
  2
*D19
  3
DMST_4
 10
-36.5
 20
69.83610094123921
 30
0
 11
-8.649999999999979
 21
72.4361009412392
 31
0
 12
0
 22
0
 32
0
 70
0
 13
19.20000000000005
 23
48.25000000000001
 33
0
 14
-36.5
 24
21.27700676729667
 34
0
 53
0
  0
INSERT
  8
0
  2
___R___O_______R
 10
0.5000000000000568
 20
-3.75
 30
0
  0
INSERT
  8
1
  2
*D20
 10
0
 20
0
 30
0
  0
ENDSEC
  0
EOF
