  0
SECTION
  2
HEADER
  9
$ACADVER
  1
AC1009
  9
$INSBASE
 10
0
 20
0
  9
$EXTMIN
 10
-194.5
 20
-146
  9
$EXTMAX
 10
194.5
 20
146
  9
$LIMMIN
 10
-194.5
 20
-146
  9
$LIMMAX
 10
194.5
 20
146
  9
$VIEWCTR
 10
10
 20
10
  9
$VIEWSIZE
 40
10
  9
$SNAPMODE
 70
0
  9
$SNAPUNIT
 10
1
 20
1
  9
$SNAPBASE
 10
0
 20
0
  9
$SNAPANG
 50
0
  9
$SNAPSTYLE
 70
0
  9
$SNAPISOPAIR
 70
0
  9
$GRIDMODE
 70
0
  9
$GRIDUNIT
 10
0
 20
0
  9
$ORTHOMODE
 70
0
  9
$REGENMODE
 70
1
  9
$FILLMODE
 70
1
  9
$QTEXTMODE
 70
0
  9
$DRAGMODE
 70
2
  9
$LTSCALE
 40
1
  9
$OSMODE
 70
0
  9
$ATTMODE
 70
1
  9
$TEXTSIZE
 40
3.5
  9
$TRACEWID
 40
0.5
  9
$TEXTSTYLE
  7
STANDARD
  9
$CLAYER
  8
0
  9
$CELTYPE
  6
BYLAYER
  9
$CECOLOR
 62
256
  9
$DIMSCALE
 40
1
  9
$DIMASZ
 40
0.18
  9
$DIMEXO
 40
0.0625
  9
$DIMDLI
 40
0.38
  9
$DIMRND
 40
0
  9
$DIMDLE
 40
0
  9
$DIMEXE
 40
0.18
  9
$DIMTP
 40
0
  9
$DIMTM
 40
0
  9
$DIMTXT
 40
0.18
  9
$DIMCEN
 40
0.09
  9
$DIMTSZ
 40
0
  9
$DIMTOL
 70
0
  9
$DIMLIM
 70
0
  9
$DIMTIH
 70
1
  9
$DIMTOH
 70
1
  9
$DIMSE1
 70
0
  9
$DIMSE2
 70
0
  9
$DIMTAD
 70
0
  9
$DIMZIN
 70
0
  9
$DIMBLK
  1

  9
$DIMASO
 70
1
  9
$DIMSHO
 70
1
  9
$DIMPOST
  1

  9
$DIMAPOST
  1

  9
$DIMALT
 70
0
  9
$DIMALTD
 70
2
  9
$DIMALTF
 40
25.4
  9
$DIMLFAC
 40
1
  9
$DIMTOFL
 70
0
  9
$DIMTVP
 40
0
  9
$DIMTIX
 70
0
  9
$DIMSOXD
 70
0
  9
$DIMSAH
 70
0
  9
$DIMBLK1
  1

  9
$DIMBLK2
  1

  9
$DIMSTYLE
  2
*UNNAMED
  9
$DIMCLRD
 70
0
  9
$DIMCLRE
 70
0
  9
$DIMCLRT
 70
0
  9
$DIMTFAC
 40
1
  9
$DIMGAP
 40
0.09
  9
$LUNITS
 70
2
  9
$LUPREC
 70
4
  9
$AXISMODE
 70
0
  9
$AXISUNIT
 10
0
 20
0
  9
$SKETCHINC
 40
0.1
  9
$FILLETRAD
 40
2
  9
$AUNITS
 70
0
  9
$AUPREC
 70
0
  9
$MENU
  1
ACAD
  9
$ELEVATION
 40
0
  9
$THICKNESS
 40
0
  9
$VIEWDIR
 10
0
 20
0
 30
1
  9
$LIMCHECK
 70
0
  9
$BLIPMODE
 70
1
  9
$CHAMFERA
 40
0
  9
$CHAMFERB
 40
0
  9
$FASTZOOM
 70
1
  9
$SKPOLY
 70
0
  9
$ANGBASE
 50
0
  9
$ANGDIR
 70
0
  9
$PDMODE
 70
0
  9
$PDSIZE
 40
0
  9
$PLINEWID
 40
0
  9
$COORDS
 70
2
  0
ENDSEC
  0
SECTION
  2
TABLES
  0
TABLE
  2
DIMSTYLE
 70
8
  0
DIMSTYLE
  2
DMST_1
 70
0
  3

  4

  5

  6

  7

 40
1
 41
3.2
 42
1
 43
7
 44
1
 45
0
 46
0
 47
0
 48
0
140
3.2
141
0
142
0
143
25.4
144
1
145
0
146
1
147
0.09
 71
0
 72
0
 73
0
 74
0
 75
0
 76
0
 77
1
 78
9
170
0
171
2
172
0
173
0
174
0
175
0
176
2
177
2
178
2
  0
DIMSTYLE
  2
DMST_2
 70
0
  3

  4

  5

  6

  7

 40
1
 41
3.2
 42
1
 43
7
 44
1
 45
0
 46
0
 47
0.5
 48
0.5
140
3.2
141
0
142
0
143
25.4
144
1
145
0
146
0.6
147
0.09
 71
1
 72
0
 73
0
 74
0
 75
0
 76
0
 77
1
 78
9
170
0
171
2
172
0
173
0
174
0
175
0
176
2
177
2
178
2
  0
DIMSTYLE
  2
DMST_3
 70
0
  3

  4

  5

  6

  7

 40
1
 41
3.2
 42
1
 43
7
 44
1
 45
0
 46
0
 47
0.2
 48
0.2
140
3.2
141
0
142
0
143
25.4
144
1
145
0
146
0.6
147
0.09
 71
1
 72
0
 73
0
 74
0
 75
0
 76
0
 77
1
 78
9
170
0
171
2
172
0
173
0
174
0
175
0
176
2
177
2
178
2
  0
DIMSTYLE
  2
DMST_4
 70
0
  3

  4

  5

  6

  7

 40
1
 41
3.2
 42
1
 43
7
 44
1
 45
0
 46
0
 47
0.1
 48
0.1
140
3.2
141
0
142
0
143
25.4
144
1
145
0
146
0.6
147
0.09
 71
1
 72
0
 73
0
 74
0
 75
0
 76
0
 77
1
 78
9
170
0
171
2
172
0
173
0
174
0
175
0
176
2
177
2
178
2
  0
DIMSTYLE
  2
DMST_5
 70
0
  3

  4

  5

  6

  7

 40
1
 41
3.2
 42
1
 43
7
 44
1
 45
0
 46
0
 47
0
 48
0
140
3.2
141
0
142
0
143
25.4
144
1
145
0
146
0.6
147
0.09
 71
1
 72
0
 73
0
 74
0
 75
0
 76
0
 77
1
 78
9
170
0
171
2
172
0
173
0
174
0
175
0
176
2
177
2
178
2
  0
DIMSTYLE
  2
DMST_6
 70
0
  3

  4

  5

  6

  7

 40
1
 41
3.2
 42
1
 43
7
 44
1
 45
0
 46
0
 47
0.15
 48
0.15
140
3.2
141
0
142
0
143
25.4
144
1
145
0
146
0.6
147
0.09
 71
1
 72
0
 73
0
 74
0
 75
0
 76
0
 77
1
 78
9
170
0
171
2
172
0
173
0
174
0
175
0
176
2
177
2
178
2
  0
DIMSTYLE
  2
DMST_7
 70
0
  3
)
  4

  5

  6

  7

 40
1
 41
3.2
 42
1
 43
7
 44
1
 45
0
 46
0
 47
0
 48
0
140
3.2
141
0
142
0
143
25.4
144
1
145
0
146
1
147
0.09
 71
0
 72
0
 73
1
 74
1
 75
0
 76
0
 77
1
 78
9
170
0
171
2
172
0
173
0
174
0
175
0
176
2
177
2
178
2
  0
DIMSTYLE
  2
DMST_8
 70
0
  3

  4

  5

  6

  7

 40
1
 41
3.2
 42
1
 43
7
 44
1
 45
0
 46
0
 47
0
 48
0
140
3.2
141
0
142
0
143
25.4
144
1
145
0
146
0.6
147
0.09
 71
1
 72
0
 73
1
 74
1
 75
0
 76
0
 77
1
 78
9
170
0
171
2
172
0
173
0
174
0
175
0
176
2
177
2
178
2
  0
ENDTAB
  0
TABLE
  2
LTYPE
 70
9
  0
LTYPE
  2
CONTINUOUS
 70
64
  3
Solid line
 72
65
 73
0
 40
0
  0
LTYPE
  2
BORDER
 70
64
  3
__ __ . __ __ .
 72
65
 73
6
 40
17.91447368421053
 49
5.118421052631579
 49
-2.559210526315789
 49
5.118421052631579
 49
-2.559210526315789
 49
0
 49
-2.559210526315789
  0
LTYPE
  2
CENTER
 70
64
  3
____ _ ____ _
 72
65
 73
4
 40
20.47368421052632
 49
12.79605263157895
 49
-2.559210526315789
 49
2.559210526315789
 49
-2.559210526315789
  0
LTYPE
  2
DASHDOT
 70
64
  3
__ . __ . __ .
 72
65
 73
4
 40
10.23684210526316
 49
5.118421052631579
 49
-2.559210526315789
 49
0
 49
-2.559210526315789
  0
LTYPE
  2
DASHED
 70
64
  3
__ __ __ __ __
 72
65
 73
2
 40
7.677631578947368
 49
5.118421052631579
 49
-2.559210526315789
  0
LTYPE
  2
DIVIDE
 70
64
  3
__ . . __ . . 
 72
65
 73
6
 40
12.79605263157895
 49
5.118421052631579
 49
-2.559210526315789
 49
0
 49
-2.559210526315789
 49
0
 49
-2.559210526315789
  0
LTYPE
  2
DOT
 70
64
  3
..............
 72
65
 73
4
 40
5.118421052631579
 49
0
 49
-2.559210526315789
 49
0
 49
-2.559210526315789
  0
LTYPE
  2
HIDDEN
 70
64
  3
_ _ _ _ _ _ _
 72
65
 73
2
 40
3.838815789473684
 49
2.559210526315789
 49
-1.279605263157895
  0
LTYPE
  2
PHANTOM
 70
64
  3
_____ _ _ _____ _ _ 
 72
65
 73
6
 40
25.59210526315789
 49
12.79605263157895
 49
-2.559210526315789
 49
2.559210526315789
 49
-2.559210526315789
 49
2.559210526315789
 49
-2.559210526315789
  0
ENDTAB
  0
TABLE
  2
LAYER
 70
3
  0
LAYER
  2
1
 70
0
 62
7
  6
CONTINUOUS
  0
LAYER
  2
0
 70
0
 62
7
  6
CONTINUOUS
  0
ENDTAB
  0
TABLE
  2
STYLE
 70
4
  0
STYLE
  2
STANDARD
 70
0
 40
0
 41
1
 50
0
 71
0
 42
3.5
  3
txt
  4

  0
STYLE
  2
SIMPLEX
 70
0
 40
0
 41
1
 50
0
 71
0
 42
3.5
  3
simplex
  4

  0
STYLE
  2
COMPLEX
 70
0
 40
0
 41
1
 50
0
 71
0
 42
3.5
  3
complex
  4

  0
STYLE
  2
ITALIC
 70
0
 40
0
 41
1
 50
0
 71
0
 42
3.5
  3
italic
  4

  0
ENDTAB
  0
TABLE
  2
VIEW
 70
0
  0
ENDTAB
  0
ENDSEC
  0
SECTION
  2
BLOCKS
  0
BLOCK
  8
0
  2
TOP
 70
0
 10
-196.1221264909976
 20
-445.688301522763
 30
0
  0
LINE
  8
1
 62
7
 10
-54.5
 20
-53
 30
0
 11
-139.5
 21
-53
 31
0
  0
LINE
  8
1
 62
7
 10
-54.5
 20
-53
 30
0
 11
-54.5
 21
-86
 31
0
  0
LINE
  8
1
 62
7
 10
-139.5
 20
-66
 30
0
 11
-54.5
 21
-66
 31
0
  0
LINE
  8
1
 62
7
 10
-139.5
 20
-86
 30
0
 11
-54.5
 21
-86
 31
0
  0
LINE
  8
1
 62
7
 10
-114.5
 20
-53
 30
0
 11
-114.5
 21
-86
 31
0
  0
LINE
  8
1
 62
7
 10
-139.5
 20
-53
 30
0
 11
-139.5
 21
-86
 31
0
  0
LINE
  8
1
 62
4
  6
PHANTOM
 10
-194.5
 20
-146
 30
0
 11
-194.5
 21
-136
 31
0
  0
LINE
  8
1
 62
4
  6
PHANTOM
 10
-194.5
 20
-146
 30
0
 11
-184.5
 21
-146
 31
0
  0
LINE
  8
1
 62
7
 10
-114.5
 20
-57
 30
0
 11
-54.5
 21
-57
 31
0
  0
LINE
  8
1
 62
2
  6
DOT
 10
-99.5
 20
-57
 30
0
 11
-99.5
 21
-86
 31
0
  0
LINE
  8
1
 62
7
 10
-139.5
 20
-61
 30
0
 11
-54.5
 21
-61
 31
0
  0
LINE
  8
1
 62
7
 10
-139.5
 20
-71
 30
0
 11
-54.5
 21
-71
 31
0
  0
LINE
  8
1
 62
7
 10
-139.5
 20
-76
 30
0
 11
-54.5
 21
-76
 31
0
  0
LINE
  8
1
 62
7
 10
-139.5
 20
-81
 30
0
 11
-54.5
 21
-81
 31
0
  0
LINE
  8
1
 62
7
 10
-84.5
 20
-53
 30
0
 11
-84.5
 21
-86
 31
0
  0
LINE
  8
1
 62
2
  6
DOT
 10
-69.5
 20
-57
 30
0
 11
-69.5
 21
-86
 31
0
  0
TEXT
  8
1
 62
7
 10
-116
 20
-69.75
 30
0
 40
2.5
  1
５１．８
 41
0.9
 72
1
 73
2
 11
-107
 21
-68.5
 31
0
  0
TEXT
  8
1
 62
7
 10
-116
 20
-64.75
 30
0
 40
2.5
  1
４９．３
 41
0.9
 72
1
 73
2
 11
-107
 21
-63.5
 31
0
  0
TEXT
  8
1
 62
2
 10
-101.8814
 20
-56.26000000000001
 30
0
 40
2.520000000000007
  1
Ｌ1
 41
0.63
 72
1
 73
2
 11
-99.5
 21
-55
 31
0
  0
TEXT
  8
1
 62
7
 10
-138
 20
-69.75
 30
0
 40
2.5
  1
１／２０　 ～ １／３０
 41
0.63
 73
2
 11
-138
 21
-68.5
 31
0
  0
TEXT
  8
1
 62
7
 10
-138
 20
-64.75
 30
0
 40
2.5
  1
１／１０
 41
0.63
 73
2
 11
-138
 21
-63.5
 31
0
  0
TEXT
  8
1
 62
2
 10
-147.4120000000004
 20
-58.26000000000001
 30
0
 40
2.520000000000007
  1
ＤＥＣＯＬＥＲＡＴＩＯＮ　ＲＡＴＩＯ
 41
0.4499999999999998
 72
1
 73
2
 11
-127
 21
-57
 31
0
  0
TEXT
  8
1
 62
2
 10
-111.7628000000001
 20
-60.26000000000001
 30
0
 40
2.520000000000007
  1
(ｍｍ)
 41
0.63
 72
1
 73
2
 11
-107
 21
-59
 31
0
  0
TEXT
  8
1
 62
2
 10
-99.93800000000016
 20
-60.26000000000001
 30
0
 40
2.520000000000007
  1
(ｉｎｃｈ)
 41
0.63
 72
1
 73
2
 11
-92
 21
-59
 31
0
  0
TEXT
  8
1
 62
7
 10
-103.25
 20
-64.75
 30
0
 40
2.5
  1
１．９４１
 41
0.9
 72
1
 73
2
 11
-92
 21
-63.5
 31
0
  0
TEXT
  8
1
 62
7
 10
-103.25
 20
-69.75
 30
0
 40
2.5
  1
２．０３９
 41
0.9
 72
1
 73
2
 11
-92
 21
-68.5
 31
0
  0
TEXT
  8
1
 62
7
 10
-116
 20
-74.75
 30
0
 40
2.5
  1
５４．３
 41
0.9
 72
1
 73
2
 11
-107
 21
-73.5
 31
0
  0
TEXT
  8
1
 62
7
 10
-138
 20
-74.75
 30
0
 40
2.5
  1
１／５０　 ～ １／１００
 41
0.63
 73
2
 11
-138
 21
-73.5
 31
0
  0
TEXT
  8
1
 62
7
 10
-103.25
 20
-74.75
 30
0
 40
2.5
  1
２．１３８
 41
0.9
 72
1
 73
2
 11
-92
 21
-73.5
 31
0
  0
TEXT
  8
1
 62
7
 10
-116
 20
-79.75
 30
0
 40
2.5
  1
５６．８
 41
0.9
 72
1
 73
2
 11
-107
 21
-78.5
 31
0
  0
TEXT
  8
1
 62
7
 10
-138
 20
-79.75
 30
0
 40
2.5
  1
１／１２０ ～ １／３００
 41
0.63
 73
2
 11
-138
 21
-78.5
 31
0
  0
TEXT
  8
1
 62
7
 10
-103.25
 20
-79.75
 30
0
 40
2.5
  1
２．２３６
 41
0.9
 72
1
 73
2
 11
-92
 21
-78.5
 31
0
  0
TEXT
  8
1
 62
7
 10
-116
 20
-84.75
 30
0
 40
2.5
  1
５９．３
 41
0.9
 72
1
 73
2
 11
-107
 21
-83.5
 31
0
  0
TEXT
  8
1
 62
7
 10
-138
 20
-84.75
 30
0
 40
2.5
  1
１／４００ ～ １／６００
 41
0.63
 73
2
 11
-138
 21
-83.5
 31
0
  0
TEXT
  8
1
 62
7
 10
-103.25
 20
-84.75
 30
0
 40
2.5
  1
２．３３５
 41
0.9
 72
1
 73
2
 11
-92
 21
-83.5
 31
0
  0
TEXT
  8
1
 62
7
 10
-86
 20
-69.75
 30
0
 40
2.5
  1
２２．３
 41
0.9
 72
1
 73
2
 11
-77
 21
-68.5
 31
0
  0
TEXT
  8
1
 62
7
 10
-86
 20
-64.75
 30
0
 40
2.5
  1
１９．８
 41
0.9
 72
1
 73
2
 11
-77
 21
-63.5
 31
0
  0
TEXT
  8
1
 62
2
 10
-71.88140000000004
 20
-56.26000000000001
 30
0
 40
2.520000000000007
  1
Ｌ2
 41
0.63
 72
1
 73
2
 11
-69.5
 21
-55
 31
0
  0
TEXT
  8
1
 62
2
 10
-81.7628000000001
 20
-60.26000000000001
 30
0
 40
2.520000000000007
  1
(ｍｍ)
 41
0.63
 72
1
 73
2
 11
-77
 21
-59
 31
0
  0
TEXT
  8
1
 62
2
 10
-69.93800000000016
 20
-60.26000000000001
 30
0
 40
2.520000000000007
  1
(ｉｎｃｈ)
 41
0.63
 72
1
 73
2
 11
-62
 21
-59
 31
0
  0
TEXT
  8
1
 62
7
 10
-71
 20
-64.75
 30
0
 40
2.5
  1
０．７８
 41
0.9
 72
1
 73
2
 11
-62
 21
-63.5
 31
0
  0
TEXT
  8
1
 62
7
 10
-73.25
 20
-69.75
 30
0
 40
2.5
  1
０．８７８
 41
0.9
 72
1
 73
2
 11
-62
 21
-68.5
 31
0
  0
TEXT
  8
1
 62
7
 10
-86
 20
-74.75
 30
0
 40
2.5
  1
２４．８
 41
0.9
 72
1
 73
2
 11
-77
 21
-73.5
 31
0
  0
TEXT
  8
1
 62
7
 10
-73.25
 20
-74.75
 30
0
 40
2.5
  1
０．９７６
 41
0.9
 72
1
 73
2
 11
-62
 21
-73.5
 31
0
  0
TEXT
  8
1
 62
7
 10
-86
 20
-79.75
 30
0
 40
2.5
  1
２７．３
 41
0.9
 72
1
 73
2
 11
-77
 21
-78.5
 31
0
  0
TEXT
  8
1
 62
7
 10
-73.25
 20
-79.75
 30
0
 40
2.5
  1
１．０７５
 41
0.9
 72
1
 73
2
 11
-62
 21
-78.5
 31
0
  0
TEXT
  8
1
 62
7
 10
-86
 20
-84.75
 30
0
 40
2.5
  1
２９．８
 41
0.9
 72
1
 73
2
 11
-77
 21
-83.5
 31
0
  0
TEXT
  8
1
 62
7
 10
-73.25
 20
-84.75
 30
0
 40
2.5
  1
１．１７３
 41
0.9
 72
1
 73
2
 11
-62
 21
-83.5
 31
0
  0
ENDBLK
  8
0
  0
BLOCK
  8
0
  2
DME34B36G-04
 70
0
 10
-1.393200981718991
 20
-303.0502600399581
 30
0
  0
INSERT
  8
0
  2
TOP
 10
-196.1221264909976
 20
-445.688301522763
 30
0
  0
ENDBLK
  8
0
  0
BLOCK
  8
0
  2
DME34B36G
 70
0
 10
437.6912236417212
 20
475.007598067909
 30
0
  0
INSERT
  8
0
  2
DME34B36G-04
 10
-1.393200981718991
 20
-303.0502600399581
 30
0
  0
ENDBLK
  8
0
  0
BLOCK
  8
0
  2
___R___O_______R
 70
0
 10
0.5000000000000568
 20
-3.75
 30
0
  0
LINE
  8
1
 62
4
  6
PHANTOM
 10
-194.5
 20
-146
 30
0
 11
194.5
 21
-146
 31
0
  0
LINE
  8
1
 62
4
  6
PHANTOM
 10
194.5
 20
146
 30
0
 11
-194.5
 21
146
 31
0
  0
LINE
  8
1
 62
4
  6
PHANTOM
 10
194.5
 20
146
 30
0
 11
194.5
 21
129
 31
0
  0
LINE
  8
1
 62
4
  6
PHANTOM
 10
-194.5
 20
-146
 30
0
 11
-194.5
 21
146
 31
0
  0
LINE
  8
1
 62
4
  6
PHANTOM
 10
194.5
 20
-136.5
 30
0
 11
194.5
 21
-146
 31
0
  0
TEXT
  8
1
 62
4
 10
178.746911898274
 20
-142.6071298819256
 30
0
 40
5
  1
A3
 41
0.9
 72
1
 73
2
 11
183.246911898274
 21
-140.1071298819256
 31
0
  0
ENDBLK
  8
0
  0
BLOCK
  8
1
  2
*D0
 70
1
 10
0
 20
0
 30
0
  0
LINE
  8
1
 62
2
 10
0
 20
52.3962036484417
 30
0
 11
49.29999999999994
 21
52.3962036484417
 31
0
  0
LINE
  8
1
 62
2
 10
49.29999999999994
 20
18.00000000000011
 30
0
 11
49.29999999999994
 21
53.3962036484417
 31
0
  0
LINE
  8
1
 62
2
 10
0
 20
19
 30
0
 11
0
 21
53.3962036484417
 31
0
  0
SOLID
  8
1
 62
2
 10
0
 20
52.3962036484417
 30
0
 11
3.200000000000001
 21
52.8122036484417
 31
0
 12
3.200000000000001
 22
51.9802036484417
 32
0
 13
3.200000000000001
 23
51.9802036484417
 33
0
  0
SOLID
  8
1
 62
2
 10
49.29999999999994
 20
52.3962036484417
 30
0
 11
46.09999999999994
 21
51.9802036484417
 31
0
 12
46.09999999999994
 22
52.8122036484417
 32
0
 13
46.09999999999994
 23
52.8122036484417
 33
0
  0
TEXT
  8
1
 62
2
 10
22.72999999999997
 20
53.3962036484417
 30
0
 40
3.2
  1
L1
 41
0.9
  0
ENDBLK
  8
0
  0
BLOCK
  8
1
  2
*D1
 70
1
 10
0
 20
0
 30
0
  0
LINE
  8
1
 62
2
 10
-71.4316235022719
 20
-6.399999999999999
 30
0
 11
-71.4316235022719
 21
0
 31
0
  0
LINE
  8
1
 62
2
 10
-71.4316235022719
 20
0
 30
0
 11
-71.4316235022719
 21
7.000000000000002
 31
0
  0
LINE
  8
1
 62
2
 10
-71.4316235022719
 20
7.000000000000002
 30
0
 11
-71.4316235022719
 21
23.0090107120894
 31
0
  0
LINE
  8
1
 62
2
 10
-80.5
 20
0
 30
0
 11
-70.4316235022719
 21
0
 31
0
  0
LINE
  8
1
 62
2
 10
-93
 20
7.000000000000002
 30
0
 11
-70.4316235022719
 21
7.000000000000002
 31
0
  0
SOLID
  8
1
 62
2
 10
-71.4316235022719
 20
7.000000000000002
 30
0
 11
-71.8476235022719
 21
10.2
 31
0
 12
-71.01562350227191
 22
10.2
 32
0
 13
-71.01562350227191
 23
10.2
 33
0
  0
SOLID
  8
1
 62
2
 10
-71.4316235022719
 20
0
 30
0
 11
-71.01562350227191
 21
-3.200000000000001
 31
0
 12
-71.8476235022719
 22
-3.200000000000001
 32
0
 13
-71.8476235022719
 23
-3.200000000000001
 33
0
  0
TEXT
  8
1
 62
2
 10
-72.4316235022719
 20
14.6410107120894
 30
0
 40
3.2
  1
7
 50
90
 41
0.9
  0
TEXT
  8
1
 62
2
 10
-73.07162350227191
 20
18.1610107120894
 30
0
 40
1.92
  1
%%p0.5
 50
90
 41
0.9
  0
ENDBLK
  8
0
  0
BLOCK
  8
1
  2
*D2
 70
1
 10
0
 20
0
 30
0
  0
LINE
  8
1
 62
2
 10
-118.5
 20
52.5850951621166
 30
0
 11
-81.5
 21
52.5850951621166
 31
0
  0
LINE
  8
1
 62
2
 10
-118.5
 20
1
 30
0
 11
-118.5
 21
53.5850951621166
 31
0
  0
LINE
  8
1
 62
2
 10
-81.5
 20
1
 30
0
 11
-81.5
 21
53.5850951621166
 31
0
  0
SOLID
  8
1
 62
2
 10
-118.5
 20
52.5850951621166
 30
0
 11
-115.3
 21
53.0010951621166
 31
0
 12
-115.3
 22
52.16909516211661
 32
0
 13
-115.3
 23
52.16909516211661
 33
0
  0
SOLID
  8
1
 62
2
 10
-81.5
 20
52.5850951621166
 30
0
 11
-84.7
 21
52.16909516211661
 31
0
 12
-84.7
 22
53.0010951621166
 32
0
 13
-84.7
 23
53.0010951621166
 33
0
  0
TEXT
  8
1
 62
2
 10
-100.5777777777778
 20
53.5850951621166
 30
0
 40
3.2
  1
37
 41
0.9
  0
TEXT
  8
1
 62
2
 10
-104.2222222222222
 20
53.5850951621166
 30
0
 40
3.2
  1
φ
 41
0.9
  0
ENDBLK
  8
0
  0
BLOCK
  8
1
  2
*D3
 70
1
 10
0
 20
0
 30
0
  0
LINE
  8
1
 62
2
 10
-115.5
 20
40.4410838224926
 30
0
 11
-84.5
 21
40.4410838224926
 31
0
  0
LINE
  8
1
 62
2
 10
-115.5
 20
1
 30
0
 11
-115.5
 21
41.4410838224926
 31
0
  0
LINE
  8
1
 62
2
 10
-84.5
 20
1
 30
0
 11
-84.5
 21
41.4410838224926
 31
0
  0
SOLID
  8
1
 62
2
 10
-115.5
 20
40.4410838224926
 30
0
 11
-112.3
 21
40.8570838224926
 31
0
 12
-112.3
 22
40.0250838224926
 32
0
 13
-112.3
 23
40.0250838224926
 33
0
  0
SOLID
  8
1
 62
2
 10
-84.5
 20
40.4410838224926
 30
0
 11
-87.7
 21
40.0250838224926
 31
0
 12
-87.7
 22
40.8570838224926
 32
0
 13
-87.7
 23
40.8570838224926
 33
0
  0
TEXT
  8
1
 62
2
 10
-103.3217777777778
 20
41.4410838224926
 30
0
 40
3.2
  1
31
 41
0.9
  0
TEXT
  8
1
 62
2
 10
-97.88177777777779
 20
42.0810838224926
 30
0
 40
1.92
  1
%%p0.2
 41
0.9
  0
TEXT
  8
1
 62
2
 10
-106.9662222222222
 20
41.4410838224926
 30
0
 40
3.2
  1
φ
 41
0.9
  0
ENDBLK
  8
0
  0
BLOCK
  8
1
  2
*D4
 70
1
 10
0
 20
0
 30
0
  0
LINE
  8
1
 62
2
 10
-106
 20
28.5106797698132
 30
0
 11
-94
 21
28.5106797698132
 31
0
  0
LINE
  8
1
 62
2
 10
-106
 20
28.5106797698132
 30
0
 11
-138.6774391658672
 21
28.5106797698132
 31
0
  0
LINE
  8
1
 62
2
 10
-106
 20
8
 30
0
 11
-106
 21
29.5106797698132
 31
0
  0
LINE
  8
1
 62
2
 10
-94
 20
8
 30
0
 11
-94
 21
29.5106797698132
 31
0
  0
SOLID
  8
1
 62
2
 10
-106
 20
28.5106797698132
 30
0
 11
-102.8
 21
28.9266797698132
 31
0
 12
-102.8
 22
28.0946797698132
 32
0
 13
-102.8
 23
28.0946797698132
 33
0
  0
SOLID
  8
1
 62
2
 10
-94
 20
28.5106797698132
 30
0
 11
-97.2
 21
28.0946797698132
 31
0
 12
-97.2
 22
28.9266797698132
 32
0
 13
-97.2
 23
28.9266797698132
 33
0
  0
TEXT
  8
1
 62
2
 10
-135.0329947214228
 20
29.5106797698132
 30
0
 40
3.2
  1
12
 41
0.9
  0
TEXT
  8
1
 62
2
 10
-129.5929947214228
 20
30.1506797698132
 30
0
 40
1.92
  1
%%p0.1
 41
0.9
  0
TEXT
  8
1
 62
2
 10
-138.6774391658672
 20
29.5106797698132
 30
0
 40
3.2
  1
φ
 41
0.9
  0
ENDBLK
  8
0
  0
BLOCK
  8
1
  2
*D5
 70
1
 10
0
 20
0
 30
0
  0
LINE
  8
1
 62
2
 10
1.776356839400251e-015
 20
40.4377812577139
 30
0
 11
19.8
 21
40.4377812577139
 31
0
  0
LINE
  8
1
 62
2
 10
1.776356839400251e-015
 20
19
 30
0
 11
1.776356839400251e-015
 21
41.4377812577139
 31
0
  0
LINE
  8
1
 62
2
 10
19.8
 20
18.25
 30
0
 11
19.8
 21
41.4377812577139
 31
0
  0
SOLID
  8
1
 62
2
 10
1.776356839400251e-015
 20
40.4377812577139
 30
0
 11
3.200000000000002
 21
40.8537812577139
 31
0
 12
3.200000000000002
 22
40.0217812577139
 32
0
 13
3.200000000000002
 23
40.0217812577139
 33
0
  0
SOLID
  8
1
 62
2
 10
19.8
 20
40.4377812577139
 30
0
 11
16.60000000000001
 21
40.0217812577139
 31
0
 12
16.60000000000001
 22
40.8537812577139
 32
0
 13
16.60000000000001
 23
40.8537812577139
 33
0
  0
TEXT
  8
1
 62
2
 10
7.500000000000002
 20
41.4377812577139
 30
0
 40
3.2
  1
L2
 41
0.9
  0
ENDBLK
  8
0
  0
BLOCK
  8
1
  2
*D6
 70
1
 10
0
 20
0
 30
0
  0
LINE
  8
1
 62
2
 10
-42.9540336730988
 20
-2.399999999999999
 30
0
 11
-42.9540336730988
 21
4
 31
0
  0
LINE
  8
1
 62
2
 10
-42.9540336730988
 20
4
 30
0
 11
-42.9540336730988
 21
10
 31
0
  0
LINE
  8
1
 62
2
 10
-42.9540336730988
 20
10
 30
0
 11
-42.9540336730988
 21
31.16374732728852
 31
0
  0
LINE
  8
1
 62
2
 10
-22
 20
4
 30
0
 11
-43.9540336730988
 21
4
 31
0
  0
LINE
  8
1
 62
2
 10
-10
 20
10
 30
0
 11
-43.9540336730988
 21
10
 31
0
  0
SOLID
  8
1
 62
2
 10
-42.9540336730988
 20
4
 30
0
 11
-42.5380336730988
 21
0.7999999999999994
 31
0
 12
-43.3700336730988
 22
0.7999999999999994
 32
0
 13
-43.3700336730988
 23
0.7999999999999994
 33
0
  0
SOLID
  8
1
 62
2
 10
-42.9540336730988
 20
10
 30
0
 11
-43.3700336730988
 21
13.2
 31
0
 12
-42.5380336730988
 22
13.2
 32
0
 13
-42.5380336730988
 23
13.2
 33
0
  0
TEXT
  8
1
 62
2
 10
-44.7540336730988
 20
20.87574732728852
 30
0
 40
3.2
  1
6
 50
90
 41
0.9
  0
TEXT
  8
1
 62
2
 10
-46.83403367309879
 20
24.39574732728853
 30
0
 40
1.92
  1
 0
 50
90
 41
0.9
  0
TEXT
  8
1
 62
2
 10
-43.9540336730988
 20
24.39574732728853
 30
0
 40
1.92
  1
-0.02
 50
90
 41
0.9
  0
TEXT
  8
1
 62
2
 10
-44.7540336730988
 20
17.23130288284408
 30
0
 40
3.2
  1
φ
 50
90
 41
0.9
  0
ENDBLK
  8
0
  0
BLOCK
  8
1
  2
*D7
 70
1
 10
0
 20
0
 30
0
  0
LINE
  8
1
 62
2
 10
-30.93352917155655
 20
-2.399999999999999
 30
0
 11
-30.93352917155655
 21
4
 31
0
  0
LINE
  8
1
 62
2
 10
-30.93352917155655
 20
4
 30
0
 11
-30.93352917155655
 21
9.5
 31
0
  0
LINE
  8
1
 62
2
 10
-30.93352917155655
 20
9.5
 30
0
 11
-30.93352917155655
 21
31.4249173863507
 31
0
  0
LINE
  8
1
 62
2
 10
-22
 20
4
 30
0
 11
-31.93352917155655
 21
4
 31
0
  0
LINE
  8
1
 62
2
 10
-22
 20
9.5
 30
0
 11
-31.93352917155655
 21
9.5
 31
0
  0
SOLID
  8
1
 62
2
 10
-30.93352917155655
 20
4
 30
0
 11
-30.51752917155655
 21
0.7999999999999994
 31
0
 12
-31.34952917155655
 22
0.7999999999999994
 32
0
 13
-31.34952917155655
 23
0.7999999999999994
 33
0
  0
SOLID
  8
1
 62
2
 10
-30.93352917155655
 20
9.5
 30
0
 11
-31.34952917155655
 21
12.7
 31
0
 12
-30.51752917155655
 22
12.7
 32
0
 13
-30.51752917155655
 23
12.7
 33
0
  0
TEXT
  8
1
 62
2
 10
-31.93352917155655
 20
17.9849173863507
 30
0
 40
3.2
  1
5.5
 50
90
 41
0.9
  0
TEXT
  8
1
 62
2
 10
-32.57352917155655
 20
25.4249173863507
 30
0
 40
1.92
  1
%%p0.15
 50
90
 41
0.9
  0
ENDBLK
  8
0
  0
BLOCK
  8
1
  2
*D8
 70
1
 10
0
 20
0
 30
0
  0
LINE
  8
1
 62
2
 10
-21
 20
28.4777309018375
 30
0
 11
-9
 21
28.4777309018375
 31
0
  0
LINE
  8
1
 62
2
 10
-21
 20
10.5
 30
0
 11
-21
 21
29.4777309018375
 31
0
  0
LINE
  8
1
 62
2
 10
-9
 20
11
 30
0
 11
-9
 21
29.4777309018375
 31
0
  0
SOLID
  8
1
 62
2
 10
-21
 20
28.4777309018375
 30
0
 11
-17.8
 21
28.8937309018375
 31
0
 12
-17.8
 22
28.0617309018375
 32
0
 13
-17.8
 23
28.0617309018375
 33
0
  0
SOLID
  8
1
 62
2
 10
-9
 20
28.4777309018375
 30
0
 11
-12.2
 21
28.0617309018375
 31
0
 12
-12.2
 22
28.8937309018375
 32
0
 13
-12.2
 23
28.8937309018375
 33
0
  0
TEXT
  8
1
 62
2
 10
-16.92
 20
29.4777309018375
 30
0
 40
3.2
  1
12
 41
0.9
  0
ENDBLK
  8
0
  0
BLOCK
  8
1
  2
*D9
 70
1
 10
0
 20
0
 30
0
  0
LINE
  8
1
 62
2
 10
-21
 20
52.4645067881646
 30
0
 11
0
 21
52.4645067881646
 31
0
  0
LINE
  8
1
 62
2
 10
-21
 20
10.5
 30
0
 11
-21
 21
53.4645067881646
 31
0
  0
LINE
  8
1
 62
2
 10
0
 20
19
 30
0
 11
0
 21
53.4645067881646
 31
0
  0
SOLID
  8
1
 62
2
 10
0
 20
52.4645067881646
 30
0
 11
-3.200000000000001
 21
52.0485067881646
 31
0
 12
-3.200000000000001
 22
52.8805067881646
 32
0
 13
-3.200000000000001
 23
52.8805067881646
 33
0
  0
SOLID
  8
1
 62
2
 10
-21
 20
52.4645067881646
 30
0
 11
-17.8
 21
52.8805067881646
 31
0
 12
-17.8
 22
52.0485067881646
 32
0
 13
-17.8
 23
52.0485067881646
 33
0
  0
TEXT
  8
1
 62
2
 10
-12.42
 20
53.4645067881646
 30
0
 40
3.2
  1
21
 41
0.9
  0
ENDBLK
  8
0
  0
BLOCK
  8
1
  2
*D10
 70
1
 10
0
 20
0
 30
0
  0
LINE
  8
1
 62
2
 10
6.4
 20
40.4711188450011
 30
0
 11
0
 21
40.4711188450011
 31
0
  0
LINE
  8
1
 62
2
 10
-6.000000000000031
 20
40.4711188450011
 30
0
 11
0
 21
40.4711188450011
 31
0
  0
LINE
  8
1
 62
2
 10
-6.000000000000031
 20
40.4711188450011
 30
0
 11
-13.57157612812182
 21
40.4711188450011
 31
0
  0
LINE
  8
1
 62
2
 10
-6.000000000000031
 20
14
 30
0
 11
-6.000000000000031
 21
41.4711188450011
 31
0
  0
LINE
  8
1
 62
2
 10
0
 20
19
 30
0
 11
0
 21
41.4711188450011
 31
0
  0
SOLID
  8
1
 62
2
 10
-6.000000000000031
 20
40.4711188450011
 30
0
 11
-9.200000000000031
 21
40.0551188450011
 31
0
 12
-9.200000000000031
 22
40.8871188450011
 32
0
 13
-9.200000000000031
 23
40.8871188450011
 33
0
  0
SOLID
  8
1
 62
2
 10
0
 20
40.4711188450011
 30
0
 11
3.200000000000001
 21
40.8871188450011
 31
0
 12
3.200000000000001
 22
40.0551188450011
 32
0
 13
3.200000000000001
 23
40.0551188450011
 33
0
  0
TEXT
  8
1
 62
2
 10
-13.57157612812182
 20
41.4711188450011
 30
0
 40
3.2
  1
6
 41
0.9
  0
ENDBLK
  8
0
  0
BLOCK
  8
1
  2
*D11
 70
1
 10
0
 20
0
 30
0
  0
LINE
  8
1
 62
2
 10
71.35004719443997
 20
-17
 30
0
 11
71.35004719443997
 21
17.00000000000011
 31
0
  0
LINE
  8
1
 62
2
 10
50.29999999999994
 20
17.00000000000011
 30
0
 11
72.35004719443997
 21
17.00000000000011
 31
0
  0
LINE
  8
1
 62
2
 10
50.29999999999994
 20
-17
 30
0
 11
72.35004719443997
 21
-17
 31
0
  0
SOLID
  8
1
 62
2
 10
71.35004719443997
 20
17.00000000000011
 30
0
 11
71.76604719443996
 21
13.80000000000011
 31
0
 12
70.93404719443997
 22
13.80000000000011
 32
0
 13
70.93404719443997
 23
13.80000000000011
 33
0
  0
SOLID
  8
1
 62
2
 10
71.35004719443997
 20
-17
 30
0
 11
70.93404719443997
 21
-13.8
 31
0
 12
71.76604719443996
 22
-13.8
 32
0
 13
71.76604719443996
 23
-13.8
 33
0
  0
TEXT
  8
1
 62
2
 10
70.35004719443997
 20
-0.5777777777777247
 30
0
 40
3.2
  1
34
 50
90
 41
0.9
  0
TEXT
  8
1
 62
2
 10
70.35004719443997
 20
-4.222222222222169
 30
0
 40
3.2
  1
φ
 50
90
 41
0.9
  0
ENDBLK
  8
0
  0
BLOCK
  8
1
  2
*D12
 70
1
 10
0
 20
0
 30
0
  0
LINE
  8
1
 62
2
 10
50.89999999999995
 20
39.06277775943445
 30
0
 11
64.41060870604395
 21
39.06277775943445
 31
0
  0
LINE
  8
1
 62
2
 10
49.29999999999994
 20
39.06277775943445
 30
0
 11
50.89999999999995
 21
39.06277775943445
 31
0
  0
LINE
  8
1
 62
2
 10
42.89999999999994
 20
39.06277775943445
 30
0
 11
49.29999999999994
 21
39.06277775943445
 31
0
  0
LINE
  8
1
 62
2
 10
50.89999999999995
 20
4.245566037735898
 30
0
 11
50.89999999999995
 21
40.06277775943445
 31
0
  0
LINE
  8
1
 62
2
 10
49.29999999999994
 20
18.00000000000011
 30
0
 11
49.29999999999994
 21
40.06277775943445
 31
0
  0
SOLID
  8
1
 62
2
 10
49.29999999999994
 20
39.06277775943445
 30
0
 11
46.09999999999994
 21
38.64677775943445
 31
0
 12
46.09999999999994
 22
39.47877775943444
 32
0
 13
46.09999999999994
 23
39.47877775943444
 33
0
  0
SOLID
  8
1
 62
2
 10
50.89999999999995
 20
39.06277775943445
 30
0
 11
54.09999999999995
 21
39.47877775943444
 31
0
 12
54.09999999999995
 22
38.64677775943445
 32
0
 13
54.09999999999995
 23
38.64677775943445
 33
0
  0
TEXT
  8
1
 62
2
 10
57.45060870604395
 20
40.06277775943445
 30
0
 40
3.2
  1
1.6
 41
0.9
  0
TEXT
  8
1
 62
2
 10
55.37060870604395
 20
40.06277775943445
 30
0
 40
3.2
  1
(
 41
0.9
  0
TEXT
  8
1
 62
2
 10
63.93060870604395
 20
40.06277775943445
 30
0
 40
3.2
  1
)
 41
0.9
  0
ENDBLK
  8
0
  0
BLOCK
  8
1
  2
*D13
 70
1
 10
0
 20
0
 30
0
  0
LINE
  8
1
 62
2
 10
49.29999999999994
 20
-33.9714216846653
 30
0
 11
111.8974548367336
 21
-33.9714216846653
 31
0
  0
LINE
  8
1
 62
2
 10
111.8974548367336
 20
-2.100000000000019
 30
0
 11
111.8974548367336
 21
-34.9714216846653
 31
0
  0
LINE
  8
1
 62
2
 10
49.29999999999994
 20
-18
 30
0
 11
49.29999999999994
 21
-34.9714216846653
 31
0
  0
SOLID
  8
1
 62
2
 10
49.29999999999994
 20
-33.9714216846653
 30
0
 11
52.49999999999994
 21
-33.55542168466531
 31
0
 12
52.49999999999994
 22
-34.3874216846653
 32
0
 13
52.49999999999994
 23
-34.3874216846653
 33
0
  0
SOLID
  8
1
 62
2
 10
111.8974548367336
 20
-33.9714216846653
 30
0
 11
108.6974548367336
 21
-34.3874216846653
 31
0
 12
108.6974548367336
 22
-33.55542168466531
 32
0
 13
108.6974548367336
 23
-33.55542168466531
 33
0
  0
TEXT
  8
1
 62
2
 10
73.75072741836684
 20
-32.1714216846653
 30
0
 40
3.2
  1
300
 41
0.9
  0
TEXT
  8
1
 62
2
 10
83.03072741836684
 20
-30.0914216846653
 30
0
 40
1.92
  1
+30
 41
0.9
  0
TEXT
  8
1
 62
2
 10
84.75872741836683
 20
-32.9714216846653
 30
0
 40
1.92
  1
 0
 41
0.9
  0
ENDBLK
  8
0
  0
BLOCK
  8
1
  2
*D14
 70
1
 10
0
 20
0
 30
0
  0
LINE
  8
1
 62
2
 10
108.8974548367336
 20
-22.00961679880335
 30
0
 11
98.3092908649827
 21
-22.00961679880335
 31
0
  0
LINE
  8
1
 62
2
 10
108.8974548367336
 20
-22.00961679880335
 30
0
 11
111.8974548367336
 21
-22.00961679880335
 31
0
  0
LINE
  8
1
 62
2
 10
118.2974548367336
 20
-22.00961679880335
 30
0
 11
111.8974548367336
 21
-22.00961679880335
 31
0
  0
LINE
  8
1
 62
2
 10
111.8974548367336
 20
-2.100000000000019
 30
0
 11
111.8974548367336
 21
-23.00961679880335
 31
0
  0
LINE
  8
1
 62
2
 10
108.8974548367336
 20
-2.660000000000078
 30
0
 11
108.8974548367336
 21
-23.00961679880335
 31
0
  0
SOLID
  8
1
 62
2
 10
111.8974548367336
 20
-22.00961679880335
 30
0
 11
115.0974548367336
 21
-21.59361679880335
 31
0
 12
115.0974548367336
 22
-22.42561679880335
 32
0
 13
115.0974548367336
 23
-22.42561679880335
 33
0
  0
SOLID
  8
1
 62
2
 10
108.8974548367336
 20
-22.00961679880335
 30
0
 11
105.6974548367336
 21
-22.42561679880335
 31
0
 12
105.6974548367336
 22
-21.59361679880335
 32
0
 13
105.6974548367336
 23
-21.59361679880335
 33
0
  0
TEXT
  8
1
 62
2
 10
100.3892908649827
 20
-21.00961679880335
 30
0
 40
3.2
  1
3
 41
0.9
  0
TEXT
  8
1
 62
2
 10
98.3092908649827
 20
-21.00961679880335
 30
0
 40
3.2
  1
(
 41
0.9
  0
TEXT
  8
1
 62
2
 10
103.9092908649827
 20
-21.00961679880335
 30
0
 40
3.2
  1
)
 41
0.9
  0
ENDBLK
  8
0
  0
BLOCK
  8
1
  2
*D15
 70
1
 10
0
 20
0
 30
0
  0
LINE
  8
1
 62
2
 10
-90.95830177209062
 20
-14.18596551791544
 30
0
 11
-78.57787750755851
 21
-21.4949187298652
 31
0
  0
LINE
  8
1
 62
2
 10
-78.57787750755851
 20
-21.4949187298652
 30
0
 11
-27.6178775075585
 21
-21.4949187298652
 31
0
  0
SOLID
  8
1
 62
2
 10
-90.95830177209062
 20
-14.18596551791544
 30
0
 11
-87.99119231798345
 21
-15.45455429578943
 31
0
 12
-88.41416545378446
 22
-16.17101624620317
 32
0
 13
-88.41416545378446
 23
-16.17101624620317
 33
0
  0
TEXT
  8
1
 62
2
 10
-64.09787750755849
 20
-20.4949187298652
 30
0
 40
3.2
  1
3
 41
0.9
  0
TEXT
  8
1
 62
2
 10
-73.3778775075585
 20
-20.4949187298652
 30
0
 40
3.2
  1
3-M
 41
0.9
  0
TEXT
  8
1
 62
2
 10
-60.5778775075585
 20
-20.4949187298652
 30
0
 40
3.2
  1
 DEPTH 4MAX
 41
0.9
  0
ENDBLK
  8
0
  0
ENDSEC
  0
SECTION
  2
ENTITIES
  0
LINE
  8
1
 62
3
 10
-81.5
 20
0
 30
0
 11
-78.5
 21
0
 31
0
  0
LINE
  8
1
 62
3
 10
-94
 20
7
 30
0
 11
-92
 21
7
 31
0
  0
LINE
  8
1
 62
2
 10
-78.5
 20
-35.5
 30
0
 11
-27.26879150363793
 21
-35.5
 31
0
  0
LINE
  8
1
 62
7
 10
18.99999999999999
 20
17.25
 30
0
 11
19.8
 21
17.25
 31
0
  0
LINE
  8
1
 62
7
 10
19.8
 20
-17.25
 30
0
 11
18.99999999999999
 21
-17.25
 31
0
  0
LINE
  8
1
 62
7
 10
18.99999999999999
 20
-18.5
 30
0
 11
0.5
 21
-18.5
 31
0
  0
LINE
  8
1
 62
7
 10
18.99999999999999
 20
18.5
 30
0
 11
18.99999999999999
 21
-18.5
 31
0
  0
LINE
  8
1
 62
7
 10
0.5
 20
18.5
 30
0
 11
18.99999999999999
 21
18.5
 31
0
  0
LINE
  8
1
 62
3
 10
-109.25
 20
16.02146997001211
 30
0
 11
-106.3101159327435
 21
10.92944139716138
 31
0
  0
LINE
  8
1
 62
3
 10
-109.25
 20
-16.02146997001211
 30
0
 11
-106.3899763259442
 21
-11.06776365569772
 31
0
  0
LINE
  8
1
 62
3
 10
-90.75
 20
16.02146997001211
 30
0
 11
-93.9457610082363
 21
10.48624953489951
 31
0
  0
LINE
  8
1
 62
3
 10
-93.7734983288898
 20
-10.78461724777543
 30
0
 11
-90.75
 21
-16.02146997001211
 31
0
  0
LINE
  8
1
 62
3
 10
-116.0214699700121
 20
9.25
 30
0
 11
-110.4470875108881
 21
6.0316287866587
 31
0
  0
LINE
  8
1
 62
3
 10
-89.13927622745601
 20
6.270441793672489
 30
0
 11
-83.97853002998791
 21
9.25
 31
0
  0
LINE
  8
1
 62
3
 10
-100
 20
21.43419207851377
 30
0
 11
-100
 21
-21.7195057833859
 31
0
  0
LINE
  8
1
 62
7
 10
-102
 20
-8.930285549745918
 30
0
 11
-102
 21
-1.930285549745918
 31
0
  0
LINE
  8
1
 62
7
 10
-98
 20
-1.930285549745918
 30
0
 11
-98
 21
-8.930285549745918
 31
0
  0
LINE
  8
1
 62
7
 10
-101.5139022425508
 20
9.589999999999975
 30
0
 11
-98.4860977574494
 21
9.589999999999975
 31
0
  0
LINE
  8
1
 62
3
 10
-109.2370311952331
 20
7
 30
0
 11
-94
 21
7
 31
0
  0
LINE
  8
1
 62
3
 10
-81.5
 20
0
 30
0
 11
-122.2330704521557
 21
0
 31
0
  0
LINE
  8
1
 62
7
 10
-100.6717514421272
 20
-15.9596194077713
 30
0
 11
-100.4596194077712
 21
-15.74748737341542
 31
0
  0
LINE
  8
1
 62
7
 10
-100.4596194077712
 20
-15.25251262658469
 30
0
 11
-100.6717514421272
 21
-15.0403805922287
 31
0
  0
LINE
  8
1
 62
7
 10
-100.6717514421272
 20
-14.96966991411011
 30
0
 11
-100.5303300858899
 21
-14.82824855787283
 31
0
  0
LINE
  8
1
 62
7
 10
-100.4596194077712
 20
-14.82824855787283
 30
0
 11
-100.2474873734153
 21
-15.04038059222881
 31
0
  0
LINE
  8
1
 62
7
 10
-99.7525126265847
 20
-15.04038059222881
 30
0
 11
-99.5403805922287
 21
-14.82824855787288
 31
0
  0
LINE
  8
1
 62
7
 10
-99.46966991411
 20
-14.82824855787283
 30
0
 11
-99.3282485578728
 21
-14.96966991411011
 31
0
  0
LINE
  8
1
 62
7
 10
-99.3282485578727
 20
-15.0403805922287
 30
0
 11
-99.5403805922287
 21
-15.25251262658469
 31
0
  0
LINE
  8
1
 62
7
 10
-99.5403805922287
 20
-15.74748737341542
 30
0
 11
-99.3282485578728
 21
-15.9596194077713
 31
0
  0
LINE
  8
1
 62
7
 10
-99.3282485578728
 20
-16.03033008588989
 30
0
 11
-99.4696699141101
 21
-16.17175144212717
 31
0
  0
LINE
  8
1
 62
7
 10
-99.5403805922287
 20
-16.17175144212717
 30
0
 11
-99.7525126265847
 21
-15.9596194077713
 31
0
  0
LINE
  8
1
 62
7
 10
-100.2474873734153
 20
-15.9596194077713
 30
0
 11
-100.4596194077712
 21
-16.17175144212717
 31
0
  0
LINE
  8
1
 62
7
 10
-100.53033008589
 20
-16.17175144212717
 30
0
 11
-100.6717514421272
 21
-16.03033008588989
 31
0
  0
LINE
  8
1
 62
7
 10
-112.8055734356313
 20
7.220096189432184
 30
0
 11
-113.0653810567667
 21
7.370096189432275
 31
0
  0
LINE
  8
1
 62
7
 10
-113.5434899480912
 20
7.241987298107688
 30
0
 11
-113.6934899480912
 21
6.982179676972407
 31
0
  0
LINE
  8
1
 62
7
 10
-113.7617912182804
 20
6.963878406783124
 30
0
 11
-113.9349962990372
 21
7.06387840678309
 31
0
  0
LINE
  8
1
 62
7
 10
-113.9532975692265
 20
7.132179676972271
 30
0
 11
-113.8032975692265
 21
7.391987298107722
 31
0
  0
LINE
  8
1
 62
7
 10
-113.9314064605511
 20
7.870096189432275
 30
0
 11
-114.1912140816864
 21
8.020096189432309
 31
0
  0
LINE
  8
1
 62
7
 10
-114.2095153518756
 20
8.08839745962149
 30
0
 11
-114.1095153518757
 21
8.261602540378419
 31
0
  0
LINE
  8
1
 62
7
 10
-114.0412140816864
 20
8.279903810567475
 30
0
 11
-113.7814064605511
 21
8.129903810567498
 31
0
  0
LINE
  8
1
 62
7
 10
-113.3032975692265
 20
8.258012701892085
 30
0
 11
-113.1532975692265
 21
8.517820323027422
 31
0
  0
LINE
  8
1
 62
7
 10
-113.0849962990372
 20
8.536121593216706
 30
0
 11
-112.9117912182804
 21
8.436121593216683
 31
0
  0
LINE
  8
1
 62
7
 10
-112.8934899480912
 20
8.367820323027388
 30
0
 11
-113.0434899480912
 21
8.108012701892108
 31
0
  0
LINE
  8
1
 62
7
 10
-112.9153810567667
 20
7.629903810567498
 30
0
 11
-112.6555734356313
 21
7.479903810567521
 31
0
  0
LINE
  8
1
 62
7
 10
-112.6372721654421
 20
7.411602540378283
 30
0
 11
-112.737272165442
 21
7.238397459621524
 31
0
  0
LINE
  8
1
 62
7
 10
-86.3065100519088
 20
6.982179676972407
 30
0
 11
-86.45651005190881
 21
7.241987298107688
 31
0
  0
LINE
  8
1
 62
7
 10
-86.9346189432334
 20
7.370096189432275
 30
0
 11
-87.1944265643687
 21
7.220096189432297
 31
0
  0
LINE
  8
1
 62
7
 10
-87.26272783455791
 20
7.238397459621524
 30
0
 11
-87.362727834558
 21
7.411602540378283
 31
0
  0
LINE
  8
1
 62
7
 10
-87.3444265643687
 20
7.479903810567521
 30
0
 11
-87.08461894323341
 21
7.629903810567612
 31
0
  0
LINE
  8
1
 62
7
 10
-86.95651005190881
 20
8.108012701892221
 30
0
 11
-87.1065100519088
 21
8.367820323027502
 31
0
  0
LINE
  8
1
 62
7
 10
-87.0882087817196
 20
8.436121593216683
 30
0
 11
-86.9150037009627
 21
8.536121593216706
 31
0
  0
LINE
  8
1
 62
7
 10
-86.8467024307736
 20
8.517820323027479
 30
0
 11
-86.6967024307735
 21
8.258012701892085
 31
0
  0
LINE
  8
1
 62
7
 10
-86.218593539449
 20
8.129903810567612
 30
0
 11
-85.95878591831351
 21
8.279903810567589
 31
0
  0
LINE
  8
1
 62
7
 10
-85.8904846481243
 20
8.261602540378419
 30
0
 11
-85.79048464812441
 21
8.08839745962149
 31
0
  0
LINE
  8
1
 62
7
 10
-85.8087859183135
 20
8.020096189432309
 30
0
 11
-86.068593539449
 21
7.870096189432275
 31
0
  0
LINE
  8
1
 62
7
 10
-86.1967024307735
 20
7.391987298107722
 30
0
 11
-86.04670243077351
 21
7.132179676972271
 31
0
  0
LINE
  8
1
 62
7
 10
-86.06500370096271
 20
7.06387840678309
 30
0
 11
-86.23820878171951
 21
6.963878406783124
 31
0
  0
LINE
  8
1
 62
7
 10
0
 20
13
 30
0
 11
-6.000000000000028
 21
13
 31
0
  0
LINE
  8
1
 62
7
 10
-6.000000000000028
 20
13
 30
0
 11
-6.000000000000028
 21
1
 31
0
  0
LINE
  8
1
 62
7
 10
-6.000000000000028
 20
1
 30
0
 11
5.684341886080801e-014
 21
1
 31
0
  0
LINE
  8
1
 62
7
 10
-9
 20
10
 30
0
 11
-9
 21
9.5
 31
0
  0
LINE
  8
1
 62
7
 10
-9
 20
9.5
 30
0
 11
-21
 21
9.5
 31
0
  0
LINE
  8
1
 62
7
 10
-6
 20
10
 30
0
 11
-9
 21
10
 31
0
  0
LINE
  8
1
 62
7
 10
-21
 20
9.5
 30
0
 11
-21
 21
4
 31
0
  0
LINE
  8
1
 62
7
 10
-21
 20
4
 30
0
 11
-6
 21
4
 31
0
  0
LINE
  8
1
 62
7
 10
0
 20
18
 30
0
 11
0
 21
-18
 31
0
  0
LINE
  8
1
 62
7
 10
19.8
 20
17.25
 30
0
 11
19.8
 21
-17.25
 31
0
  0
LINE
  8
1
 62
2
 10
-78.5
 20
-28.5
 30
0
 11
-27.26879150363792
 21
-28.5
 31
0
  0
LINE
  8
1
 62
7
 10
21.3
 20
-17
 30
0
 11
49.29999999999994
 21
-17
 31
0
  0
LINE
  8
1
 62
7
 10
21.3
 20
17.00000000000011
 30
0
 11
49.29999999999994
 21
17.00000000000011
 31
0
  0
LINE
  8
1
 62
7
 10
78.39548330188499
 20
0
 30
0
 11
108.8974548367336
 21
0
 31
0
  0
LINE
  8
1
 62
7
 10
49.29999999999994
 20
17.00000000000011
 30
0
 11
49.29999999999994
 21
-17
 31
0
  0
LINE
  8
1
 62
7
 10
108.8974548367336
 20
1.66000000000008
 30
0
 11
108.8974548367336
 21
-1.660000000000082
 31
0
  0
LINE
  8
1
 62
7
 10
108.8974548367336
 20
1.100000000000019
 30
0
 11
111.8974548367336
 21
1.100000000000019
 31
0
  0
LINE
  8
1
 62
7
 10
108.8974548367336
 20
0.3999999999999808
 30
0
 11
111.8974548367336
 21
0.3999999999999808
 31
0
  0
LINE
  8
1
 62
7
 10
108.8974548367336
 20
-0.3999999999999808
 30
0
 11
111.8974548367336
 21
-0.3999999999999808
 31
0
  0
LINE
  8
1
 62
7
 10
108.8974548367336
 20
-1.100000000000023
 30
0
 11
111.8974548367336
 21
-1.100000000000023
 31
0
  0
LINE
  8
1
 62
7
 10
78.39548330188499
 20
1.66000000000008
 30
0
 11
108.8974548367336
 21
1.66000000000008
 31
0
  0
LINE
  8
1
 62
7
 10
78.39548330188499
 20
-1.660000000000082
 30
0
 11
108.8974548367336
 21
-1.660000000000082
 31
0
  0
LINE
  8
1
 62
7
 10
50.14511721223525
 20
4.21505948911442
 30
0
 11
49.29999999999994
 21
4.606399233376351
 31
0
  0
LINE
  8
1
 62
7
 10
50.89999999999995
 20
-3.245566037735898
 30
0
 11
50.89999999999995
 21
3.2455660377359
 31
0
  0
LINE
  8
1
 62
7
 10
50.14511721223525
 20
-4.215059489114537
 30
0
 11
49.29999999999994
 21
-4.606399233376351
 31
0
  0
LINE
  8
1
 62
2
 10
96.05237542301693
 20
19.56463769237632
 30
0
 11
167.2770955659919
 21
19.56463769237632
 31
0
  0
LINE
  8
1
 62
3
 10
-4.283478121639014
 20
0
 30
0
 11
62.09559716916992
 21
0
 31
0
  0
LINE
  8
1
 62
7
 10
59.07394669805316
 20
1.65999999999997
 30
0
 11
65.14776343188264
 21
1.65999999999997
 31
0
  0
LINE
  8
1
 62
7
 10
59.59559716916996
 20
1.65999999999997
 30
0
 11
59.59559716916996
 21
-2.667939847309981
 31
0
  0
LINE
  8
1
 62
7
 10
62.09559716916992
 20
-2.667939847309981
 30
0
 11
62.09559716916992
 21
1.65999999999997
 31
0
  0
LINE
  8
1
 62
7
 10
58.83452267605007
 20
4.58373147786051
 30
0
 11
58.70570466838515
 21
1.87271553570133
 31
0
  0
LINE
  8
1
 62
7
 10
62.35723516286387
 20
5.060000000000169
 30
0
 11
59.33395917547578
 21
5.060000000000059
 31
0
  0
LINE
  8
1
 62
7
 10
62.98548966995422
 20
1.87271553570133
 30
0
 11
62.85667166228932
 21
4.58373147786051
 31
0
  0
LINE
  8
1
 62
7
 10
59.59559716916996
 20
-2.667939847309981
 30
0
 11
62.09559716916992
 21
-2.667939847309981
 31
0
  0
LINE
  8
1
 62
7
 10
49.29999999999977
 20
8.84531562150482
 30
0
 11
52.82956293441167
 21
8.84531562150482
 31
0
  0
LINE
  8
1
 62
7
 10
53.31903437114265
 20
8.64573315979078
 30
0
 11
57.61398915369385
 21
0.2851178024482106
 31
0
  0
LINE
  8
1
 62
7
 10
58.31323406330965
 20
0
 30
0
 11
59.59559716916996
 21
0
 31
0
  0
LINE
  8
1
 62
7
 10
49.29999999999977
 20
-8.845315621504824
 30
0
 11
52.82956293441167
 21
-8.845315621504824
 31
0
  0
LINE
  8
1
 62
7
 10
53.31903437114265
 20
-8.645733159791007
 30
0
 11
57.61398915369368
 21
-0.2851178024484398
 31
0
  0
LINE
  8
1
 62
7
 10
62.09559716916992
 20
0
 30
0
 11
65.14776343188264
 21
0
 31
0
  0
LINE
  8
1
 62
7
 10
62.09559716916992
 20
-1.660000000000082
 30
0
 11
65.14776343188264
 21
-1.660000000000082
 31
0
  0
LINE
  8
1
 62
7
 10
49.29999999999977
 20
10.50531562150468
 30
0
 11
53.23751528276817
 21
10.50531562150468
 31
0
  0
LINE
  8
1
 62
7
 10
54.62614829352445
 20
9.572500213536159
 30
0
 11
58.61106902780084
 21
1.970938469322959
 31
0
  0
LINE
  8
1
 62
7
 10
49.29999999999977
 20
-10.50531562150491
 30
0
 11
53.23751528276817
 21
-10.50531562150491
 31
0
  0
LINE
  8
1
 62
7
 10
54.62614829352445
 20
-9.572500213536046
 30
0
 11
58.61106902780084
 21
-1.970938469323073
 31
0
  0
LINE
  8
1
 62
7
 10
59.07394669805316
 20
-1.660000000000082
 30
0
 11
59.59559716916962
 21
-1.660000000000082
 31
0
  0
LINE
  8
1
 62
7
 10
43.04999999999994
 20
10.81332974472195
 30
0
 11
43.04999999999994
 21
17
 31
0
  0
LINE
  8
1
 62
7
 10
26.04999999999994
 20
10.81332974472195
 30
0
 11
43.04999999999994
 21
10.81332974472195
 31
0
  0
LINE
  8
1
 62
7
 10
26.04999999999994
 20
17
 30
0
 11
26.04999999999994
 21
10.81332974472195
 31
0
  0
LINE
  8
1
 62
3
 10
-24
 20
7
 30
0
 11
3
 21
7
 31
0
  0
ARC
  8
1
 62
7
 10
-100
 20
0
 30
0
 40
12.5
 50
121.6326096964343
 51
243.2563160495969
  0
ARC
  8
1
 62
7
 10
-100
 20
7
 30
0
 40
7.500000000000024
 50
150.9407189319599
 51
243.256316049597
  0
ARC
  8
1
 62
7
 10
-100
 20
7
 30
0
 40
7.500000000000003
 50
296.743683950403
 51
29.05928106804014
  0
ARC
  8
1
 62
7
 10
-100
 20
0
 30
0
 40
12.49999999999997
 50
296.7436839504031
 51
58.36739030356571
  0
ARC
  8
1
 62
7
 10
-100
 20
7
 30
0
 40
6
 50
180
 51
0
  0
ARC
  8
1
 62
3
  6
CENTER
 10
-100
 20
0
 30
0
 40
15.5
 50
180
 51
0
  0
ARC
  8
1
 62
7
 10
-100
 20
0
 30
0
 40
18.5
 50
0
 51
180
  0
ARC
  8
1
 62
3
  6
CENTER
 10
-100
 20
0
 30
0
 40
15.5
 50
0
 51
180
  0
ARC
  8
1
 62
7
 10
-100
 20
7
 30
0
 40
6
 50
0
 51
180
  0
ARC
  8
1
 62
7
 10
-100
 20
0
 30
0
 40
18.5
 50
180
 51
0
  0
CIRCLE
  8
1
 62
7
 10
-100
 20
7
 30
0
 40
3
  0
CIRCLE
  8
1
 62
7
 10
-107.75
 20
13.42339375865879
 30
0
 40
1.800000000000196
  0
CIRCLE
  8
1
 62
7
 10
-107.75
 20
-13.42339375865879
 30
0
 40
1.800000000000196
  0
CIRCLE
  8
1
 62
7
 10
-92.25
 20
13.42339375865879
 30
0
 40
1
  0
CIRCLE
  8
1
 62
7
 10
-115.5
 20
0
 30
0
 40
1
  0
CIRCLE
  8
1
 62
7
 10
-92.25
 20
-13.42339375865879
 30
0
 40
1
  0
CIRCLE
  8
1
 62
2
 10
-92.25
 20
13.42339375865879
 30
0
 40
1.5
  0
CIRCLE
  8
1
 62
2
 10
-115.5
 20
0
 30
0
 40
1.5
  0
CIRCLE
  8
1
 62
2
 10
-92.25
 20
-13.42339375865879
 30
0
 40
1.5
  0
CIRCLE
  8
1
 62
7
 10
-100
 20
-15.5
 30
0
 40
2
  0
CIRCLE
  8
1
 62
7
 10
-113.4233937586588
 20
7.75
 30
0
 40
2
  0
CIRCLE
  8
1
 62
7
 10
-113.4233937586588
 20
7.75
 30
0
 40
1.5
  0
CIRCLE
  8
1
 62
7
 10
-100
 20
-15.5
 30
0
 40
1.5
  0
CIRCLE
  8
1
 62
7
 10
-84.5
 20
0
 30
0
 40
1.799999999999997
  0
CIRCLE
  8
1
 62
7
 10
-86.57660624134121
 20
7.75
 30
0
 40
1.5
  0
CIRCLE
  8
1
 62
7
 10
-86.57660624134121
 20
7.75
 30
0
 40
2
  0
POLYLINE
  8
1
 62
2
 66
1
  0
VERTEX
  8
1
 10
78.39548330188499
 20
1.66000000000008
 30
0
 42
0.004627892300673972
  0
VERTEX
  8
1
 10
78.28335618948873
 20
1.491616220198894
 30
0
 42
0.01432161089916876
  0
VERTEX
  8
1
 10
78.18010198421833
 20
1.323044021152305
 30
0
 42
0.02620784398776864
  0
VERTEX
  8
1
 10
78.09459359319968
 20
1.154094983614908
 30
0
 42
0.04090712517596767
  0
VERTEX
  8
1
 10
78.03570392355864
 20
0.9845806883413013
 30
0
 42
0.05807845058514278
  0
VERTEX
  8
1
 10
78.0123058824211
 20
0.8143127160860804
 30
0
 42
0.0621523022373616
  0
VERTEX
  8
1
 10
78.02953748994973
 20
0.6485926597160967
 30
0
 42
0.040946313765633
  0
VERTEX
  8
1
 10
78.08246210691502
 20
0.4831443937136964
 30
0
 42
0.03762017696349489
  0
VERTEX
  8
1
 10
78.16508866206236
 20
0.3191248842876802
 30
0
 42
0.0203101865875074
  0
VERTEX
  8
1
 10
78.27142608413722
 20
0.1576910976468479
 30
0
 42
0.02175284297813237
  0
VERTEX
  8
1
 10
78.39548330188499
 20
0
 30
0
 42
0.005899236995892616
  0
VERTEX
  8
1
 10
78.53965628393726
 20
-0.163757928063847
 30
0
 42
-0.006290958371929748
  0
VERTEX
  8
1
 10
78.68163333168978
 20
-0.3235371166084521
 30
0
 42
-0.02391488501224126
  0
VERTEX
  8
1
 10
78.80579418619917
 20
-0.4809668155035338
 30
0
 42
-0.04938818170605382
  0
VERTEX
  8
1
 10
78.89651858852203
 20
-0.6376762746188107
 30
0
 42
-0.08501367003326318
  0
VERTEX
  8
1
 10
78.938186279715
 20
-0.7952947438240017
 30
0
 42
-0.09457323444287817
  0
VERTEX
  8
1
 10
78.91690466507289
 20
-0.9648112997999867
 30
0
 42
-0.05996756665690593
  0
VERTEX
  8
1
 10
78.8374503964815
 20
-1.136610852615459
 30
0
 42
-0.03390202050809625
  0
VERTEX
  8
1
 10
78.71436663742819
 20
-1.310122653060547
 30
0
 42
-0.01714841413826117
  0
VERTEX
  8
1
 10
78.56219655140025
 20
-1.484775951925379
 30
0
 42
-0.005242237567723474
  0
VERTEX
  8
1
 10
78.39548330188499
 20
-1.660000000000082
 30
0
  0
SEQEND
  8
1
  0
POLYLINE
  8
1
 62
2
 66
1
  0
VERTEX
  8
1
 10
65.14776343188264
 20
1.65999999999997
 30
0
 42
0.004627892300614241
  0
VERTEX
  8
1
 10
65.03563631948636
 20
1.491616220198781
 30
0
 42
0.01432161089925649
  0
VERTEX
  8
1
 10
64.93238211421596
 20
1.323044021152189
 30
0
 42
0.02620784398767976
  0
VERTEX
  8
1
 10
64.84687372319731
 20
1.15409498361479
 30
0
 42
0.04090712517605552
  0
VERTEX
  8
1
 10
64.78798405355627
 20
0.9845806883411812
 30
0
 42
0.05807845058509666
  0
VERTEX
  8
1
 10
64.76458601241875
 20
0.8143127160859596
 30
0
 42
0.06215230223737297
  0
VERTEX
  8
1
 10
64.78181761994738
 20
0.6485926597159981
 30
0
 42
0.04094631376563522
  0
VERTEX
  8
1
 10
64.83474223691266
 20
0.4831443937136216
 30
0
 42
0.03762017696350208
  0
VERTEX
  8
1
 10
64.91736879206
 20
0.3191248842876296
 30
0
 42
0.02031018658747569
  0
VERTEX
  8
1
 10
65.02370621413485
 20
0.1576910976468224
 30
0
 42
0.02175284297822559
  0
VERTEX
  8
1
 10
65.14776343188264
 20
0
 30
0
 42
0.005899236995785948
  0
VERTEX
  8
1
 10
65.29193641393496
 20
-0.1637579280638762
 30
0
 42
-0.006290958371874013
  0
VERTEX
  8
1
 10
65.43391346168755
 20
-0.3235371166085068
 30
0
 42
-0.02391488501228925
  0
VERTEX
  8
1
 10
65.55807431619698
 20
-0.4809668155036108
 30
0
 42
-0.04938818170610979
  0
VERTEX
  8
1
 10
65.64879871851989
 20
-0.6376762746189073
 30
0
 42
-0.08501367003333073
  0
VERTEX
  8
1
 10
65.69046640971287
 20
-0.7952947438241154
 30
0
 42
-0.09457323444288275
  0
VERTEX
  8
1
 10
65.66918479507073
 20
-0.9648112998000815
 30
0
 42
-0.05996756665691073
  0
VERTEX
  8
1
 10
65.58973052647932
 20
-1.136610852615533
 30
0
 42
-0.03390202050804
  0
VERTEX
  8
1
 10
65.46664676742596
 20
-1.310122653060597
 30
0
 42
-0.01714841413821052
  0
VERTEX
  8
1
 10
65.31447668139795
 20
-1.484775951925404
 30
0
 42
-0.005242237567721698
  0
VERTEX
  8
1
 10
65.14776343188264
 20
-1.660000000000082
 30
0
  0
SEQEND
  8
1
  0
ARC
  8
1
 62
7
 10
0.5
 20
-18
 30
0
 40
0.5
 50
180
 51
270
  0
ARC
  8
1
 62
7
 10
0.5
 20
18
 30
0
 40
0.5
 50
90
 51
180
  0
ARC
  8
1
 62
7
 10
-104.5
 20
-1.930285549745918
 30
0
 40
2.5
 50
0
 51
63.2563160495974
  0
ARC
  8
1
 62
7
 10
-95.5
 20
-1.930285549745918
 30
0
 40
2.500000000000035
 50
116.7436839504026
 51
180
  0
ARC
  8
1
 62
7
 10
-95.5
 20
-8.930285549745918
 30
0
 40
2.5
 50
180
 51
296.7436839504038
  0
ARC
  8
1
 62
7
 10
-104.5
 20
-8.930285549745918
 30
0
 40
2.499999999999932
 50
243.2563160495962
 51
0
  0
ARC
  8
1
 62
7
 10
-100
 20
-14.7928932188135
 30
0
 40
0.3500000000000169
 50
225.0000000000017
 51
314.9999999999984
  0
ARC
  8
1
 62
7
 10
-100.7071067811865
 20
-15.50000000000011
 30
0
 40
0.3500000000000169
 50
314.9999999999984
 51
45.0000000000144
  0
ARC
  8
1
 62
7
 10
-100
 20
-16.20710678118661
 30
0
 40
0.3500000000000169
 50
45.00000000000165
 51
134.9999999999984
  0
ARC
  8
1
 62
7
 10
-99.2928932188134
 20
-15.50000000000011
 30
0
 40
0.3500000000000948
 50
134.9999999999856
 51
225.0000000000017
  0
ARC
  8
1
 62
7
 10
-100.6363961030679
 20
-15.00502525316938
 30
0
 40
0.04999999999994589
 50
135.0000000000302
 51
225.0000000000101
  0
ARC
  8
1
 62
7
 10
-100.4949747468306
 20
-14.86360389693209
 30
0
 40
0.0499999999999999
 50
44.99999999989349
 51
135.0000000000374
  0
ARC
  8
1
 62
7
 10
-100.6363961030678
 20
-15.99497474683062
 30
0
 40
0.05000000000005141
 50
135.0000000000705
 51
224.9999999998892
  0
ARC
  8
1
 62
7
 10
-100.4949747468306
 20
-16.1363961030678
 30
0
 40
0.05000000000008783
 50
224.9999999999712
 51
315.0000000000172
  0
ARC
  8
1
 62
7
 10
-99.50502525316941
 20
-16.1363961030678
 30
0
 40
0.05000000000000744
 50
225.0000000000633
 51
314.9999999999482
  0
ARC
  8
1
 62
7
 10
-99.36360389693211
 20
-15.99497474683062
 30
0
 40
0.04999999999994589
 50
315.0000000000302
 51
45.00000000001008
  0
ARC
  8
1
 62
7
 10
-99.36360389693211
 20
-15.00502525316932
 30
0
 40
0.05000000000009411
 50
315.0000000000216
 51
44.99999999992083
  0
ARC
  8
1
 62
7
 10
-99.50502525316941
 20
-14.86360389693209
 30
0
 40
0.05000000000000995
 50
44.99999999988197
 51
135.0000000000677
  0
ARC
  8
1
 62
7
 10
-114.106406460551
 20
7.566987298107676
 30
0
 40
0.3499999999999292
 50
330.0000000000021
 51
60.0000000000183
  0
ARC
  8
1
 62
7
 10
-113.2403810567666
 20
7.066987298107676
 30
0
 40
0.3499999999999889
 50
60.0000000000183
 51
150.0000000000031
  0
ARC
  8
1
 62
7
 10
-112.7403810567666
 20
7.93301270189221
 30
0
 40
0.3499999999999997
 50
150.0000000000193
 51
239.9999999999972
  0
ARC
  8
1
 62
7
 10
-113.606406460551
 20
8.43301270189221
 30
0
 40
0.3500000000001854
 50
239.9999999999993
 51
329.9999999999778
  0
ARC
  8
1
 62
7
 10
-113.7367912182805
 20
7.007179676972385
 30
0
 40
0.04999999999997963
 50
240.0000000001295
 51
330.0000000000692
  0
ARC
  8
1
 62
7
 10
-113.9099962990373
 20
7.107179676972407
 30
0
 40
0.0499999999999162
 50
150.0000000001251
 51
240.000000000162
  0
ARC
  8
1
 62
7
 10
-112.7805734356312
 20
7.263397459621501
 30
0
 40
0.05000000000013545
 50
239.9999999999505
 51
330.0000000000123
  0
ARC
  8
1
 62
7
 10
-112.6805734356313
 20
7.436602540378317
 30
0
 40
0.05000000000000146
 50
329.9999999999559
 51
59.99999999998405
  0
ARC
  8
1
 62
7
 10
-112.9367912182805
 20
8.392820323027479
 30
0
 40
0.05000000000011604
 50
329.9999999999564
 51
59.99999999988533
  0
ARC
  8
1
 62
7
 10
-113.1099962990373
 20
8.492820323027388
 30
0
 40
0.05000000000013545
 50
59.99999999995048
 51
149.9999999999477
  0
ARC
  8
1
 62
7
 10
-114.0662140816864
 20
8.236602540378271
 30
0
 40
0.04999999999998014
 50
59.99999999999815
 51
149.9999999999
  0
ARC
  8
1
 62
7
 10
-114.1662140816864
 20
8.063397459621513
 30
0
 40
0.04999999999996074
 50
150.0000000000041
 51
239.9999999999981
  0
ARC
  8
1
 62
7
 10
-87.25961894323331
 20
7.93301270189221
 30
0
 40
0.3499999999999874
 50
299.9999999999819
 51
30.00000000000611
  0
ARC
  8
1
 62
7
 10
-86.75961894323331
 20
7.066987298107676
 30
0
 40
0.3499999999999586
 50
30.00000000000624
 51
120.0000000000099
  0
ARC
  8
1
 62
7
 10
-85.8935935394489
 20
7.566987298107676
 30
0
 40
0.3500000000000884
 50
120.0000000000099
 51
209.9999999999898
  0
ARC
  8
1
 62
7
 10
-86.3935935394489
 20
8.43301270189221
 30
0
 40
0.3500000000001011
 50
210.0000000000141
 51
299.9999999999819
  0
ARC
  8
1
 62
7
 10
-87.2194265643687
 20
7.263397459621501
 30
0
 40
0.04999999999997304
 50
209.9999999999878
 51
300.000000000016
  0
ARC
  8
1
 62
7
 10
-87.3194265643687
 20
7.436602540378317
 30
0
 40
0.04999999999998725
 50
120.0000000000159
 51
209.9999999999872
  0
ARC
  8
1
 62
7
 10
-86.2632087817196
 20
7.007179676972271
 30
0
 40
0.0499999999999162
 50
209.9999999998749
 51
300.0000000001331
  0
ARC
  8
1
 62
7
 10
-86.09000370096281
 20
7.107179676972407
 30
0
 40
0.05000000000013545
 50
300.0000000000495
 51
29.99999999981793
  0
ARC
  8
1
 62
7
 10
-85.83378591831361
 20
8.063397459621513
 30
0
 40
0.050000000000037
 50
300.0000000001147
 51
29.99999999998775
  0
ARC
  8
1
 62
7
 10
-85.9337859183135
 20
8.236602540378385
 30
0
 40
0.05000000000000146
 50
30.00000000004416
 51
120.0000000000159
  0
ARC
  8
1
 62
7
 10
-86.89000370096281
 20
8.492820323027388
 30
0
 40
0.05000000000002988
 50
30.00000000010057
 51
119.999999999838
  0
ARC
  8
1
 62
7
 10
-87.06320878171961
 20
8.392820323027479
 30
0
 40
0.04999999999998014
 50
120.0000000000019
 51
209.9999999999959
  0
ARC
  8
1
 62
7
 10
21.3
 20
-15.5
 30
0
 40
1.5
 50
180
 51
270
  0
ARC
  8
1
 62
7
 10
21.3
 20
15.50000000000011
 30
0
 40
1.5
 50
90
 51
180
  0
ARC
  8
1
 62
7
 10
49.89999999999995
 20
3.2455660377359
 30
0
 40
1
 50
0
 51
75.81123928935158
  0
ARC
  8
1
 62
7
 10
49.89999999999995
 20
-3.245566037735898
 30
0
 40
1.000000000000036
 50
284.1887607106467
 51
0
  0
ARC
  8
1
 62
7
 10
58.90530004696856
 20
1.8599999999999
 30
0
 40
0.2000000000000732
 50
176.3548088145591
 51
192.3470653506312
  0
ARC
  8
1
 62
7
 10
62.35723516286366
 20
4.560000000000059
 30
0
 40
0.5000000000000011
 50
2.720449105918707
 51
90
  0
ARC
  8
1
 62
7
 10
59.33395917547578
 20
4.560000000000059
 30
0
 40
0.5
 50
90
 51
177.2795508940816
  0
ARC
  8
1
 62
7
 10
62.78589429137087
 20
1.8599999999999
 30
0
 40
0.19999999999993
 50
270
 51
3.645191185442072
  0
ARC
  8
1
 62
7
 10
58.31323406330965
 20
-1
 30
0
 40
1
 50
90
 51
134.3664543436534
  0
ARC
  8
1
 62
7
 10
58.31323406330965
 20
1
 30
0
 40
1.000000000000042
 50
225.6335456563627
 51
270
  0
ARC
  8
1
 62
7
 10
52.82956293441167
 20
-8.145315621504778
 30
0
 40
0.7000000000000455
 50
270
 51
314.366454343634
  0
ARC
  8
1
 62
7
 10
52.82956293441167
 20
8.145315621504778
 30
0
 40
0.699999999999794
 50
45.63354565635301
 51
90
  0
ARC
  8
1
 62
7
 10
53.23751528276817
 20
9.005315621504678
 30
0
 40
1.499999999999989
 50
22.21746912183738
 51
90
  0
ARC
  8
1
 62
7
 10
53.23751528276817
 20
-9.005315621504906
 30
0
 40
1.500000000000004
 50
270
 51
337.7825308781747
  0
ARC
  8
1
 62
7
 10
59.07394669805316
 20
-2.160000000000082
 30
0
 40
0.4999999999999998
 50
90
 51
157.7825308781887
  0
ARC
  8
1
 62
7
 10
59.07394669805316
 20
2.15999999999997
 30
0
 40
0.5000000000001548
 50
202.2174691218115
 51
270
  0
LINE
  8
1
 62
2
 10
167.2770955659919
 20
26.56463769237632
 30
0
 11
98.74877426168003
 21
26.56463769237632
 31
0
  0
LINE
  8
1
 62
2
 10
98.74877426168003
 20
26.56463769237632
 30
0
 11
89.05712743645502
 21
1.65999999999997
 31
0
  0
SOLID
  8
1
 62
2
 10
89.89701524176394
 20
5.088835098247714
 30
0
 11
90.75584458473064
 21
4.754621415720574
 31
0
 12
89.05712743645502
 22
1.65999999999997
 32
0
 13
89.05712743645502
 23
1.65999999999997
 33
0
  0
LINE
  8
1
 62
2
 10
43.27486715733595
 20
27.00000000000011
 30
0
 11
23.59311950294487
 21
27.00000000000011
 31
0
  0
LINE
  8
1
 62
2
 10
23.59311950294487
 20
27.00000000000011
 30
0
 11
32.25272753118797
 21
17
 31
0
  0
SOLID
  8
1
 62
2
 10
29.61320645215082
 20
19.34419498544827
 30
0
 11
30.30986825957944
 21
19.94747680350618
 31
0
 12
32.25272753118797
 22
17
 32
0
 13
32.25272753118797
 23
17
 33
0
  0
TEXT
  8
1
 62
2
 10
-77.56790206166305
 20
-34.39970405969791
 30
0
 40
3.5
  1
P=120%%d
 41
0.9
 72
1
 73
2
 11
-64.96790206166305
 21
-32.64970405969791
 31
0
  0
TEXT
  8
1
 62
2
 10
-130.5342855073226
 20
24.86321680235099
 30
0
 40
2
  1
%%p0.00394
 41
0.63
 72
1
 73
2
 11
-124.2342855073226
 21
25.86321680235099
 31
0
  0
TEXT
  8
1
 62
2
 10
-147.9006292804644
 20
24.26321680235099
 30
0
 40
3.2
  1
(0.472DIA.     )
 41
0.6300000000000001
 72
1
 73
2
 11
-131.7726292804644
 21
25.86321680235099
 31
0
  0
TEXT
  8
1
 62
2
 10
-21.85600000000001
 20
24.30182510987542
 30
0
 40
3.2
  1
(0.472)
 41
0.6300000000000001
 72
1
 73
2
 11
-14.80000000000001
 21
25.90182510987542
 31
0
  0
TEXT
  8
1
 62
2
 10
-27.19572801402973
 20
22.50420862868931
 30
0
 40
2
  1
%%p0.0591
 50
90
 41
0.63
 72
1
 73
2
 11
-28.19572801402973
 21
28.17420862868931
 31
0
  0
TEXT
  8
1
 62
2
 10
-26.59572801402973
 20
13.54786485554754
 30
0
 40
3.2
  1
(0.217    )
 50
90
 41
0.6300000000000001
 72
1
 73
2
 11
-28.19572801402973
 21
24.63586485554754
 31
0
  0
TEXT
  8
1
 62
2
 10
-39.59999999999995
 20
26.30420862868933
 30
0
 40
2
  1
 0
 50
90
 41
0.63
  0
TEXT
  8
1
 62
2
 10
-37.19999999999995
 20
26.30420862868933
 30
0
 40
2
  1
-0.000787
 50
90
 41
0.63
  0
TEXT
  8
1
 62
2
 10
-37.79999999999995
 20
7.499864855547536
 30
0
 40
3.2
  1
(0.236DIA.      )
 50
90
 41
0.6300000000000001
 72
1
 73
2
 11
-39.39999999999995
 21
24.63586485554754
 31
0
  0
TEXT
  8
1
 62
2
 10
-73.7974932522028
 20
-27.48481685313686
 30
0
 40
3.5
  1
(3-M3 DEPTH 0.157MAX)
 41
0.675
 73
2
 11
-73.7974932522028
 21
-25.73481685313686
 31
0
  0
TEXT
  8
1
 62
2
 10
-16.8559999999999
 20
48.30182510987539
 30
0
 40
3.2
  1
(0.827)
 41
0.6300000000000001
 72
1
 73
2
 11
-9.799999999999898
 21
49.90182510987539
 31
0
  0
TEXT
  8
1
 62
2
 10
-111.088
 20
48.30182510987539
 30
0
 40
3.2
  1
(1.457DIA.)
 41
0.6300000000000001
 72
1
 73
2
 11
-100
 21
49.90182510987539
 31
0
  0
TEXT
  8
1
 62
2
 10
-115.12
 20
36.30182510987539
 30
0
 40
3.2
  1
(1.22DIA.     )
 41
0.6300000000000001
 72
1
 73
2
 11
-100
 21
37.90182510987539
 31
0
  0
TEXT
  8
1
 62
2
 10
-67.29928158107747
 20
7.02646225396086
 30
0
 40
3.2
  1
(0.276  　 )
 50
90
 41
0.6300000000000001
 72
1
 73
2
 11
-68.89928158107747
 21
19.12246225396086
 31
0
  0
TEXT
  8
1
 62
2
 10
-100.068455178037
 20
36.90182510987539
 30
0
 40
2
  1
%%p0.00787
 41
0.63
 72
1
 73
2
 11
-93.76845517803702
 21
37.90182510987539
 31
0
  0
TEXT
  8
1
 62
2
 10
-67.89928158107747
 20
17.99989302341045
 30
0
 40
2
  1
%%p0.0197
 50
90
 41
0.63
 72
1
 73
2
 11
-68.89928158107747
 21
23.66989302341045
 31
0
  0
TEXT
  8
1
 62
2
 10
-19.8559999999999
 20
36.30182510987542
 30
0
 40
3.2
  1
(0.236)
 41
0.6300000000000001
 72
1
 73
2
 11
-12.7999999999999
 21
37.90182510987542
 31
0
  0
TEXT
  8
1
 62
2
 10
81.46784230225701
 20
-37.2
 30
0
 40
2
  1
+1.181
 41
0.63
  0
TEXT
  8
1
 62
2
 10
81.46784230225701
 20
-39.59999999999999
 30
0
 40
2
  1
 0
 41
0.63
  0
TEXT
  8
1
 62
2
 10
69.92149852911484
 20
-39
 30
0
 40
3.2
  1
(11.811   )
 41
0.6300000000000001
 72
1
 73
2
 11
81.00949852911485
 21
-37.4
 31
0
  0
TEXT
  8
1
 62
2
 10
94.4439999999999
 20
-26.18882332332604
 30
0
 40
3.2
  1
(0.118)
 41
0.6300000000000001
 72
1
 73
2
 11
101.4999999999999
 21
-24.58882332332604
 31
0
  0
TEXT
  8
1
 62
2
 10
52.44400000000005
 20
34.80209936729099
 30
0
 40
3.2
  1
(0.063)
 41
0.6300000000000001
 72
1
 73
2
 11
59.50000000000004
 21
36.40209936729099
 31
0
  0
TEXT
  8
1
 62
2
 10
75.49683387799888
 20
-11.088
 30
0
 40
3.2
  1
(1.339DIA.)
 50
90
 41
0.6300000000000001
 72
1
 73
2
 11
73.89683387799887
 21
0
 31
0
  0
TEXT
  8
1
 62
2
 10
100.1650883391368
 20
27.84971452164848
 30
0
 40
3.5
  1
LEAD WIRES (RED,BLACK)
 41
0.9
 73
2
 11
100.1650883391368
 21
29.59971452164848
 31
0
  0
TEXT
  8
1
 62
2
 10
100.1650883391368
 20
20.75309253258672
 30
0
 40
3.5
  1
UL1007 AWG22
 41
0.9
 73
2
 11
100.1650883391368
 21
22.50309253258672
 31
0
  0
TEXT
  8
1
 62
2
 10
-144.75
 20
93.5
 30
0
 40
5
  1
DME34S36G
 41
0.9
 72
1
 73
2
 11
-124.5
 21
96
 31
0
  0
TEXT
  8
1
 62
2
 10
25.42764874494608
 20
28.01493706720262
 30
0
 40
3.2
  1
NAME PLATE
 41
0.54
 72
1
 73
2
 11
34.06764874494608
 21
29.61493706720262
 31
0
  0
DIMENSION
  8
1
  6
CONTINUOUS
 62
2
  2
*D0
  3
DMST_1
 10
49.29999999999994
 20
52.3962036484417
 30
0
 11
24.64999999999997
 21
54.9962036484417
 31
0
 12
0
 22
0
 32
0
 70
0
  1
L1
 13
0
 23
18
 33
0
 14
49.29999999999994
 24
17.00000000000011
 34
0
 53
0
  0
DIMENSION
  8
1
  6
CONTINUOUS
 62
2
  2
*D1
  3
DMST_2
 10
-71.4316235022719
 20
7.000000000000004
 30
0
 11
-74.0316235022719
 21
18.8250107120894
 31
0
 12
0
 22
0
 32
0
 70
0
 13
-81.5
 23
0
 33
0
 14
-94
 24
7
 34
0
 50
90
 53
0
  0
DIMENSION
  8
1
  6
CONTINUOUS
 62
2
  2
*D2
  3
DMST_1
 10
-81.5
 20
52.5850951621166
 30
0
 11
-100
 21
55.1850951621166
 31
0
 12
0
 22
0
 32
0
 70
0
  1
φ<>
 13
-118.5
 23
0
 33
0
 14
-81.5
 24
0
 34
0
 53
0
  0
DIMENSION
  8
1
  6
CONTINUOUS
 62
2
  2
*D3
  3
DMST_3
 10
-84.5
 20
40.4410838224926
 30
0
 11
-100
 21
43.0410838224926
 31
0
 12
0
 22
0
 32
0
 70
0
  1
φ<>
 13
-115.5
 23
0
 33
0
 14
-84.5
 24
0
 34
0
 53
0
  0
DIMENSION
  8
1
  6
CONTINUOUS
 62
2
  2
*D4
  3
DMST_4
 10
-106
 20
28.5106797698132
 30
0
 11
-131.999216943645
 21
31.1106797698132
 31
0
 12
0
 22
0
 32
0
 70
0
  1
φ<>
 13
-94
 23
7
 33
0
 14
-106
 24
7
 34
0
 53
0
  0
DIMENSION
  8
1
  6
CONTINUOUS
 62
2
  2
*D5
  3
DMST_1
 10
1.776356839400251e-015
 20
40.4377812577139
 30
0
 11
9.900000000000002
 21
43.0377812577139
 31
0
 12
0
 22
0
 32
0
 70
0
  1
L2
 13
19.8
 23
17.25
 33
0
 14
0
 24
18
 34
0
 53
0
  0
DIMENSION
  8
1
  6
CONTINUOUS
 62
2
  2
*D6
  3
DMST_5
 10
-42.9540336730988
 20
10
 30
0
 11
-46.3540336730988
 21
24.1975251050663
 31
0
 12
0
 22
0
 32
0
 70
0
  1
φ<>
 13
-21
 23
4
 33
0
 14
-9
 24
10
 34
0
 50
90
 53
0
  0
DIMENSION
  8
1
  6
CONTINUOUS
 62
2
  2
*D7
  3
DMST_6
 10
-30.93352917155655
 20
9.5
 30
0
 11
-33.53352917155655
 21
24.7049173863507
 31
0
 12
0
 22
0
 32
0
 70
0
 13
-21
 23
4
 33
0
 14
-21
 24
9.5
 34
0
 50
90
 53
0
  0
DIMENSION
  8
1
  6
CONTINUOUS
 62
2
  2
*D8
  3
DMST_1
 10
-21
 20
28.4777309018375
 30
0
 11
-15
 21
31.0777309018375
 31
0
 12
0
 22
0
 32
0
 70
0
 13
-9
 23
10
 33
0
 14
-21
 24
9.5
 34
0
 53
0
  0
DIMENSION
  8
1
  6
CONTINUOUS
 62
2
  2
*D9
  3
DMST_1
 10
-21
 20
52.4645067881646
 30
0
 11
-10.5
 21
55.0645067881646
 31
0
 12
0
 22
0
 32
0
 70
0
 13
0
 23
18
 33
0
 14
-21
 24
9.5
 34
0
 53
0
  0
DIMENSION
  8
1
  6
CONTINUOUS
 62
2
  2
*D10
  3
DMST_1
 10
-6.00000000000003
 20
40.4711188450011
 30
0
 11
-12.61157612812182
 21
43.0711188450011
 31
0
 12
0
 22
0
 32
0
 70
0
 13
0
 23
18
 33
0
 14
-6.000000000000028
 24
13
 34
0
 53
0
  0
DIMENSION
  8
1
  6
CONTINUOUS
 62
2
  2
*D11
  3
DMST_1
 10
71.35004719443997
 20
-17
 30
0
 11
68.75004719443997
 21
5.329070518200751e-014
 31
0
 12
0
 22
0
 32
0
 70
0
  1
φ<>
 13
49.29999999999994
 23
17.00000000000011
 33
0
 14
49.29999999999994
 24
-17
 34
0
 50
90
 53
0
  0
DIMENSION
  8
1
  6
CONTINUOUS
 62
2
  2
*D12
  3
DMST_7
 10
50.89999999999995
 20
39.06277775943445
 30
0
 11
59.89060870604395
 21
41.66277775943445
 31
0
 12
0
 22
0
 32
0
 70
0
  1
(<>
 13
49.29999999999994
 23
17.00000000000011
 33
0
 14
50.89999999999995
 24
3.2455660377359
 34
0
 53
0
  0
DIMENSION
  8
1
  6
CONTINUOUS
 62
2
  2
*D13
  3
DMST_8
 10
111.8974548367336
 20
-33.9714216846653
 30
0
 11
80.59872741836684
 21
-30.5714216846653
 31
0
 12
0
 22
0
 32
0
 70
0
  1
300
 13
49.29999999999994
 23
-17
 33
0
 14
111.8974548367336
 24
-1.100000000000023
 34
0
 53
0
  0
DIMENSION
  8
1
  6
CONTINUOUS
 62
2
  2
*D14
  3
DMST_7
 10
108.8974548367336
 20
-22.00961679880335
 30
0
 11
101.3492908649827
 21
-19.40961679880335
 31
0
 12
0
 22
0
 32
0
 70
0
  1
(<>
 13
111.8974548367336
 23
-1.100000000000023
 33
0
 14
108.8974548367336
 24
-1.660000000000082
 34
0
 53
0
  0
INSERT
  8
0
  2
DME34B36G
 10
437.6912236417212
 20
475.007598067909
 30
0
  0
INSERT
  8
0
  2
___R___O_______R
 10
0.5000000000000568
 20
-3.75
 30
0
  0
INSERT
  8
1
  2
*D15
 10
0
 20
0
 30
0
  0
ENDSEC
  0
EOF
