  0
SECTION
  2
HEADER
  9
$ACADVER
  1
AC1009
  9
$INSBASE
 10
0
 20
0
  9
$EXTMIN
 10
-194.5
 20
-146
  9
$EXTMAX
 10
194.5
 20
146
  9
$LIMMIN
 10
-194.5
 20
-146
  9
$LIMMAX
 10
194.5
 20
146
  9
$VIEWCTR
 10
10
 20
10
  9
$VIEWSIZE
 40
10
  9
$SNAPMODE
 70
0
  9
$SNAPUNIT
 10
1
 20
1
  9
$SNAPBASE
 10
0
 20
0
  9
$SNAPANG
 50
0
  9
$SNAPSTYLE
 70
0
  9
$SNAPISOPAIR
 70
0
  9
$GRIDMODE
 70
0
  9
$GRIDUNIT
 10
0
 20
0
  9
$ORTHOMODE
 70
0
  9
$REGENMODE
 70
1
  9
$FILLMODE
 70
1
  9
$QTEXTMODE
 70
0
  9
$DRAGMODE
 70
2
  9
$LTSCALE
 40
1
  9
$OSMODE
 70
0
  9
$ATTMODE
 70
1
  9
$TEXTSIZE
 40
3.5
  9
$TRACEWID
 40
0.5
  9
$TEXTSTYLE
  7
STANDARD
  9
$CLAYER
  8
0
  9
$CELTYPE
  6
BYLAYER
  9
$CECOLOR
 62
256
  9
$DIMSCALE
 40
1
  9
$DIMASZ
 40
0.18
  9
$DIMEXO
 40
0.0625
  9
$DIMDLI
 40
0.38
  9
$DIMRND
 40
0
  9
$DIMDLE
 40
0
  9
$DIMEXE
 40
0.18
  9
$DIMTP
 40
0
  9
$DIMTM
 40
0
  9
$DIMTXT
 40
0.18
  9
$DIMCEN
 40
0.09
  9
$DIMTSZ
 40
0
  9
$DIMTOL
 70
0
  9
$DIMLIM
 70
0
  9
$DIMTIH
 70
1
  9
$DIMTOH
 70
1
  9
$DIMSE1
 70
0
  9
$DIMSE2
 70
0
  9
$DIMTAD
 70
0
  9
$DIMZIN
 70
0
  9
$DIMBLK
  1

  9
$DIMASO
 70
1
  9
$DIMSHO
 70
1
  9
$DIMPOST
  1

  9
$DIMAPOST
  1

  9
$DIMALT
 70
0
  9
$DIMALTD
 70
2
  9
$DIMALTF
 40
25.4
  9
$DIMLFAC
 40
1
  9
$DIMTOFL
 70
0
  9
$DIMTVP
 40
0
  9
$DIMTIX
 70
0
  9
$DIMSOXD
 70
0
  9
$DIMSAH
 70
0
  9
$DIMBLK1
  1

  9
$DIMBLK2
  1

  9
$DIMSTYLE
  2
*UNNAMED
  9
$DIMCLRD
 70
0
  9
$DIMCLRE
 70
0
  9
$DIMCLRT
 70
0
  9
$DIMTFAC
 40
1
  9
$DIMGAP
 40
0.09
  9
$LUNITS
 70
2
  9
$LUPREC
 70
4
  9
$AXISMODE
 70
0
  9
$AXISUNIT
 10
0
 20
0
  9
$SKETCHINC
 40
0.1
  9
$FILLETRAD
 40
2
  9
$AUNITS
 70
0
  9
$AUPREC
 70
0
  9
$MENU
  1
ACAD
  9
$ELEVATION
 40
0
  9
$THICKNESS
 40
0
  9
$VIEWDIR
 10
0
 20
0
 30
1
  9
$LIMCHECK
 70
0
  9
$BLIPMODE
 70
1
  9
$CHAMFERA
 40
0
  9
$CHAMFERB
 40
0
  9
$FASTZOOM
 70
1
  9
$SKPOLY
 70
0
  9
$ANGBASE
 50
0
  9
$ANGDIR
 70
0
  9
$PDMODE
 70
0
  9
$PDSIZE
 40
0
  9
$PLINEWID
 40
0
  9
$COORDS
 70
2
  0
ENDSEC
  0
SECTION
  2
TABLES
  0
TABLE
  2
DIMSTYLE
 70
7
  0
DIMSTYLE
  2
DMST_1
 70
0
  3

  4

  5

  6

  7

 40
1
 41
3.2
 42
1
 43
7
 44
1
 45
0
 46
0
 47
0
 48
0
140
3.2
141
0
142
0
143
25.4
144
1
145
0
146
1
147
0.09
 71
0
 72
0
 73
0
 74
0
 75
0
 76
0
 77
1
 78
9
170
0
171
2
172
0
173
0
174
0
175
0
176
2
177
2
178
2
  0
DIMSTYLE
  2
DMST_2
 70
0
  3
)
  4

  5

  6

  7

 40
1
 41
3.2
 42
1
 43
7
 44
1
 45
0
 46
0
 47
0
 48
0
140
3.2
141
0
142
0
143
25.4
144
1
145
0
146
1
147
0.09
 71
0
 72
0
 73
1
 74
1
 75
0
 76
0
 77
1
 78
9
170
0
171
2
172
0
173
0
174
0
175
0
176
2
177
2
178
2
  0
DIMSTYLE
  2
DMST_3
 70
0
  3

  4

  5

  6

  7

 40
1
 41
3.2
 42
1
 43
7
 44
1
 45
0
 46
0
 47
30
 48
0
140
3.2
141
0
142
0
143
25.4
144
1
145
0
146
0.6
147
0.09
 71
1
 72
0
 73
0
 74
0
 75
0
 76
0
 77
1
 78
9
170
0
171
2
172
0
173
0
174
0
175
0
176
2
177
2
178
2
  0
DIMSTYLE
  2
DMST_4
 70
0
  3
)
  4

  5

  6

  7

 40
1
 41
3.2
 42
1
 43
7
 44
1
 45
0
 46
0
 47
0
 48
0
140
3.2
141
0
142
0
143
25.4
144
1
145
0
146
1
147
0.09
 71
0
 72
0
 73
0
 74
0
 75
0
 76
0
 77
1
 78
9
170
0
171
2
172
0
173
0
174
0
175
0
176
2
177
2
178
2
  0
DIMSTYLE
  2
DMST_5
 70
0
  3

  4

  5

  6

  7

 40
1
 41
3.2
 42
1
 43
7
 44
1
 45
0
 46
0
 47
0
 48
0.02
140
3.2
141
0
142
0
143
25.4
144
1
145
0
146
0.6
147
0.09
 71
1
 72
0
 73
0
 74
0
 75
0
 76
0
 77
1
 78
9
170
0
171
2
172
0
173
0
174
0
175
0
176
2
177
2
178
2
  0
DIMSTYLE
  2
DMST_6
 70
0
  3

  4

  5

  6

  7

 40
1
 41
3.2
 42
1
 43
7
 44
1
 45
0
 46
0
 47
0.3
 48
0.3
140
3.2
141
0
142
0
143
25.4
144
1
145
0
146
0.6
147
0.09
 71
1
 72
0
 73
0
 74
0
 75
0
 76
0
 77
1
 78
9
170
0
171
2
172
0
173
0
174
0
175
0
176
2
177
2
178
2
  0
DIMSTYLE
  2
DMST_7
 70
0
  3
HOLE
  4

  5

  6

  7

 40
1
 41
3.2
 42
1
 43
7
 44
1
 45
0
 46
0
 47
0.1
 48
0
140
3.2
141
0
142
0
143
25.4
144
1
145
0
146
0.6
147
0.09
 71
1
 72
0
 73
1
 74
1
 75
0
 76
0
 77
1
 78
9
170
0
171
2
172
0
173
0
174
0
175
0
176
2
177
2
178
2
  0
ENDTAB
  0
TABLE
  2
LTYPE
 70
9
  0
LTYPE
  2
CONTINUOUS
 70
64
  3
Solid line
 72
65
 73
0
 40
0
  0
LTYPE
  2
BORDER
 70
64
  3
__ __ . __ __ .
 72
65
 73
6
 40
17.91447368421053
 49
5.118421052631579
 49
-2.559210526315789
 49
5.118421052631579
 49
-2.559210526315789
 49
0
 49
-2.559210526315789
  0
LTYPE
  2
CENTER
 70
64
  3
____ _ ____ _
 72
65
 73
4
 40
20.47368421052632
 49
12.79605263157895
 49
-2.559210526315789
 49
2.559210526315789
 49
-2.559210526315789
  0
LTYPE
  2
DASHDOT
 70
64
  3
__ . __ . __ .
 72
65
 73
4
 40
10.23684210526316
 49
5.118421052631579
 49
-2.559210526315789
 49
0
 49
-2.559210526315789
  0
LTYPE
  2
DASHED
 70
64
  3
__ __ __ __ __
 72
65
 73
2
 40
7.677631578947368
 49
5.118421052631579
 49
-2.559210526315789
  0
LTYPE
  2
DIVIDE
 70
64
  3
__ . . __ . . 
 72
65
 73
6
 40
12.79605263157895
 49
5.118421052631579
 49
-2.559210526315789
 49
0
 49
-2.559210526315789
 49
0
 49
-2.559210526315789
  0
LTYPE
  2
DOT
 70
64
  3
..............
 72
65
 73
4
 40
5.118421052631579
 49
0
 49
-2.559210526315789
 49
0
 49
-2.559210526315789
  0
LTYPE
  2
HIDDEN
 70
64
  3
_ _ _ _ _ _ _
 72
65
 73
2
 40
3.838815789473684
 49
2.559210526315789
 49
-1.279605263157895
  0
LTYPE
  2
PHANTOM
 70
64
  3
_____ _ _ _____ _ _ 
 72
65
 73
6
 40
25.59210526315789
 49
12.79605263157895
 49
-2.559210526315789
 49
2.559210526315789
 49
-2.559210526315789
 49
2.559210526315789
 49
-2.559210526315789
  0
ENDTAB
  0
TABLE
  2
LAYER
 70
3
  0
LAYER
  2
1
 70
0
 62
7
  6
CONTINUOUS
  0
LAYER
  2
0
 70
0
 62
7
  6
CONTINUOUS
  0
ENDTAB
  0
TABLE
  2
STYLE
 70
4
  0
STYLE
  2
STANDARD
 70
0
 40
0
 41
1
 50
0
 71
0
 42
3.5
  3
txt
  4

  0
STYLE
  2
SIMPLEX
 70
0
 40
0
 41
1
 50
0
 71
0
 42
3.5
  3
simplex
  4

  0
STYLE
  2
COMPLEX
 70
0
 40
0
 41
1
 50
0
 71
0
 42
3.5
  3
complex
  4

  0
STYLE
  2
ITALIC
 70
0
 40
0
 41
1
 50
0
 71
0
 42
3.5
  3
italic
  4

  0
ENDTAB
  0
TABLE
  2
VIEW
 70
0
  0
ENDTAB
  0
ENDSEC
  0
SECTION
  2
BLOCKS
  0
BLOCK
  8
0
  2
___R___O_______R
 70
0
 10
0.5000000000000568
 20
-3.75
 30
0
  0
LINE
  8
1
 62
4
  6
PHANTOM
 10
194.5
 20
-136.5
 30
0
 11
194.5
 21
-146
 31
0
  0
LINE
  8
1
 62
4
  6
PHANTOM
 10
-194.5
 20
-146
 30
0
 11
-194.5
 21
146
 31
0
  0
LINE
  8
1
 62
4
  6
PHANTOM
 10
194.5
 20
146
 30
0
 11
194.5
 21
129
 31
0
  0
LINE
  8
1
 62
4
  6
PHANTOM
 10
194.5
 20
146
 30
0
 11
-194.5
 21
146
 31
0
  0
LINE
  8
1
 62
4
  6
PHANTOM
 10
-194.5
 20
-146
 30
0
 11
194.5
 21
-146
 31
0
  0
TEXT
  8
1
 62
4
 10
178.746911898274
 20
-142.6071298819256
 30
0
 40
5
  1
A3
 41
0.9
 72
1
 73
2
 11
183.246911898274
 21
-140.1071298819256
 31
0
  0
ENDBLK
  8
0
  0
BLOCK
  8
0
  2
DME34B5C
 70
0
 10
517.605112944844
 20
223.449848733199
 30
0
  0
INSERT
  8
0
  2
___R___O_______R
 10
0.5000000000000568
 20
-3.75
 30
0
  0
ENDBLK
  8
0
  0
BLOCK
  8
1
  2
*D0
 70
1
 10
0
 20
0
 30
0
  0
LINE
  8
1
 62
2
 10
-122.3454505681283
 20
71.99727268193151
 30
0
 11
-62.54591085611554
 21
71.99727268193151
 31
0
  0
LINE
  8
1
 62
2
 10
-122.3454505681283
 20
49.5
 30
0
 11
-122.3454505681283
 21
72.99727268193151
 31
0
  0
LINE
  8
1
 62
2
 10
-62.54591085611554
 20
50.5
 30
0
 11
-62.54591085611554
 21
72.99727268193151
 31
0
  0
SOLID
  8
1
 62
2
 10
-122.3454505681283
 20
71.99727268193151
 30
0
 11
-119.1454505681283
 21
72.4132726819315
 31
0
 12
-119.1454505681283
 22
71.58127268193151
 32
0
 13
-119.1454505681283
 23
71.58127268193151
 33
0
  0
SOLID
  8
1
 62
2
 10
-62.54591085611554
 20
71.99727268193151
 30
0
 11
-65.74591085611554
 21
71.58127268193151
 31
0
 12
-65.74591085611554
 22
72.4132726819315
 32
0
 13
-65.74591085611554
 23
72.4132726819315
 33
0
  0
TEXT
  8
1
 62
2
 10
-96.80568071212191
 20
72.99727268193151
 30
0
 40
3.2
  1
59.8
 41
0.9
  0
ENDBLK
  8
0
  0
BLOCK
  8
1
  2
*D1
 70
1
 10
0
 20
0
 30
0
  0
LINE
  8
1
 62
2
 10
-68.94591085611555
 20
59.59636038091556
 30
0
 11
-62.54591085611554
 21
59.59636038091556
 31
0
  0
LINE
  8
1
 62
2
 10
-62.54591085611554
 20
59.59636038091556
 30
0
 11
-60.9459108561154
 21
59.59636038091556
 31
0
  0
LINE
  8
1
 62
2
 10
-60.9459108561154
 20
59.59636038091556
 30
0
 11
-47.66063753556162
 21
59.59636038091556
 31
0
  0
LINE
  8
1
 62
2
 10
-62.54591085611554
 20
50.5
 30
0
 11
-62.54591085611554
 21
60.59636038091556
 31
0
  0
LINE
  8
1
 62
2
 10
-60.9459108561154
 20
36.7455660377359
 30
0
 11
-60.9459108561154
 21
60.59636038091556
 31
0
  0
SOLID
  8
1
 62
2
 10
-62.54591085611554
 20
59.59636038091556
 30
0
 11
-65.74591085611554
 21
59.18036038091556
 31
0
 12
-65.74591085611554
 22
60.01236038091555
 32
0
 13
-65.74591085611554
 23
60.01236038091555
 33
0
  0
SOLID
  8
1
 62
2
 10
-60.9459108561154
 20
59.59636038091556
 30
0
 11
-57.74591085611539
 21
60.01236038091555
 31
0
 12
-57.74591085611539
 22
59.18036038091556
 32
0
 13
-57.74591085611539
 23
59.18036038091556
 33
0
  0
TEXT
  8
1
 62
2
 10
-54.62063753556162
 20
60.59636038091556
 30
0
 40
3.2
  1
1.6
 41
0.9
  0
TEXT
  8
1
 62
2
 10
-56.70063753556163
 20
60.59636038091556
 30
0
 40
3.2
  1
(
 41
0.9
  0
TEXT
  8
1
 62
2
 10
-48.14063753556162
 20
60.59636038091556
 30
0
 40
3.2
  1
)
 41
0.9
  0
ENDBLK
  8
0
  0
BLOCK
  8
1
  2
*D2
 70
1
 10
0
 20
0
 30
0
  0
LINE
  8
1
 62
2
 10
-62.54591085611554
 20
-1.440335041579793
 30
0
 11
0.05154398061841903
 21
-1.440335041579793
 31
0
  0
LINE
  8
1
 62
2
 10
-62.54591085611554
 20
14.49999999999994
 30
0
 11
-62.54591085611554
 21
-2.440335041579793
 31
0
  0
LINE
  8
1
 62
2
 10
0.05154398061841903
 20
30.39999999999998
 30
0
 11
0.05154398061841903
 21
-2.440335041579793
 31
0
  0
SOLID
  8
1
 62
2
 10
-62.54591085611554
 20
-1.440335041579793
 30
0
 11
-59.34591085611554
 21
-1.024335041579793
 31
0
 12
-59.34591085611554
 22
-1.856335041579793
 32
0
 13
-59.34591085611554
 23
-1.856335041579793
 33
0
  0
SOLID
  8
1
 62
2
 10
0.05154398061841903
 20
-1.440335041579793
 30
0
 11
-3.148456019381582
 21
-1.856335041579792
 31
0
 12
-3.148456019381582
 22
-1.024335041579793
 32
0
 13
-3.148456019381582
 23
-1.024335041579793
 33
0
  0
TEXT
  8
1
 62
2
 10
-38.09518343774857
 20
0.359664958420207
 30
0
 40
3.2
  1
300
 41
0.9
  0
TEXT
  8
1
 62
2
 10
-28.81518343774857
 20
2.439664958420207
 30
0
 40
1.92
  1
+30
 41
0.9
  0
TEXT
  8
1
 62
2
 10
-28.81518343774857
 20
-0.4403350415797929
 30
0
 40
1.92
  1
 0
 41
0.9
  0
ENDBLK
  8
0
  0
BLOCK
  8
1
  2
*D3
 70
1
 10
0
 20
0
 30
0
  0
LINE
  8
1
 62
2
 10
6.451543980618419
 20
10.49999999999997
 30
0
 11
0.0515439806184208
 21
10.49999999999997
 31
0
  0
LINE
  8
1
 62
2
 10
-2.948456019381576
 20
10.49999999999997
 30
0
 11
0.0515439806184208
 21
10.49999999999997
 31
0
  0
LINE
  8
1
 62
2
 10
-2.948456019381576
 20
10.49999999999997
 30
0
 11
-14.85655445503264
 21
10.49999999999997
 31
0
  0
LINE
  8
1
 62
2
 10
-2.948456019381576
 20
29.83999999999997
 30
0
 11
-2.948456019381576
 21
9.49999999999997
 31
0
  0
LINE
  8
1
 62
2
 10
0.0515439806184208
 20
30.39999999999998
 30
0
 11
0.0515439806184208
 21
9.49999999999997
 31
0
  0
SOLID
  8
1
 62
2
 10
0.0515439806184208
 20
10.49999999999997
 30
0
 11
3.251543980618421
 21
10.91599999999997
 31
0
 12
3.251543980618421
 22
10.08399999999997
 32
0
 13
3.251543980618421
 23
10.08399999999997
 33
0
  0
SOLID
  8
1
 62
2
 10
-2.948456019381576
 20
10.49999999999997
 30
0
 11
-6.148456019381577
 21
10.08399999999997
 31
0
 12
-6.148456019381577
 22
10.91599999999997
 32
0
 13
-6.148456019381577
 23
10.91599999999997
 33
0
  0
TEXT
  8
1
 62
2
 10
-12.77655445503264
 20
11.49999999999997
 30
0
 40
3.2
  1
3
 41
0.9
  0
TEXT
  8
1
 62
2
 10
-14.85655445503264
 20
11.49999999999997
 30
0
 40
3.2
  1
(
 41
0.9
  0
TEXT
  8
1
 62
2
 10
-9.256554455032639
 20
11.49999999999997
 30
0
 40
3.2
  1
)
 41
0.9
  0
ENDBLK
  8
0
  0
BLOCK
  8
1
  2
*D4
 70
1
 10
0
 20
0
 30
0
  0
LINE
  8
1
 62
2
 10
-40.10783741859897
 20
15.49999999999994
 30
0
 11
-40.10783741859897
 21
49.5
 31
0
  0
LINE
  8
1
 62
2
 10
-61.54591085611554
 20
15.49999999999994
 30
0
 11
-39.10783741859896
 21
15.49999999999994
 31
0
  0
LINE
  8
1
 62
2
 10
-61.54591085611554
 20
49.5
 30
0
 11
-39.10783741859896
 21
49.5
 31
0
  0
SOLID
  8
1
 62
2
 10
-40.10783741859897
 20
49.5
 30
0
 11
-39.69183741859897
 21
46.3
 31
0
 12
-40.52383741859897
 22
46.3
 32
0
 13
-40.52383741859897
 23
46.3
 33
0
  0
SOLID
  8
1
 62
2
 10
-40.10783741859897
 20
15.49999999999994
 30
0
 11
-40.52383741859897
 21
18.69999999999994
 31
0
 12
-39.69183741859897
 22
18.69999999999994
 32
0
 13
-39.69183741859897
 23
18.69999999999994
 33
0
  0
TEXT
  8
1
 62
2
 10
-41.9611707519323
 20
32.12352941176465
 30
0
 40
3.2
  1
34
 50
90
 41
0.9
  0
TEXT
  8
1
 62
2
 10
-41.9611707519323
 20
28.07647058823524
 30
0
 40
3.2
  1
ƒÓ
 50
90
 41
0.9
  0
ENDBLK
  8
0
  0
BLOCK
  8
1
  2
*D5
 70
1
 10
0
 20
0
 30
0
  0
LINE
  8
1
 62
2
 10
-99.84545056812821
 20
-59.99917762258051
 30
0
 11
-93.44545056812821
 21
-59.99917762258051
 31
0
  0
LINE
  8
1
 62
2
 10
-93.44545056812821
 20
-59.99917762258051
 30
0
 11
-87.44545056812821
 21
-59.99917762258051
 31
0
  0
LINE
  8
1
 62
2
 10
-87.44545056812821
 20
-59.99917762258051
 30
0
 11
-80.85661176419529
 21
-59.99917762258051
 31
0
  0
LINE
  8
1
 62
2
 10
-93.44545056812821
 20
-36.5
 30
0
 11
-93.44545056812821
 21
-60.99917762258051
 31
0
  0
LINE
  8
1
 62
2
 10
-87.44545056812821
 20
-39
 30
0
 11
-87.44545056812821
 21
-60.99917762258051
 31
0
  0
SOLID
  8
1
 62
2
 10
-93.44545056812821
 20
-59.99917762258051
 30
0
 11
-96.64545056812821
 21
-60.41517762258051
 31
0
 12
-96.64545056812821
 22
-59.58317762258051
 32
0
 13
-96.64545056812821
 23
-59.58317762258051
 33
0
  0
SOLID
  8
1
 62
2
 10
-87.44545056812821
 20
-59.99917762258051
 30
0
 11
-84.24545056812821
 21
-59.58317762258051
 31
0
 12
-84.24545056812821
 22
-60.41517762258051
 32
0
 13
-84.24545056812821
 23
-60.41517762258051
 33
0
  0
TEXT
  8
1
 62
2
 10
-82.77661176419528
 20
-58.99917762258051
 30
0
 40
3.2
  1
6
 41
0.9
  0
ENDBLK
  8
0
  0
BLOCK
  8
1
  2
*D6
 70
1
 10
0
 20
0
 30
0
  0
LINE
  8
1
 62
2
 10
-72.42474494266911
 20
-38.00000000000001
 30
0
 11
-72.42474494266911
 21
-56.87907039421704
 31
0
  0
LINE
  8
1
 62
2
 10
-72.42474494266911
 20
-38.00000000000001
 30
0
 11
-72.42474494266911
 21
-30.00000000000002
 31
0
  0
LINE
  8
1
 62
2
 10
-72.42474494266911
 20
-23.60000000000002
 30
0
 11
-72.42474494266911
 21
-30.00000000000002
 31
0
  0
LINE
  8
1
 62
2
 10
-86.44545056812795
 20
-30.00000000000002
 30
0
 11
-71.42474494266911
 21
-30.00000000000002
 31
0
  0
LINE
  8
1
 62
2
 10
-86.44545056812795
 20
-38.00000000000001
 30
0
 11
-71.42474494266911
 21
-38.00000000000001
 31
0
  0
SOLID
  8
1
 62
2
 10
-72.42474494266911
 20
-30.00000000000002
 30
0
 11
-72.8407449426691
 21
-26.80000000000002
 31
0
 12
-72.00874494266911
 22
-26.80000000000002
 32
0
 13
-72.00874494266911
 23
-26.80000000000002
 33
0
  0
SOLID
  8
1
 62
2
 10
-72.42474494266911
 20
-38.00000000000001
 30
0
 11
-72.00874494266911
 21
-41.20000000000002
 31
0
 12
-72.8407449426691
 22
-41.20000000000002
 32
0
 13
-72.8407449426691
 23
-41.20000000000002
 33
0
  0
TEXT
  8
1
 62
2
 10
-74.25141160933578
 20
-53.03331876023011
 30
0
 40
3.2
  1
8
 50
90
 41
0.9
  0
TEXT
  8
1
 62
2
 10
-76.33141160933577
 20
-49.51331876023011
 30
0
 40
1.92
  1
 0
 50
90
 41
0.9
  0
TEXT
  8
1
 62
2
 10
-73.45141160933578
 20
-49.51331876023011
 30
0
 40
1.92
  1
-0.02
 50
90
 41
0.9
  0
TEXT
  8
1
 62
2
 10
-74.25141160933578
 20
-57.08037758375952
 30
0
 40
3.2
  1
ƒÓ
 50
90
 41
0.9
  0
ENDBLK
  8
0
  0
BLOCK
  8
1
  2
*D7
 70
1
 10
0
 20
0
 30
0
  0
LINE
  8
1
 62
2
 10
-103.6454505681283
 20
-72.0651551624796
 30
0
 11
-87.44545056812821
 21
-72.0651551624796
 31
0
  0
LINE
  8
1
 62
2
 10
-103.6454505681283
 20
-51
 30
0
 11
-103.6454505681283
 21
-73.0651551624796
 31
0
  0
LINE
  8
1
 62
2
 10
-87.44545056812821
 20
-39
 30
0
 11
-87.44545056812821
 21
-73.0651551624796
 31
0
  0
SOLID
  8
1
 62
2
 10
-103.6454505681283
 20
-72.0651551624796
 30
0
 11
-100.4454505681283
 21
-71.6491551624796
 31
0
 12
-100.4454505681283
 22
-72.4811551624796
 32
0
 13
-100.4454505681283
 23
-72.4811551624796
 33
0
  0
SOLID
  8
1
 62
2
 10
-87.44545056812821
 20
-72.0651551624796
 30
0
 11
-90.64545056812821
 21
-72.4811551624796
 31
0
 12
-90.64545056812821
 22
-71.6491551624796
 32
0
 13
-90.64545056812821
 23
-71.6491551624796
 33
0
  0
TEXT
  8
1
 62
2
 10
-99.42545056812824
 20
-71.0651551624796
 30
0
 40
3.2
  1
16.2
 41
0.9
  0
ENDBLK
  8
0
  0
BLOCK
  8
1
  2
*D8
 70
1
 10
0
 20
0
 30
0
  0
LINE
  8
1
 62
2
 10
-122.3454505681283
 20
-72.01514455194949
 30
0
 11
-103.6454505681283
 21
-72.01514455194949
 31
0
  0
LINE
  8
1
 62
2
 10
-122.3454505681283
 20
-49.5
 30
0
 11
-122.3454505681283
 21
-73.01514455194949
 31
0
  0
LINE
  8
1
 62
2
 10
-103.6454505681283
 20
-51
 30
0
 11
-103.6454505681283
 21
-73.01514455194949
 31
0
  0
SOLID
  8
1
 62
2
 10
-122.3454505681283
 20
-72.01514455194949
 30
0
 11
-119.1454505681283
 21
-71.59914455194949
 31
0
 12
-119.1454505681283
 22
-72.43114455194949
 32
0
 13
-119.1454505681283
 23
-72.43114455194949
 33
0
  0
SOLID
  8
1
 62
2
 10
-103.6454505681283
 20
-72.01514455194949
 30
0
 11
-106.8454505681283
 21
-72.43114455194949
 31
0
 12
-106.8454505681283
 22
-71.59914455194949
 32
0
 13
-106.8454505681283
 23
-71.59914455194949
 33
0
  0
TEXT
  8
1
 62
2
 10
-116.8754505681283
 20
-71.01514455194949
 30
0
 40
3.2
  1
18.7
 41
0.9
  0
ENDBLK
  8
0
  0
BLOCK
  8
1
  2
*D9
 70
1
 10
0
 20
0
 30
0
  0
LINE
  8
1
 62
2
 10
-132.381606091637
 20
-50
 30
0
 11
-132.381606091637
 21
50
 31
0
  0
LINE
  8
1
 62
2
 10
-121.8454505681283
 20
50
 30
0
 11
-133.381606091637
 21
50
 31
0
  0
LINE
  8
1
 62
2
 10
-121.8454505681283
 20
-50
 30
0
 11
-133.381606091637
 21
-50
 31
0
  0
SOLID
  8
1
 62
2
 10
-132.381606091637
 20
50
 30
0
 11
-131.965606091637
 21
46.8
 31
0
 12
-132.797606091637
 22
46.8
 32
0
 13
-132.797606091637
 23
46.8
 33
0
  0
SOLID
  8
1
 62
2
 10
-132.381606091637
 20
-50
 30
0
 11
-132.797606091637
 21
-46.8
 31
0
 12
-131.965606091637
 22
-46.8
 32
0
 13
-131.965606091637
 23
-46.8
 33
0
  0
TEXT
  8
1
 62
2
 10
-133.381606091637
 20
-3.359999999999999
 30
0
 40
3.2
  1
100
 50
90
 41
0.9
  0
ENDBLK
  8
0
  0
BLOCK
  8
1
  2
*D10
 70
1
 10
0
 20
0
 30
0
  0
LINE
  8
1
 62
2
 10
77.45454943187161
 20
-70.98098862596869
 30
0
 11
107.4545494318717
 21
-70.98098862596869
 31
0
  0
LINE
  8
1
 62
2
 10
77.45454943187161
 20
-49
 30
0
 11
77.45454943187161
 21
-71.98098862596869
 31
0
  0
LINE
  8
1
 62
2
 10
107.4545494318717
 20
-49
 30
0
 11
107.4545494318717
 21
-71.98098862596869
 31
0
  0
SOLID
  8
1
 62
2
 10
77.45454943187161
 20
-70.98098862596869
 30
0
 11
80.65454943187162
 21
-70.5649886259687
 31
0
 12
80.65454943187162
 22
-71.39698862596869
 32
0
 13
80.65454943187162
 23
-71.39698862596869
 33
0
  0
SOLID
  8
1
 62
2
 10
107.4545494318717
 20
-70.98098862596869
 30
0
 11
104.2545494318717
 21
-71.39698862596869
 31
0
 12
104.2545494318717
 22
-70.5649886259687
 32
0
 13
104.2545494318717
 23
-70.5649886259687
 33
0
  0
TEXT
  8
1
 62
2
 10
86.8305494318717
 20
-69.98098862596869
 30
0
 40
3.2
  1
30
 41
0.9
  0
TEXT
  8
1
 62
2
 10
93.23054943187169
 20
-69.34098862596869
 30
0
 40
1.92
  1
%%p0.3
 41
0.9
  0
ENDBLK
  8
0
  0
BLOCK
  8
1
  2
*D11
 70
1
 10
0
 20
0
 30
0
  0
LINE
  8
1
 62
2
 10
83.85454943187162
 20
-71.00220269295089
 30
0
 11
77.45454943187161
 21
-71.00220269295089
 31
0
  0
LINE
  8
1
 62
2
 10
73.45454943187161
 20
-71.00220269295089
 30
0
 11
77.45454943187161
 21
-71.00220269295089
 31
0
  0
LINE
  8
1
 62
2
 10
73.45454943187161
 20
-71.00220269295089
 30
0
 11
61.4098821697597
 21
-71.00220269295089
 31
0
  0
LINE
  8
1
 62
2
 10
73.45454943187161
 20
-49.5
 30
0
 11
73.45454943187161
 21
-72.00220269295089
 31
0
  0
LINE
  8
1
 62
2
 10
77.45454943187161
 20
-49
 30
0
 11
77.45454943187161
 21
-72.00220269295089
 31
0
  0
SOLID
  8
1
 62
2
 10
73.45454943187161
 20
-71.00220269295089
 30
0
 11
70.25454943187161
 21
-71.41820269295089
 31
0
 12
70.25454943187161
 22
-70.58620269295089
 32
0
 13
70.25454943187161
 23
-70.58620269295089
 33
0
  0
SOLID
  8
1
 62
2
 10
77.45454943187161
 20
-71.00220269295089
 30
0
 11
80.65454943187162
 21
-70.58620269295089
 31
0
 12
80.65454943187162
 22
-71.41820269295089
 32
0
 13
80.65454943187162
 23
-71.41820269295089
 33
0
  0
TEXT
  8
1
 62
2
 10
63.4898821697597
 20
-70.00220269295089
 30
0
 40
3.2
  1
4
 41
0.9
  0
TEXT
  8
1
 62
2
 10
61.40988216975971
 20
-70.00220269295089
 30
0
 40
3.2
  1
(
 41
0.9
  0
TEXT
  8
1
 62
2
 10
67.00988216975971
 20
-70.00220269295089
 30
0
 40
3.2
  1
)
 41
0.9
  0
ENDBLK
  8
0
  0
BLOCK
  8
1
  2
*D12
 70
1
 10
0
 20
0
 30
0
  0
LINE
  8
1
 62
2
 10
133.430794156185
 20
-39.59999999999999
 30
0
 11
133.430794156185
 21
-46
 31
0
  0
LINE
  8
1
 62
2
 10
133.430794156185
 20
-50
 30
0
 11
133.430794156185
 21
-46
 31
0
  0
LINE
  8
1
 62
2
 10
133.430794156185
 20
-50
 30
0
 11
133.430794156185
 21
-61.4952974957321
 31
0
  0
LINE
  8
1
 62
2
 10
110.9545494318717
 20
-50
 30
0
 11
134.430794156185
 21
-50
 31
0
  0
LINE
  8
1
 62
2
 10
110.4545494318717
 20
-46
 30
0
 11
134.430794156185
 21
-46
 31
0
  0
SOLID
  8
1
 62
2
 10
133.430794156185
 20
-46
 30
0
 11
133.014794156185
 21
-42.8
 31
0
 12
133.846794156185
 22
-42.8
 32
0
 13
133.846794156185
 23
-42.8
 33
0
  0
SOLID
  8
1
 62
2
 10
133.430794156185
 20
-50
 30
0
 11
133.846794156185
 21
-53.2
 31
0
 12
133.014794156185
 22
-53.2
 32
0
 13
133.014794156185
 23
-53.2
 33
0
  0
TEXT
  8
1
 62
2
 10
132.430794156185
 20
-59.4152974957321
 30
0
 40
3.2
  1
4
 50
90
 41
0.9
  0
TEXT
  8
1
 62
2
 10
132.430794156185
 20
-61.4952974957321
 30
0
 40
3.2
  1
(
 50
90
 41
0.9
  0
TEXT
  8
1
 62
2
 10
132.430794156185
 20
-55.8952974957321
 30
0
 40
3.2
  1
)
 50
90
 41
0.9
  0
ENDBLK
  8
0
  0
BLOCK
  8
1
  2
*D13
 70
1
 10
0
 20
0
 30
0
  0
LINE
  8
1
 62
2
 10
145.340275668329
 20
-50
 30
0
 11
145.340275668329
 21
-20
 31
0
  0
LINE
  8
1
 62
2
 10
110.9545494318717
 20
-50
 30
0
 11
146.340275668329
 21
-50
 31
0
  0
LINE
  8
1
 62
2
 10
112.4545494318716
 20
-20
 30
0
 11
146.340275668329
 21
-20
 31
0
  0
SOLID
  8
1
 62
2
 10
145.340275668329
 20
-20
 30
0
 11
145.756275668329
 21
-23.2
 31
0
 12
144.924275668329
 22
-23.2
 32
0
 13
144.924275668329
 23
-23.2
 33
0
  0
SOLID
  8
1
 62
2
 10
145.340275668329
 20
-50
 30
0
 11
144.924275668329
 21
-46.8
 31
0
 12
145.756275668329
 22
-46.8
 32
0
 13
145.756275668329
 23
-46.8
 33
0
  0
TEXT
  8
1
 62
2
 10
144.340275668329
 20
-37.4
 30
0
 40
3.2
  1
30
 50
90
 41
0.9
  0
TEXT
  8
1
 62
2
 10
144.340275668329
 20
-39.48
 30
0
 40
3.2
  1
(
 50
90
 41
0.9
  0
TEXT
  8
1
 62
2
 10
144.340275668329
 20
-31
 30
0
 40
3.2
  1
)
 50
90
 41
0.9
  0
ENDBLK
  8
0
  0
BLOCK
  8
1
  2
*D14
 70
1
 10
0
 20
0
 30
0
  0
LINE
  8
1
 62
2
 10
133.439812126686
 20
-46
 30
0
 11
133.439812126686
 21
-24
 31
0
  0
LINE
  8
1
 62
2
 10
110.4545494318717
 20
-46
 30
0
 11
134.439812126686
 21
-46
 31
0
  0
LINE
  8
1
 62
2
 10
110.4545494318717
 20
-24
 30
0
 11
134.439812126686
 21
-24
 31
0
  0
SOLID
  8
1
 62
2
 10
133.439812126686
 20
-24
 30
0
 11
133.855812126686
 21
-27.2
 31
0
 12
133.023812126686
 22
-27.2
 32
0
 13
133.023812126686
 23
-27.2
 33
0
  0
SOLID
  8
1
 62
2
 10
133.439812126686
 20
-46
 30
0
 11
133.023812126686
 21
-42.8
 31
0
 12
133.855812126686
 22
-42.8
 32
0
 13
133.855812126686
 23
-42.8
 33
0
  0
TEXT
  8
1
 62
2
 10
132.439812126686
 20
-40.624
 30
0
 40
3.2
  1
22
 50
90
 41
0.9
  0
TEXT
  8
1
 62
2
 10
131.799812126686
 20
-34.224
 30
0
 40
1.92
  1
%%p0.3
 50
90
 41
0.9
  0
ENDBLK
  8
0
  0
BLOCK
  8
1
  2
*D15
 70
1
 10
0
 20
0
 30
0
  0
LINE
  8
1
 62
2
 10
121.483623414956
 20
-42
 30
0
 11
121.483623414956
 21
-28
 31
0
  0
LINE
  8
1
 62
2
 10
112.4545494318716
 20
-42
 30
0
 11
122.483623414956
 21
-42
 31
0
  0
LINE
  8
1
 62
2
 10
112.4545494318716
 20
-28
 30
0
 11
122.483623414956
 21
-28
 31
0
  0
SOLID
  8
1
 62
2
 10
121.483623414956
 20
-28
 30
0
 11
121.899623414956
 21
-31.2
 31
0
 12
121.067623414956
 22
-31.2
 32
0
 13
121.067623414956
 23
-31.2
 33
0
  0
SOLID
  8
1
 62
2
 10
121.483623414956
 20
-42
 30
0
 11
121.067623414956
 21
-38.8
 31
0
 12
121.899623414956
 22
-38.8
 32
0
 13
121.899623414956
 23
-38.8
 33
0
  0
TEXT
  8
1
 62
2
 10
120.483623414956
 20
-36.92
 30
0
 40
3.2
  1
14
 50
90
 41
0.9
  0
TEXT
  8
1
 62
2
 10
120.483623414956
 20
-39
 30
0
 40
3.2
  1
(
 50
90
 41
0.9
  0
TEXT
  8
1
 62
2
 10
120.483623414956
 20
-31.48
 30
0
 40
3.2
  1
)
 50
90
 41
0.9
  0
ENDBLK
  8
0
  0
BLOCK
  8
1
  2
*D16
 70
1
 10
0
 20
0
 30
0
  0
LINE
  8
1
 62
2
 10
63.38425316456681
 20
-46
 30
0
 11
63.38425316456681
 21
-34
 31
0
  0
LINE
  8
1
 62
2
 10
63.38425316456681
 20
-34
 30
0
 11
63.38425316456681
 21
-25.8990469901436
 31
0
  0
LINE
  8
1
 62
2
 10
78.45454943187163
 20
-46
 30
0
 11
62.38425316456681
 21
-46
 31
0
  0
LINE
  8
1
 62
2
 10
85.1545494318716
 20
-34
 30
0
 11
62.38425316456681
 21
-34
 31
0
  0
SOLID
  8
1
 62
2
 10
63.38425316456681
 20
-34
 30
0
 11
63.8002531645668
 21
-37.2
 31
0
 12
62.9682531645668
 22
-37.2
 32
0
 13
62.9682531645668
 23
-37.2
 33
0
  0
SOLID
  8
1
 62
2
 10
63.38425316456681
 20
-46
 30
0
 11
62.9682531645668
 21
-42.8
 31
0
 12
63.8002531645668
 22
-42.8
 32
0
 13
63.8002531645668
 23
-42.8
 33
0
  0
TEXT
  8
1
 62
2
 10
62.38425316456682
 20
-29.7390469901436
 30
0
 40
3.2
  1
12
 50
90
 41
0.9
  0
ENDBLK
  8
0
  0
BLOCK
  8
1
  2
*D17
 70
1
 10
0
 20
0
 30
0
  0
LINE
  8
1
 62
2
 10
51.42078643055621
 20
-50
 30
0
 11
51.42078643055621
 21
-34
 31
0
  0
LINE
  8
1
 62
2
 10
73.95454943187161
 20
-50
 30
0
 11
50.42078643055621
 21
-50
 31
0
  0
LINE
  8
1
 62
2
 10
85.1545494318716
 20
-34
 30
0
 11
50.42078643055621
 21
-34
 31
0
  0
SOLID
  8
1
 62
2
 10
51.42078643055621
 20
-34
 30
0
 11
51.8367864305562
 21
-37.2
 31
0
 12
51.00478643055621
 22
-37.2
 32
0
 13
51.00478643055621
 23
-37.2
 33
0
  0
SOLID
  8
1
 62
2
 10
51.42078643055621
 20
-50
 30
0
 11
51.0047864305562
 21
-46.8
 31
0
 12
51.8367864305562
 22
-46.8
 32
0
 13
51.8367864305562
 23
-46.8
 33
0
  0
TEXT
  8
1
 62
2
 10
50.42078643055621
 20
-43.92
 30
0
 40
3.2
  1
16
 50
90
 41
0.9
  0
TEXT
  8
1
 62
2
 10
50.42078643055621
 20
-46
 30
0
 40
3.2
  1
(
 50
90
 41
0.9
  0
TEXT
  8
1
 62
2
 10
50.42078643055621
 20
-38.48
 30
0
 40
3.2
  1
)
 50
90
 41
0.9
  0
ENDBLK
  8
0
  0
BLOCK
  8
1
  2
*D18
 70
1
 10
0
 20
0
 30
0
  0
LINE
  8
1
 62
2
 10
51.42078643055621
 20
-34
 30
0
 11
51.42078643055621
 21
32.5
 31
0
  0
LINE
  8
1
 62
2
 10
85.1545494318716
 20
-34
 30
0
 11
50.42078643055621
 21
-34
 31
0
  0
LINE
  8
1
 62
2
 10
78.75454943187151
 20
32.5
 30
0
 11
50.42078643055621
 21
32.5
 31
0
  0
SOLID
  8
1
 62
2
 10
51.42078643055621
 20
32.5
 30
0
 11
51.8367864305562
 21
29.3
 31
0
 12
51.00478643055621
 22
29.3
 32
0
 13
51.00478643055621
 23
29.3
 33
0
  0
SOLID
  8
1
 62
2
 10
51.42078643055621
 20
-34
 30
0
 11
51.0047864305562
 21
-30.8
 31
0
 12
51.8367864305562
 22
-30.8
 32
0
 13
51.8367864305562
 23
-30.8
 33
0
  0
TEXT
  8
1
 62
2
 10
50.42078643055621
 20
-5.11
 30
0
 40
3.2
  1
66.5
 50
90
 41
0.9
  0
TEXT
  8
1
 62
2
 10
50.42078643055621
 20
-7.19
 30
0
 40
3.2
  1
(
 50
90
 41
0.9
  0
TEXT
  8
1
 62
2
 10
50.42078643055621
 20
5.21
 30
0
 40
3.2
  1
)
 50
90
 41
0.9
  0
ENDBLK
  8
0
  0
BLOCK
  8
1
  2
*D19
 70
1
 10
0
 20
0
 30
0
  0
LINE
  8
1
 62
2
 10
81.45454943187161
 20
-60.1502088032148
 30
0
 11
103.4545494318716
 21
-60.1502088032148
 31
0
  0
LINE
  8
1
 62
2
 10
81.45454943187161
 20
-51
 30
0
 11
81.45454943187161
 21
-61.1502088032148
 31
0
  0
LINE
  8
1
 62
2
 10
103.4545494318716
 20
-51
 30
0
 11
103.4545494318716
 21
-61.1502088032148
 31
0
  0
SOLID
  8
1
 62
2
 10
81.45454943187161
 20
-60.1502088032148
 30
0
 11
84.65454943187162
 21
-59.73420880321481
 31
0
 12
84.65454943187162
 22
-60.5662088032148
 32
0
 13
84.65454943187162
 23
-60.5662088032148
 33
0
  0
SOLID
  8
1
 62
2
 10
103.4545494318716
 20
-60.1502088032148
 30
0
 11
100.2545494318716
 21
-60.5662088032148
 31
0
 12
100.2545494318716
 22
-59.73420880321481
 32
0
 13
100.2545494318716
 23
-59.73420880321481
 33
0
  0
TEXT
  8
1
 62
2
 10
90.05454943187159
 20
-59.1502088032148
 30
0
 40
3.2
  1
22
 41
0.9
  0
TEXT
  8
1
 62
2
 10
87.97454943187159
 20
-59.1502088032148
 30
0
 40
3.2
  1
(
 41
0.9
  0
TEXT
  8
1
 62
2
 10
96.4545494318716
 20
-59.1502088032148
 30
0
 40
3.2
  1
)
 41
0.9
  0
ENDBLK
  8
0
  0
BLOCK
  8
1
  2
*D20
 70
1
 10
0
 20
0
 30
0
  0
LINE
  8
1
 62
2
 10
73.45454943187161
 20
-84.04455028567179
 30
0
 11
111.4545494318716
 21
-84.04455028567179
 31
0
  0
LINE
  8
1
 62
2
 10
73.45454943187161
 20
-49.5
 30
0
 11
73.45454943187161
 21
-85.04455028567179
 31
0
  0
LINE
  8
1
 62
2
 10
111.4545494318716
 20
-49.5
 30
0
 11
111.4545494318716
 21
-85.04455028567179
 31
0
  0
SOLID
  8
1
 62
2
 10
73.45454943187161
 20
-84.04455028567179
 30
0
 11
76.65454943187162
 21
-83.62855028567179
 31
0
 12
76.65454943187162
 22
-84.46055028567179
 32
0
 13
76.65454943187162
 23
-84.46055028567179
 33
0
  0
SOLID
  8
1
 62
2
 10
111.4545494318716
 20
-84.04455028567179
 30
0
 11
108.2545494318716
 21
-84.46055028567179
 31
0
 12
108.2545494318716
 22
-83.62855028567179
 32
0
 13
108.2545494318716
 23
-83.62855028567179
 33
0
  0
TEXT
  8
1
 62
2
 10
90.05454943187161
 20
-83.04455028567179
 30
0
 40
3.2
  1
38
 41
0.9
  0
ENDBLK
  8
0
  0
BLOCK
  8
1
  2
*D21
 70
1
 10
0
 20
0
 30
0
  0
LINE
  8
1
 62
2
 10
-67.69126891874645
 20
-18.10095939544399
 30
0
 11
-37.74282447430199
 21
-18.10095939544399
 31
0
  0
LINE
  8
1
 62
2
 10
-92.16907736348463
 20
-33.21204604038809
 30
0
 11
-67.69126891874645
 21
-18.10095939544399
 31
0
  0
SOLID
  8
1
 62
2
 10
-92.16907736348463
 20
-33.21204604038809
 30
0
 11
-89.66467375837752
 21
-31.17709675779491
 31
0
 12
-89.22762196211279
 22
-31.88505842863717
 32
0
 13
-89.22762196211279
 23
-31.88505842863717
 33
0
  0
TEXT
  8
1
 62
2
 10
-58.84682447430199
 20
-16.30095939544399
 30
0
 40
3.2
  1
3
 41
0.9
  0
TEXT
  8
1
 62
2
 10
-55.32682447430199
 20
-14.22095939544399
 30
0
 40
1.92
  1
+0.1
 41
0.9
  0
TEXT
  8
1
 62
2
 10
-55.32682447430199
 20
-17.10095939544399
 30
0
 40
1.92
  1
 0
 41
0.9
  0
TEXT
  8
1
 62
2
 10
-62.49126891874644
 20
-16.30095939544399
 30
0
 40
3.2
  1
ƒÓ
 41
0.9
  0
TEXT
  8
1
 62
2
 10
-49.26282447430199
 20
-16.30095939544399
 30
0
 40
3.2
  1
HOLE
 41
0.9
  0
ENDBLK
  8
0
  0
BLOCK
  8
1
  2
*D22
 70
1
 10
0
 20
0
 30
0
  0
LINE
  8
1
 62
2
 10
75.83181779860882
 20
-47.16907743388036
 30
0
 11
51.0661449042258
 21
-65.01120777891498
 31
0
  0
LINE
  8
1
 62
2
 10
51.0661449042258
 20
-65.01120777891498
 30
0
 11
-2.453855095774209
 21
-65.01120777891498
 31
0
  0
SOLID
  8
1
 62
2
 10
75.83181779860882
 20
-47.16907743388036
 30
0
 11
73.47861529163548
 21
-49.37712950780759
 31
0
 12
72.99227907914124
 22
-48.70207314837027
 32
0
 13
72.99227907914124
 23
-48.70207314837027
 33
0
  0
TEXT
  8
1
 62
2
 10
9.386144904225791
 20
-64.01120777891499
 30
0
 40
3.2
  1
4
 41
0.9
  0
TEXT
  8
1
 62
2
 10
-2.453855095774209
 20
-64.01120777891499
 30
0
 40
3.2
  1
 4-M
 41
0.9
  0
TEXT
  8
1
 62
2
 10
12.90614490422579
 20
-64.01120777891499
 30
0
 40
3.2
  1
 DEPTH 6MAX
 41
0.9
  0
ENDBLK
  8
0
  0
ENDSEC
  0
SECTION
  2
ENTITIES
  0
LINE
  8
1
 62
7
 10
-52.77196415806218
 20
30.83999999999997
 30
0
 11
-52.2503136869456
 21
30.83999999999997
 31
0
  0
LINE
  8
1
 62
7
 10
-57.2197625625908
 20
24.29431072902685
 30
0
 11
-53.23484182831425
 21
30.52906153067704
 31
0
  0
LINE
  8
1
 62
7
 10
-62.54591085611554
 20
23.36149532105804
 30
0
 11
-58.6083955733472
 21
23.36149532105804
 31
0
  0
LINE
  8
1
 62
7
 10
-57.2197625625908
 20
40.7056892709731
 30
0
 11
-53.23484182831447
 21
34.4709384693229
 31
0
  0
LINE
  8
1
 62
7
 10
-62.54591085611554
 20
41.6385046789419
 30
0
 11
-58.6083955733472
 21
41.6385046789419
 31
0
  0
LINE
  8
1
 62
7
 10
-49.7503136869456
 20
30.83999999999997
 30
0
 11
-46.69814742423267
 21
30.83999999999997
 31
0
  0
LINE
  8
1
 62
7
 10
-49.7503136869456
 20
32.5
 30
0
 11
-46.69814742423267
 21
32.5
 31
0
  0
LINE
  8
1
 62
7
 10
-58.52687648497267
 20
25.22107778277189
 30
0
 11
-54.23192170242162
 21
32.21488219755156
 31
0
  0
LINE
  8
1
 62
7
 10
-62.54591085611554
 20
25.02149532105807
 30
0
 11
-59.01634792170371
 21
25.02149532105807
 31
0
  0
LINE
  8
1
 62
7
 10
-53.5326767928056
 20
32.5
 30
0
 11
-52.2503136869456
 21
32.5
 31
0
  0
LINE
  8
1
 62
7
 10
-58.52687648497267
 20
39.778922217228
 30
0
 11
-54.23192170242162
 21
32.78511780244827
 31
0
  0
LINE
  8
1
 62
7
 10
-62.54591085611554
 20
39.97850467894187
 30
0
 11
-59.01634792170371
 21
39.97850467894187
 31
0
  0
LINE
  8
1
 62
7
 10
-93.55472042413493
 20
45.59999999999997
 30
0
 11
-76.55472042413493
 21
45.59999999999997
 31
0
  0
LINE
  8
1
 62
7
 10
-76.55472042413493
 20
45.59999999999997
 30
0
 11
-76.55472042413493
 21
19.39999999999992
 31
0
  0
LINE
  8
1
 62
7
 10
-76.55472042413493
 20
19.39999999999992
 30
0
 11
-93.55472042413493
 21
19.39999999999992
 31
0
  0
LINE
  8
1
 62
7
 10
-93.55472042413493
 20
19.39999999999992
 30
0
 11
-93.55472042413493
 21
45.59999999999997
 31
0
  0
LINE
  8
1
 62
7
 10
-61.7007936438801
 20
36.71505948911437
 30
0
 11
-62.54591085611554
 21
37.10639923337641
 31
0
  0
LINE
  8
1
 62
7
 10
-60.9459108561154
 20
29.25443396226405
 30
0
 11
-60.9459108561154
 21
35.7455660377359
 31
0
  0
LINE
  8
1
 62
7
 10
-61.7007936438801
 20
28.28494051088546
 30
0
 11
-62.54591085611554
 21
27.89360076662359
 31
0
  0
LINE
  8
1
 62
7
 10
-52.2503136869456
 20
29.83206015269008
 30
0
 11
-49.7503136869456
 21
29.83206015269008
 31
0
  0
LINE
  8
1
 62
7
 10
-48.86042118616086
 20
34.37271553570139
 30
0
 11
-48.98923919382577
 21
37.08373147786057
 31
0
  0
LINE
  8
1
 62
7
 10
-49.48867569325166
 20
37.56
 30
0
 11
-52.51195168063958
 21
37.56
 31
0
  0
LINE
  8
1
 62
7
 10
-53.01138818006501
 20
37.08373147786057
 30
0
 11
-53.14020618773014
 21
34.37271553570139
 31
0
  0
LINE
  8
1
 62
7
 10
-49.7503136869456
 20
29.83206015269008
 30
0
 11
-49.7503136869456
 21
34.16000000000003
 31
0
  0
LINE
  8
1
 62
7
 10
-52.2503136869456
 20
34.16000000000003
 30
0
 11
-52.2503136869456
 21
29.83206015269008
 31
0
  0
LINE
  8
1
 62
7
 10
84.14604475292963
 20
23.36149532105804
 30
0
 11
86.59780870563637
 21
23.36149532105804
 31
0
  0
LINE
  8
1
 62
7
 10
84.14604475292963
 20
25.02149532105807
 30
0
 11
86.57122052988915
 21
25.02149532105807
 31
0
  0
LINE
  8
1
 62
7
 10
99.9330541108134
 20
40.80850467894192
 30
0
 11
99.9330541108134
 21
38.35674072710322
 31
0
  0
LINE
  8
1
 62
7
 10
101.5930541108135
 20
40.80850467894192
 30
0
 11
101.5930541108135
 21
38.38332890202901
 31
0
  0
LINE
  8
1
 62
7
 10
107.5486603061216
 20
37.80733614121488
 30
0
 11
106.822808037791
 21
36.80733614121488
 31
0
  0
LINE
  8
1
 62
7
 10
107.3974699032477
 20
33.80733614121488
 30
0
 11
108.4515974250578
 21
32.80733614121488
 31
0
  0
LINE
  8
1
 62
7
 10
76.45750143868536
 20
32.19266385878507
 30
0
 11
77.51162896049509
 21
31.19266385878507
 31
0
  0
LINE
  8
1
 62
7
 10
78.08629082595171
 20
28.19266385878507
 30
0
 11
77.36043855762118
 21
27.19266385878507
 31
0
  0
LINE
  8
1
 62
3
 10
98.8792187840984
 20
38.92466935222677
 30
0
 11
102.6381800954389
 21
42.68363066356727
 31
0
  0
LINE
  8
1
 62
3
 10
82.53031171080401
 20
22.57576227893281
 30
0
 11
85.69710788405637
 21
25.74255845218488
 31
0
  0
LINE
  8
1
 62
3
 10
82.96176993179715
 20
41.9927795000745
 30
0
 11
85.49936744902907
 21
39.45518198284248
 31
0
  0
LINE
  8
1
 62
3
 10
99.4951787515682
 20
25.45937068030327
 30
0
 11
102.1735412742021
 21
22.78100815766931
 31
0
  0
LINE
  8
1
 62
7
 10
-52.77196415806218
 20
34.16000000000003
 30
0
 11
-46.69814742423267
 21
34.16000000000003
 31
0
  0
LINE
  8
1
 62
2
 10
-16.58925637315744
 20
53
 30
0
 11
56.69779049453997
 21
53
 31
0
  0
LINE
  8
1
 62
3
 10
-125.6286698636285
 20
32.5
 30
0
 11
-58.10496023175363
 21
32.5
 31
0
  0
LINE
  8
1
 62
7
 10
-61.7007936438801
 20
28.28494051088546
 30
0
 11
-62.54591085611554
 21
27.89360076662359
 31
0
  0
LINE
  8
1
 62
7
 10
-60.9459108561154
 20
29.25443396226405
 30
0
 11
-60.9459108561154
 21
35.7455660377359
 31
0
  0
LINE
  8
1
 62
7
 10
-61.7007936438801
 20
36.71505948911437
 30
0
 11
-62.54591085611554
 21
37.10639923337641
 31
0
  0
LINE
  8
1
 62
7
 10
-33.45042755423054
 20
30.83999999999997
 30
0
 11
-2.948456019381581
 21
30.83999999999997
 31
0
  0
LINE
  8
1
 62
7
 10
-33.45042755423054
 20
34.16000000000003
 30
0
 11
-2.948456019381581
 21
34.16000000000003
 31
0
  0
LINE
  8
1
 62
7
 10
-2.948456019381581
 20
30.83999999999997
 30
0
 11
-2.948456019381581
 21
34.16000000000003
 31
0
  0
LINE
  8
1
 62
7
 10
-2.948456019381581
 20
31.39999999999998
 30
0
 11
0.05154398061841903
 21
31.39999999999998
 31
0
  0
LINE
  8
1
 62
7
 10
-2.948456019381581
 20
32.09999999999997
 30
0
 11
0.05154398061841903
 21
32.09999999999997
 31
0
  0
LINE
  8
1
 62
7
 10
-2.948456019381581
 20
32.90000000000003
 30
0
 11
0.05154398061841903
 21
32.90000000000003
 31
0
  0
LINE
  8
1
 62
7
 10
-2.948456019381581
 20
33.59999999999997
 30
0
 11
0.0515439806184208
 21
33.59999999999997
 31
0
  0
LINE
  8
1
 62
7
 10
-106.0454505681284
 20
49.5
 30
0
 11
-62.54591085611554
 21
49.5
 31
0
  0
LINE
  8
1
 62
7
 10
-106.0454505681284
 20
15.49999999999994
 30
0
 11
-62.54591085611554
 21
15.49999999999994
 31
0
  0
LINE
  8
1
 62
7
 10
-62.54591085611554
 20
49.5
 30
0
 11
-62.54591085611554
 21
15.49999999999994
 31
0
  0
LINE
  8
1
 62
7
 10
-33.45042755423054
 20
32.5
 30
0
 11
-2.948456019381581
 21
32.5
 31
0
  0
LINE
  8
1
 62
3
 10
75.4545494318716
 20
32.5
 30
0
 11
70.4545494318716
 21
32.5
 31
0
  0
LINE
  8
1
 62
7
 10
-87.44545056812821
 20
-30
 30
0
 11
-104.1454505681283
 21
-30
 31
0
  0
LINE
  8
1
 62
7
 10
-87.44545056812821
 20
-38
 30
0
 11
-87.44545056812821
 21
-30
 31
0
  0
LINE
  8
1
 62
7
 10
-104.1454505681283
 20
-38
 30
0
 11
-87.44545056812821
 21
-38
 31
0
  0
LINE
  8
1
 62
3
 10
-93.44545056812821
 20
-28.5
 30
0
 11
-93.44545056812821
 21
-35.5
 31
0
  0
LINE
  8
1
 62
2
 10
-67.32024708403118
 20
-25
 30
0
 11
-37.26646327453126
 21
-25
 31
0
  0
LINE
  8
1
 62
3
 10
-93.44545056812821
 20
-35.5
 30
0
 11
-93.44545056812821
 21
-39.5
 31
0
  0
LINE
  8
1
 62
7
 10
-120.8454505681283
 20
-50
 30
0
 11
-103.6454505681283
 21
-50
 31
0
  0
LINE
  8
1
 62
7
 10
-103.6454505681283
 20
-41.99978233438486
 30
0
 11
-103.6454505681283
 21
-50
 31
0
  0
LINE
  8
1
 62
7
 10
-109.1454505681283
 20
-19.99978233438486
 30
0
 11
-109.1454505681283
 21
50
 31
0
  0
LINE
  8
1
 62
7
 10
-107.5454505681284
 20
-19.99978233438486
 30
0
 11
-107.5454505681284
 21
50
 31
0
  0
LINE
  8
1
 62
3
 10
-110.3569541489511
 20
-7
 30
0
 11
-104.4264902308343
 21
-7
 31
0
  0
LINE
  8
1
 62
7
 10
-120.8454505681283
 20
50
 30
0
 11
-107.5454505681284
 21
50
 31
0
  0
LINE
  8
1
 62
7
 10
-122.3454505681283
 20
-48.5
 30
0
 11
-122.3454505681283
 21
48.5
 31
0
  0
LINE
  8
1
 62
3
 10
92.4545494318716
 20
-52.83101478188751
 30
0
 11
92.4545494318716
 21
52.42049871496301
 31
0
  0
LINE
  8
1
 62
7
 10
-106.5822866654872
 20
-9.688605838392562
 30
0
 11
-107.4367349938533
 21
-9.743070232887703
 31
0
  0
LINE
  8
1
 62
7
 10
-106.5822866654872
 20
-4.311394161607438
 30
0
 11
-107.4367349938533
 21
-4.256929767112297
 31
0
  0
LINE
  8
1
 62
3
 10
77.45454943187161
 20
-48
 30
0
 11
77.45454943187161
 21
-53
 31
0
  0
LINE
  8
1
 62
2
 10
-2.382391431495801
 20
-72
 30
0
 11
50.8512676758433
 21
-72
 31
0
  0
LINE
  8
1
 62
3
 10
86.1545494318716
 20
-34
 30
0
 11
103.7545494318716
 21
-34
 31
0
  0
LINE
  8
1
 62
3
 10
70.38293088182661
 20
-24
 30
0
 11
83.45454943187161
 21
-24
 31
0
  0
LINE
  8
1
 62
3
 10
109.4545494318717
 20
-24
 30
0
 11
114.3677898443996
 21
-24
 31
0
  0
LINE
  8
1
 62
3
 10
109.4545494318717
 20
-46
 30
0
 11
114.4545494318716
 21
-46
 31
0
  0
LINE
  8
1
 62
3
 10
75.45454943187161
 20
-46
 30
0
 11
83.51682344918851
 21
-46
 31
0
  0
LINE
  8
1
 62
3
 10
107.4545494318717
 20
-48
 30
0
 11
107.4545494318717
 21
-53.00000000000001
 31
0
  0
LINE
  8
1
 62
7
 10
108.7545494318716
 20
-37.60000000000002
 30
0
 11
108.7545494318716
 21
-38
 31
0
  0
LINE
  8
1
 62
7
 10
108.1545494318717
 20
-37.60000000000002
 30
0
 11
108.1545494318717
 21
-38
 31
0
  0
LINE
  8
1
 62
7
 10
108.1545494318717
 20
-40.39999999999998
 30
0
 11
108.1545494318717
 21
-40
 31
0
  0
LINE
  8
1
 62
7
 10
107.0545494318717
 20
-39.30000000000001
 30
0
 11
107.4545494318717
 21
-39.30000000000001
 31
0
  0
LINE
  8
1
 62
7
 10
107.0545494318717
 20
-38.69999999999999
 30
0
 11
107.4545494318717
 21
-38.69999999999999
 31
0
  0
LINE
  8
1
 62
7
 10
106.9545494318717
 20
-38.80000000000001
 30
0
 11
106.9545494318717
 21
-39.19999999999999
 31
0
  0
LINE
  8
1
 62
7
 10
109.9545494318717
 20
-38.80000000000001
 30
0
 11
109.9545494318717
 21
-39.19999999999999
 31
0
  0
LINE
  8
1
 62
7
 10
108.2545494318716
 20
-40.5
 30
0
 11
108.6545494318717
 21
-40.5
 31
0
  0
LINE
  8
1
 62
7
 10
108.2545494318716
 20
-37.5
 30
0
 11
108.6545494318717
 21
-37.5
 31
0
  0
LINE
  8
1
 62
7
 10
108.7545494318716
 20
-40
 30
0
 11
108.7545494318716
 21
-40.39999999999992
 31
0
  0
LINE
  8
1
 62
7
 10
109.4604317848128
 20
-39.30000000000001
 30
0
 11
109.8545494318716
 21
-39.30000000000001
 31
0
  0
LINE
  8
1
 62
7
 10
109.4604317848128
 20
-38.69999999999999
 30
0
 11
109.8545494318716
 21
-38.69999999999999
 31
0
  0
LINE
  8
1
 62
7
 10
76.75454943187155
 20
-37.60000000000002
 30
0
 11
76.7545494318716
 21
-38.00000000000011
 31
0
  0
LINE
  8
1
 62
7
 10
76.15454943187169
 20
-37.60000000000008
 30
0
 11
76.15454943187169
 21
-38.00000000000011
 31
0
  0
LINE
  8
1
 62
7
 10
76.15454943187169
 20
-40.40000000000009
 30
0
 11
76.15454943187169
 21
-40.00000000000011
 31
0
  0
LINE
  8
1
 62
7
 10
75.05454943187161
 20
-39.30000000000007
 30
0
 11
75.45454943187161
 21
-39.30000000000007
 31
0
  0
LINE
  8
1
 62
7
 10
75.05454943187161
 20
-38.7000000000001
 30
0
 11
75.45454943187161
 21
-38.7000000000001
 31
0
  0
LINE
  8
1
 62
7
 10
74.95454943187161
 20
-38.80000000000007
 30
0
 11
74.95454943187161
 21
-39.2000000000001
 31
0
  0
LINE
  8
1
 62
7
 10
77.95454943187161
 20
-38.80000000000007
 30
0
 11
77.95454943187161
 21
-39.2000000000001
 31
0
  0
LINE
  8
1
 62
7
 10
76.2545494318716
 20
-40.50000000000011
 30
0
 11
76.65454943187169
 21
-40.50000000000011
 31
0
  0
LINE
  8
1
 62
7
 10
76.2545494318716
 20
-37.50000000000011
 30
0
 11
76.65454943187169
 21
-37.50000000000011
 31
0
  0
LINE
  8
1
 62
7
 10
76.7545494318716
 20
-40.00000000000011
 30
0
 11
76.75454943187155
 21
-40.39999999999998
 31
0
  0
LINE
  8
1
 62
7
 10
77.46043178481281
 20
-39.30000000000007
 30
0
 11
77.85454943187159
 21
-39.30000000000007
 31
0
  0
LINE
  8
1
 62
7
 10
77.46043178481281
 20
-38.7000000000001
 30
0
 11
77.85454943187159
 21
-38.7000000000001
 31
0
  0
LINE
  8
1
 62
7
 10
107.7545494318716
 20
-5.600000000000023
 30
0
 11
107.7545494318716
 21
-6
 31
0
  0
LINE
  8
1
 62
7
 10
107.1545494318717
 20
-5.600000000000023
 30
0
 11
107.1545494318717
 21
-6
 31
0
  0
LINE
  8
1
 62
7
 10
107.1545494318717
 20
-8.400000000000006
 30
0
 11
107.1545494318717
 21
-8
 31
0
  0
LINE
  8
1
 62
7
 10
106.0545494318717
 20
-7.300000000000011
 30
0
 11
106.4545494318717
 21
-7.300000000000011
 31
0
  0
LINE
  8
1
 62
7
 10
106.0545494318717
 20
-6.700000000000017
 30
0
 11
106.4545494318717
 21
-6.700000000000017
 31
0
  0
LINE
  8
1
 62
7
 10
105.9545494318717
 20
-6.800000000000011
 30
0
 11
105.9545494318717
 21
-7.200000000000017
 31
0
  0
LINE
  8
1
 62
7
 10
108.9545494318717
 20
-6.800000000000011
 30
0
 11
108.9545494318716
 21
-7.199999999999989
 31
0
  0
LINE
  8
1
 62
7
 10
107.2545494318716
 20
-8.5
 30
0
 11
107.6545494318717
 21
-8.5
 31
0
  0
LINE
  8
1
 62
7
 10
107.2545494318716
 20
-5.5
 30
0
 11
107.6545494318717
 21
-5.5
 31
0
  0
LINE
  8
1
 62
7
 10
107.7545494318716
 20
-8
 30
0
 11
107.7545494318716
 21
-8.400000000000034
 31
0
  0
LINE
  8
1
 62
7
 10
108.4604317848128
 20
-7.300000000000011
 30
0
 11
108.8545494318716
 21
-7.300000000000011
 31
0
  0
LINE
  8
1
 62
7
 10
108.4604317848128
 20
-6.700000000000017
 30
0
 11
108.8545494318716
 21
-6.700000000000017
 31
0
  0
LINE
  8
1
 62
7
 10
77.75454943187155
 20
-5.600000000000023
 30
0
 11
77.7545494318716
 21
-6
 31
0
  0
LINE
  8
1
 62
7
 10
77.15454943187169
 20
-5.600000000000023
 30
0
 11
77.15454943187169
 21
-6
 31
0
  0
LINE
  8
1
 62
7
 10
77.15454943187169
 20
-8.400000000000006
 30
0
 11
77.15454943187169
 21
-8
 31
0
  0
LINE
  8
1
 62
7
 10
76.05454943187161
 20
-7.300000000000011
 30
0
 11
76.45454943187161
 21
-7.300000000000011
 31
0
  0
LINE
  8
1
 62
7
 10
76.05454943187161
 20
-6.700000000000017
 30
0
 11
76.45454943187161
 21
-6.700000000000017
 31
0
  0
LINE
  8
1
 62
7
 10
75.95454943187161
 20
-6.800000000000011
 30
0
 11
75.95454943187161
 21
-7.200000000000017
 31
0
  0
LINE
  8
1
 62
7
 10
78.95454943187161
 20
-6.800000000000011
 30
0
 11
78.9545494318716
 21
-7.199999999999989
 31
0
  0
LINE
  8
1
 62
7
 10
77.2545494318716
 20
-8.5
 30
0
 11
77.65454943187169
 21
-8.5
 31
0
  0
LINE
  8
1
 62
7
 10
77.2545494318716
 20
-5.5
 30
0
 11
77.65454943187169
 21
-5.5
 31
0
  0
LINE
  8
1
 62
7
 10
77.7545494318716
 20
-8
 30
0
 11
77.75454943187155
 21
-8.399999999999977
 31
0
  0
LINE
  8
1
 62
7
 10
78.46043178481281
 20
-7.300000000000011
 30
0
 11
78.85454943187159
 21
-7.300000000000011
 31
0
  0
LINE
  8
1
 62
7
 10
78.46043178481281
 20
-6.700000000000017
 30
0
 11
78.85454943187159
 21
-6.700000000000017
 31
0
  0
LINE
  8
1
 62
7
 10
-105.726730510752
 20
-40.30000000000001
 30
0
 11
-104.6454505681283
 21
-40.30000000000001
 31
0
  0
LINE
  8
1
 62
3
 10
70.4545494318716
 20
32.5
 30
0
 11
79.75454943187151
 21
32.5
 31
0
  0
LINE
  8
1
 62
3
 10
101.4545494318716
 20
-24
 30
0
 11
109.4545494318717
 21
-24
 31
0
  0
LINE
  8
1
 62
3
 10
77.45454943187161
 20
-30
 30
0
 11
77.45454943187161
 21
-18
 31
0
  0
LINE
  8
1
 62
7
 10
73.45454943187161
 20
48.5
 30
0
 11
73.45454943187161
 21
-48.5
 31
0
  0
LINE
  8
1
 62
7
 10
73.45454943187161
 20
-28
 30
0
 11
77.45454943187161
 21
-28
 31
0
  0
LINE
  8
1
 62
7
 10
74.95454943187161
 20
50
 30
0
 11
109.9545494318717
 21
50
 31
0
  0
LINE
  8
1
 62
3
 10
88.95802516474659
 20
11.30000000000001
 30
0
 11
95.9545494318716
 21
11.30000000000001
 31
0
  0
LINE
  8
1
 62
7
 10
111.4545494318716
 20
48.5
 30
0
 11
111.4545494318716
 21
-48.5
 31
0
  0
LINE
  8
1
 62
3
 10
77.45454943187161
 20
-3.25
 30
0
 11
77.45454943187161
 21
-10.75
 31
0
  0
LINE
  8
1
 62
3
 10
88.95802516474659
 20
-1.999999999999972
 30
0
 11
95.9545494318716
 21
-1.999999999999972
 31
0
  0
LINE
  8
1
 62
3
 10
107.4545494318717
 20
-3.25
 30
0
 11
107.4545494318717
 21
-10.75
 31
0
  0
LINE
  8
1
 62
3
 10
103.7101341353207
 20
-7
 30
0
 11
111.2045494318717
 21
-7
 31
0
  0
LINE
  8
1
 62
3
 10
87.95744526011779
 20
-17.30000000000001
 30
0
 11
96.9516536036254
 21
-17.30000000000001
 31
0
  0
LINE
  8
1
 62
7
 10
77.45454943187161
 20
-20
 30
0
 11
73.45454943187161
 21
-20
 31
0
  0
LINE
  8
1
 62
3
 10
107.4545494318717
 20
-18
 30
0
 11
107.4545494318717
 21
-30
 31
0
  0
LINE
  8
1
 62
3
 10
76.45454943187161
 20
-35.25
 30
0
 11
76.45454943187161
 21
-42.72784244866239
 31
0
  0
LINE
  8
1
 62
3
 10
104.7045494318716
 20
-39
 30
0
 11
112.2045494318717
 21
-39
 31
0
  0
LINE
  8
1
 62
3
 10
108.4545494318717
 20
-35.25
 30
0
 11
108.4545494318717
 21
-42.75000000000011
 31
0
  0
LINE
  8
1
 62
7
 10
74.95454943187161
 20
-50
 30
0
 11
109.9545494318717
 21
-50
 31
0
  0
LINE
  8
1
 62
7
 10
73.45454943187161
 20
-42
 30
0
 11
77.45454943187161
 21
-42
 31
0
  0
LINE
  8
1
 62
7
 10
81.45454943187161
 20
-46
 30
0
 11
81.45454943187161
 21
-50
 31
0
  0
LINE
  8
1
 62
7
 10
103.4545494318716
 20
-50
 30
0
 11
103.4545494318716
 21
-46
 31
0
  0
LINE
  8
1
 62
7
 10
107.4545494318717
 20
-42
 30
0
 11
111.4545494318716
 21
-42
 31
0
  0
LINE
  8
1
 62
3
 10
107.4545494318717
 20
-40.26523759228189
 30
0
 11
107.4545494318717
 21
-48
 31
0
  0
LINE
  8
1
 62
3
 10
101.4545494318716
 20
-46
 30
0
 11
109.4545494318717
 21
-46
 31
0
  0
LINE
  8
1
 62
3
 10
70.45454943187161
 20
-46
 30
0
 11
75.45454943187161
 21
-46
 31
0
  0
LINE
  8
1
 62
3
 10
77.45454943187161
 20
-40.7982997581766
 30
0
 11
77.45454943187161
 21
-48
 31
0
  0
LINE
  8
1
 62
7
 10
107.4545494318717
 20
-20
 30
0
 11
111.4545494318716
 21
-20
 31
0
  0
LINE
  8
1
 62
7
 10
107.4545494318717
 20
-28
 30
0
 11
111.4545494318716
 21
-28
 31
0
  0
LINE
  8
1
 62
3
 10
73.70454943187161
 20
-7
 30
0
 11
81.20454943187161
 21
-7
 31
0
  0
LINE
  8
1
 62
3
 10
80.36179148386151
 20
-34
 30
0
 11
86.1545494318716
 21
-34
 31
0
  0
LINE
  8
1
 62
7
 10
-103.6454505681283
 20
-41.99978233438486
 30
0
 11
-109.1454505681284
 21
-41.99978233438486
 31
0
  0
LINE
  8
1
 62
7
 10
-109.1454505681284
 20
-41.99978233438486
 30
0
 11
-109.1454505681283
 21
-27.99978233438489
 31
0
  0
LINE
  8
1
 62
7
 10
-104.1454505681283
 20
-39.80000000000001
 30
0
 11
-104.1454505681283
 21
-27.99978233438489
 31
0
  0
LINE
  8
1
 62
3
 10
-115.9144568772766
 20
-23.99978233438489
 30
0
 11
-100.1049931548791
 21
-23.99978233438489
 31
0
  0
LINE
  8
1
 62
7
 10
-103.6454505681283
 20
-27.99978233438489
 30
0
 11
-109.1454505681283
 21
-27.99978233438489
 31
0
  0
LINE
  8
1
 62
7
 10
-107.5454505681284
 20
-41.99978233438486
 30
0
 11
-107.5454505681284
 21
-27.99978233438489
 31
0
  0
LINE
  8
1
 62
3
 10
-116.0307029340589
 20
-46
 30
0
 11
-99.64000892774976
 21
-46
 31
0
  0
LINE
  8
1
 62
3
 10
-110.6649014002495
 20
-39
 30
0
 11
-104.4151463066277
 21
-39
 31
0
  0
LINE
  8
1
 62
7
 10
-103.6454505681283
 20
-27.99978233438489
 30
0
 11
-103.6454505681283
 21
-19.99978233438489
 31
0
  0
LINE
  8
1
 62
7
 10
-109.1454505681283
 20
-19.99978233438486
 30
0
 11
-103.6454505681283
 21
-19.99978233438489
 31
0
  0
LINE
  8
1
 62
3
 10
72.70454943187161
 20
-39.00000000000011
 30
0
 11
80.20454943187161
 21
-39
 31
0
  0
LINE
  8
1
 62
7
 10
-106.5822866654869
 20
-41.6886058383925
 30
0
 11
-107.4367349938536
 21
-41.74307023288765
 31
0
  0
LINE
  8
1
 62
7
 10
-106.5822866654869
 20
-36.31139416160738
 30
0
 11
-107.4367349938536
 21
-36.25692976711224
 31
0
  0
LINE
  8
1
 62
3
 10
79.75454943187151
 20
32.5
 30
0
 11
114.4545494318717
 21
32.5
 31
0
  0
LINE
  8
1
 62
3
 10
-83.93685537951379
 20
-34
 30
0
 11
-125.495371703775
 21
-34
 31
0
  0
ARC
  8
1
 62
7
 10
84.14604475292963
 20
24.19149532105808
 30
0
 40
1.499999999999703
 50
33.59599548152297
 51
326.4040045184754
  0
ARC
  8
1
 62
7
 10
84.14604475292963
 20
24.19149532105808
 30
0
 40
0.8299999999999876
 50
90
 51
270
  0
ARC
  8
1
 62
7
 10
100.7630541108136
 20
40.80850467894192
 30
0
 40
0.8299999999998988
 50
0
 51
180
  0
ARC
  8
1
 62
7
 10
92.45454943186751
 20
32.49999999999926
 30
0
 40
15.00000000000406
 50
5.000000000001516
 51
16.68775087494237
  0
ARC
  8
1
 62
7
 10
92.45454943186429
 20
32.49999999999858
 30
0
 40
14.99999999999293
 50
184.9999999999971
 51
196.6877508749466
  0
ARC
  8
1
 62
7
 10
100.7630541108136
 20
40.80850467894192
 30
0
 40
1.499999999999997
 50
303.5959954815114
 51
236.4040045184765
  0
ARC
  8
1
 62
3
 10
92.4545494318734
 20
32.49999999999659
 30
0
 40
11.75000000000401
 50
125.5304748934444
 51
145.0358580471547
  0
ARC
  8
1
 62
3
 10
92.4545494318743
 20
32.50000000000296
 30
0
 40
11.75000000000409
 50
214.5750951658358
 51
237.9826225138168
  0
ARC
  8
1
 62
3
 10
92.4545494318707
 20
32.50000000000136
 30
0
 40
11.75000000000137
 50
306.4656623470241
 51
324.5585821053722
  0
ARC
  8
1
 62
3
 10
92.4545494318716
 20
32.5
 30
0
 40
11.74999999999994
 50
31.50579932768042
 51
55.88118743118326
  0
ARC
  8
1
 62
7
 10
-110.5454505681281
 20
-7
 30
0
 40
4.999999999999694
 50
3.439812767515538
 51
29.11616583179595
  0
ARC
  8
1
 62
7
 10
-103.9521662329722
 20
-7
 30
0
 40
1.630135299472733
 50
169.395193721257
 51
190.604806278743
  0
ARC
  8
1
 62
7
 10
-110.5454505681281
 20
-7
 30
0
 40
4.999999999999661
 50
330.8838341682035
 51
356.5601872324845
  0
ARC
  8
1
 62
7
 10
107.4516082554011
 20
-40.00294117647059
 30
0
 40
0.7029473295325234
 50
0.2397298960812085
 51
89.76027010391822
  0
ARC
  8
1
 62
7
 10
109.4574906083423
 20
-40.00294117647059
 30
0
 40
0.7029473295325017
 50
89.76027010392632
 51
179.7602701039189
  0
ARC
  8
1
 62
7
 10
109.4574906083423
 20
-37.99705882352941
 30
0
 40
0.7029473295326228
 50
180.2397298960811
 51
270.2397298960737
  0
ARC
  8
1
 62
7
 10
107.4516082554011
 20
-37.99705882352941
 30
0
 40
0.7029473295325022
 50
270.2397298960818
 51
359.7602701039188
  0
ARC
  8
1
 62
7
 10
75.451608255401
 20
-40.0029411764707
 30
0
 40
0.7029473295326086
 50
0.2397298960811795
 51
89.76027010391707
  0
ARC
  8
1
 62
7
 10
77.4574906083422
 20
-40.0029411764707
 30
0
 40
0.7029473295325519
 50
89.76027010391707
 51
179.7602701039188
  0
ARC
  8
1
 62
7
 10
77.4574906083422
 20
-37.99705882352953
 30
0
 40
0.7029473295325234
 50
180.23972989608
 51
270.239729896083
  0
ARC
  8
1
 62
7
 10
75.451608255401
 20
-37.99705882352953
 30
0
 40
0.7029473295324951
 50
270.239729896083
 51
359.76027010392
  0
ARC
  8
1
 62
7
 10
106.4516082554011
 20
-8.002941176470586
 30
0
 40
0.7029473295325234
 50
0.2397298960806294
 51
89.7602701039182
  0
ARC
  8
1
 62
7
 10
108.4574906083423
 20
-8.002941176470586
 30
0
 40
0.7029473295324946
 50
89.76027010392632
 51
179.7602701039194
  0
ARC
  8
1
 62
7
 10
108.4574906083423
 20
-5.997058823529414
 30
0
 40
0.7029473295326228
 50
180.2397298960806
 51
270.2397298960736
  0
ARC
  8
1
 62
7
 10
106.4516082554011
 20
-5.997058823529414
 30
0
 40
0.7029473295325235
 50
270.2397298960818
 51
359.7602701039194
  0
ARC
  8
1
 62
7
 10
76.451608255401
 20
-8.002941176470586
 30
0
 40
0.7029473295326086
 50
0.2397298960806003
 51
89.76027010391704
  0
ARC
  8
1
 62
7
 10
78.4574906083422
 20
-8.002941176470586
 30
0
 40
0.7029473295324951
 50
89.76027010391704
 51
179.7602701039194
  0
ARC
  8
1
 62
7
 10
78.4574906083422
 20
-5.997058823529414
 30
0
 40
0.7029473295325234
 50
180.2397298960806
 51
270.239729896083
  0
ARC
  8
1
 62
7
 10
76.451608255401
 20
-5.997058823529414
 30
0
 40
0.7029473295325235
 50
270.239729896083
 51
359.7602701039194
  0
ARC
  8
1
 62
7
 10
107.4545494318717
 20
-24
 30
0
 40
4.000000000000222
 50
181.355782470379
 51
270
  0
ARC
  8
1
 62
7
 10
92.4545494318716
 20
-17.16821766561512
 30
0
 40
12.9999999999999
 50
327.8050344420641
 51
343.2209762704188
  0
ARC
  8
1
 62
7
 10
107.4545494318717
 20
-24
 30
0
 40
4.000000000000053
 50
112.5559005732173
 51
129.6702282421045
  0
ARC
  8
1
 62
7
 10
92.4545494318739
 20
-17.16821766561389
 30
0
 40
13.00000000000264
 50
196.7790237295835
 51
212.1949655579348
  0
ARC
  8
1
 62
7
 10
77.45454943187161
 20
-24
 30
0
 40
4
 50
270
 51
358.6442175296209
  0
ARC
  8
1
 62
7
 10
77.45454943187161
 20
-24
 30
0
 40
3.999999999999928
 50
50.32977175789681
 51
69.52276900774648
  0
ARC
  8
1
 62
7
 10
-110.5454505681284
 20
-38.99999999999994
 30
0
 40
4.999999999999992
 50
3.439812767515333
 51
29.1161658317943
  0
ARC
  8
1
 62
7
 10
-103.9521662329724
 20
-38.99999999999994
 30
0
 40
1.630135299472537
 50
169.3951937212557
 51
190.6048062787441
  0
ARC
  8
1
 62
7
 10
-110.5454505681284
 20
-38.99999999999994
 30
0
 40
5.000000000000012
 50
330.8838341682056
 51
356.5601872324848
  0
CIRCLE
  8
1
 62
7
 10
84.14604475292963
 20
40.80850467894192
 30
0
 40
1.000000000000043
  0
CIRCLE
  8
1
 62
7
 10
100.7630541108136
 20
24.1914953210582
 30
0
 40
1.000000000000015
  0
CIRCLE
  8
1
 62
7
 10
92.4545494318716
 20
32.5
 30
0
 40
15.9999999999999
  0
CIRCLE
  8
1
 62
7
 10
92.4545494318716
 20
32.5
 30
0
 40
5
  0
CIRCLE
  8
1
 62
7
 10
92.4545494318716
 20
32.5
 30
0
 40
1.5
  0
CIRCLE
  8
1
 62
7
 10
92.4545494318716
 20
32.5
 30
0
 40
1
  0
CIRCLE
  8
1
 62
7
 10
92.4545494318716
 20
32.5
 30
0
 40
17
  0
CIRCLE
  8
1
 62
7
 10
-93.44545056812821
 20
-34
 30
0
 40
1.5
  0
CIRCLE
  8
1
 62
7
 10
108.4545494318717
 20
-39
 30
0
 40
2.75
  0
CIRCLE
  8
1
 62
7
 10
76.45454943187161
 20
-39.00000000000011
 30
0
 40
2.75
  0
CIRCLE
  8
1
 62
7
 10
107.4545494318717
 20
-7
 30
0
 40
2.7500000000001
  0
CIRCLE
  8
1
 62
7
 10
77.45454943187161
 20
-7
 30
0
 40
2.75
  0
CIRCLE
  8
1
 62
7
 10
92.4545494318716
 20
-34
 30
0
 40
4
  0
CIRCLE
  8
1
 62
7
 10
92.4545494318716
 20
11.30000000000001
 30
0
 40
2.5
  0
CIRCLE
  8
1
 62
7
 10
92.4545494318716
 20
-1.868217665615134
 30
0
 40
2.5
  0
CIRCLE
  8
1
 62
7
 10
92.4545494318716
 20
-17.16821766561512
 30
0
 40
3
  0
CIRCLE
  8
1
 62
7
 10
77.45454943187161
 20
-24
 30
0
 40
1.5
  0
CIRCLE
  8
1
 62
2
 10
77.45454943187161
 20
-24
 30
0
 40
2
  0
CIRCLE
  8
1
 62
7
 10
107.4545494318717
 20
-24
 30
0
 40
1.5
  0
CIRCLE
  8
1
 62
2
 10
107.4545494318717
 20
-24
 30
0
 40
2
  0
CIRCLE
  8
1
 62
7
 10
77.45454943187161
 20
-46
 30
0
 40
1.5
  0
CIRCLE
  8
1
 62
2
 10
77.45454943187161
 20
-46
 30
0
 40
2
  0
CIRCLE
  8
1
 62
7
 10
107.4545494318717
 20
-46
 30
0
 40
1.5
  0
CIRCLE
  8
1
 62
2
 10
107.4545494318717
 20
-46
 30
0
 40
2
  0
CIRCLE
  8
1
 62
7
 10
92.4545494318716
 20
-34
 30
0
 40
5.5
  0
CIRCLE
  8
1
 62
7
 10
92.4545494318716
 20
-34
 30
0
 40
6.299999999999997
  0
POLYLINE
  8
1
 62
2
 66
1
  0
VERTEX
  8
1
 10
86.68555255794026
 20
23.20666482117291
 30
0
 42
-0.003029259462703428
  0
VERTEX
  8
1
 10
86.65669806770448
 20
23.2530116032268
 30
0
 42
-0.009295256951901906
  0
VERTEX
  8
1
 10
86.62929894852741
 20
23.29952405488779
 30
0
 42
-0.0161583602915822
  0
VERTEX
  8
1
 10
86.60481057146771
 20
23.34636784576301
 30
0
 42
-0.02388695630860796
  0
VERTEX
  8
1
 10
86.58468830758412
 20
23.39370864545957
 30
0
 42
-0.03239089993798654
  0
VERTEX
  8
1
 10
86.5703875279353
 20
23.44171212358457
 30
0
 42
-0.084650120331903
  0
VERTEX
  8
1
 10
86.56489164816024
 20
23.57865887621852
 30
0
 42
-0.04413284591467729
  0
VERTEX
  8
1
 10
86.59597792690687
 20
23.72007473803446
 30
0
 42
-0.01108135967763985
  0
VERTEX
  8
1
 10
86.64435930722581
 20
23.86406904424375
 30
0
 42
0.01810236028224439
  0
VERTEX
  8
1
 10
86.69074873216775
 20
24.00875113005773
 30
0
 42
0.0504514588401707
  0
VERTEX
  8
1
 10
86.7158591447833
 20
24.15223033068774
 30
0
 42
0.04232233621316591
  0
VERTEX
  8
1
 10
86.7149900356671
 20
24.22372629003672
 30
0
 42
0.01984777916910846
  0
VERTEX
  8
1
 10
86.70522733420074
 20
24.29483480666324
 30
0
 42
0.03063717158877517
  0
VERTEX
  8
1
 10
86.68801947471317
 20
24.36595711609051
 30
0
 42
0.007510884164003044
  0
VERTEX
  8
1
 10
86.66481489153335
 20
24.43749445384172
 30
0
 42
0.01879300864613437
  0
VERTEX
  8
1
 10
86.63706201899028
 20
24.50984805544009
 30
0
 42
0.002259050056962347
  0
VERTEX
  8
1
 10
86.60014730731439
 20
24.59858099613572
 30
0
 42
-0.01159081285313311
  0
VERTEX
  8
1
 10
86.56504511362229
 20
24.68754122826809
 30
0
 42
-0.02783487577109163
  0
VERTEX
  8
1
 10
86.53809603624143
 20
24.77517759398955
 30
0
 42
-0.04946532788475887
  0
VERTEX
  8
1
 10
86.52564067349927
 20
24.85993893545249
 30
0
 42
-0.07557294823267191
  0
VERTEX
  8
1
 10
86.5340196237233
 20
24.94027409480928
 30
0
 42
-0.05491221947944077
  0
VERTEX
  8
1
 10
86.5557661517081
 20
24.99492404274965
 30
0
 42
-0.03872474018255086
  0
VERTEX
  8
1
 10
86.58887661514277
 20
25.04707440183532
 30
0
 42
-0.02477074001725077
  0
VERTEX
  8
1
 10
86.63051003016483
 20
25.09735006927998
 30
0
 42
-0.01364045017697992
  0
VERTEX
  8
1
 10
86.67782541291182
 20
25.1463759422973
 30
0
 42
-0.004344365109836467
  0
VERTEX
  8
1
 10
86.72798177952127
 20
25.19477691810094
 30
0
  0
SEQEND
  8
1
  0
POLYLINE
  8
1
 62
2
 66
1
  0
VERTEX
  8
1
 10
-46.69814742423267
 20
34.16000000000003
 30
0
 42
0.004627892300666866
  0
VERTEX
  8
1
 10
-46.81027453662887
 20
33.99161622019885
 30
0
 42
0.01432161089919297
  0
VERTEX
  8
1
 10
-46.9135287418992
 20
33.82304402115226
 30
0
 42
0.0262078439877102
  0
VERTEX
  8
1
 10
-46.9990371329178
 20
33.65409498361485
 30
0
 42
0.04090712517600926
  0
VERTEX
  8
1
 10
-47.05792680255879
 20
33.48458068834125
 30
0
 42
0.05807845058502135
  0
VERTEX
  8
1
 10
-47.08132484369632
 20
33.31431271608602
 30
0
 42
0.06215230223737363
  0
VERTEX
  8
1
 10
-47.06409323616772
 20
33.14859265971604
 30
0
 42
0.04094631376555475
  0
VERTEX
  8
1
 10
-47.01116861920249
 20
32.98314439371365
 30
0
 42
0.03762017696361613
  0
VERTEX
  8
1
 10
-46.9285420640552
 20
32.81912488428765
 30
0
 42
0.02031018658737192
  0
VERTEX
  8
1
 10
-46.82220464198041
 20
32.65769109764683
 30
0
 42
0.02175284297833944
  0
VERTEX
  8
1
 10
-46.69814742423267
 20
32.5
 30
0
 42
0.005899236995752279
  0
VERTEX
  8
1
 10
-46.55397444218038
 20
32.33624207193614
 30
0
 42
-0.006290958371872347
  0
VERTEX
  8
1
 10
-46.41199739442781
 20
32.17646288339154
 30
0
 42
-0.02391488501223493
  0
VERTEX
  8
1
 10
-46.28783653991837
 20
32.01903318449645
 30
0
 42
-0.04938818170598203
  0
VERTEX
  8
1
 10
-46.19711213759545
 20
31.86232372538118
 30
0
 42
-0.0850136700333344
  0
VERTEX
  8
1
 10
-46.15544444640245
 20
31.704705256176
 30
0
 42
-0.09457323444296654
  0
VERTEX
  8
1
 10
-46.17672606104457
 20
31.53518870020003
 30
0
 42
-0.05996756665694739
  0
VERTEX
  8
1
 10
-46.25618032963597
 20
31.36338914738457
 30
0
 42
-0.03390202050793052
  0
VERTEX
  8
1
 10
-46.37926408868933
 20
31.18987734693949
 30
0
 42
-0.0171484141380938
  0
VERTEX
  8
1
 10
-46.53143417471734
 20
31.01522404807467
 30
0
 42
-0.005242237567651863
  0
VERTEX
  8
1
 10
-46.69814742423267
 20
30.83999999999997
 30
0
  0
SEQEND
  8
1
  0
POLYLINE
  8
1
 62
2
 66
1
  0
VERTEX
  8
1
 10
99.77822361092809
 20
38.26899687393103
 30
0
 42
-0.003029259462848591
  0
VERTEX
  8
1
 10
99.824570392982
 20
38.29785136416681
 30
0
 42
-0.009295256951473074
  0
VERTEX
  8
1
 10
99.87108284464298
 20
38.32525048334389
 30
0
 42
-0.01615836029128202
  0
VERTEX
  8
1
 10
99.91792663551823
 20
38.34973886040358
 30
0
 42
-0.02388695630848749
  0
VERTEX
  8
1
 10
99.96526743521478
 20
38.36986112428717
 30
0
 42
-0.03239089993736239
  0
VERTEX
  8
1
 10
100.0132709133398
 20
38.38416190393599
 30
0
 42
-0.08465012033167221
  0
VERTEX
  8
1
 10
100.1502176659738
 20
38.38965778371104
 30
0
 42
-0.04413284591457317
  0
VERTEX
  8
1
 10
100.2916335277897
 20
38.35857150496442
 30
0
 42
-0.01108135967762386
  0
VERTEX
  8
1
 10
100.435627833999
 20
38.31019012464546
 30
0
 42
0.01810236028225639
  0
VERTEX
  8
1
 10
100.580309919813
 20
38.26380069970354
 30
0
 42
0.05045145884011661
  0
VERTEX
  8
1
 10
100.723789120443
 20
38.23869028708799
 30
0
 42
0.04232233621321496
  0
VERTEX
  8
1
 10
100.795285079792
 20
38.23955939620419
 30
0
 42
0.01984777916916249
  0
VERTEX
  8
1
 10
100.8663935964185
 20
38.24932209767056
 30
0
 42
0.03063717158863315
  0
VERTEX
  8
1
 10
100.9375159058457
 20
38.26652995715813
 30
0
 42
0.007510884164095975
  0
VERTEX
  8
1
 10
101.009053243597
 20
38.28973454033794
 30
0
 42
0.01879300864608617
  0
VERTEX
  8
1
 10
101.0814068451953
 20
38.31748741288101
 30
0
 42
0.002259050056963235
  0
VERTEX
  8
1
 10
101.1701397858909
 20
38.3544021245569
 30
0
 42
-0.01159081285297879
  0
VERTEX
  8
1
 10
101.2591000180233
 20
38.389504318249
 30
0
 42
-0.02783487577124335
  0
VERTEX
  8
1
 10
101.3467363837448
 20
38.41645339562984
 30
0
 42
-0.04946532788449556
  0
VERTEX
  8
1
 10
101.4314977252077
 20
38.428908758372
 30
0
 42
-0.07557294823290259
  0
VERTEX
  8
1
 10
101.5118328845645
 20
38.42052980814799
 30
0
 42
-0.05491221948009421
  0
VERTEX
  8
1
 10
101.5664828325049
 20
38.39878328016319
 30
0
 42
-0.03872474018257265
  0
VERTEX
  8
1
 10
101.6186331915906
 20
38.36567281672852
 30
0
 42
-0.02477074001739708
  0
VERTEX
  8
1
 10
101.6689088590352
 20
38.32403940170646
 30
0
 42
-0.01364045017704333
  0
VERTEX
  8
1
 10
101.7179347320526
 20
38.27672401895947
 30
0
 42
-0.004344365109662825
  0
VERTEX
  8
1
 10
101.7663357078562
 20
38.22656765235001
 30
0
  0
SEQEND
  8
1
  0
POLYLINE
  8
1
 62
2
 66
1
  0
VERTEX
  8
1
 10
-33.45042755423054
 20
34.16000000000003
 30
0
 42
0.004627892300635779
  0
VERTEX
  8
1
 10
-33.56255466662681
 20
33.99161622019885
 30
0
 42
0.01432161089924672
  0
VERTEX
  8
1
 10
-33.66580887189721
 20
33.82304402115226
 30
0
 42
0.02620784398767642
  0
VERTEX
  8
1
 10
-33.75131726291586
 20
33.65409498361485
 30
0
 42
0.04090712517605396
  0
VERTEX
  8
1
 10
-33.81020693255689
 20
33.48458068834125
 30
0
 42
0.05807845058505946
  0
VERTEX
  8
1
 10
-33.83360497369443
 20
33.31431271608602
 30
0
 42
0.06215230223742535
  0
VERTEX
  8
1
 10
-33.81637336616581
 20
33.14859265971604
 30
0
 42
0.04094631376555558
  0
VERTEX
  8
1
 10
-33.76344874920054
 20
32.98314439371365
 30
0
 42
0.03762017696365247
  0
VERTEX
  8
1
 10
-33.68082219405318
 20
32.81912488428765
 30
0
 42
0.020310186587318
  0
VERTEX
  8
1
 10
-33.57448477197832
 20
32.65769109764683
 30
0
 42
0.02175284297835315
  0
VERTEX
  8
1
 10
-33.45042755423054
 20
32.5
 30
0
 42
0.005899236995676087
  0
VERTEX
  8
1
 10
-33.30625457217823
 20
32.33624207193615
 30
0
 42
-0.006290958371993477
  0
VERTEX
  8
1
 10
-33.16427752442565
 20
32.17646288339154
 30
0
 42
-0.02391488501228381
  0
VERTEX
  8
1
 10
-33.04011666991621
 20
32.01903318449646
 30
0
 42
-0.04938818170595388
  0
VERTEX
  8
1
 10
-32.9493922675933
 20
31.86232372538118
 30
0
 42
-0.085013670033253
  0
VERTEX
  8
1
 10
-32.90772457640031
 20
31.704705256176
 30
0
 42
-0.09457323444300787
  0
VERTEX
  8
1
 10
-32.92900619104244
 20
31.53518870020003
 30
0
 42
-0.05996756665697636
  0
VERTEX
  8
1
 10
-33.00846045963385
 20
31.36338914738457
 30
0
 42
-0.03390202050799644
  0
VERTEX
  8
1
 10
-33.1315442186872
 20
31.18987734693949
 30
0
 42
-0.01714841413816977
  0
VERTEX
  8
1
 10
-33.28371430471521
 20
31.01522404807466
 30
0
 42
-0.005242237567706044
  0
VERTEX
  8
1
 10
-33.45042755423054
 20
30.83999999999997
 30
0
  0
SEQEND
  8
1
  0
ARC
  8
1
 62
7
 10
-52.77196415806218
 20
34.66000000000003
 30
0
 40
0.5000000000001668
 50
202.2174691218256
 51
270
  0
ARC
  8
1
 62
7
 10
-52.77196415806218
 20
30.33999999999997
 30
0
 40
0.5
 50
90
 51
157.7825308781713
  0
ARC
  8
1
 62
7
 10
-58.6083955733472
 20
24.86149532105804
 30
0
 40
1.5
 50
270
 51
337.7825308781746
  0
ARC
  8
1
 62
7
 10
-58.6083955733472
 20
40.1385046789419
 30
0
 40
1.499999999999996
 50
22.21746912182584
 51
90
  0
ARC
  8
1
 62
7
 10
-59.01634792170371
 20
39.27850467894183
 30
0
 40
0.6999999999999607
 50
45.63354565635902
 51
90
  0
ARC
  8
1
 62
7
 10
-59.01634792170371
 20
25.72149532105806
 30
0
 40
0.6999999999999922
 50
270
 51
314.366454343641
  0
ARC
  8
1
 62
7
 10
-53.5326767928056
 20
33.5
 30
0
 40
1.000000000000154
 50
225.6335456563513
 51
270
  0
ARC
  8
1
 62
7
 10
-53.5326767928056
 20
31.5
 30
0
 40
1
 50
90
 51
134.3664543436555
  0
ARC
  8
1
 62
7
 10
-61.9459108561154
 20
35.7455660377359
 30
0
 40
1
 50
0
 51
75.81123928935085
  0
ARC
  8
1
 62
7
 10
-61.9459108561154
 20
29.25443396226405
 30
0
 40
0.9999999999999873
 50
284.1887607106474
 51
0
  0
ARC
  8
1
 62
7
 10
-49.06001656474444
 20
34.3599999999999
 30
0
 40
0.1999999999998678
 50
270
 51
3.645191185454627
  0
ARC
  8
1
 62
7
 10
-52.51195168063958
 20
37.06
 30
0
 40
0.5
 50
90
 51
177.2795508940669
  0
ARC
  8
1
 62
7
 10
-49.48867569325166
 20
37.06
 30
0
 40
0.5000000000002337
 50
2.720449105930584
 51
90
  0
ARC
  8
1
 62
7
 10
-52.94061080914678
 20
34.3599999999999
 30
0
 40
0.2000000000000272
 50
176.3548088145415
 51
192.3470653506539
  0
ARC
  8
1
 62
7
 10
-120.8454505681283
 20
48.5
 30
0
 40
1.5
 50
90
 51
180
  0
ARC
  8
1
 62
7
 10
-61.9459108561154
 20
29.25443396226405
 30
0
 40
0.9999999999999873
 50
284.1887607106474
 51
0
  0
ARC
  8
1
 62
7
 10
-61.9459108561154
 20
35.7455660377359
 30
0
 40
1
 50
0
 51
75.81123928935085
  0
ARC
  8
1
 62
7
 10
-106.0454505681284
 20
48
 30
0
 40
1.5
 50
90
 51
180
  0
ARC
  8
1
 62
7
 10
-106.0454505681284
 20
16.99999999999994
 30
0
 40
1.5
 50
180
 51
270
  0
ARC
  8
1
 62
7
 10
-107.4454505681282
 20
-9.643450763078533
 30
0
 40
0.09999999999990905
 50
180
 51
275.0000000000698
  0
ARC
  8
1
 62
7
 10
-107.4454505681282
 20
-4.356549236921467
 30
0
 40
0.100000000000006
 50
84.99999999993023
 51
180
  0
ARC
  8
1
 62
7
 10
-106.6140932022562
 20
-9.189618519697206
 30
0
 40
0.5000000000000182
 50
273.6472232847712
 51
330.8838341682054
  0
ARC
  8
1
 62
7
 10
-106.6140932022562
 20
-4.810381480302794
 30
0
 40
0.5000000000000496
 50
29.11616583178894
 51
86.35277671522881
  0
ARC
  8
1
 62
7
 10
108.2545494318716
 20
-37.59999999999991
 30
0
 40
0.09999999999990905
 50
90
 51
180
  0
ARC
  8
1
 62
7
 10
108.6545494318717
 20
-37.60000000000002
 30
0
 40
0.09999999999989484
 50
0
 51
90
  0
ARC
  8
1
 62
7
 10
109.8545494318716
 20
-38.80000000000001
 30
0
 40
0.1000000000000938
 50
0
 51
90
  0
ARC
  8
1
 62
7
 10
109.8545494318716
 20
-39.19999999999999
 30
0
 40
0.1000000000000227
 50
270
 51
0
  0
ARC
  8
1
 62
7
 10
108.6545494318717
 20
-40.39999999999998
 30
0
 40
0.1000000000000227
 50
270
 51
0
  0
ARC
  8
1
 62
7
 10
108.2545494318716
 20
-40.39999999999992
 30
0
 40
0.09999999999989484
 50
180
 51
270
  0
ARC
  8
1
 62
7
 10
107.0545494318717
 20
-39.19999999999999
 30
0
 40
0.1000000000000085
 50
180
 51
270
  0
ARC
  8
1
 62
7
 10
107.0545494318717
 20
-38.80000000000001
 30
0
 40
0.1000000000000227
 50
90
 51
180
  0
ARC
  8
1
 62
7
 10
76.25454943187155
 20
-37.60000000000002
 30
0
 40
0.09999999999991616
 50
90
 51
180
  0
ARC
  8
1
 62
7
 10
76.65454943187169
 20
-37.60000000000008
 30
0
 40
0.09999999999986642
 50
0
 51
90
  0
ARC
  8
1
 62
7
 10
77.85454943187159
 20
-38.80000000000007
 30
0
 40
0.1000000000000227
 50
0
 51
90
  0
ARC
  8
1
 62
7
 10
77.85454943187159
 20
-39.2000000000001
 30
0
 40
0.09999999999996589
 50
270
 51
0
  0
ARC
  8
1
 62
7
 10
76.65454943187169
 20
-40.40000000000009
 30
0
 40
0.1000000000000156
 50
270
 51
0
  0
ARC
  8
1
 62
7
 10
76.25454943187155
 20
-40.39999999999998
 30
0
 40
0.09999999999986642
 50
180
 51
270
  0
ARC
  8
1
 62
7
 10
75.05454943187161
 20
-39.2000000000001
 30
0
 40
0.09999999999999432
 50
180
 51
270
  0
ARC
  8
1
 62
7
 10
75.05454943187161
 20
-38.80000000000007
 30
0
 40
0.09999999999996589
 50
90
 51
180
  0
ARC
  8
1
 62
7
 10
107.2545494318716
 20
-5.600000000000023
 30
0
 40
0.1000000000000227
 50
90
 51
180
  0
ARC
  8
1
 62
7
 10
107.6545494318717
 20
-5.600000000000023
 30
0
 40
0.09999999999989484
 50
0
 51
90
  0
ARC
  8
1
 62
7
 10
108.8545494318716
 20
-6.800000000000011
 30
0
 40
0.1000000000000938
 50
0
 51
90
  0
ARC
  8
1
 62
7
 10
108.8545494318716
 20
-7.200000000000017
 30
0
 40
0.09999999999999432
 50
270
 51
0
  0
ARC
  8
1
 62
7
 10
107.6545494318717
 20
-8.400000000000006
 30
0
 40
0.09999999999999432
 50
270
 51
0
  0
ARC
  8
1
 62
7
 10
107.2545494318716
 20
-8.400000000000034
 30
0
 40
0.09999999999989484
 50
180
 51
270
  0
ARC
  8
1
 62
7
 10
106.0545494318717
 20
-7.199999999999989
 30
0
 40
0.1000000000000085
 50
180
 51
270
  0
ARC
  8
1
 62
7
 10
106.0545494318717
 20
-6.800000000000011
 30
0
 40
0.09999999999999432
 50
90
 51
180
  0
ARC
  8
1
 62
7
 10
77.25454943187155
 20
-5.600000000000023
 30
0
 40
0.1000000000000227
 50
90
 51
180
  0
ARC
  8
1
 62
7
 10
77.65454943187169
 20
-5.600000000000023
 30
0
 40
0.09999999999986642
 50
0
 51
90
  0
ARC
  8
1
 62
7
 10
78.85454943187159
 20
-6.800000000000011
 30
0
 40
0.1000000000000227
 50
0
 51
90
  0
ARC
  8
1
 62
7
 10
78.85454943187159
 20
-7.200000000000017
 30
0
 40
0.09999999999999432
 50
270
 51
0
  0
ARC
  8
1
 62
7
 10
77.65454943187169
 20
-8.400000000000006
 30
0
 40
0.09999999999999432
 50
270
 51
0
  0
ARC
  8
1
 62
7
 10
77.25454943187155
 20
-8.399999999999977
 30
0
 40
0.09999999999986642
 50
180
 51
270
  0
ARC
  8
1
 62
7
 10
76.05454943187174
 20
-7.199999999999989
 30
0
 40
0.1000000000001222
 50
180
 51
270
  0
ARC
  8
1
 62
7
 10
76.05454943187161
 20
-6.800000000000011
 30
0
 40
0.09999999999999432
 50
90
 51
180
  0
ARC
  8
1
 62
7
 10
109.9545494318717
 20
48.5
 30
0
 40
1.499999999999901
 50
0
 51
90
  0
ARC
  8
1
 62
7
 10
74.95454943187161
 20
48.5
 30
0
 40
1.5
 50
90
 51
180
  0
ARC
  8
1
 62
7
 10
77.45454943187161
 20
-24
 30
0
 40
3.999999999999976
 50
69.52276900774648
 51
90
  0
ARC
  8
1
 62
7
 10
107.4545494318717
 20
-24
 30
0
 40
4
 50
90
 51
112.5559005732173
  0
ARC
  8
1
 62
7
 10
109.9545494318717
 20
-48.5
 30
0
 40
1.5
 50
270
 51
0
  0
ARC
  8
1
 62
7
 10
74.95454943187161
 20
-48.5
 30
0
 40
1.5
 50
180
 51
270
  0
ARC
  8
1
 62
7
 10
77.45454943187161
 20
-46
 30
0
 40
4
 50
0
 51
90
  0
ARC
  8
1
 62
7
 10
107.4545494318717
 20
-46
 30
0
 40
4
 50
90
 51
180
  0
ARC
  8
1
 62
7
 10
-120.8454505681283
 20
-48.5
 30
0
 40
1.5
 50
180
 51
270
  0
ARC
  8
1
 62
7
 10
-104.6450045284639
 20
-39.79894741542859
 30
0
 40
0.5
 50
270
 51
0
  0
ARC
  8
1
 62
7
 10
-107.4454505681284
 20
-41.64345076307848
 30
0
 40
0.1000000000000085
 50
180
 51
275.0000000000126
  0
ARC
  8
1
 62
7
 10
-107.4454505681284
 20
-36.35654923692141
 30
0
 40
0.09999999999999733
 50
84.99999999998701
 51
180
  0
ARC
  8
1
 62
7
 10
-106.614093202256
 20
-41.18961851969715
 30
0
 40
0.5000000000000175
 50
273.6472232847827
 51
330.8838341681991
  0
ARC
  8
1
 62
7
 10
-106.614093202256
 20
-36.81038148030274
 30
0
 40
0.4999999999999904
 50
29.11616583180019
 51
86.35277671521742
  0
LINE
  8
1
 62
2
 10
-71.87178690990953
 20
5.499999999999943
 30
0
 11
-96.58175552267556
 21
5.499999999999943
 31
0
  0
LINE
  8
1
 62
2
 10
-96.58175552267556
 20
5.499999999999943
 30
0
 11
-89.14219508012155
 21
19.39999999999992
 31
0
  0
SOLID
  8
1
 62
2
 10
-90.38753000963021
 20
16.09674969615858
 30
0
 11
-91.20004034028868
 21
16.53162161811061
 31
0
 12
-89.14219508012155
 22
19.39999999999992
 32
0
 13
-89.14219508012155
 23
19.39999999999992
 33
0
  0
LINE
  8
1
 62
2
 10
56.69779049453984
 20
60
 30
0
 11
-12.56913253414814
 21
60
 31
0
  0
LINE
  8
1
 62
2
 10
-12.56913253414814
 20
60
 30
0
 11
-27.40913253414817
 21
34.16000000000003
 31
0
  0
SOLID
  8
1
 62
2
 10
-26.06564928829268
 20
37.42456343552826
 30
0
 11
-25.26649617872967
 21
36.96560708313216
 31
0
 12
-27.40913253414817
 22
34.16000000000003
 32
0
 13
-27.40913253414817
 23
34.16000000000003
 33
0
  0
TEXT
  8
1
 62
2
 10
-92.53134709453924
 20
6.249461668913966
 30
0
 40
3
  1
NAME PLATE
 41
0.6300000000000001
 72
1
 73
2
 11
-83.08134709453924
 21
7.749461668913966
 31
0
  0
TEXT
  8
1
 62
2
 10
-140.25
 20
93.5
 30
0
 40
5
  1
DME34KL
 41
0.9
 72
1
 73
2
 11
-124.5
 21
96
 31
0
  0
TEXT
  8
1
 62
2
 10
-11.55967578569516
 20
53.84007951662431
 30
0
 40
3.5
  1
UL1007 AWG22
 41
0.9
 73
2
 11
-11.55967578569516
 21
55.59007951662431
 31
0
  0
TEXT
  8
1
 62
2
 10
-10.97656361549718
 20
60.83742555899988
 30
0
 40
3.5
  1
LEAD WIRES (RED,BLACK)
 41
0.9
 73
2
 11
-10.97656361549718
 21
62.58742555899988
 31
0
  0
TEXT
  8
1
 62
2
 10
-59.07216238191963
 20
55.29896330718409
 30
0
 40
3.2
  1
(0.063)
 41
0.6300000000000001
 72
1
 73
2
 11
-52.01616238191963
 21
56.89896330718409
 31
0
  0
TEXT
  8
1
 62
2
 10
-99.2698452612506
 20
67.80066616003978
 30
0
 40
3.2
  1
(2.354)
 41
0.6300000000000001
 72
1
 73
2
 11
-92.2138452612506
 21
69.40066616003979
 31
0
  0
TEXT
  8
1
 62
2
 10
-42.36714394491159
 20
-6.50000000000006
 30
0
 40
3.2
  1
(11.811   )
 41
0.6300000000000001
 72
1
 73
2
 11
-31.27914394491159
 21
-4.900000000000061
 31
0
  0
TEXT
  8
1
 62
2
 10
-18.50162448362472
 20
6.410717045350986
 30
0
 40
3.2
  1
(0.118)
 41
0.6300000000000001
 72
1
 73
2
 11
-11.44562448362472
 21
8.010717045350987
 31
0
  0
TEXT
  8
1
 62
2
 10
-36.35616761347929
 20
21.412
 30
0
 40
3.2
  1
(1.339DIA.)
 50
90
 41
0.6300000000000001
 72
1
 73
2
 11
-37.95616761347929
 21
32.5
 31
0
  0
TEXT
  8
1
 62
2
 10
-31.00577124033556
 20
-4.700000000000061
 30
0
 40
2
  1
+1.181
 41
0.63
  0
TEXT
  8
1
 62
2
 10
-31.00577124033556
 20
-7.10000000000006
 30
0
 40
2
  1
 0
 41
0.63
  0
TEXT
  8
1
 62
2
 10
-88.70844567096228
 20
-64.2010366928159
 30
0
 40
3.2
  1
(0.236)
 41
0.6300000000000001
 72
1
 73
2
 11
-81.65244567096228
 21
-62.60103669281591
 31
0
  0
TEXT
  8
1
 62
2
 10
-102.2678798036353
 20
-76.20103669281586
 30
0
 40
3.2
  1
(0.638)
 41
0.6300000000000001
 72
1
 73
2
 11
-95.21187980363528
 21
-74.60103669281585
 31
0
  0
TEXT
  8
1
 62
2
 10
-120.2678798036353
 20
-76.20103669281586
 30
0
 40
3.2
  1
(0.736)
 41
0.6300000000000001
 72
1
 73
2
 11
-113.2118798036353
 21
-74.60103669281585
 31
0
  0
TEXT
  8
1
 62
2
 10
-64.07310093214427
 20
-23.99339821528707
 30
0
 40
3.5
  1
(0.118DIA.     HOLE)
 41
0.468
 73
2
 11
-64.07310093214427
 21
-22.24339821528707
 31
0
  0
TEXT
  8
1
 62
2
 10
-67.44545056812811
 20
-66.28854714371258
 30
0
 40
3.2
  1
(0.315DIA.      )
 50
90
 41
0.5850000000000001
 72
1
 73
2
 11
-69.04545056812812
 21
-50.37654714371257
 31
0
  0
TEXT
  8
1
 62
2
 10
-52.67363731869113
 20
-22.04339821528707
 30
0
 40
2
  1
+0.00394
 41
0.45
  0
TEXT
  8
1
 62
2
 10
-52.67363731869113
 20
-24.44339821528707
 30
0
 40
2
  1
 0
 41
0.45
  0
TEXT
  8
1
 62
2
 10
-69.24545056812812
 20
-49.02137782119907
 30
0
 40
2
  1
 0
 50
90
 41
0.5850000000000001
  0
TEXT
  8
1
 62
2
 10
-66.84545056812812
 20
-49.02137782119907
 30
0
 40
2
  1
-0.000787
 50
90
 41
0.5850000000000001
  0
TEXT
  8
1
 62
2
 10
137.0520156590621
 20
-36.15430190324949
 30
0
 40
2
  1
%%p0.0118
 50
90
 41
0.63
 72
1
 73
2
 11
136.0520156590621
 21
-30.48430190324949
 31
0
  0
TEXT
  8
1
 62
2
 10
90.1390799371887
 20
-74.60130188074081
 30
0
 40
2
  1
%%p0.0118
 41
0.63
 72
1
 73
2
 11
95.8090799371887
 21
-73.60130188074081
 31
0
  0
TEXT
  8
1
 62
2
 10
-0.297937844689109
 20
-70.82622100642161
 30
0
 40
3.5
  1
(4-M4 DEPTH 0.236MAX)
 41
0.675
 73
2
 11
-0.297937844689109
 21
-69.07622100642161
 31
0
  0
TEXT
  8
1
 62
2
 10
-128.1479843409378
 20
-6.720024752687067
 30
0
 40
3.2
  1
(3.937)
 50
90
 41
0.6300000000000001
 72
1
 73
2
 11
-129.7479843409378
 21
0.335975247312934
 31
0
  0
TEXT
  8
1
 62
2
 10
149.6520156590621
 20
-42.056
 30
0
 40
3.2
  1
(1.181)
 50
90
 41
0.6300000000000001
 72
1
 73
2
 11
148.0520156590621
 21
-35
 31
0
  0
TEXT
  8
1
 62
2
 10
125.6520156590621
 20
-42.056
 30
0
 40
3.2
  1
(0.551)
 50
90
 41
0.6300000000000001
 72
1
 73
2
 11
124.0520156590621
 21
-35
 31
0
  0
TEXT
  8
1
 62
2
 10
137.5644208912784
 20
-65.04878305744479
 30
0
 40
3.2
  1
(0.157)
 50
90
 41
0.6300000000000001
 72
1
 73
2
 11
135.9644208912784
 21
-57.99278305744479
 31
0
  0
TEXT
  8
1
 62
2
 10
137.6520156590621
 20
-46.08078305744479
 30
0
 40
3.2
  1
(0.866    )
 50
90
 41
0.6300000000000001
 72
1
 73
2
 11
136.0520156590621
 21
-34.99278305744479
 31
0
  0
TEXT
  8
1
 62
2
 10
67.56442089127843
 20
-34.54878305744479
 30
0
 40
3.2
  1
(0.472)
 50
90
 41
0.6300000000000001
 72
1
 73
2
 11
65.96442089127842
 21
-27.49278305744479
 31
0
  0
TEXT
  8
1
 62
2
 10
55.56442089127842
 20
-7.83189836856079
 30
0
 40
3.2
  1
(2.618)
 50
90
 41
0.6300000000000001
 72
1
 73
2
 11
53.96442089127842
 21
-0.7758983685607888
 31
0
  0
TEXT
  8
1
 62
2
 10
55.56442089127842
 20
-48.32389836856079
 30
0
 40
3.2
  1
(0.63)
 50
90
 41
0.6300000000000001
 72
1
 73
2
 11
53.96442089127842
 21
-42.27589836856079
 31
0
  0
TEXT
  8
1
 62
2
 10
85.24459878299341
 20
-64.20206144019991
 30
0
 40
3.2
  1
(0.866)
 41
0.6300000000000001
 72
1
 73
2
 11
92.3005987829934
 21
-62.60206144019991
 31
0
  0
TEXT
  8
1
 62
2
 10
81.21259878299341
 20
-75.20130188074081
 30
0
 40
3.2
  1
(1.181    )
 41
0.6300000000000001
 72
1
 73
2
 11
92.3005987829934
 21
-73.60130188074081
 31
0
  0
TEXT
  8
1
 62
2
 10
85.24459878299341
 20
-88.20206144019993
 30
0
 40
3.2
  1
(1.496)
 41
0.6300000000000001
 72
1
 73
2
 11
92.3005987829934
 21
-86.60206144019992
 31
0
  0
TEXT
  8
1
 62
2
 10
57.60533435522801
 20
-75.20130188074081
 30
0
 40
3.2
  1
(0.157)
 41
0.6300000000000001
 72
1
 73
2
 11
64.66133435522801
 21
-73.60130188074081
 31
0
  0
DIMENSION
  8
1
  6
CONTINUOUS
 62
2
  2
*D0
  3
DMST_1
 10
-62.54591085611554
 20
71.99727268193151
 30
0
 11
-92.44568071212191
 21
74.5972726819315
 31
0
 12
0
 22
0
 32
0
 70
0
 13
-122.3454505681283
 23
48.5
 33
0
 14
-62.54591085611554
 24
49.5
 34
0
 53
0
  0
DIMENSION
  8
1
  6
CONTINUOUS
 62
2
  2
*D1
  3
DMST_2
 10
-60.9459108561154
 20
59.59636038091556
 30
0
 11
-52.18063753556162
 21
62.19636038091556
 31
0
 12
0
 22
0
 32
0
 70
0
  1
(<>
 13
-62.54591085611554
 23
49.5
 33
0
 14
-60.9459108561154
 24
35.7455660377359
 34
0
 53
0
  0
DIMENSION
  8
1
  6
CONTINUOUS
 62
2
  2
*D2
  3
DMST_3
 10
-62.54591085611554
 20
-1.440335041579793
 30
0
 11
-31.24718343774857
 21
1.959664958420207
 31
0
 12
0
 22
0
 32
0
 70
0
  1
300
 13
0.05154398061841903
 23
31.39999999999998
 33
0
 14
-62.54591085611554
 24
15.49999999999994
 34
0
 53
0
  0
DIMENSION
  8
1
  6
CONTINUOUS
 62
2
  2
*D3
  3
DMST_4
 10
-2.948456019381576
 20
10.49999999999997
 30
0
 11
-11.81655445503264
 21
13.09999999999997
 31
0
 12
0
 22
0
 32
0
 70
0
  1
(<>
 13
0.05154398061841903
 23
31.39999999999998
 33
0
 14
-2.948456019381581
 24
30.83999999999997
 34
0
 53
0
  0
DIMENSION
  8
1
  6
CONTINUOUS
 62
2
  2
*D4
  3
DMST_1
 10
-40.10783741859897
 20
15.49999999999994
 30
0
 11
-43.13450408526563
 21
32.49999999999994
 31
0
 12
0
 22
0
 32
0
 70
1
  1
ƒÓ<>
 13
-62.54591085611554
 23
49.5
 33
0
 14
-62.54591085611554
 24
15.49999999999994
 34
0
 53
0
  0
DIMENSION
  8
1
  6
CONTINUOUS
 62
2
  2
*D5
  3
DMST_1
 10
-87.44545056812821
 20
-59.99917762258051
 30
0
 11
-81.81661176419529
 21
-57.39917762258051
 31
0
 12
0
 22
0
 32
0
 70
0
 13
-93.44545056812821
 23
-35.5
 33
0
 14
-87.44545056812821
 24
-38
 34
0
 53
0
  0
DIMENSION
  8
1
  6
CONTINUOUS
 62
2
  2
*D6
  3
DMST_5
 10
-72.42474494266911
 20
-38.00000000000001
 30
0
 11
-75.82474494266911
 21
-49.91284817199482
 31
0
 12
0
 22
0
 32
0
 70
0
  1
ƒÓ<>
 13
-87.44545056812821
 23
-30
 33
0
 14
-87.44545056812821
 24
-38
 34
0
 50
90
 53
0
  0
DIMENSION
  8
1
  6
CONTINUOUS
 62
2
  2
*D7
  3
DMST_1
 10
-87.44545056812821
 20
-72.0651551624796
 30
0
 11
-95.54545056812825
 21
-69.4651551624796
 31
0
 12
0
 22
0
 32
0
 70
0
 13
-103.6454505681283
 23
-50
 33
0
 14
-87.44545056812821
 24
-38
 34
0
 53
0
  0
DIMENSION
  8
1
  6
CONTINUOUS
 62
2
  2
*D8
  3
DMST_1
 10
-103.6454505681283
 20
-72.01514455194949
 30
0
 11
-112.9954505681283
 21
-69.4151445519495
 31
0
 12
0
 22
0
 32
0
 70
0
 13
-122.3454505681283
 23
-48.5
 33
0
 14
-103.6454505681283
 24
-50
 34
0
 53
0
  0
DIMENSION
  8
1
  6
CONTINUOUS
 62
2
  2
*D9
  3
DMST_1
 10
-132.381606091637
 20
50
 30
0
 11
-134.981606091637
 21
4.440892098500626e-016
 31
0
 12
0
 22
0
 32
0
 70
0
 13
-120.8454505681283
 23
-50
 33
0
 14
-120.8454505681283
 24
50
 34
0
 50
90
 53
0
  0
DIMENSION
  8
1
  6
CONTINUOUS
 62
2
  2
*D10
  3
DMST_6
 10
107.4545494318717
 20
-70.98098862596869
 30
0
 11
92.4545494318717
 21
-68.3809886259687
 31
0
 12
0
 22
0
 32
0
 70
0
 13
77.45454943187161
 23
-48
 33
0
 14
107.4545494318717
 24
-48
 34
0
 53
0
  0
DIMENSION
  8
1
  6
CONTINUOUS
 62
2
  2
*D11
  3
DMST_4
 10
73.45454943187161
 20
-71.00220269295089
 30
0
 11
64.4498821697597
 21
-68.40220269295089
 31
0
 12
0
 22
0
 32
0
 70
0
  1
(<>
 13
77.45454943187161
 23
-48
 33
0
 14
73.45454943187161
 24
-48.5
 34
0
 53
0
  0
DIMENSION
  8
1
  6
CONTINUOUS
 62
2
  2
*D12
  3
DMST_4
 10
133.430794156185
 20
-50
 30
0
 11
130.830794156185
 21
-58.4552974957321
 31
0
 12
0
 22
0
 32
0
 70
0
  1
(<>
 13
109.4545494318717
 23
-46
 33
0
 14
109.9545494318717
 24
-50
 34
0
 50
90
 53
0
  0
DIMENSION
  8
1
  6
CONTINUOUS
 62
2
  2
*D13
  3
DMST_4
 10
145.340275668329
 20
-50
 30
0
 11
142.740275668329
 21
-35
 31
0
 12
0
 22
0
 32
0
 70
0
  1
(<>
 13
111.4545494318716
 23
-20
 33
0
 14
109.9545494318717
 24
-50
 34
0
 50
90
 53
0
  0
DIMENSION
  8
1
  6
CONTINUOUS
 62
2
  2
*D14
  3
DMST_6
 10
133.439812126686
 20
-46
 30
0
 11
130.839812126686
 21
-35
 31
0
 12
0
 22
0
 32
0
 70
0
 13
109.4545494318717
 23
-24
 33
0
 14
109.4545494318717
 24
-46
 34
0
 50
90
 53
0
  0
DIMENSION
  8
1
  6
CONTINUOUS
 62
2
  2
*D15
  3
DMST_4
 10
121.483623414956
 20
-42
 30
0
 11
118.883623414956
 21
-35
 31
0
 12
0
 22
0
 32
0
 70
0
  1
(<>
 13
111.4545494318716
 23
-28
 33
0
 14
111.4545494318716
 24
-42
 34
0
 50
90
 53
0
  0
DIMENSION
  8
1
  6
CONTINUOUS
 62
2
  2
*D16
  3
DMST_1
 10
63.38425316456681
 20
-34
 30
0
 11
60.78425316456681
 21
-27.8190469901436
 31
0
 12
0
 22
0
 32
0
 70
0
 13
79.45454943187161
 23
-46
 33
0
 14
86.1545494318716
 24
-34
 34
0
 50
90
 53
0
  0
DIMENSION
  8
1
  6
CONTINUOUS
 62
2
  2
*D17
  3
DMST_4
 10
51.42078643055621
 20
-50
 30
0
 11
48.82078643055621
 21
-42
 31
0
 12
0
 22
0
 32
0
 70
0
  1
(<>
 13
86.1545494318716
 23
-34
 33
0
 14
74.95454943187161
 24
-50
 34
0
 50
90
 53
0
  0
DIMENSION
  8
1
  6
CONTINUOUS
 62
2
  2
*D18
  3
DMST_4
 10
51.42078643055621
 20
-34
 30
0
 11
48.82078643055621
 21
-0.75
 31
0
 12
0
 22
0
 32
0
 70
0
  1
(<>
 13
79.75454943187151
 23
32.5
 33
0
 14
86.1545494318716
 24
-34
 34
0
 50
90
 53
0
  0
DIMENSION
  8
1
  6
CONTINUOUS
 62
2
  2
*D19
  3
DMST_4
 10
81.45454943187161
 20
-60.1502088032148
 30
0
 11
92.4545494318716
 21
-57.5502088032148
 31
0
 12
0
 22
0
 32
0
 70
0
  1
(<>
 13
103.4545494318716
 23
-50
 33
0
 14
81.45454943187161
 24
-50
 34
0
 53
0
  0
DIMENSION
  8
1
  6
CONTINUOUS
 62
2
  2
*D20
  3
DMST_1
 10
73.45454943187161
 20
-84.04455028567179
 30
0
 11
92.45454943187161
 21
-81.4445502856718
 31
0
 12
0
 22
0
 32
0
 70
0
 13
111.4545494318716
 23
-48.5
 33
0
 14
73.45454943187161
 24
-48.5
 34
0
 53
0
  0
DIMENSION
  8
1
  6
CONTINUOUS
 62
2
  2
*D21
  3
DMST_7
 10
-94.7218237727717
 20
-34.78795395961192
 30
0
 11
-50.11704669652421
 21
-14.70095939544399
 31
0
 12
0
 22
0
 32
0
 70
3
  1
ƒÓ<>
 15
-92.16907736348469
 25
-33.21204604038812
 35
0
 40
0
 53
0
  0
INSERT
  8
0
  2
DME34B5C
 10
517.605112944844
 20
223.449848733199
 30
0
  0
INSERT
  8
1
  2
*D22
 10
0
 20
0
 30
0
  0
ENDSEC
  0
EOF
