  0
SECTION
  2
HEADER
  9
$ACADVER
  1
AC1009
  9
$INSBASE
 10
0
 20
0
  9
$EXTMIN
 10
-194.5
 20
-146
  9
$EXTMAX
 10
194.5
 20
146
  9
$LIMMIN
 10
-194.5
 20
-146
  9
$LIMMAX
 10
194.5
 20
146
  9
$VIEWCTR
 10
10
 20
10
  9
$VIEWSIZE
 40
10
  9
$SNAPMODE
 70
0
  9
$SNAPUNIT
 10
1
 20
1
  9
$SNAPBASE
 10
0
 20
0
  9
$SNAPANG
 50
0
  9
$SNAPSTYLE
 70
0
  9
$SNAPISOPAIR
 70
0
  9
$GRIDMODE
 70
0
  9
$GRIDUNIT
 10
0
 20
0
  9
$ORTHOMODE
 70
0
  9
$REGENMODE
 70
1
  9
$FILLMODE
 70
1
  9
$QTEXTMODE
 70
0
  9
$DRAGMODE
 70
2
  9
$LTSCALE
 40
1
  9
$OSMODE
 70
0
  9
$ATTMODE
 70
1
  9
$TEXTSIZE
 40
3.5
  9
$TRACEWID
 40
0.5
  9
$TEXTSTYLE
  7
STANDARD
  9
$CLAYER
  8
0
  9
$CELTYPE
  6
BYLAYER
  9
$CECOLOR
 62
256
  9
$DIMSCALE
 40
1
  9
$DIMASZ
 40
0.18
  9
$DIMEXO
 40
0.0625
  9
$DIMDLI
 40
0.38
  9
$DIMRND
 40
0
  9
$DIMDLE
 40
0
  9
$DIMEXE
 40
0.18
  9
$DIMTP
 40
0
  9
$DIMTM
 40
0
  9
$DIMTXT
 40
0.18
  9
$DIMCEN
 40
0.09
  9
$DIMTSZ
 40
0
  9
$DIMTOL
 70
0
  9
$DIMLIM
 70
0
  9
$DIMTIH
 70
1
  9
$DIMTOH
 70
1
  9
$DIMSE1
 70
0
  9
$DIMSE2
 70
0
  9
$DIMTAD
 70
0
  9
$DIMZIN
 70
0
  9
$DIMBLK
  1

  9
$DIMASO
 70
1
  9
$DIMSHO
 70
1
  9
$DIMPOST
  1

  9
$DIMAPOST
  1

  9
$DIMALT
 70
0
  9
$DIMALTD
 70
2
  9
$DIMALTF
 40
25.4
  9
$DIMLFAC
 40
1
  9
$DIMTOFL
 70
0
  9
$DIMTVP
 40
0
  9
$DIMTIX
 70
0
  9
$DIMSOXD
 70
0
  9
$DIMSAH
 70
0
  9
$DIMBLK1
  1

  9
$DIMBLK2
  1

  9
$DIMSTYLE
  2
*UNNAMED
  9
$DIMCLRD
 70
0
  9
$DIMCLRE
 70
0
  9
$DIMCLRT
 70
0
  9
$DIMTFAC
 40
1
  9
$DIMGAP
 40
0.09
  9
$LUNITS
 70
2
  9
$LUPREC
 70
4
  9
$AXISMODE
 70
0
  9
$AXISUNIT
 10
0
 20
0
  9
$SKETCHINC
 40
0.1
  9
$FILLETRAD
 40
2
  9
$AUNITS
 70
0
  9
$AUPREC
 70
0
  9
$MENU
  1
ACAD
  9
$ELEVATION
 40
0
  9
$THICKNESS
 40
0
  9
$VIEWDIR
 10
0
 20
0
 30
1
  9
$LIMCHECK
 70
0
  9
$BLIPMODE
 70
1
  9
$CHAMFERA
 40
0
  9
$CHAMFERB
 40
0
  9
$FASTZOOM
 70
1
  9
$SKPOLY
 70
0
  9
$ANGBASE
 50
0
  9
$ANGDIR
 70
0
  9
$PDMODE
 70
0
  9
$PDSIZE
 40
0
  9
$PLINEWID
 40
0
  9
$COORDS
 70
2
  0
ENDSEC
  0
SECTION
  2
TABLES
  0
TABLE
  2
DIMSTYLE
 70
7
  0
DIMSTYLE
  2
DMST_1
 70
0
  3

  4

  5

  6

  7

 40
1
 41
3.2
 42
1
 43
7
 44
1
 45
0
 46
0
 47
0
 48
0
140
3.2
141
0
142
0
143
25.4
144
1
145
0
146
1
147
0.09
 71
0
 72
0
 73
0
 74
0
 75
0
 76
0
 77
1
 78
9
170
0
171
2
172
0
173
0
174
0
175
0
176
2
177
2
178
2
  0
DIMSTYLE
  2
DMST_2
 70
0
  3

  4

  5

  6

  7

 40
1
 41
3.2
 42
1
 43
7
 44
1
 45
0
 46
0
 47
0
 48
0.02
140
3.2
141
0
142
0
143
25.4
144
1
145
0
146
0.6
147
0.09
 71
1
 72
0
 73
0
 74
0
 75
0
 76
0
 77
1
 78
9
170
0
171
2
172
0
173
0
174
0
175
0
176
2
177
2
178
2
  0
DIMSTYLE
  2
DMST_3
 70
0
  3

  4

  5

  6

  7

 40
1
 41
3.2
 42
1
 43
7
 44
1
 45
0
 46
0
 47
0
 48
0
140
3.2
141
0
142
0
143
25.4
144
1
145
0
146
1
147
0.09
 71
0
 72
0
 73
1
 74
1
 75
0
 76
0
 77
1
 78
9
170
0
171
2
172
0
173
0
174
0
175
0
176
2
177
2
178
2
  0
DIMSTYLE
  2
DMST_4
 70
0
  3

  4

  5

  6

  7

 40
1
 41
3.2
 42
1
 43
7
 44
1
 45
0
 46
0
 47
0.3
 48
0.3
140
3.2
141
0
142
0
143
25.4
144
1
145
0
146
0.6
147
0.09
 71
1
 72
0
 73
0
 74
0
 75
0
 76
0
 77
1
 78
9
170
0
171
2
172
0
173
0
174
0
175
0
176
2
177
2
178
2
  0
DIMSTYLE
  2
DMST_5
 70
0
  3
)
  4

  5

  6

  7

 40
1
 41
3.2
 42
1
 43
7
 44
1
 45
0
 46
0
 47
0
 48
0
140
3.2
141
0
142
0
143
25.4
144
1
145
0
146
1
147
0.09
 71
0
 72
0
 73
0
 74
0
 75
0
 76
0
 77
1
 78
9
170
0
171
2
172
0
173
0
174
0
175
0
176
2
177
2
178
2
  0
DIMSTYLE
  2
DMST_6
 70
0
  3

  4

  5

  6

  7

 40
1
 41
3.2
 42
1
 43
7
 44
1
 45
0
 46
0
 47
0
 48
0
140
3.2
141
0
142
0
143
25.4
144
1
145
0
146
0.6
147
0.09
 71
1
 72
0
 73
0
 74
0
 75
0
 76
0
 77
1
 78
9
170
0
171
2
172
0
173
0
174
0
175
0
176
2
177
2
178
2
  0
DIMSTYLE
  2
DMST_7
 70
0
  3

  4

  5

  6

  7

 40
1
 41
3.2
 42
1
 43
7
 44
1
 45
0
 46
0
 47
0.5
 48
0.5
140
3.2
141
0
142
0
143
25.4
144
1
145
0
146
0.6
147
0.09
 71
1
 72
0
 73
0
 74
0
 75
0
 76
0
 77
1
 78
9
170
0
171
2
172
0
173
0
174
0
175
0
176
2
177
2
178
2
  0
ENDTAB
  0
TABLE
  2
LTYPE
 70
9
  0
LTYPE
  2
CONTINUOUS
 70
64
  3
Solid line
 72
65
 73
0
 40
0
  0
LTYPE
  2
BORDER
 70
64
  3
__ __ . __ __ .
 72
65
 73
6
 40
17.91447368421053
 49
5.118421052631579
 49
-2.559210526315789
 49
5.118421052631579
 49
-2.559210526315789
 49
0
 49
-2.559210526315789
  0
LTYPE
  2
CENTER
 70
64
  3
____ _ ____ _
 72
65
 73
4
 40
20.47368421052632
 49
12.79605263157895
 49
-2.559210526315789
 49
2.559210526315789
 49
-2.559210526315789
  0
LTYPE
  2
DASHDOT
 70
64
  3
__ . __ . __ .
 72
65
 73
4
 40
10.23684210526316
 49
5.118421052631579
 49
-2.559210526315789
 49
0
 49
-2.559210526315789
  0
LTYPE
  2
DASHED
 70
64
  3
__ __ __ __ __
 72
65
 73
2
 40
7.677631578947368
 49
5.118421052631579
 49
-2.559210526315789
  0
LTYPE
  2
DIVIDE
 70
64
  3
__ . . __ . . 
 72
65
 73
6
 40
12.79605263157895
 49
5.118421052631579
 49
-2.559210526315789
 49
0
 49
-2.559210526315789
 49
0
 49
-2.559210526315789
  0
LTYPE
  2
DOT
 70
64
  3
..............
 72
65
 73
4
 40
5.118421052631579
 49
0
 49
-2.559210526315789
 49
0
 49
-2.559210526315789
  0
LTYPE
  2
HIDDEN
 70
64
  3
_ _ _ _ _ _ _
 72
65
 73
2
 40
3.838815789473684
 49
2.559210526315789
 49
-1.279605263157895
  0
LTYPE
  2
PHANTOM
 70
64
  3
_____ _ _ _____ _ _ 
 72
65
 73
6
 40
25.59210526315789
 49
12.79605263157895
 49
-2.559210526315789
 49
2.559210526315789
 49
-2.559210526315789
 49
2.559210526315789
 49
-2.559210526315789
  0
ENDTAB
  0
TABLE
  2
LAYER
 70
3
  0
LAYER
  2
1
 70
0
 62
7
  6
CONTINUOUS
  0
LAYER
  2
0
 70
0
 62
7
  6
CONTINUOUS
  0
ENDTAB
  0
TABLE
  2
STYLE
 70
4
  0
STYLE
  2
STANDARD
 70
0
 40
0
 41
1
 50
0
 71
0
 42
3.5
  3
txt
  4

  0
STYLE
  2
SIMPLEX
 70
0
 40
0
 41
1
 50
0
 71
0
 42
3.5
  3
simplex
  4

  0
STYLE
  2
COMPLEX
 70
0
 40
0
 41
1
 50
0
 71
0
 42
3.5
  3
complex
  4

  0
STYLE
  2
ITALIC
 70
0
 40
0
 41
1
 50
0
 71
0
 42
3.5
  3
italic
  4

  0
ENDTAB
  0
TABLE
  2
VIEW
 70
0
  0
ENDTAB
  0
ENDSEC
  0
SECTION
  2
BLOCKS
  0
BLOCK
  8
0
  2
___R___O_______R
 70
0
 10
0.5000000000000568
 20
-3.75
 30
0
  0
LINE
  8
1
 62
4
  6
PHANTOM
 10
-194.5
 20
-146
 30
0
 11
194.5
 21
-146
 31
0
  0
LINE
  8
1
 62
4
  6
PHANTOM
 10
194.5
 20
146
 30
0
 11
-194.5
 21
146
 31
0
  0
LINE
  8
1
 62
4
  6
PHANTOM
 10
194.5
 20
146
 30
0
 11
194.5
 21
129
 31
0
  0
LINE
  8
1
 62
4
  6
PHANTOM
 10
-194.5
 20
-146
 30
0
 11
-194.5
 21
146
 31
0
  0
LINE
  8
1
 62
4
  6
PHANTOM
 10
194.5
 20
-136.5
 30
0
 11
194.5
 21
-146
 31
0
  0
TEXT
  8
1
 62
4
 10
178.746911898274
 20
-142.6071298819256
 30
0
 40
5
  1
A3
 41
0.9
 72
1
 73
2
 11
183.246911898274
 21
-140.1071298819256
 31
0
  0
ENDBLK
  8
0
  0
BLOCK
  8
0
  2
TOP__1
 70
0
 10
-196.1221264909976
 20
-445.6883015227631
 30
0
  0
LINE
  8
1
 62
4
  6
PHANTOM
 10
-194.5
 20
-146
 30
0
 11
-184.5
 21
-146
 31
0
  0
LINE
  8
1
 62
4
  6
PHANTOM
 10
-194.5
 20
-146
 30
0
 11
-194.5
 21
-136
 31
0
  0
ENDBLK
  8
0
  0
BLOCK
  8
0
  2
DME34B36G-04
 70
0
 10
-1.393200981719019
 20
-303.0502600399581
 30
0
  0
INSERT
  8
0
  2
TOP__1
 10
-196.1221264909976
 20
-445.6883015227631
 30
0
  0
ENDBLK
  8
0
  0
BLOCK
  8
0
  2
DME34B36G
 70
0
 10
437.6912236417212
 20
475.007598067909
 30
0
  0
INSERT
  8
0
  2
DME34B36G-04
 10
-1.393200981719019
 20
-303.0502600399581
 30
0
  0
ENDBLK
  8
0
  0
BLOCK
  8
1
  2
*D0
 70
1
 10
0
 20
0
 30
0
  0
LINE
  8
1
 62
2
 10
3.900000000000228
 20
61.96892821976351
 30
0
 11
-2.499999999999771
 21
61.96892821976351
 31
0
  0
LINE
  8
1
 62
2
 10
-7.499999999999773
 20
61.96892821976351
 30
0
 11
-2.499999999999771
 21
61.96892821976351
 31
0
  0
LINE
  8
1
 62
2
 10
-7.499999999999773
 20
61.96892821976351
 30
0
 11
-15.92115344206049
 21
61.96892821976351
 31
0
  0
LINE
  8
1
 62
2
 10
-7.499999999999773
 20
29.63000000000002
 30
0
 11
-7.499999999999773
 21
62.96892821976351
 31
0
  0
LINE
  8
1
 62
2
 10
-2.499999999999771
 20
39.25
 30
0
 11
-2.499999999999771
 21
62.96892821976351
 31
0
  0
SOLID
  8
1
 62
2
 10
-7.499999999999773
 20
61.96892821976351
 30
0
 11
-10.69999999999977
 21
61.55292821976352
 31
0
 12
-10.69999999999977
 22
62.38492821976351
 32
0
 13
-10.69999999999977
 23
62.38492821976351
 33
0
  0
SOLID
  8
1
 62
2
 10
-2.499999999999771
 20
61.96892821976351
 30
0
 11
0.7000000000002298
 21
62.38492821976351
 31
0
 12
0.7000000000002298
 22
61.55292821976352
 32
0
 13
0.7000000000002298
 23
61.55292821976352
 33
0
  0
TEXT
  8
1
 62
2
 10
-15.92115344206049
 20
62.96892821976351
 30
0
 40
3.2
  1
5
 41
0.9
  0
ENDBLK
  8
0
  0
BLOCK
  8
1
  2
*D1
 70
1
 10
0
 20
0
 30
0
  0
LINE
  8
1
 62
2
 10
-59.89127610145
 20
4.599999999999998
 30
0
 11
-59.89127610145
 21
11
 31
0
  0
LINE
  8
1
 62
2
 10
-59.89127610145
 20
11
 30
0
 11
-59.89127610145
 21
19
 31
0
  0
LINE
  8
1
 62
2
 10
-59.89127610145
 20
19
 30
0
 11
-59.89127610145
 21
37.78538319924472
 31
0
  0
LINE
  8
1
 62
2
 10
-38.49999999999977
 20
11
 30
0
 11
-60.89127610145
 21
11
 31
0
  0
LINE
  8
1
 62
2
 10
-23.37395120021801
 20
19
 30
0
 11
-60.89127610145
 21
19
 31
0
  0
SOLID
  8
1
 62
2
 10
-59.89127610145
 20
11
 30
0
 11
-59.47527610145001
 21
7.799999999999999
 31
0
 12
-60.30727610145
 22
7.799999999999999
 32
0
 13
-60.30727610145
 23
7.799999999999999
 33
0
  0
SOLID
  8
1
 62
2
 10
-59.89127610145
 20
19
 30
0
 11
-60.30727610145001
 21
22.2
 31
0
 12
-59.47527610145001
 22
22.2
 32
0
 13
-59.47527610145001
 23
22.2
 33
0
  0
TEXT
  8
1
 62
2
 10
-61.71794276811667
 20
27.69869038878721
 30
0
 40
3.2
  1
8
 50
90
 41
0.9
  0
TEXT
  8
1
 62
2
 10
-63.79794276811667
 20
31.2186903887872
 30
0
 40
1.92
  1
 0
 50
90
 41
0.9
  0
TEXT
  8
1
 62
2
 10
-60.91794276811667
 20
31.2186903887872
 30
0
 40
1.92
  1
-0.02
 50
90
 41
0.9
  0
TEXT
  8
1
 62
2
 10
-61.71794276811667
 20
23.65163156525779
 30
0
 40
3.2
  1
φ
 50
90
 41
0.9
  0
TEXT
  8
1
 62
2
 10
-63.29127610145
 20
30.8191609770225
 30
0
 40
3.2
  1

 50
90
 41
0.9
  0
ENDBLK
  8
0
  0
BLOCK
  8
1
  2
*D2
 70
1
 10
0
 20
0
 30
0
  0
LINE
  8
1
 62
2
 10
-152
 20
50.05773237904651
 30
0
 11
-118
 21
50.05773237904651
 31
0
  0
LINE
  8
1
 62
2
 10
-152
 20
16
 30
0
 11
-152
 21
51.05773237904651
 31
0
  0
LINE
  8
1
 62
2
 10
-118
 20
16
 30
0
 11
-118
 21
51.05773237904651
 31
0
  0
SOLID
  8
1
 62
2
 10
-152
 20
50.05773237904651
 30
0
 11
-148.8
 21
50.4737323790465
 31
0
 12
-148.8
 22
49.64173237904651
 32
0
 13
-148.8
 23
49.64173237904651
 33
0
  0
SOLID
  8
1
 62
2
 10
-118
 20
50.05773237904651
 30
0
 11
-121.2
 21
49.64173237904651
 31
0
 12
-121.2
 22
50.4737323790465
 32
0
 13
-121.2
 23
50.4737323790465
 33
0
  0
TEXT
  8
1
 62
2
 10
-135.3764705882353
 20
51.48439904571318
 30
0
 40
3.2
  1
34
 41
0.9
  0
TEXT
  8
1
 62
2
 10
-139.4235294117647
 20
51.48439904571318
 30
0
 40
3.2
  1
φ
 41
0.9
  0
ENDBLK
  8
0
  0
BLOCK
  8
1
  2
*D3
 70
1
 10
0
 20
0
 30
0
  0
LINE
  8
1
 62
2
 10
-47.9331352147695
 20
4.599999999999998
 30
0
 11
-47.9331352147695
 21
11
 31
0
  0
LINE
  8
1
 62
2
 10
-47.9331352147695
 20
11
 30
0
 11
-47.9331352147695
 21
18
 31
0
  0
LINE
  8
1
 62
2
 10
-47.9331352147695
 20
18
 30
0
 11
-47.9331352147695
 21
34.0463004105215
 31
0
  0
LINE
  8
1
 62
2
 10
-38.49999999999977
 20
11
 30
0
 11
-48.9331352147695
 21
11
 31
0
  0
LINE
  8
1
 62
2
 10
-38.49999999999977
 20
18
 30
0
 11
-48.9331352147695
 21
18
 31
0
  0
SOLID
  8
1
 62
2
 10
-47.9331352147695
 20
11
 30
0
 11
-47.5171352147695
 21
7.799999999999999
 31
0
 12
-48.3491352147695
 22
7.799999999999999
 32
0
 13
-48.3491352147695
 23
7.799999999999999
 33
0
  0
SOLID
  8
1
 62
2
 10
-47.9331352147695
 20
18
 30
0
 11
-48.3491352147695
 21
21.2
 31
0
 12
-47.5171352147695
 22
21.2
 32
0
 13
-47.5171352147695
 23
21.2
 33
0
  0
TEXT
  8
1
 62
2
 10
-48.9331352147695
 20
25.6783004105215
 30
0
 40
3.2
  1
7
 50
90
 41
0.9
  0
TEXT
  8
1
 62
2
 10
-49.5731352147695
 20
29.1983004105215
 30
0
 40
1.92
  1
%%p0.3
 50
90
 41
0.9
  0
ENDBLK
  8
0
  0
BLOCK
  8
1
  2
*D4
 70
1
 10
0
 20
0
 30
0
  0
LINE
  8
1
 62
2
 10
-37.49999999999977
 20
74.10918551895651
 30
0
 11
-2.499999999999769
 21
74.10918551895651
 31
0
  0
LINE
  8
1
 62
2
 10
-37.49999999999977
 20
19
 30
0
 11
-37.49999999999977
 21
75.10918551895651
 31
0
  0
LINE
  8
1
 62
2
 10
-2.499999999999769
 20
39.60000000000002
 30
0
 11
-2.499999999999769
 21
75.10918551895651
 31
0
  0
SOLID
  8
1
 62
2
 10
-37.49999999999977
 20
74.10918551895651
 30
0
 11
-34.29999999999977
 21
74.52518551895651
 31
0
 12
-34.29999999999977
 22
73.69318551895651
 32
0
 13
-34.29999999999977
 23
73.69318551895651
 33
0
  0
SOLID
  8
1
 62
2
 10
-2.499999999999769
 20
74.10918551895651
 30
0
 11
-5.69999999999977
 21
73.69318551895651
 31
0
 12
-5.69999999999977
 22
74.52518551895651
 32
0
 13
-5.69999999999977
 23
74.52518551895651
 33
0
  0
TEXT
  8
1
 62
2
 10
-22.39999999999977
 20
75.10918551895651
 30
0
 40
3.2
  1
35
 41
0.9
  0
ENDBLK
  8
0
  0
BLOCK
  8
1
  2
*D5
 70
1
 10
0
 20
0
 30
0
  0
LINE
  8
1
 62
2
 10
98.55477505773865
 20
-16.99999999999997
 30
0
 11
98.55477505773865
 21
17
 31
0
  0
LINE
  8
1
 62
2
 10
77.0000000000002
 20
-16.99999999999997
 30
0
 11
99.55477505773865
 21
-16.99999999999997
 31
0
  0
LINE
  8
1
 62
2
 10
77.0000000000002
 20
17
 30
0
 11
99.55477505773865
 21
17
 31
0
  0
SOLID
  8
1
 62
2
 10
98.55477505773865
 20
17
 30
0
 11
98.97077505773865
 21
13.8
 31
0
 12
98.13877505773866
 22
13.8
 32
0
 13
98.13877505773866
 23
13.8
 33
0
  0
SOLID
  8
1
 62
2
 10
98.55477505773865
 20
-16.99999999999997
 30
0
 11
98.13877505773866
 21
-13.79999999999997
 31
0
 12
98.97077505773865
 22
-13.79999999999997
 32
0
 13
98.97077505773865
 23
-13.79999999999997
 33
0
  0
TEXT
  8
1
 62
2
 10
96.70144172440531
 20
-0.3764705882352946
 30
0
 40
3.2
  1
34
 50
90
 41
0.9
  0
TEXT
  8
1
 62
2
 10
96.70144172440531
 20
-4.423529411764706
 30
0
 40
3.2
  1
φ
 50
90
 41
0.9
  0
ENDBLK
  8
0
  0
BLOCK
  8
1
  2
*D6
 70
1
 10
0
 20
0
 30
0
  0
LINE
  8
1
 62
2
 10
-37.49999999999977
 20
61.96892821976351
 30
0
 11
-23.49999999999977
 21
61.96892821976351
 31
0
  0
LINE
  8
1
 62
2
 10
-37.49999999999977
 20
19
 30
0
 11
-37.49999999999977
 21
62.96892821976351
 31
0
  0
LINE
  8
1
 62
2
 10
-23.49999999999977
 20
19
 30
0
 11
-23.49999999999977
 21
62.96892821976351
 31
0
  0
SOLID
  8
1
 62
2
 10
-37.49999999999977
 20
61.96892821976351
 30
0
 11
-34.29999999999976
 21
62.3849282197635
 31
0
 12
-34.29999999999976
 22
61.55292821976351
 32
0
 13
-34.29999999999976
 23
61.55292821976351
 33
0
  0
SOLID
  8
1
 62
2
 10
-23.49999999999977
 20
61.96892821976351
 30
0
 11
-26.69999999999977
 21
61.55292821976351
 31
0
 12
-26.69999999999977
 22
62.3849282197635
 32
0
 13
-26.69999999999977
 23
62.3849282197635
 33
0
  0
TEXT
  8
1
 62
2
 10
-32.41999999999977
 20
62.96892821976351
 30
0
 40
3.2
  1
14
 41
0.9
  0
ENDBLK
  8
0
  0
BLOCK
  8
1
  2
*D7
 70
1
 10
0
 20
0
 30
0
  0
LINE
  8
1
 62
2
 10
-175.1450871764847
 20
74.10918551895651
 30
0
 11
-95.14508717648471
 21
74.10918551895651
 31
0
  0
LINE
  8
1
 62
2
 10
-175.1450871764847
 20
34.35000000000022
 30
0
 11
-175.1450871764847
 21
75.10918551895651
 31
0
  0
LINE
  8
1
 62
2
 10
-95.14508717648471
 20
34.25
 30
0
 11
-95.14508717648471
 21
75.10918551895651
 31
0
  0
SOLID
  8
1
 62
2
 10
-175.1450871764847
 20
74.10918551895651
 30
0
 11
-171.9450871764847
 21
74.52518551895651
 31
0
 12
-171.9450871764847
 22
73.69318551895651
 32
0
 13
-171.9450871764847
 23
73.69318551895651
 33
0
  0
SOLID
  8
1
 62
2
 10
-95.14508717648471
 20
74.10918551895651
 30
0
 11
-98.34508717648471
 21
73.69318551895651
 31
0
 12
-98.34508717648471
 22
74.52518551895651
 32
0
 13
-98.34508717648471
 23
74.52518551895651
 33
0
  0
TEXT
  8
1
 62
2
 10
-135.4744989411906
 20
75.10918551895651
 30
0
 40
3.2
  1
80
 41
0.9
  0
TEXT
  8
1
 62
2
 10
-139.6156754117788
 20
75.10918551895651
 30
0
 40
3.2
  1
□
 41
0.9
  0
ENDBLK
  8
0
  0
BLOCK
  8
1
  2
*D8
 70
1
 10
0
 20
0
 30
0
  0
LINE
  8
1
 62
2
 10
144.997454836734
 20
-27.0754950506623
 30
0
 11
138.597454836734
 21
-27.0754950506623
 31
0
  0
LINE
  8
1
 62
2
 10
135.597454836734
 20
-27.0754950506623
 30
0
 11
138.597454836734
 21
-27.0754950506623
 31
0
  0
LINE
  8
1
 62
2
 10
135.597454836734
 20
-27.0754950506623
 30
0
 11
123.015781630639
 21
-27.0754950506623
 31
0
  0
LINE
  8
1
 62
2
 10
135.597454836734
 20
-2.66
 30
0
 11
135.597454836734
 21
-28.0754950506623
 31
0
  0
LINE
  8
1
 62
2
 10
138.597454836734
 20
-2.099999999999991
 30
0
 11
138.597454836734
 21
-28.0754950506623
 31
0
  0
SOLID
  8
1
 62
2
 10
138.597454836734
 20
-27.0754950506623
 30
0
 11
141.797454836734
 21
-26.6594950506623
 31
0
 12
141.797454836734
 22
-27.4914950506623
 32
0
 13
141.797454836734
 23
-27.4914950506623
 33
0
  0
SOLID
  8
1
 62
2
 10
135.597454836734
 20
-27.0754950506623
 30
0
 11
132.397454836734
 21
-27.4914950506623
 31
0
 12
132.397454836734
 22
-26.6594950506623
 32
0
 13
132.397454836734
 23
-26.6594950506623
 33
0
  0
TEXT
  8
1
 62
2
 10
125.095781630639
 20
-26.0754950506623
 30
0
 40
3.2
  1
3
 41
0.9
  0
TEXT
  8
1
 62
2
 10
123.015781630639
 20
-26.0754950506623
 30
0
 40
3.2
  1
(
 41
0.9
  0
TEXT
  8
1
 62
2
 10
128.615781630639
 20
-26.0754950506623
 30
0
 40
3.2
  1
)
 41
0.9
  0
ENDBLK
  8
0
  0
BLOCK
  8
1
  2
*D9
 70
1
 10
0
 20
0
 30
0
  0
LINE
  8
1
 62
2
 10
-2.499999999999771
 20
61.96892821976351
 30
0
 11
29.50000000000023
 21
61.96892821976351
 31
0
  0
LINE
  8
1
 62
2
 10
-2.499999999999771
 20
39.60000000000002
 30
0
 11
-2.499999999999771
 21
62.96892821976351
 31
0
  0
LINE
  8
1
 62
2
 10
29.50000000000023
 20
41
 30
0
 11
29.50000000000023
 21
62.96892821976351
 31
0
  0
SOLID
  8
1
 62
2
 10
-2.499999999999771
 20
61.96892821976351
 30
0
 11
0.7000000000002298
 21
62.3849282197635
 31
0
 12
0.7000000000002298
 22
61.55292821976351
 32
0
 13
0.7000000000002298
 23
61.55292821976351
 33
0
  0
SOLID
  8
1
 62
2
 10
29.50000000000023
 20
61.96892821976351
 30
0
 11
26.30000000000023
 21
61.55292821976351
 31
0
 12
26.30000000000023
 22
62.3849282197635
 32
0
 13
26.30000000000023
 23
62.3849282197635
 33
0
  0
TEXT
  8
1
 62
2
 10
11.10000000000023
 20
62.96892821976351
 30
0
 40
3.2
  1
L2
 41
0.9
  0
ENDBLK
  8
0
  0
BLOCK
  8
1
  2
*D10
 70
1
 10
0
 20
0
 30
0
  0
LINE
  8
1
 62
2
 10
69.60000000000019
 20
61.96892821976351
 30
0
 11
76.0000000000002
 21
61.96892821976351
 31
0
  0
LINE
  8
1
 62
2
 10
76.0000000000002
 20
61.96892821976351
 30
0
 11
77.60000000000011
 21
61.96892821976351
 31
0
  0
LINE
  8
1
 62
2
 10
77.60000000000011
 20
61.96892821976351
 30
0
 11
92.26001880291
 21
61.96892821976351
 31
0
  0
LINE
  8
1
 62
2
 10
76.0000000000002
 20
18
 30
0
 11
76.0000000000002
 21
62.96892821976351
 31
0
  0
LINE
  8
1
 62
2
 10
77.60000000000011
 20
4.245566037735927
 30
0
 11
77.60000000000011
 21
62.96892821976351
 31
0
  0
SOLID
  8
1
 62
2
 10
76.0000000000002
 20
61.96892821976351
 30
0
 11
72.8000000000002
 21
61.55292821976351
 31
0
 12
72.8000000000002
 22
62.3849282197635
 32
0
 13
72.8000000000002
 23
62.3849282197635
 33
0
  0
SOLID
  8
1
 62
2
 10
77.60000000000011
 20
61.96892821976351
 30
0
 11
80.80000000000011
 21
62.3849282197635
 31
0
 12
80.80000000000011
 22
61.55292821976351
 32
0
 13
80.80000000000011
 23
61.55292821976351
 33
0
  0
TEXT
  8
1
 62
2
 10
85.30001880291
 20
62.96892821976351
 30
0
 40
3.2
  1
1.6
 41
0.9
  0
TEXT
  8
1
 62
2
 10
83.22001880291001
 20
62.96892821976351
 30
0
 40
3.2
  1
(
 41
0.9
  0
TEXT
  8
1
 62
2
 10
91.78001880291001
 20
62.96892821976351
 30
0
 40
3.2
  1
)
 41
0.9
  0
ENDBLK
  8
0
  0
BLOCK
  8
1
  2
*D11
 70
1
 10
0
 20
0
 30
0
  0
LINE
  8
1
 62
2
 10
76.0000000000002
 20
-38.93092913396048
 30
0
 11
138.597454836734
 21
-38.93092913396048
 31
0
  0
LINE
  8
1
 62
2
 10
76.0000000000002
 20
-17.99999999999997
 30
0
 11
76.0000000000002
 21
-39.93092913396048
 31
0
  0
LINE
  8
1
 62
2
 10
138.597454836734
 20
-2.099999999999994
 30
0
 11
138.597454836734
 21
-39.93092913396048
 31
0
  0
SOLID
  8
1
 62
2
 10
76.0000000000002
 20
-38.93092913396048
 30
0
 11
79.2000000000002
 21
-38.51492913396048
 31
0
 12
79.2000000000002
 22
-39.34692913396047
 32
0
 13
79.2000000000002
 23
-39.34692913396047
 33
0
  0
SOLID
  8
1
 62
2
 10
138.597454836734
 20
-38.93092913396048
 30
0
 11
135.397454836734
 21
-39.34692913396047
 31
0
 12
135.397454836734
 22
-38.51492913396048
 32
0
 13
135.397454836734
 23
-38.51492913396048
 33
0
  0
TEXT
  8
1
 62
2
 10
100.4507274183671
 20
-37.13092913396048
 30
0
 40
3.2
  1
300
 41
0.9
  0
TEXT
  8
1
 62
2
 10
109.7307274183671
 20
-35.05092913396048
 30
0
 40
1.92
  1
+30
 41
0.9
  0
TEXT
  8
1
 62
2
 10
109.7307274183671
 20
-37.93092913396048
 30
0
 40
1.92
  1
 0
 41
0.9
  0
ENDBLK
  8
0
  0
BLOCK
  8
1
  2
*D12
 70
1
 10
0
 20
0
 30
0
  0
LINE
  8
1
 62
2
 10
-168.25
 20
62.14153071044151
 30
0
 11
-101.7500871764847
 21
62.14153071044151
 31
0
  0
LINE
  8
1
 62
2
 10
-168.25
 20
41.10000000000002
 30
0
 11
-168.25
 21
63.14153071044151
 31
0
  0
LINE
  8
1
 62
2
 10
-101.7500871764847
 20
41.10000000000002
 30
0
 11
-101.7500871764847
 21
63.14153071044151
 31
0
  0
SOLID
  8
1
 62
2
 10
-168.25
 20
62.14153071044151
 30
0
 11
-165.05
 21
62.55753071044151
 31
0
 12
-165.05
 22
61.72553071044151
 32
0
 13
-165.05
 23
61.72553071044151
 33
0
  0
SOLID
  8
1
 62
2
 10
-101.7500871764847
 20
62.14153071044151
 30
0
 11
-104.9500871764847
 21
61.72553071044151
 31
0
 12
-104.9500871764847
 22
62.55753071044151
 32
0
 13
-104.9500871764847
 23
62.55753071044151
 33
0
  0
TEXT
  8
1
 62
2
 10
-142.5840435882424
 20
63.14153071044151
 30
0
 40
3.2
  1
66.5
 41
0.9
  0
TEXT
  8
1
 62
2
 10
-132.2640435882424
 20
63.78153071044151
 30
0
 40
1.92
  1
%%p0.3
 41
0.9
  0
ENDBLK
  8
0
  0
BLOCK
  8
1
  2
*D13
 70
1
 10
0
 20
0
 30
0
  0
LINE
  8
1
 62
2
 10
-85.0752728711181
 20
0
 30
0
 11
-85.0752728711181
 21
-14.67245957710446
 31
0
  0
LINE
  8
1
 62
2
 10
-85.0752728711181
 20
0
 30
0
 11
-85.0752728711181
 21
15
 31
0
  0
LINE
  8
1
 62
2
 10
-117
 20
15
 30
0
 11
-84.0752728711181
 21
15
 31
0
  0
LINE
  8
1
 62
2
 10
-94.14508717648471
 20
0
 30
0
 11
-84.0752728711181
 21
0
 31
0
  0
SOLID
  8
1
 62
2
 10
-85.0752728711181
 20
15
 30
0
 11
-84.65927287111811
 21
11.8
 31
0
 12
-85.4912728711181
 22
11.8
 32
0
 13
-85.4912728711181
 23
11.8
 33
0
  0
SOLID
  8
1
 62
2
 10
-85.0752728711181
 20
0
 30
0
 11
-85.4912728711181
 21
3.200000000000001
 31
0
 12
-84.65927287111811
 22
3.200000000000001
 32
0
 13
-84.65927287111811
 23
3.200000000000001
 33
0
  0
TEXT
  8
1
 62
2
 10
-86.0752728711181
 20
-14.67245957710446
 30
0
 40
3.2
  1
15
 50
90
 41
0.9
  0
TEXT
  8
1
 62
2
 10
-86.7152728711181
 20
-9.232459577104461
 30
0
 40
1.92
  1
%%p0.5
 50
90
 41
0.9
  0
ENDBLK
  8
0
  0
BLOCK
  8
1
  2
*D14
 70
1
 10
0
 20
0
 30
0
  0
LINE
  8
1
 62
2
 10
-73.2103392172119
 20
-33.24999999999997
 30
0
 11
-73.2103392172119
 21
33.25
 31
0
  0
LINE
  8
1
 62
2
 10
-94.1458279578741
 20
-33.24999999999997
 30
0
 11
-72.2103392172119
 21
-33.24999999999997
 31
0
  0
LINE
  8
1
 62
2
 10
-94.14508717648471
 20
33.25
 30
0
 11
-72.2103392172119
 21
33.25
 31
0
  0
SOLID
  8
1
 62
2
 10
-73.2103392172119
 20
-33.24999999999997
 30
0
 11
-73.62633921721189
 21
-30.04999999999997
 31
0
 12
-72.7943392172119
 22
-30.04999999999997
 32
0
 13
-72.7943392172119
 23
-30.04999999999997
 33
0
  0
SOLID
  8
1
 62
2
 10
-73.2103392172119
 20
33.25
 30
0
 11
-72.7943392172119
 21
30.05
 31
0
 12
-73.62633921721189
 22
30.05
 32
0
 13
-73.62633921721189
 23
30.05
 33
0
  0
TEXT
  8
1
 62
2
 10
-74.2103392172119
 20
-7.583999999999971
 30
0
 40
3.2
  1
66.5
 50
90
 41
0.9
  0
TEXT
  8
1
 62
2
 10
-74.8503392172119
 20
2.73600000000003
 30
0
 40
1.92
  1
%%p0.3
 50
90
 41
0.9
  0
ENDBLK
  8
0
  0
BLOCK
  8
1
  2
*D15
 70
1
 10
0
 20
0
 30
0
  0
LINE
  8
1
 62
2
 10
-2.499999999999773
 20
74.0707437332548
 30
0
 11
76.0000000000002
 21
74.0707437332548
 31
0
  0
LINE
  8
1
 62
2
 10
-2.499999999999773
 20
39.24999999999999
 30
0
 11
-2.499999999999773
 21
75.0707437332548
 31
0
  0
LINE
  8
1
 62
2
 10
76.0000000000002
 20
17.99999999999999
 30
0
 11
76.0000000000002
 21
75.0707437332548
 31
0
  0
SOLID
  8
1
 62
2
 10
-2.499999999999773
 20
74.0707437332548
 30
0
 11
0.700000000000228
 21
74.4867437332548
 31
0
 12
0.700000000000228
 22
73.6547437332548
 32
0
 13
0.700000000000228
 23
73.6547437332548
 33
0
  0
SOLID
  8
1
 62
2
 10
76.0000000000002
 20
74.0707437332548
 30
0
 11
72.8000000000002
 21
73.6547437332548
 31
0
 12
72.8000000000002
 22
74.4867437332548
 32
0
 13
72.8000000000002
 23
74.4867437332548
 33
0
  0
TEXT
  8
1
 62
2
 10
34.83000000000023
 20
75.0707437332548
 30
0
 40
3.2
  1
L1
 41
0.9
  0
ENDBLK
  8
0
  0
ENDSEC
  0
SECTION
  2
ENTITIES
  0
LINE
  8
1
 62
7
 10
-1.999999999999769
 20
-32.04999999999998
 30
0
 11
-1.999999999999769
 21
32.05000000000001
 31
0
  0
LINE
  8
1
 62
7
 10
-168.25
 20
40.10000000000002
 30
0
 11
-101.7500871764847
 21
40.10000000000002
 31
0
  0
LINE
  8
1
 62
7
 10
85.77394669805331
 20
1.660000000000025
 30
0
 11
91.84776343188329
 21
1.660000000000025
 31
0
  0
LINE
  8
1
 62
7
 10
4.250000000000231
 20
41.1289247315195
 30
0
 11
21.25000000000023
 21
41.1289247315195
 31
0
  0
LINE
  8
1
 62
7
 10
30.83360848093696
 20
-37.7044140511986
 30
0
 11
29.60871557427492
 21
-37.74999999999997
 31
0
  0
LINE
  8
1
 62
7
 10
30.83360848093696
 20
-28.77368243524998
 30
0
 11
29.60871557427492
 21
-28.72809648644861
 31
0
  0
LINE
  8
1
 62
7
 10
30.83360848093696
 20
28.7955859488014
 30
0
 11
29.60871557427492
 21
28.75
 31
0
  0
LINE
  8
1
 62
7
 10
30.83360848093696
 20
37.72631756475002
 30
0
 11
29.60871557427492
 21
37.77190351355142
 31
0
  0
LINE
  8
1
 62
7
 10
-164.25
 20
30.94059892324151
 30
0
 11
-164.25
 21
35.55940107675852
 31
0
  0
LINE
  8
1
 62
7
 10
-172.25
 20
35.55940107675852
 30
0
 11
-172.25
 21
30.94059892324151
 31
0
  0
LINE
  8
1
 62
7
 10
-168.25
 20
37.86880215351701
 30
0
 11
-172.25
 21
35.55940107675852
 31
0
  0
LINE
  8
1
 62
7
 10
-164.25
 20
35.55940107675852
 30
0
 11
-168.25
 21
37.86880215351701
 31
0
  0
LINE
  8
1
 62
7
 10
-168.25
 20
28.63119784648302
 30
0
 11
-164.25
 21
30.94059892324151
 31
0
  0
LINE
  8
1
 62
7
 10
-172.25
 20
30.94059892324151
 30
0
 11
-168.25
 21
28.63119784648302
 31
0
  0
LINE
  8
1
 62
3
 10
-177.1450871764847
 20
-33.24999999999997
 30
0
 11
-159.6458279578741
 21
-33.24999999999994
 31
0
  0
LINE
  8
1
 62
7
 10
-164.25
 20
-35.55940107675846
 30
0
 11
-164.25
 21
-30.94059892324148
 31
0
  0
LINE
  8
1
 62
7
 10
-172.25
 20
-30.94059892324148
 30
0
 11
-172.25
 21
-35.55940107675846
 31
0
  0
LINE
  8
1
 62
7
 10
-168.25
 20
-28.63119784648299
 30
0
 11
-172.25
 21
-30.94059892324148
 31
0
  0
LINE
  8
1
 62
3
 10
-168.25
 20
-28.63119784648299
 30
0
 11
-168.25
 21
-37.86880215351701
 31
0
  0
LINE
  8
1
 62
7
 10
-164.25
 20
-30.94059892324148
 30
0
 11
-168.25
 21
-28.63119784648299
 31
0
  0
LINE
  8
1
 62
7
 10
-168.25
 20
-37.86880215351701
 30
0
 11
-164.25
 21
-35.55940107675846
 31
0
  0
LINE
  8
1
 62
3
 10
-168.25
 20
-37.86880215351701
 30
0
 11
-168.25
 21
-42.09999999999999
 31
0
  0
LINE
  8
1
 62
7
 10
-172.25
 20
-35.55940107675846
 30
0
 11
-168.25
 21
-37.86880215351701
 31
0
  0
LINE
  8
1
 62
7
 10
-105.7500871764847
 20
-30.94059892324148
 30
0
 11
-105.7500871764847
 21
-35.55940107675846
 31
0
  0
LINE
  8
1
 62
7
 10
-101.7500871764847
 20
-28.63119784648299
 30
0
 11
-105.7500871764847
 21
-30.94059892324148
 31
0
  0
LINE
  8
1
 62
7
 10
-97.75008717648473
 20
-30.94059892324148
 30
0
 11
-101.7500871764847
 21
-28.63119784648299
 31
0
  0
LINE
  8
1
 62
7
 10
-97.75008717648473
 20
-35.55940107675846
 30
0
 11
-97.75008717648473
 21
-30.94059892324148
 31
0
  0
LINE
  8
1
 62
7
 10
-101.7500871764847
 20
-37.86880215351701
 30
0
 11
-97.75008717648473
 21
-35.55940107675846
 31
0
  0
LINE
  8
1
 62
7
 10
-105.7500871764847
 20
-35.55940107675846
 30
0
 11
-101.7500871764847
 21
-37.86880215351701
 31
0
  0
LINE
  8
1
 62
7
 10
-105.7500871764847
 20
35.55940107675852
 30
0
 11
-105.7500871764847
 21
30.94059892324151
 31
0
  0
LINE
  8
1
 62
7
 10
-101.7500871764847
 20
37.86880215351701
 30
0
 11
-105.7500871764847
 21
35.55940107675852
 31
0
  0
LINE
  8
1
 62
7
 10
-97.75008717648473
 20
35.55940107675852
 30
0
 11
-101.7500871764847
 21
37.86880215351701
 31
0
  0
LINE
  8
1
 62
7
 10
-97.75008717648473
 20
30.94059892324151
 30
0
 11
-97.75008717648473
 21
35.55940107675852
 31
0
  0
LINE
  8
1
 62
7
 10
-101.7500871764847
 20
28.63119784648302
 30
0
 11
-97.75008717648473
 21
30.94059892324151
 31
0
  0
LINE
  8
1
 62
7
 10
-105.7500871764847
 20
30.94059892324151
 30
0
 11
-101.7500871764847
 21
28.63119784648302
 31
0
  0
LINE
  8
1
 62
2
 10
-20.5
 20
-31.24999999999997
 30
0
 11
-8.19999999999982
 21
-31.24999999999997
 31
0
  0
LINE
  8
1
 62
7
 10
-20
 20
-30.74999999999997
 30
0
 11
-20.5
 21
-31.24999999999997
 31
0
  0
LINE
  8
1
 62
7
 10
-20
 20
-30.74999999999997
 30
0
 11
-20
 21
-35.74999999999997
 31
0
  0
LINE
  8
1
 62
7
 10
-20
 20
-30.74999999999997
 30
0
 11
-8.19999999999982
 21
-30.74999999999997
 31
0
  0
LINE
  8
1
 62
7
 10
-20
 20
-35.74999999999997
 30
0
 11
-20.5
 21
-35.24999999999997
 31
0
  0
LINE
  8
1
 62
7
 10
-20.5
 20
-31.24999999999997
 30
0
 11
-20.5
 21
-35.24999999999997
 31
0
  0
LINE
  8
1
 62
2
 10
-20.5
 20
-35.24999999999997
 30
0
 11
-8.19999999999982
 21
-35.24999999999997
 31
0
  0
LINE
  8
1
 62
7
 10
-20
 20
-35.74999999999997
 30
0
 11
-8.19999999999982
 21
-35.74999999999997
 31
0
  0
LINE
  8
1
 62
2
 10
-20.5
 20
35.25
 30
0
 11
-8.19999999999982
 21
35.25
 31
0
  0
LINE
  8
1
 62
7
 10
-20
 20
35.75
 30
0
 11
-20.5
 21
35.25
 31
0
  0
LINE
  8
1
 62
7
 10
-20
 20
35.75
 30
0
 11
-20
 21
30.75
 31
0
  0
LINE
  8
1
 62
7
 10
-20
 20
35.75
 30
0
 11
-8.19999999999982
 21
35.75
 31
0
  0
LINE
  8
1
 62
7
 10
-20
 20
30.75
 30
0
 11
-20.5
 21
31.25
 31
0
  0
LINE
  8
1
 62
7
 10
-20.5
 20
35.25
 30
0
 11
-20.5
 21
31.25
 31
0
  0
LINE
  8
1
 62
2
 10
-20.5
 20
31.25
 30
0
 11
-8.19999999999982
 21
31.25
 31
0
  0
LINE
  8
1
 62
7
 10
-20
 20
30.75
 30
0
 11
-8.19999999999982
 21
30.75
 31
0
  0
LINE
  8
1
 62
7
 10
-3.803423590480971
 20
30.94000000000003
 30
0
 11
-7.89657640951884
 21
30.94000000000003
 31
0
  0
LINE
  8
1
 62
7
 10
-3.803423590480971
 20
35.56
 30
0
 11
-7.89657640951884
 21
35.56
 31
0
  0
LINE
  8
1
 62
7
 10
-3.803423590480971
 20
37.87
 30
0
 11
-7.89657640951884
 21
37.87
 31
0
  0
LINE
  8
1
 62
7
 10
-3.803423590480971
 20
28.63000000000002
 30
0
 11
-7.89657640951884
 21
28.63000000000002
 31
0
  0
LINE
  8
1
 62
7
 10
-8.19999999999982
 20
36.715
 30
0
 11
-8.19999999999982
 21
29.78500000000003
 31
0
  0
LINE
  8
1
 62
7
 10
-3.499999999999769
 20
28.25
 30
0
 11
-2.499999999999769
 21
28.25
 31
0
  0
LINE
  8
1
 62
7
 10
-3.499999999999769
 20
38.25
 30
0
 11
-3.499999999999769
 21
28.25
 31
0
  0
LINE
  8
1
 62
7
 10
-2.499999999999769
 20
38.25
 30
0
 11
-3.499999999999769
 21
38.25
 31
0
  0
LINE
  8
1
 62
7
 10
-2.499999999999769
 20
38.60000000000002
 30
0
 11
-2.499999999999769
 21
27
 31
0
  0
LINE
  8
1
 62
7
 10
-3.803423590480971
 20
-35.55999999999997
 30
0
 11
-7.89657640951884
 21
-35.55999999999997
 31
0
  0
LINE
  8
1
 62
7
 10
-3.803423590480971
 20
-30.93999999999997
 30
0
 11
-7.89657640951884
 21
-30.93999999999997
 31
0
  0
LINE
  8
1
 62
7
 10
-3.803423590480971
 20
-28.62999999999997
 30
0
 11
-7.89657640951884
 21
-28.62999999999997
 31
0
  0
LINE
  8
1
 62
7
 10
-3.803423590480971
 20
-37.86999999999998
 30
0
 11
-7.89657640951884
 21
-37.86999999999998
 31
0
  0
LINE
  8
1
 62
7
 10
-8.19999999999982
 20
-29.785
 30
0
 11
-8.19999999999982
 21
-36.715
 31
0
  0
LINE
  8
1
 62
7
 10
-3.499999999999769
 20
-38.24999999999997
 30
0
 11
-2.499999999999769
 21
-38.24999999999997
 31
0
  0
LINE
  8
1
 62
7
 10
-3.499999999999769
 20
-28.24999999999997
 30
0
 11
-3.499999999999769
 21
-38.24999999999997
 31
0
  0
LINE
  8
1
 62
7
 10
-2.499999999999769
 20
-28.24999999999997
 30
0
 11
-3.499999999999769
 21
-28.24999999999997
 31
0
  0
LINE
  8
1
 62
7
 10
-2.499999999999769
 20
-26.99999999999997
 30
0
 11
-2.499999999999769
 21
-39.09999999999999
 31
0
  0
LINE
  8
1
 62
7
 10
76.0000000000002
 20
-16.99999999999997
 30
0
 11
76.00000000000021
 21
17
 31
0
  0
LINE
  8
1
 62
7
 10
-37.49999999999977
 20
18
 30
0
 11
-23.49999999999977
 21
18
 31
0
  0
LINE
  8
1
 62
7
 10
-7.499999999999771
 20
-2
 30
0
 11
-7.499999999999771
 21
28.63000000000002
 31
0
  0
LINE
  8
1
 62
3
 10
-40.49999999999977
 20
15
 30
0
 11
1.000000000000226
 21
15
 31
0
  0
LINE
  8
1
 62
7
 10
27.50000000000023
 20
-40.09999999999999
 30
0
 11
-1.499999999999769
 21
-40.09999999999999
 31
0
  0
LINE
  8
1
 62
7
 10
27.50000000000023
 20
40.10000000000002
 30
0
 11
-0.9999999999997691
 21
40.10000000000002
 31
0
  0
LINE
  8
1
 62
7
 10
-37.49999999999977
 20
11
 30
0
 11
-7.499999999999771
 21
11
 31
0
  0
LINE
  8
1
 62
3
 10
-159.6458279578741
 20
33.25
 30
0
 11
-177.1450871764847
 21
33.24999999999991
 31
0
  0
LINE
  8
1
 62
3
 10
-168.25
 20
42.04320415803852
 30
0
 11
-168.25
 21
40.10000000000002
 31
0
  0
LINE
  8
1
 62
3
 10
-110.6443463950953
 20
33.25
 30
0
 11
-95.14508717648471
 21
33.25
 31
0
  0
LINE
  8
1
 62
3
 10
-110.6443463950953
 20
-33.24999999999997
 30
0
 11
-95.14582795787412
 21
-33.24999999999997
 31
0
  0
LINE
  8
1
 62
7
 10
-101.6450871764847
 20
-40.09999999999999
 30
0
 11
-168.3950871764847
 21
-40.09999999999999
 31
0
  0
LINE
  8
1
 62
3
 10
-135
 20
44.10000000000002
 30
0
 11
-135
 21
-44.10000000000011
 31
0
  0
LINE
  8
1
 62
3
 10
-168.25
 20
-24.60155758711685
 30
0
 11
-168.25
 21
-28.73119784648301
 31
0
  0
LINE
  8
1
 62
3
 10
-101.7500871764847
 20
42.10000000000002
 30
0
 11
-101.7500871764847
 21
40.10000000000002
 31
0
  0
LINE
  8
1
 62
3
 10
-101.7500871764847
 20
-24.60155758711685
 30
0
 11
-101.7500871764847
 21
-42.09999999999999
 31
0
  0
LINE
  8
1
 62
3
 10
-93.25014733812441
 20
33.25
 30
0
 11
-95.14508717648471
 21
33.25
 31
0
  0
LINE
  8
1
 62
7
 10
-95.14508717648471
 20
33.25
 30
0
 11
-95.14508717648471
 21
-33.34999999999999
 31
0
  0
LINE
  8
1
 62
7
 10
-175.1450871764847
 20
-33.34999999999999
 30
0
 11
-175.1450871764847
 21
33.35000000000022
 31
0
  0
LINE
  8
1
 62
3
 10
-140
 20
-31.99999999999997
 30
0
 11
-130
 21
-31.99999999999997
 31
0
  0
LINE
  8
1
 62
3
 10
-167.5
 20
16
 30
0
 11
-157.49111044015
 21
16
 31
0
  0
LINE
  8
1
 62
3
 10
-162.5
 20
21
 30
0
 11
-162.5
 21
11
 31
0
  0
LINE
  8
1
 62
3
 10
-112.5
 20
16
 30
0
 11
-102.5
 21
16
 31
0
  0
LINE
  8
1
 62
3
 10
-107.5
 20
21
 30
0
 11
-107.5
 21
11
 31
0
  0
LINE
  8
1
 62
3
 10
-91.14508717648471
 20
0
 30
0
 11
-95.14508717648471
 21
0
 31
0
  0
LINE
  8
1
 62
7
 10
-37.49999999999977
 20
11
 30
0
 11
-37.49999999999977
 21
18
 31
0
  0
LINE
  8
1
 62
7
 10
-7.499999999999771
 20
-2
 30
0
 11
-1.999999999999769
 21
-2
 31
0
  0
LINE
  8
1
 62
7
 10
62.00000000000021
 20
-13.09999999999999
 30
0
 11
62.00000000000021
 21
13.10000000000002
 31
0
  0
LINE
  8
1
 62
7
 10
45.00000000000023
 20
13.10000000000002
 30
0
 11
45.00000000000023
 21
-13.09999999999999
 31
0
  0
LINE
  8
1
 62
7
 10
62.00000000000021
 20
13.10000000000002
 30
0
 11
45.00000000000023
 21
13.10000000000002
 31
0
  0
LINE
  8
1
 62
7
 10
45.00000000000023
 20
-13.09999999999999
 30
0
 11
62.00000000000021
 21
-13.09999999999999
 31
0
  0
LINE
  8
1
 62
7
 10
32.50000000000023
 20
-16.99999999999997
 30
0
 11
76.0000000000002
 21
-16.99999999999997
 31
0
  0
LINE
  8
1
 62
7
 10
32.50000000000023
 20
17
 30
0
 11
76.00000000000021
 21
17
 31
0
  0
LINE
  8
1
 62
3
 10
-10.49999999999977
 20
0
 30
0
 11
80.04122372321201
 21
0
 31
0
  0
LINE
  8
1
 62
3
 10
-23.5
 20
33.25
 30
0
 11
36.14127457559698
 21
33.25
 31
0
  0
LINE
  8
1
 62
3
 10
-23.5
 20
-33.24999999999997
 30
0
 11
36.14127457559698
 21
-33.24999999999997
 31
0
  0
LINE
  8
1
 62
7
 10
-7.499999999999771
 20
19
 30
0
 11
-22.37395120021801
 21
19
 31
0
  0
LINE
  8
1
 62
7
 10
-22.48579730334984
 20
19
 30
0
 11
-22.37395120021801
 21
19
 31
0
  0
LINE
  8
1
 62
7
 10
-133.9941176470588
 20
-31.69999999999996
 30
0
 11
-133.6
 21
-31.69999999999996
 31
0
  0
LINE
  8
1
 62
7
 10
-133.9941176470588
 20
-32.29999999999998
 30
0
 11
-133.6
 21
-32.29999999999998
 31
0
  0
LINE
  8
1
 62
7
 10
-134.7
 20
-32.99999999999997
 30
0
 11
-134.7
 21
-33.40000000000001
 31
0
  0
LINE
  8
1
 62
7
 10
-135.2
 20
-30.49999999999997
 30
0
 11
-134.8
 21
-30.49999999999997
 31
0
  0
LINE
  8
1
 62
7
 10
-135.2
 20
-33.49999999999997
 30
0
 11
-134.8
 21
-33.49999999999997
 31
0
  0
LINE
  8
1
 62
7
 10
-133.5
 20
-31.79999999999998
 30
0
 11
-133.5
 21
-32.19999999999996
 31
0
  0
LINE
  8
1
 62
7
 10
-136.5
 20
-31.79999999999998
 30
0
 11
-136.5
 21
-32.19999999999996
 31
0
  0
LINE
  8
1
 62
7
 10
-136.4
 20
-31.69999999999996
 30
0
 11
-136
 21
-31.69999999999996
 31
0
  0
LINE
  8
1
 62
7
 10
-136.4
 20
-32.29999999999998
 30
0
 11
-136
 21
-32.29999999999998
 31
0
  0
LINE
  8
1
 62
7
 10
-135.3
 20
-33.40000000000001
 30
0
 11
-135.3
 21
-32.99999999999997
 31
0
  0
LINE
  8
1
 62
7
 10
-135.3
 20
-30.59999999999999
 30
0
 11
-135.3
 21
-30.99999999999997
 31
0
  0
LINE
  8
1
 62
7
 10
-134.7
 20
-30.59999999999999
 30
0
 11
-134.7
 21
-30.99999999999997
 31
0
  0
LINE
  8
1
 62
7
 10
-161.4941176470588
 20
16.30000000000001
 30
0
 11
-161.1
 21
16.30000000000001
 31
0
  0
LINE
  8
1
 62
7
 10
-161.4941176470588
 20
15.6999999999999
 30
0
 11
-161.1
 21
15.6999999999999
 31
0
  0
LINE
  8
1
 62
7
 10
-162.2
 20
15
 30
0
 11
-162.2
 21
14.60000000000002
 31
0
  0
LINE
  8
1
 62
7
 10
-162.7
 20
17.5
 30
0
 11
-162.3
 21
17.5
 31
0
  0
LINE
  8
1
 62
7
 10
-162.7
 20
14.5
 30
0
 11
-162.3
 21
14.5
 31
0
  0
LINE
  8
1
 62
7
 10
-161
 20
16.1999999999999
 30
0
 11
-161
 21
15.80000000000001
 31
0
  0
LINE
  8
1
 62
7
 10
-164
 20
16.1999999999999
 30
0
 11
-164
 21
15.80000000000001
 31
0
  0
LINE
  8
1
 62
7
 10
-163.9
 20
16.30000000000001
 30
0
 11
-163.5
 21
16.30000000000001
 31
0
  0
LINE
  8
1
 62
7
 10
-163.9
 20
15.6999999999999
 30
0
 11
-163.5
 21
15.6999999999999
 31
0
  0
LINE
  8
1
 62
7
 10
-162.8
 20
14.60000000000002
 30
0
 11
-162.8
 21
15
 31
0
  0
LINE
  8
1
 62
7
 10
-162.8
 20
17.40000000000001
 30
0
 11
-162.8
 21
17
 31
0
  0
LINE
  8
1
 62
7
 10
-162.2
 20
17.40000000000001
 30
0
 11
-162.2
 21
17
 31
0
  0
LINE
  8
1
 62
7
 10
-106.4941176470588
 20
16.30000000000001
 30
0
 11
-106.1
 21
16.30000000000001
 31
0
  0
LINE
  8
1
 62
7
 10
-106.4941176470588
 20
15.70000000000002
 30
0
 11
-106.1
 21
15.70000000000002
 31
0
  0
LINE
  8
1
 62
7
 10
-107.2
 20
15
 30
0
 11
-107.2
 21
14.60000000000002
 31
0
  0
LINE
  8
1
 62
7
 10
-107.7
 20
17.5
 30
0
 11
-107.3
 21
17.5
 31
0
  0
LINE
  8
1
 62
7
 10
-107.7
 20
14.5
 30
0
 11
-107.3
 21
14.5
 31
0
  0
LINE
  8
1
 62
7
 10
-106
 20
16.20000000000002
 30
0
 11
-106
 21
15.80000000000001
 31
0
  0
LINE
  8
1
 62
7
 10
-109
 20
16.20000000000002
 30
0
 11
-109
 21
15.80000000000001
 31
0
  0
LINE
  8
1
 62
7
 10
-108.9
 20
16.30000000000001
 30
0
 11
-108.5
 21
16.30000000000001
 31
0
  0
LINE
  8
1
 62
7
 10
-108.9
 20
15.70000000000002
 30
0
 11
-108.5
 21
15.70000000000002
 31
0
  0
LINE
  8
1
 62
7
 10
-107.8
 20
14.60000000000002
 30
0
 11
-107.8
 21
15
 31
0
  0
LINE
  8
1
 62
7
 10
-107.8
 20
17.40000000000001
 30
0
 11
-107.8
 21
17
 31
0
  0
LINE
  8
1
 62
7
 10
-107.2
 20
17.40000000000001
 30
0
 11
-107.2
 21
17
 31
0
  0
LINE
  8
1
 62
3
 10
-115.3765548274492
 20
15
 30
0
 11
-118
 21
15
 31
0
  0
LINE
  8
1
 62
7
 10
86.29559716917041
 20
1.660000000000025
 30
0
 11
86.29559716917041
 21
-2.667939847309896
 31
0
  0
LINE
  8
1
 62
7
 10
88.79559716917041
 20
-2.667939847309896
 30
0
 11
88.79559716917041
 21
1.660000000000025
 31
0
  0
LINE
  8
1
 62
7
 10
85.5345226760501
 20
4.583731477860624
 30
0
 11
85.40570466838521
 21
1.872715535701417
 31
0
  0
LINE
  8
1
 62
7
 10
89.0572351628643
 20
5.060000000000116
 30
0
 11
86.03395917547591
 21
5.060000000000116
 31
0
  0
LINE
  8
1
 62
7
 10
89.68548966995421
 20
1.872715535701417
 30
0
 11
89.5566716622893
 21
4.583731477860624
 31
0
  0
LINE
  8
1
 62
7
 10
86.29559716917041
 20
-2.667939847309896
 30
0
 11
88.79559716917041
 21
-2.667939847309896
 31
0
  0
LINE
  8
1
 62
7
 10
76.84511721223521
 20
-4.215059489114481
 30
0
 11
76.00000000000021
 21
-4.606399233376379
 31
0
  0
LINE
  8
1
 62
7
 10
77.60000000000011
 20
-3.245566037735898
 30
0
 11
77.60000000000011
 21
3.245566037735927
 31
0
  0
LINE
  8
1
 62
7
 10
76.84511721223521
 20
4.215059489114424
 30
0
 11
76.00000000000021
 21
4.606399233376408
 31
0
  0
LINE
  8
1
 62
7
 10
105.095483301885
 20
-1.659999999999997
 30
0
 11
135.597454836734
 21
-1.659999999999997
 31
0
  0
LINE
  8
1
 62
7
 10
105.095483301885
 20
1.660000000000025
 30
0
 11
135.597454836734
 21
1.660000000000025
 31
0
  0
LINE
  8
1
 62
7
 10
135.597454836734
 20
-1.099999999999994
 30
0
 11
138.597454836734
 21
-1.099999999999994
 31
0
  0
LINE
  8
1
 62
7
 10
135.597454836734
 20
-0.3999999999999773
 30
0
 11
138.597454836734
 21
-0.3999999999999773
 31
0
  0
LINE
  8
1
 62
7
 10
135.597454836734
 20
0.4000000000000057
 30
0
 11
138.597454836734
 21
0.4000000000000057
 31
0
  0
LINE
  8
1
 62
7
 10
135.597454836734
 20
1.100000000000023
 30
0
 11
138.597454836734
 21
1.100000000000023
 31
0
  0
LINE
  8
1
 62
7
 10
135.597454836734
 20
1.660000000000025
 30
0
 11
135.597454836734
 21
-1.659999999999997
 31
0
  0
LINE
  8
1
 62
7
 10
76.00000000000021
 20
7.478504678941903
 30
0
 11
79.52956293441231
 21
7.478504678941903
 31
0
  0
LINE
  8
1
 62
7
 10
80.01903437114331
 20
7.278922217228001
 30
0
 11
84.31398915369441
 21
0.2851178024483261
 31
0
  0
LINE
  8
1
 62
7
 10
85.01323406331041
 20
0
 30
0
 11
86.29559716917041
 21
0
 31
0
  0
LINE
  8
1
 62
7
 10
76.00000000000021
 20
-7.478504678941903
 30
0
 11
79.52956293441231
 21
-7.478504678941903
 31
0
  0
LINE
  8
1
 62
7
 10
80.01903437114331
 20
-7.278922217228086
 30
0
 11
84.31398915369441
 21
-0.2851178024483829
 31
0
  0
LINE
  8
1
 62
7
 10
88.79559716917041
 20
0
 30
0
 11
91.84776343188329
 21
0
 31
0
  0
LINE
  8
1
 62
7
 10
88.79559716917041
 20
-1.659999999999997
 30
0
 11
91.84776343188329
 21
-1.659999999999997
 31
0
  0
LINE
  8
1
 62
7
 10
76.00000000000021
 20
9.138504678941899
 30
0
 11
79.9375152827683
 21
9.138504678941899
 31
0
  0
LINE
  8
1
 62
7
 10
81.32614829352501
 20
8.205689270973124
 30
0
 11
85.31106902780131
 21
1.970938469323016
 31
0
  0
LINE
  8
1
 62
7
 10
76.00000000000021
 20
-9.138504678941871
 30
0
 11
79.9375152827683
 21
-9.138504678941871
 31
0
  0
LINE
  8
1
 62
7
 10
81.32614829352501
 20
-8.205689270973068
 30
0
 11
85.31106902780131
 21
-1.970938469322874
 31
0
  0
LINE
  8
1
 62
7
 10
85.77394669805331
 20
-1.659999999999997
 30
0
 11
86.29559716917041
 21
-1.659999999999997
 31
0
  0
LINE
  8
1
 62
7
 10
105.095483301885
 20
0
 30
0
 11
135.597454836734
 21
0
 31
0
  0
LINE
  8
1
 62
7
 10
29.50000000000023
 20
40
 30
0
 11
27.50000000000023
 21
40
 31
0
  0
LINE
  8
1
 62
7
 10
27.50000000000023
 20
40.10000000000002
 30
0
 11
27.50000000000023
 21
-40.09999999999999
 31
0
  0
LINE
  8
1
 62
7
 10
29.50000000000023
 20
-39.99999999999997
 30
0
 11
29.50000000000023
 21
40
 31
0
  0
LINE
  8
1
 62
7
 10
27.50000000000023
 20
-39.99999999999997
 30
0
 11
29.50000000000023
 21
-39.99999999999997
 31
0
  0
LINE
  8
1
 62
7
 10
31.00000000000023
 20
22
 30
0
 11
31.00000000000023
 21
-21.99999999999997
 31
0
  0
LINE
  8
1
 62
7
 10
30.00000000000023
 20
22.5
 30
0
 11
30.50000000000023
 21
22.5
 31
0
  0
LINE
  8
1
 62
7
 10
30.00000000000023
 20
-22.49999999999997
 30
0
 11
30.50000000000023
 21
-22.49999999999997
 31
0
  0
LINE
  8
1
 62
7
 10
-137.6457513110646
 20
18
 30
0
 11
-132.3542486889354
 21
18
 31
0
  0
LINE
  8
1
 62
3
 10
-118
 20
15
 30
0
 11
-155
 21
15
 31
0
  0
LINE
  8
1
 62
3
 10
-95.14508717648471
 20
0
 30
0
 11
-179.1450871764847
 21
0
 31
0
  0
LINE
  8
1
 62
3
 10
-95.14582795787412
 20
-33.24999999999997
 30
0
 11
-93.14508717648471
 21
-33.24999999999997
 31
0
  0
LINE
  8
1
 62
3
 10
-101.7500871764847
 20
40.10000000000002
 30
0
 11
-101.7500871764847
 21
24.60081671607596
 31
0
  0
LINE
  8
1
 62
3
 10
-168.25
 20
40.10000000000002
 30
0
 11
-168.25
 21
24.60081671607596
 31
0
  0
LINE
  8
1
 62
2
 10
113.2800879613604
 20
19.56463769237641
 30
0
 11
182.329780883216
 21
19.56463769237641
 31
0
  0
LINE
  8
1
 62
2
  6
DOT
 10
-94.49999999999997
 20
-79.59999999999999
 30
0
 11
-94.49999999999997
 21
-93.19999999999999
 31
0
  0
LINE
  8
1
 62
7
 10
-174.5
 20
-83.19999999999999
 30
0
 11
-39.49999999999997
 21
-83.19999999999999
 31
0
  0
LINE
  8
1
 62
2
  6
DOT
 10
-129.5
 20
-79.59999999999999
 30
0
 11
-129.5
 21
-93.19999999999999
 31
0
  0
LINE
  8
1
 62
7
 10
-74.49999999999994
 20
-76
 30
0
 11
-74.49999999999994
 21
-93.19999999999999
 31
0
  0
LINE
  8
1
 62
7
 10
-144.5
 20
-79.59999999999999
 30
0
 11
-39.49999999999997
 21
-79.59999999999999
 31
0
  0
LINE
  8
1
 62
7
 10
-174.5
 20
-76
 30
0
 11
-174.5
 21
-93.19999999999999
 31
0
  0
LINE
  8
1
 62
7
 10
-144.5
 20
-76
 30
0
 11
-144.5
 21
-93.19999999999999
 31
0
  0
LINE
  8
1
 62
7
 10
-39.49999999999994
 20
-76
 30
0
 11
-39.49999999999997
 21
-93.19999999999999
 31
0
  0
LINE
  8
1
 62
7
 10
-174.5
 20
-93.19999999999999
 30
0
 11
-39.49999999999997
 21
-93.19999999999999
 31
0
  0
LINE
  8
1
 62
7
 10
-174.5
 20
-88.19999999999999
 30
0
 11
-39.49999999999997
 21
-88.19999999999999
 31
0
  0
LINE
  8
1
 62
7
 10
-39.49999999999994
 20
-76
 30
0
 11
-174.5
 21
-76
 31
0
  0
LINE
  8
1
 62
7
 10
-109.5
 20
-76
 30
0
 11
-109.5
 21
-93.19999999999999
 31
0
  0
LINE
  8
1
 62
2
  6
DOT
 10
-59.49999999999997
 20
-79.59999999999999
 30
0
 11
-59.49999999999997
 21
-93.19999999999999
 31
0
  0
ARC
  8
1
 62
7
 10
24.60895377245811
 20
-33.7260578133826
 30
0
 40
8.292915283595505
 50
337.1227217188463
 51
1.216475414307202
  0
ARC
  8
1
 62
7
 10
30.71636203428227
 20
-35.77838608834671
 30
0
 40
1.929593336156754
 50
273.483566724868
 51
322.6139950970445
  0
ARC
  8
1
 62
7
 10
23.6510411188126
 20
-32.95720062064757
 30
0
 40
9.248961684147938
 50
0.04460665194091476
 51
21.61619621490557
  0
ARC
  8
1
 62
7
 10
30.83843741604892
 20
-30.44430767341149
 30
0
 40
1.670632217155089
 50
32.36499987074419
 51
90.16561274461662
  0
ARC
  8
1
 62
7
 10
33.58929794868175
 20
-33.24999999999997
 30
0
 40
0.7517523941143111
 50
156.4800993873239
 51
203.5199006126761
  0
ARC
  8
1
 62
7
 10
24.60895377245811
 20
32.7739421866174
 30
0
 40
8.292915283595518
 50
337.1227217188461
 51
1.216475414307202
  0
ARC
  8
1
 62
7
 10
30.71636203428227
 20
30.72161391165332
 30
0
 40
1.929593336156786
 50
273.483566724868
 51
322.6139950970432
  0
ARC
  8
1
 62
7
 10
23.6510411188126
 20
33.5427993793524
 30
0
 40
9.248961684147938
 50
0.04460665194091476
 51
21.61619621490571
  0
ARC
  8
1
 62
7
 10
30.83843741604892
 20
36.05569232658851
 30
0
 40
1.670632217155086
 50
32.36499987074399
 51
90.16561274461662
  0
ARC
  8
1
 62
7
 10
33.58929794868175
 20
33.25
 30
0
 40
0.7517523941143111
 50
156.4800993873239
 51
203.5199006126742
  0
ARC
  8
1
 62
7
 10
-12.44486461427709
 20
33.25
 30
0
 40
8.944864614277089
 50
345.0338261958146
 51
14.9661738041856
  0
ARC
  8
1
 62
7
 10
-5.84999999999979
 20
29.78500000000003
 30
0
 40
2.349999999999779
 50
330.5614799140718
 51
29.43852008592809
  0
ARC
  8
1
 62
7
 10
-5.84999999999979
 20
36.715
 30
0
 40
2.349999999999775
 50
330.5614799140719
 51
29.43852008592794
  0
ARC
  8
1
 62
7
 10
0.7448646142772795
 20
33.25
 30
0
 40
8.944864614277096
 50
165.0338261958144
 51
194.9661738041854
  0
ARC
  8
1
 62
7
 10
-5.84999999999979
 20
29.78500000000003
 30
0
 40
2.349999999999976
 50
150.5614799140747
 51
209.4385200859255
  0
ARC
  8
1
 62
7
 10
-5.84999999999979
 20
36.715
 30
0
 40
2.349999999999973
 50
150.5614799140748
 51
209.4385200859254
  0
ARC
  8
1
 62
7
 10
-12.44486461427709
 20
-33.24999999999997
 30
0
 40
8.944864614277094
 50
345.0338261958144
 51
14.9661738041856
  0
ARC
  8
1
 62
7
 10
-5.84999999999979
 20
-36.715
 30
0
 40
2.349999999999765
 50
330.5614799140723
 51
29.43852008592884
  0
ARC
  8
1
 62
7
 10
-5.84999999999979
 20
-29.785
 30
0
 40
2.349999999999759
 50
330.5614799140726
 51
29.4385200859287
  0
ARC
  8
1
 62
7
 10
0.7448646142772795
 20
-33.24999999999997
 30
0
 40
8.944864614277096
 50
165.0338261958144
 51
194.9661738041856
  0
ARC
  8
1
 62
7
 10
-5.84999999999979
 20
-36.715
 30
0
 40
2.349999999999994
 50
150.5614799140739
 51
209.4385200859249
  0
ARC
  8
1
 62
7
 10
-5.84999999999979
 20
-29.785
 30
0
 40
2.34999999999999
 50
150.5614799140741
 51
209.4385200859246
  0
ARC
  8
1
 62
7
 10
-135
 20
15
 30
0
 40
17
 50
0
 51
180
  0
ARC
  8
1
 62
7
 10
-135
 20
15
 30
0
 40
17
 50
180
 51
0
  0
ARC
  8
1
 62
7
 10
-23.48369859659135
 20
18.99777062765003
 30
0
 40
0.9979037835153347
 50
269.0639947697322
 51
0.1280020528831381
  0
ARC
  8
1
 62
7
 10
-136.0029411764706
 20
-30.99705882352939
 30
0
 40
0.7029473295324915
 50
270.239729896083
 51
359.7602701039197
  0
ARC
  8
1
 62
7
 10
-133.9970588235294
 20
-30.99705882352939
 30
0
 40
0.7029473295325234
 50
180.2397298960804
 51
270.2397298960806
  0
ARC
  8
1
 62
7
 10
-133.9970588235294
 20
-33.00294117647061
 30
0
 40
0.7029473295325447
 50
89.76027010391938
 51
179.7602701039153
  0
ARC
  8
1
 62
7
 10
-136.0029411764706
 20
-33.00294117647061
 30
0
 40
0.7029473295325237
 50
0.2397298960846835
 51
89.76027010391707
  0
ARC
  8
1
 62
7
 10
-163.5029411764706
 20
17.0029411764705
 30
0
 40
0.7029473295324098
 50
270.239729896083
 51
359.7602701039264
  0
ARC
  8
1
 62
7
 10
-161.4970588235294
 20
17.0029411764705
 30
0
 40
0.702947329532523
 50
180.2397298960737
 51
270.2397298960807
  0
ARC
  8
1
 62
7
 10
-161.4970588235294
 20
14.99705882352941
 30
0
 40
0.7029473295324097
 50
89.76027010391934
 51
179.7602701039191
  0
ARC
  8
1
 62
7
 10
-163.5029411764706
 20
14.99705882352941
 30
0
 40
0.7029473295325234
 50
0.239729896080919
 51
89.76027010391702
  0
ARC
  8
1
 62
7
 10
-108.5029411764706
 20
17.00294117647061
 30
0
 40
0.7029473295325199
 50
270.2397298960818
 51
359.7602701039173
  0
ARC
  8
1
 62
7
 10
-106.4970588235294
 20
17.00294117647061
 30
0
 40
0.7029473295325235
 50
180.2397298960827
 51
270.2397298960818
  0
ARC
  8
1
 62
7
 10
-106.4970588235294
 20
14.99705882352941
 30
0
 40
0.7029473295325306
 50
89.76027010391822
 51
179.7602701039191
  0
ARC
  8
1
 62
7
 10
-108.5029411764706
 20
14.99705882352941
 30
0
 40
0.7029473295325234
 50
0.239729896080919
 51
89.76027010391822
  0
CIRCLE
  8
1
 62
7
 10
-168.3950871764847
 20
33.35000000000002
 30
0
 40
6.75000000000013
  0
CIRCLE
  8
1
 62
3
 10
-168.25
 20
33.25
 30
0
 40
1.75
  0
CIRCLE
  8
1
 62
7
 10
-168.25
 20
33.25
 30
0
 40
2.5
  0
CIRCLE
  8
1
 62
7
 10
-168.25
 20
33.25
 30
0
 40
4
  0
CIRCLE
  8
1
 62
3
 10
-168.25
 20
-33.24999999999997
 30
0
 40
1.75
  0
CIRCLE
  8
1
 62
7
 10
-168.25
 20
-33.24999999999997
 30
0
 40
2.5
  0
CIRCLE
  8
1
 62
7
 10
-168.25
 20
-33.24999999999997
 30
0
 40
4
  0
CIRCLE
  8
1
 62
3
 10
-101.7500871764847
 20
-33.24999999999997
 30
0
 40
1.75
  0
CIRCLE
  8
1
 62
7
 10
-101.7500871764847
 20
-33.24999999999997
 30
0
 40
2.499999999999972
  0
CIRCLE
  8
1
 62
7
 10
-101.7500871764847
 20
-33.24999999999997
 30
0
 40
3.999999999999972
  0
CIRCLE
  8
1
 62
3
 10
-101.7500871764847
 20
33.25
 30
0
 40
1.75
  0
CIRCLE
  8
1
 62
7
 10
-101.7500871764847
 20
33.25
 30
0
 40
2.499999999999972
  0
CIRCLE
  8
1
 62
7
 10
-101.7500871764847
 20
33.25
 30
0
 40
3.999999999999972
  0
CIRCLE
  8
1
 62
7
 10
-135.1450871764848
 20
15
 30
0
 40
11.59999999999999
  0
CIRCLE
  8
1
 62
7
 10
-101.8950871764847
 20
33.35000000000002
 30
0
 40
6.750740700100976
  0
CIRCLE
  8
1
 62
7
 10
-101.8950871764847
 20
-33.34999999999999
 30
0
 40
6.749999999999986
  0
CIRCLE
  8
1
 62
7
 10
-168.3950871764847
 20
-33.34999999999999
 30
0
 40
6.75
  0
CIRCLE
  8
1
 62
7
 10
-162.5
 20
16
 30
0
 40
4
  0
CIRCLE
  8
1
 62
7
 10
-162.5
 20
16
 30
0
 40
3.25
  0
CIRCLE
  8
1
 62
7
 10
-107.5
 20
16
 30
0
 40
3.25
  0
CIRCLE
  8
1
 62
7
 10
-107.5
 20
16
 30
0
 40
4
  0
CIRCLE
  8
1
 62
7
 10
-135
 20
-31.99999999999997
 30
0
 40
3.25
  0
CIRCLE
  8
1
 62
7
 10
-135
 20
-31.99999999999997
 30
0
 40
4
  0
CIRCLE
  8
1
 62
7
 10
-135
 20
15
 30
0
 40
4.000000000000006
  0
POLYLINE
  8
1
 62
2
 66
1
  0
VERTEX
  8
1
 10
91.84776343188329
 20
1.660000000000025
 30
0
 42
0.004627892300731482
  0
VERTEX
  8
1
 10
91.73563631948696
 20
1.491616220198835
 30
0
 42
0.01432161089910214
  0
VERTEX
  8
1
 10
91.63238211421648
 20
1.323044021152243
 30
0
 42
0.02620784398788596
  0
VERTEX
  8
1
 10
91.54687372319779
 20
1.154094983614845
 30
0
 42
0.04090712517587292
  0
VERTEX
  8
1
 10
91.48798405355673
 20
0.9845806883412389
 30
0
 42
0.05807845058535332
  0
VERTEX
  8
1
 10
91.4645860124192
 20
0.8143127160860217
 30
0
 42
0.06215230223720088
  0
VERTEX
  8
1
 10
91.48181761994786
 20
0.6485926597160541
 30
0
 42
0.04094631376583499
  0
VERTEX
  8
1
 10
91.53474223691319
 20
0.4831443937136707
 30
0
 42
0.03762017696331678
  0
VERTEX
  8
1
 10
91.61736879206059
 20
0.3191248842876688
 30
0
 42
0.02031018658763596
  0
VERTEX
  8
1
 10
91.72370621413549
 20
0.1576910976468463
 30
0
 42
0.02175284297795664
  0
VERTEX
  8
1
 10
91.84776343188329
 20
0
 30
0
 42
0.00589923699598846
  0
VERTEX
  8
1
 10
91.99193641393553
 20
-0.1637579280638278
 30
0
 42
-0.006290958372039998
  0
VERTEX
  8
1
 10
92.133913461688
 20
-0.3235371166084241
 30
0
 42
-0.023914885012421
  0
VERTEX
  8
1
 10
92.25807431619734
 20
-0.480966815503504
 30
0
 42
-0.04938818170606996
  0
VERTEX
  8
1
 10
92.34879871852017
 20
-0.6376762746187821
 30
0
 42
-0.08501367003319206
  0
VERTEX
  8
1
 10
92.3904664097131
 20
-0.7952947438239733
 30
0
 42
-0.09457323444279953
  0
VERTEX
  8
1
 10
92.36918479507098
 20
-0.964811299799953
 30
0
 42
-0.05996756665699363
  0
VERTEX
  8
1
 10
92.28973052647963
 20
-1.136610852615416
 30
0
 42
-0.03390202050805579
  0
VERTEX
  8
1
 10
92.16664676742636
 20
-1.310122653060492
 30
0
 42
-0.01714841413813301
  0
VERTEX
  8
1
 10
92.01447668139849
 20
-1.484775951925309
 30
0
 42
-0.005242237567640095
  0
VERTEX
  8
1
 10
91.84776343188329
 20
-1.659999999999997
 30
0
  0
SEQEND
  8
1
  0
POLYLINE
  8
1
 62
2
 66
1
  0
VERTEX
  8
1
 10
105.095483301885
 20
1.660000000000025
 30
0
 42
0.004627892300618904
  0
VERTEX
  8
1
 10
104.9833561894888
 20
1.49161622019884
 30
0
 42
0.01432161089916943
  0
VERTEX
  8
1
 10
104.8801019842184
 20
1.323044021152251
 30
0
 42
0.02620784398777797
  0
VERTEX
  8
1
 10
104.7945935931998
 20
1.154094983614854
 30
0
 42
0.04090712517597123
  0
VERTEX
  8
1
 10
104.7357039235588
 20
0.984580688341246
 30
0
 42
0.05807845058502737
  0
VERTEX
  8
1
 10
104.7123058824213
 20
0.8143127160860217
 30
0
 42
0.06215230223739325
  0
VERTEX
  8
1
 10
104.7295374899499
 20
0.6485926597160446
 30
0
 42
0.0409463137655335
  0
VERTEX
  8
1
 10
104.7824621069151
 20
0.4831443937136514
 30
0
 42
0.03762017696368671
  0
VERTEX
  8
1
 10
104.8650886620625
 20
0.3191248842876446
 30
0
 42
0.02031018658730223
  0
VERTEX
  8
1
 10
104.9714260841373
 20
0.1576910976468267
 30
0
 42
0.02175284297835776
  0
VERTEX
  8
1
 10
105.095483301885
 20
0
 30
0
 42
0.005899236995730323
  0
VERTEX
  8
1
 10
105.2396562839373
 20
-0.1637579280638545
 30
0
 42
-0.00629095837197105
  0
VERTEX
  8
1
 10
105.3816333316898
 20
-0.3235371166084571
 30
0
 42
-0.02391488501234435
  0
VERTEX
  8
1
 10
105.5057941861993
 20
-0.4809668155035298
 30
0
 42
-0.04938818170597101
  0
VERTEX
  8
1
 10
105.5965185885222
 20
-0.6376762746187945
 30
0
 42
-0.08501367003335364
  0
VERTEX
  8
1
 10
105.6381862797152
 20
-0.7952947438239733
 30
0
 42
-0.09457323444305078
  0
VERTEX
  8
1
 10
105.6169046650731
 20
-0.9648112997999424
 30
0
 42
-0.05996756665683831
  0
VERTEX
  8
1
 10
105.5374503964817
 20
-1.136610852615402
 30
0
 42
-0.03390202050797676
  0
VERTEX
  8
1
 10
105.4143666374283
 20
-1.310122653060479
 30
0
 42
-0.01714841413816288
  0
VERTEX
  8
1
 10
105.2621965514003
 20
-1.484775951925302
 30
0
 42
-0.00524223756767751
  0
VERTEX
  8
1
 10
105.095483301885
 20
-1.659999999999997
 30
0
  0
SEQEND
  8
1
  0
ARC
  8
1
 62
7
 10
29.60000000000014
 20
-28.82771595625778
 30
0
 40
0.09999999999999672
 50
84.99999999999105
 51
180
  0
ARC
  8
1
 62
7
 10
29.60000000000014
 20
-37.6503805301908
 30
0
 40
0.09999999999990905
 50
180
 51
275.0000000000089
  0
ARC
  8
1
 62
7
 10
29.60000000000014
 20
37.67228404374222
 30
0
 40
0.100000000000025
 50
84.99999999999247
 51
180
  0
ARC
  8
1
 62
7
 10
29.60000000000014
 20
28.84961946980923
 30
0
 40
0.09999999999990905
 50
180
 51
275.000000000006
  0
ARC
  8
1
 62
7
 10
-1.499999999999769
 20
-39.09999999999999
 30
0
 40
1
 50
180
 51
270
  0
ARC
  8
1
 62
7
 10
-1.999999999999769
 20
-26.99999999999997
 30
0
 40
0.5
 50
90
 51
180
  0
ARC
  8
1
 62
7
 10
-1.999999999999769
 20
27
 30
0
 40
0.5
 50
180
 51
270
  0
ARC
  8
1
 62
7
 10
-0.9999999999997691
 20
38.60000000000002
 30
0
 40
1.5
 50
90
 51
180
  0
ARC
  8
1
 62
7
 10
32.50000000000023
 20
-15.49999999999997
 30
0
 40
1.499999999999996
 50
180
 51
270
  0
ARC
  8
1
 62
7
 10
32.50000000000023
 20
15.5
 30
0
 40
1.5
 50
90
 51
180
  0
ARC
  8
1
 62
7
 10
-136.4
 20
-31.79999999999998
 30
0
 40
0.1000000000000192
 50
90
 51
180
  0
ARC
  8
1
 62
7
 10
-136.4
 20
-32.19999999999996
 30
0
 40
0.09999999999999432
 50
180
 51
270
  0
ARC
  8
1
 62
7
 10
-135.2
 20
-33.40000000000001
 30
0
 40
0.1000000000000227
 50
180
 51
270
  0
ARC
  8
1
 62
7
 10
-134.8
 20
-33.40000000000001
 30
0
 40
0.09999999999995879
 50
270
 51
0
  0
ARC
  8
1
 62
7
 10
-133.6
 20
-32.19999999999996
 30
0
 40
0.1000000000000227
 50
270
 51
0
  0
ARC
  8
1
 62
7
 10
-133.6
 20
-31.79999999999998
 30
0
 40
0.09999999999999432
 50
0
 51
90
  0
ARC
  8
1
 62
7
 10
-134.8
 20
-30.59999999999999
 30
0
 40
0.1000000000000227
 50
0
 51
90
  0
ARC
  8
1
 62
7
 10
-135.2
 20
-30.59999999999999
 30
0
 40
0.1000000000000192
 50
90
 51
180
  0
ARC
  8
1
 62
7
 10
-163.9
 20
16.1999999999999
 30
0
 40
0.1000000000001116
 50
90
 51
180
  0
ARC
  8
1
 62
7
 10
-163.9
 20
15.80000000000001
 30
0
 40
0.09999999999999432
 50
180
 51
270
  0
ARC
  8
1
 62
7
 10
-162.7
 20
14.60000000000002
 30
0
 40
0.1000000000000227
 50
180
 51
270
  0
ARC
  8
1
 62
7
 10
-162.3
 20
14.60000000000002
 30
0
 40
0.1000000000000192
 50
270
 51
0
  0
ARC
  8
1
 62
7
 10
-161.1
 20
15.80000000000001
 30
0
 40
0.1000000000001098
 50
270
 51
0
  0
ARC
  8
1
 62
7
 10
-161.1
 20
16.1999999999999
 30
0
 40
0.09999999999999432
 50
0
 51
90
  0
ARC
  8
1
 62
7
 10
-162.3
 20
17.40000000000001
 30
0
 40
0.1000000000000227
 50
0
 51
90
  0
ARC
  8
1
 62
7
 10
-162.7
 20
17.40000000000001
 30
0
 40
0.09999999999999076
 50
90
 51
180
  0
ARC
  8
1
 62
7
 10
-108.9
 20
16.20000000000002
 30
0
 40
0.09999999999999076
 50
90
 51
180
  0
ARC
  8
1
 62
7
 10
-108.9
 20
15.80000000000001
 30
0
 40
0.09999999999999432
 50
180
 51
270
  0
ARC
  8
1
 62
7
 10
-107.7
 20
14.60000000000002
 30
0
 40
0.09999999999999432
 50
180
 51
270
  0
ARC
  8
1
 62
7
 10
-107.3
 20
14.60000000000002
 30
0
 40
0.1000000000000192
 50
270
 51
0
  0
ARC
  8
1
 62
7
 10
-106.1
 20
15.80000000000001
 30
0
 40
0.09999999999998899
 50
270
 51
0
  0
ARC
  8
1
 62
7
 10
-106.1
 20
16.20000000000002
 30
0
 40
0.09999999999999432
 50
0
 51
90
  0
ARC
  8
1
 62
7
 10
-107.3
 20
17.40000000000001
 30
0
 40
0.09999999999999432
 50
0
 51
90
  0
ARC
  8
1
 62
7
 10
-107.7
 20
17.40000000000001
 30
0
 40
0.09999999999999076
 50
90
 51
180
  0
ARC
  8
1
 62
7
 10
85.60530004696921
 20
1.860000000000014
 30
0
 40
0.2000000000006529
 50
176.3548088145775
 51
192.3470653506454
  0
ARC
  8
1
 62
7
 10
89.0572351628643
 20
4.560000000000116
 30
0
 40
0.4999999999993438
 50
2.720449105928909
 51
90
  0
ARC
  8
1
 62
7
 10
86.03395917547591
 20
4.560000000000116
 30
0
 40
0.5
 50
90
 51
177.2795508940755
  0
ARC
  8
1
 62
7
 10
89.48589429137111
 20
1.860000000000014
 30
0
 40
0.1999999999999891
 50
270
 51
3.645191185438794
  0
ARC
  8
1
 62
7
 10
76.60000000000011
 20
-3.245566037735898
 30
0
 40
0.9999999999999317
 50
284.1887607106365
 51
0
  0
ARC
  8
1
 62
7
 10
76.60000000000011
 20
3.245566037735927
 30
0
 40
1
 50
0
 51
75.81123928936231
  0
ARC
  8
1
 62
7
 10
85.01323406331041
 20
-1
 30
0
 40
1
 50
90
 51
134.3664543436523
  0
ARC
  8
1
 62
7
 10
85.01323406331041
 20
1
 30
0
 40
1.000000000000098
 50
225.63354565635
 51
270
  0
ARC
  8
1
 62
7
 10
79.52956293441231
 20
-6.778504678941914
 30
0
 40
0.6999999999999886
 50
270
 51
314.3664543436381
  0
ARC
  8
1
 62
7
 10
79.52956293441231
 20
6.7785046789418
 30
0
 40
0.6999999999999461
 50
45.63354565636356
 51
90
  0
ARC
  8
1
 62
7
 10
79.9375152827683
 20
7.638504678941899
 30
0
 40
1.500000000000287
 50
22.21746912182218
 51
90
  0
ARC
  8
1
 62
7
 10
79.9375152827683
 20
-7.638504678941871
 30
0
 40
1.5
 50
270
 51
337.7825308781788
  0
ARC
  8
1
 62
7
 10
85.77394669805331
 20
-2.159999999999997
 30
0
 40
0.5
 50
90
 51
157.7825308781625
  0
ARC
  8
1
 62
7
 10
85.77394669805331
 20
2.160000000000025
 30
0
 40
0.4999999999998515
 50
202.2174691218255
 51
270
  0
ARC
  8
1
 62
7
 10
30.50000000000023
 20
22
 30
0
 40
0.5
 50
0
 51
90
  0
ARC
  8
1
 62
7
 10
30.50000000000023
 20
-21.99999999999997
 30
0
 40
0.5
 50
270
 51
0
  0
ARC
  8
1
 62
7
 10
30.00000000000023
 20
-22.99999999999997
 30
0
 40
0.5
 50
90
 51
180
  0
ARC
  8
1
 62
7
 10
30.00000000000023
 20
23
 30
0
 40
0.5
 50
180
 51
270
  0
LINE
  8
1
 62
2
 10
-45.81066909783999
 20
-50.09999999999999
 30
0
 11
-30.11927095103101
 21
-50.09999999999999
 31
0
  0
LINE
  8
1
 62
2
 10
-30.11927095103101
 20
-50.09999999999999
 30
0
 11
-17.76927095103099
 21
-35.74999999999997
 31
0
  0
SOLID
  8
1
 62
2
 10
-19.70311356486101
 20
-38.70340048104166
 30
0
 11
-20.4016157680163
 21
-38.10225050132265
 31
0
 12
-17.76927095103099
 22
-35.74999999999997
 32
0
 13
-17.76927095103099
 23
-35.74999999999997
 33
0
  0
LINE
  8
1
 62
2
 10
65.73234522484732
 20
27.00000000000009
 30
0
 11
43.05059757045626
 21
27.00000000000009
 31
0
  0
LINE
  8
1
 62
2
 10
43.05059757045626
 20
27.00000000000009
 30
0
 11
50.41057623846535
 21
13.10000000000011
 31
0
  0
SOLID
  8
1
 62
2
 10
48.36554733416993
 20
15.97752991940643
 30
0
 11
49.17998955029345
 21
16.40877289329097
 31
0
 12
50.41057623846535
 22
13.10000000000011
 32
0
 13
50.41057623846535
 23
13.10000000000011
 33
0
  0
LINE
  8
1
 62
2
 10
182.329780883216
 20
26.56463769237641
 30
0
 11
115.301459578904
 21
26.56463769237641
 31
0
  0
LINE
  8
1
 62
2
 10
115.301459578904
 20
26.56463769237641
 30
0
 11
108.109812753679
 21
1.659999999999997
 31
0
  0
SOLID
  8
1
 62
2
 10
108.638128583093
 20
5.150444676666968
 30
0
 11
109.5235202159455
 21
4.894772459944331
 31
0
 12
108.109812753679
 22
1.659999999999997
 32
0
 13
108.109812753679
 23
1.659999999999997
 33
0
  0
LINE
  8
1
 62
2
 10
26.88597565133938
 20
50.1289247315195
 30
0
 11
4.204227996948319
 21
50.1289247315195
 31
0
  0
LINE
  8
1
 62
2
 10
4.204227996948319
 20
50.1289247315195
 30
0
 11
11.56420666495741
 21
41.1289247315195
 31
0
  0
SOLID
  8
1
 62
2
 10
8.991836072319286
 20
43.54661602500856
 30
0
 11
9.705232026675246
 21
44.13001369233121
 31
0
 12
11.56420666495741
 22
41.1289247315195
 32
0
 13
11.56420666495741
 23
41.1289247315195
 33
0
  0
TEXT
  8
1
 62
2
 10
-45.04920965029207
 20
-49.57872273017446
 30
0
 40
3.5
  1
BOLT
 41
0.9
 72
1
 73
2
 11
-38.74920965029207
 21
-47.82872273017446
 31
0
  0
TEXT
  8
1
 62
2
 10
-80.85146400447142
 20
-20.44280485470939
 30
0
 40
3.2
  1
(0.591    )
 50
90
 41
0.6300000000000001
 72
1
 73
2
 11
-82.45146400447143
 21
-9.354804854709386
 31
0
  0
TEXT
  8
1
 62
2
 10
-81.45146400447143
 20
-10.77737408525978
 30
0
 40
2
  1
%%p0.0197
 50
90
 41
0.63
 72
1
 73
2
 11
-82.45146400447143
 21
-5.10737408525978
 31
0
  0
TEXT
  8
1
 62
2
 10
107.0934747483525
 20
-42.19999999999997
 30
0
 40
2
  1
+1.181
 41
0.63
  0
TEXT
  8
1
 62
2
 10
107.0934747483525
 20
-44.59999999999997
 30
0
 40
2
  1
 0
 41
0.63
  0
TEXT
  8
1
 62
2
 10
95.6471309752103
 20
-43.99999999999997
 30
0
 40
3.2
  1
(11.811   )
 41
0.6300000000000001
 72
1
 73
2
 11
106.7351309752103
 21
-42.39999999999997
 31
0
  0
TEXT
  8
1
 62
2
 10
119.1696324460955
 20
-31.19371149192893
 30
0
 40
3.2
  1
(0.118)
 41
0.6300000000000001
 72
1
 73
2
 11
126.2256324460955
 21
-29.59371149192893
 31
0
  0
TEXT
  8
1
 62
2
 10
46.88512681245747
 20
28.01493706720259
 30
0
 40
3.2
  1
NAME PLATE
 41
0.54
 72
1
 73
2
 11
55.52512681245747
 21
29.61493706720259
 31
0
  0
TEXT
  8
1
 62
2
 10
80.93875531670051
 20
57.97273642008272
 30
0
 40
3.2
  1
(0.063)
 41
0.6300000000000001
 72
1
 73
2
 11
87.99475531670051
 21
59.57273642008272
 31
0
  0
TEXT
  8
1
 62
2
 10
-37.56124468329973
 20
57.95831729467403
 30
0
 40
3.2
  1
(0.551)
 41
0.6300000000000001
 72
1
 73
2
 11
-30.50524468329973
 21
59.55831729467403
 31
0
  0
TEXT
  8
1
 62
2
 10
102.2224663240944
 20
-11.088
 30
0
 40
3.2
  1
(1.339DIA.)
 50
90
 41
0.6300000000000001
 72
1
 73
2
 11
100.6224663240944
 21
0
 31
0
  0
TEXT
  8
1
 62
2
 10
-44.14169554816063
 20
28.94080602710259
 30
0
 40
2
  1
%%p0.0118
 50
90
 41
0.63
 72
1
 73
2
 11
-45.14169554816063
 21
34.61080602710259
 31
0
  0
TEXT
  8
1
 62
2
 10
-43.65522551623085
 20
18.98446225396089
 30
0
 40
3.2
  1
(0.276    )
 50
90
 41
0.6300000000000001
 72
1
 73
2
 11
-45.25522551623085
 21
30.07246225396089
 31
0
  0
TEXT
  8
1
 62
2
 10
-56.79999999999977
 20
35.3408060271026
 30
0
 40
2
  1
 0
 50
90
 41
0.63
  0
TEXT
  8
1
 62
2
 10
-54.39999999999977
 20
35.3408060271026
 30
0
 40
2
  1
-0.000787
 50
90
 41
0.63
  0
TEXT
  8
1
 62
2
 10
-54.99999999999977
 20
16.73646225396089
 30
0
 40
3.2
  1
(0.315DIA.      )
 50
90
 41
0.6300000000000001
 72
1
 73
2
 11
-56.59999999999977
 21
33.87246225396089
 31
0
  0
TEXT
  8
1
 62
2
 10
116.2177736563609
 20
27.84971452164851
 30
0
 40
3.5
  1
LEAD WIRES (RED,BLACK)
 41
0.9
 73
2
 11
116.2177736563609
 21
29.59971452164851
 31
0
  0
TEXT
  8
1
 62
2
 10
116.2177736563609
 20
20.75309253258669
 30
0
 40
3.5
  1
UL1007 AWG22
 41
0.9
 73
2
 11
116.2177736563609
 21
22.50309253258669
 31
0
  0
TEXT
  8
1
 62
2
 10
-27.06124468329966
 20
69.9034957603677
 30
0
 40
3.2
  1
(1.378)
 41
0.6300000000000001
 72
1
 73
2
 11
-20.00524468329966
 21
71.50349576036771
 31
0
  0
TEXT
  8
1
 62
2
 10
-145.08
 20
69.9088784191941
 30
0
 40
3.2
  1
(3.15SQU.)
 41
0.6300000000000001
 72
1
 73
2
 11
-135
 21
71.5088784191941
 31
0
  0
TEXT
  8
1
 62
2
 10
-146.088
 20
57.9088784191941
 30
0
 40
3.2
  1
(2.618    )
 41
0.6300000000000001
 72
1
 73
2
 11
-135
 21
59.5088784191941
 31
0
  0
TEXT
  8
1
 62
2
 10
-136.4384551780371
 20
58.5088784191941
 30
0
 40
2
  1
%%p0.0118
 41
0.63
 72
1
 73
2
 11
-130.7684551780371
 21
59.5088784191941
 31
0
  0
TEXT
  8
1
 62
2
 10
-21.56124468329966
 20
57.97273642008272
 30
0
 40
3.2
  1
(0.197)
 41
0.6300000000000001
 72
1
 73
2
 11
-14.50524468329966
 21
59.57273642008272
 31
0
  0
TEXT
  8
1
 62
2
 10
-68.85146400447142
 20
-10.94280485470939
 30
0
 40
3.2
  1
(2.618    )
 50
90
 41
0.6300000000000001
 72
1
 73
2
 11
-70.45146400447143
 21
0.1451951452906144
 31
0
  0
TEXT
  8
1
 62
2
 10
-69.45146400447143
 20
-1.277374085259778
 30
0
 40
2
  1
%%p0.0118
 50
90
 41
0.63
 72
1
 73
2
 11
-70.45146400447143
 21
4.392625914740222
 31
0
  0
TEXT
  8
1
 62
2
 10
8.038757238949529
 20
51.14386179872201
 30
0
 40
3.2
  1
NAME PLATE
 41
0.54
 72
1
 73
2
 11
16.67875723894953
 21
52.74386179872201
 31
0
  0
TEXT
  8
1
 62
2
 10
-162.5
 20
93.5
 30
0
 40
5
  1
DME34K8H
 41
0.9
 72
1
 73
2
 11
-144.5
 21
96
 31
0
  0
TEXT
  8
1
 62
2
 10
-146.088
 20
45.9088784191941
 30
0
 40
3.2
  1
(1.339DIA.)
 41
0.6300000000000001
 72
1
 73
2
 11
-135
 21
47.5088784191941
 31
0
  0
TEXT
  8
1
 62
7
 10
-93.49999999999997
 20
-86.94999999999999
 30
0
 40
2.5
  1
１．２６
 41
0.9
 72
1
 73
2
 11
-84.49999999999997
 21
-85.69999999999999
 31
0
  0
TEXT
  8
1
 62
7
 10
-95.74999999999997
 20
-91.94999999999999
 30
0
 40
2.5
  1
１．６５４
 41
0.9
 72
1
 73
2
 11
-84.49999999999997
 21
-90.69999999999999
 31
0
  0
TEXT
  8
1
 62
7
 10
-130.75
 20
-91.94999999999999
 30
0
 40
2.5
  1
３．４８４
 41
0.9
 72
1
 73
2
 11
-119.5
 21
-90.69999999999999
 31
0
  0
TEXT
  8
1
 62
7
 10
-130.75
 20
-86.94999999999999
 30
0
 40
2.5
  1
３．０９１
 41
0.9
 72
1
 73
2
 11
-119.5
 21
-85.69999999999999
 31
0
  0
TEXT
  8
1
 62
2
 10
-92.43800000000012
 20
-82.66
 30
0
 40
2.520000000000007
  1
(ｉｎｃｈ)
 41
0.63
 72
1
 73
2
 11
-84.49999999999996
 21
-81.39999999999999
 31
0
  0
TEXT
  8
1
 62
2
 10
-127.4380000000002
 20
-82.66
 30
0
 40
2.520000000000007
  1
(ｉｎｃｈ)
 41
0.63
 72
1
 73
2
 11
-119.5
 21
-81.39999999999999
 31
0
  0
TEXT
  8
1
 62
2
 10
-106.7628000000001
 20
-82.66
 30
0
 40
2.520000000000007
  1
(ｍｍ)
 41
0.63
 72
1
 73
2
 11
-102
 21
-81.39999999999999
 31
0
  0
TEXT
  8
1
 62
2
 10
-141.7628000000001
 20
-82.66
 30
0
 40
2.520000000000007
  1
(ｍｍ)
 41
0.63
 72
1
 73
2
 11
-137
 21
-81.39999999999999
 31
0
  0
TEXT
  8
1
 62
2
 10
-183.9944000000005
 20
-80.85999999999997
 30
0
 40
2.520000000000007
  1
ＤＥＣＯＬＥＲＡＴＩＯＮ　ＲＡＴＩＯ
 41
0.5399999999999999
 72
1
 73
2
 11
-159.5
 21
-79.59999999999997
 31
0
  0
TEXT
  8
1
 62
7
 10
-173.5
 20
-86.94999999999999
 30
0
 40
2.5
  1
１／３　　 ～ １／１８０
 41
0.7200000000000001
 73
2
 11
-173.5
 21
-85.69999999999999
 31
0
  0
TEXT
  8
1
 62
7
 10
-173.5
 20
-91.94999999999999
 30
0
 40
2.5
  1
１／２２５ ～ １／１８００
 41
0.7200000000000001
 73
2
 11
-173.5
 21
-90.69999999999999
 31
0
  0
TEXT
  8
1
 62
2
 10
-129.3814
 20
-79.06
 30
0
 40
2.520000000000007
  1
Ｌ1
 41
0.63
 72
1
 73
2
 11
-127
 21
-77.8
 31
0
  0
TEXT
  8
1
 62
7
 10
-146
 20
-86.94999999999999
 30
0
 40
2.5
  1
７８．５
 41
0.9
 72
1
 73
2
 11
-137
 21
-85.69999999999999
 31
0
  0
TEXT
  8
1
 62
7
 10
-146
 20
-91.94999999999999
 30
0
 40
2.5
  1
８８．５
 41
0.9
 72
1
 73
2
 11
-137
 21
-90.69999999999999
 31
0
  0
TEXT
  8
1
 62
7
 10
-106.5
 20
-86.94999999999999
 30
0
 40
2.5
  1
３２
 41
0.9
 72
1
 73
2
 11
-102
 21
-85.69999999999999
 31
0
  0
TEXT
  8
1
 62
7
 10
-106.5
 20
-91.94999999999999
 30
0
 40
2.5
  1
４２
 41
0.9
 72
1
 73
2
 11
-102
 21
-90.69999999999999
 31
0
  0
TEXT
  8
1
 62
2
 10
-94.38140000000004
 20
-79.06
 30
0
 40
2.520000000000007
  1
Ｌ2
 41
0.63
 72
1
 73
2
 11
-92
 21
-77.8
 31
0
  0
TEXT
  8
1
 62
7
 10
-63.90000000000001
 20
-86.94999999999999
 30
0
 40
2.5
  1
Ｍ５×１．９６９
 41
0.7200000000000001
 72
1
 73
2
 11
-49.50000000000001
 21
-85.69999999999999
 31
0
  0
TEXT
  8
1
 62
7
 10
-63.90000000000001
 20
-91.94999999999999
 30
0
 40
2.5
  1
Ｍ５×２．３６２
 41
0.7200000000000001
 72
1
 73
2
 11
-49.50000000000001
 21
-90.69999999999999
 31
0
  0
TEXT
  8
1
 62
2
 10
-57.43800000000016
 20
-82.66
 30
0
 40
2.520000000000007
  1
(ｉｎｃｈ)
 41
0.63
 72
1
 73
2
 11
-49.5
 21
-81.39999999999999
 31
0
  0
TEXT
  8
1
 62
2
 10
-71.7628000000001
 20
-82.66
 30
0
 40
2.520000000000007
  1
(ｍｍ)
 41
0.63
 72
1
 73
2
 11
-67
 21
-81.39999999999999
 31
0
  0
TEXT
  8
1
 62
7
 10
-78.25
 20
-86.94999999999999
 30
0
 40
2.5
  1
Ｍ５×５０
 41
0.9
 72
1
 73
2
 11
-67
 21
-85.69999999999999
 31
0
  0
TEXT
  8
1
 62
7
 10
-78.25
 20
-91.94999999999999
 30
0
 40
2.5
  1
Ｍ５×６０
 41
0.9
 72
1
 73
2
 11
-67
 21
-90.69999999999999
 31
0
  0
TEXT
  8
1
 62
2
 10
-63.35040000000017
 20
-79.06
 30
0
 40
2.520000000000007
  1
ＢＯＬＴ
 41
0.63
 72
1
 73
2
 11
-57.00000000000004
 21
-77.8
 31
0
  0
DIMENSION
  8
1
  6
CONTINUOUS
 62
2
  2
*D0
  3
DMST_1
 10
-7.499999999999773
 20
61.96892821976351
 30
0
 11
-14.96115344206049
 21
64.56892821976351
 31
0
 12
0
 22
0
 32
0
 70
0
 13
-2.499999999999769
 23
38.25
 33
0
 14
-7.499999999999771
 24
28.63000000000002
 34
0
 53
0
  0
DIMENSION
  8
1
  6
CONTINUOUS
 62
2
  2
*D1
  3
DMST_2
 10
-59.89127610145
 20
19
 30
0
 11
-63.29127610145
 21
30.8191609770225
 31
0
 12
0
 22
0
 32
0
 70
0
  1
φ<>
 13
-37.49999999999977
 23
11
 33
0
 14
-22.37395120021801
 24
19
 34
0
 50
90
 53
0
  0
DIMENSION
  8
1
  6
CONTINUOUS
 62
2
  2
*D2
  3
DMST_3
 10
-118
 20
50.05773237904651
 30
0
 11
-135
 21
52.65773237904651
 31
0
 12
0
 22
0
 32
0
 70
0
  1
φ<>
 13
-152
 23
15
 33
0
 14
-118
 24
15
 34
0
 53
0
  0
DIMENSION
  8
1
  6
CONTINUOUS
 62
2
  2
*D3
  3
DMST_4
 10
-47.9331352147695
 20
18
 30
0
 11
-50.5331352147695
 21
29.8623004105215
 31
0
 12
0
 22
0
 32
0
 70
0
 13
-37.49999999999977
 23
11
 33
0
 14
-37.49999999999977
 24
18
 34
0
 50
90
 53
0
  0
DIMENSION
  8
1
  6
CONTINUOUS
 62
2
  2
*D4
  3
DMST_1
 10
-37.49999999999977
 20
74.10918551895651
 30
0
 11
-19.99999999999977
 21
76.7091855189565
 31
0
 12
0
 22
0
 32
0
 70
0
 13
-2.499999999999769
 23
38.60000000000002
 33
0
 14
-37.49999999999977
 24
18
 34
0
 53
0
  0
DIMENSION
  8
1
  6
CONTINUOUS
 62
2
  2
*D5
  3
DMST_1
 10
98.55477505773865
 20
-16.99999999999997
 30
0
 11
95.52810839107198
 21
0
 31
0
 12
0
 22
0
 32
0
 70
0
  1
φ<>
 13
76.00000000000021
 23
17
 33
0
 14
76.0000000000002
 24
-16.99999999999997
 34
0
 50
90
 53
0
  0
DIMENSION
  8
1
  6
CONTINUOUS
 62
2
  2
*D6
  3
DMST_1
 10
-37.49999999999977
 20
61.96892821976351
 30
0
 11
-30.49999999999977
 21
64.56892821976351
 31
0
 12
0
 22
0
 32
0
 70
0
 13
-23.49999999999977
 23
18
 33
0
 14
-37.49999999999977
 24
18
 34
0
 53
0
  0
DIMENSION
  8
1
  6
CONTINUOUS
 62
2
  2
*D7
  3
DMST_1
 10
-95.14508717648471
 20
74.10918551895651
 30
0
 11
-135.1450871764847
 21
76.7091855189565
 31
0
 12
0
 22
0
 32
0
 70
0
  1
□<>
 13
-175.1450871764847
 23
33.35000000000022
 33
0
 14
-95.14508717648471
 24
33.25
 34
0
 53
0
  0
DIMENSION
  8
1
  6
CONTINUOUS
 62
2
  2
*D8
  3
DMST_5
 10
135.597454836734
 20
-27.0754950506623
 30
0
 11
126.055781630639
 21
-24.4754950506623
 31
0
 12
0
 22
0
 32
0
 70
0
  1
(<>
 13
138.597454836734
 23
-1.099999999999994
 33
0
 14
135.597454836734
 24
-1.659999999999997
 34
0
 53
0
  0
DIMENSION
  8
1
  6
CONTINUOUS
 62
2
  2
*D9
  3
DMST_1
 10
-2.499999999999771
 20
61.96892821976351
 30
0
 11
13.50000000000023
 21
64.56892821976351
 31
0
 12
0
 22
0
 32
0
 70
0
  1
L2
 13
29.50000000000023
 23
40
 33
0
 14
-2.499999999999769
 24
38.60000000000002
 34
0
 53
0
  0
DIMENSION
  8
1
  6
CONTINUOUS
 62
2
  2
*D10
  3
DMST_5
 10
77.60000000000011
 20
61.96892821976351
 30
0
 11
87.74001880291
 21
64.56892821976351
 31
0
 12
0
 22
0
 32
0
 70
0
  1
(<>
 13
76.00000000000021
 23
17
 33
0
 14
77.60000000000011
 24
3.245566037735927
 34
0
 53
0
  0
DIMENSION
  8
1
  6
CONTINUOUS
 62
2
  2
*D11
  3
DMST_6
 10
76.0000000000002
 20
-38.93092913396048
 30
0
 11
107.2987274183671
 21
-35.53092913396048
 31
0
 12
0
 22
0
 32
0
 70
0
  1
300
 13
138.597454836734
 23
-1.099999999999994
 33
0
 14
76.0000000000002
 24
-16.99999999999997
 34
0
 53
0
  0
DIMENSION
  8
1
  6
CONTINUOUS
 62
2
  2
*D12
  3
DMST_4
 10
-168.25
 20
62.14153071044151
 30
0
 11
-135.0000435882424
 21
64.74153071044151
 31
0
 12
0
 22
0
 32
0
 70
0
 13
-101.7500871764847
 23
40.10000000000002
 33
0
 14
-168.25
 24
40.10000000000002
 34
0
 53
0
  0
DIMENSION
  8
1
  6
CONTINUOUS
 62
2
  2
*D13
  3
DMST_7
 10
-85.0752728711181
 20
0
 30
0
 11
-87.6752728711181
 21
-9.52845957710446
 31
0
 12
0
 22
0
 32
0
 70
0
 13
-118
 23
15
 33
0
 14
-95.14508717648471
 24
0
 34
0
 50
90
 53
0
  0
DIMENSION
  8
1
  6
CONTINUOUS
 62
2
  2
*D14
  3
DMST_4
 10
-73.2103392172119
 20
33.25
 30
0
 11
-75.81033921721189
 21
2.842170943040401e-014
 31
0
 12
0
 22
0
 32
0
 70
0
 13
-95.14582795787412
 23
-33.24999999999997
 33
0
 14
-95.14508717648471
 24
33.25
 34
0
 50
90
 53
0
  0
DIMENSION
  8
1
  6
CONTINUOUS
 62
2
  2
*D15
  3
DMST_1
 10
76.0000000000002
 20
74.0707437332548
 30
0
 11
36.75000000000023
 21
76.6707437332548
 31
0
 12
0
 22
0
 32
0
 70
0
  1
L1
 13
-2.499999999999769
 23
38.25
 33
0
 14
76.00000000000021
 24
17
 34
0
 53
0
  0
INSERT
  8
0
  2
___R___O_______R
 10
0.5000000000000568
 20
-3.75
 30
0
  0
INSERT
  8
0
  2
DME34B36G
 10
437.6912236417212
 20
475.007598067909
 30
0
  0
ENDSEC
  0
EOF
