  0
SECTION
  2
HEADER
  9
$ACADVER
  1
AC1009
  9
$INSBASE
 10
0
 20
0
  9
$EXTMIN
 10
-194.5
 20
-146
  9
$EXTMAX
 10
194.5
 20
146
  9
$LIMMIN
 10
-194.5
 20
-146
  9
$LIMMAX
 10
194.5
 20
146
  9
$VIEWCTR
 10
10
 20
10
  9
$VIEWSIZE
 40
10
  9
$SNAPMODE
 70
0
  9
$SNAPUNIT
 10
1
 20
1
  9
$SNAPBASE
 10
0
 20
0
  9
$SNAPANG
 50
0
  9
$SNAPSTYLE
 70
0
  9
$SNAPISOPAIR
 70
0
  9
$GRIDMODE
 70
0
  9
$GRIDUNIT
 10
0
 20
0
  9
$ORTHOMODE
 70
0
  9
$REGENMODE
 70
1
  9
$FILLMODE
 70
1
  9
$QTEXTMODE
 70
0
  9
$DRAGMODE
 70
2
  9
$LTSCALE
 40
1
  9
$OSMODE
 70
0
  9
$ATTMODE
 70
1
  9
$TEXTSIZE
 40
3.5
  9
$TRACEWID
 40
0.5
  9
$TEXTSTYLE
  7
STANDARD
  9
$CLAYER
  8
0
  9
$CELTYPE
  6
BYLAYER
  9
$CECOLOR
 62
256
  9
$DIMSCALE
 40
1
  9
$DIMASZ
 40
0.18
  9
$DIMEXO
 40
0.0625
  9
$DIMDLI
 40
0.38
  9
$DIMRND
 40
0
  9
$DIMDLE
 40
0
  9
$DIMEXE
 40
0.18
  9
$DIMTP
 40
0
  9
$DIMTM
 40
0
  9
$DIMTXT
 40
0.18
  9
$DIMCEN
 40
0.09
  9
$DIMTSZ
 40
0
  9
$DIMTOL
 70
0
  9
$DIMLIM
 70
0
  9
$DIMTIH
 70
1
  9
$DIMTOH
 70
1
  9
$DIMSE1
 70
0
  9
$DIMSE2
 70
0
  9
$DIMTAD
 70
0
  9
$DIMZIN
 70
0
  9
$DIMBLK
  1

  9
$DIMASO
 70
1
  9
$DIMSHO
 70
1
  9
$DIMPOST
  1

  9
$DIMAPOST
  1

  9
$DIMALT
 70
0
  9
$DIMALTD
 70
2
  9
$DIMALTF
 40
25.4
  9
$DIMLFAC
 40
1
  9
$DIMTOFL
 70
0
  9
$DIMTVP
 40
0
  9
$DIMTIX
 70
0
  9
$DIMSOXD
 70
0
  9
$DIMSAH
 70
0
  9
$DIMBLK1
  1

  9
$DIMBLK2
  1

  9
$DIMSTYLE
  2
*UNNAMED
  9
$DIMCLRD
 70
0
  9
$DIMCLRE
 70
0
  9
$DIMCLRT
 70
0
  9
$DIMTFAC
 40
1
  9
$DIMGAP
 40
0.09
  9
$LUNITS
 70
2
  9
$LUPREC
 70
4
  9
$AXISMODE
 70
0
  9
$AXISUNIT
 10
0
 20
0
  9
$SKETCHINC
 40
0.1
  9
$FILLETRAD
 40
2
  9
$AUNITS
 70
0
  9
$AUPREC
 70
0
  9
$MENU
  1
ACAD
  9
$ELEVATION
 40
0
  9
$THICKNESS
 40
0
  9
$VIEWDIR
 10
0
 20
0
 30
1
  9
$LIMCHECK
 70
0
  9
$BLIPMODE
 70
1
  9
$CHAMFERA
 40
0
  9
$CHAMFERB
 40
0
  9
$FASTZOOM
 70
1
  9
$SKPOLY
 70
0
  9
$ANGBASE
 50
0
  9
$ANGDIR
 70
0
  9
$PDMODE
 70
0
  9
$PDSIZE
 40
0
  9
$PLINEWID
 40
0
  9
$COORDS
 70
2
  0
ENDSEC
  0
SECTION
  2
TABLES
  0
TABLE
  2
DIMSTYLE
 70
5
  0
DIMSTYLE
  2
DMST_1
 70
0
  3
)
  4

  5

  6

  7

 40
1
 41
3.2
 42
1
 43
7
 44
1
 45
0
 46
0
 47
0
 48
0
140
3.2
141
0
142
0
143
25.4
144
1
145
0
146
1
147
0.09
 71
0
 72
0
 73
0
 74
0
 75
0
 76
0
 77
1
 78
9
170
0
171
2
172
0
173
0
174
0
175
0
176
2
177
2
178
2
  0
DIMSTYLE
  2
DMST_2
 70
0
  3

  4

  5

  6

  7

 40
1
 41
3.2
 42
1
 43
7
 44
1
 45
0
 46
0
 47
0
 48
0
140
3.2
141
0
142
0
143
25.4
144
1
145
0
146
0.6
147
0.09
 71
1
 72
0
 73
0
 74
0
 75
0
 76
0
 77
1
 78
9
170
0
171
2
172
0
173
0
174
0
175
0
176
2
177
2
178
2
  0
DIMSTYLE
  2
DMST_3
 70
0
  3

  4

  5

  6

  7

 40
1
 41
3.2
 42
1
 43
7
 44
1
 45
0
 46
0
 47
0
 48
0
140
3.2
141
0
142
0
143
25.4
144
1
145
0
146
1
147
0.09
 71
0
 72
0
 73
0
 74
0
 75
0
 76
0
 77
1
 78
9
170
0
171
2
172
0
173
0
174
0
175
0
176
2
177
2
178
2
  0
DIMSTYLE
  2
DMST_4
 70
0
  3

  4

  5

  6

  7

 40
1
 41
3.2
 42
1
 43
7
 44
1
 45
0
 46
0
 47
0
 48
0.01
140
3.2
141
0
142
0
143
25.4
144
1
145
0
146
0.6
147
0.09
 71
1
 72
0
 73
0
 74
0
 75
0
 76
0
 77
1
 78
9
170
0
171
2
172
0
173
0
174
0
175
0
176
2
177
2
178
2
  0
DIMSTYLE
  2
DMST_5
 70
0
  3

  4

  5

  6

  7

 40
1
 41
3.2
 42
1
 43
7
 44
1
 45
0
 46
0
 47
0.2
 48
0.2
140
3.2
141
0
142
0
143
25.4
144
1
145
0
146
0.6
147
0.09
 71
1
 72
0
 73
0
 74
0
 75
0
 76
0
 77
1
 78
9
170
0
171
2
172
0
173
0
174
0
175
0
176
2
177
2
178
2
  0
ENDTAB
  0
TABLE
  2
LTYPE
 70
9
  0
LTYPE
  2
CONTINUOUS
 70
64
  3
Solid line
 72
65
 73
0
 40
0
  0
LTYPE
  2
BORDER
 70
64
  3
__ __ . __ __ .
 72
65
 73
6
 40
17.91447368421053
 49
5.118421052631579
 49
-2.559210526315789
 49
5.118421052631579
 49
-2.559210526315789
 49
0
 49
-2.559210526315789
  0
LTYPE
  2
CENTER
 70
64
  3
____ _ ____ _
 72
65
 73
4
 40
20.47368421052632
 49
12.79605263157895
 49
-2.559210526315789
 49
2.559210526315789
 49
-2.559210526315789
  0
LTYPE
  2
DASHDOT
 70
64
  3
__ . __ . __ .
 72
65
 73
4
 40
10.23684210526316
 49
5.118421052631579
 49
-2.559210526315789
 49
0
 49
-2.559210526315789
  0
LTYPE
  2
DASHED
 70
64
  3
__ __ __ __ __
 72
65
 73
2
 40
7.677631578947368
 49
5.118421052631579
 49
-2.559210526315789
  0
LTYPE
  2
DIVIDE
 70
64
  3
__ . . __ . . 
 72
65
 73
6
 40
12.79605263157895
 49
5.118421052631579
 49
-2.559210526315789
 49
0
 49
-2.559210526315789
 49
0
 49
-2.559210526315789
  0
LTYPE
  2
DOT
 70
64
  3
..............
 72
65
 73
4
 40
5.118421052631579
 49
0
 49
-2.559210526315789
 49
0
 49
-2.559210526315789
  0
LTYPE
  2
HIDDEN
 70
64
  3
_ _ _ _ _ _ _
 72
65
 73
2
 40
3.838815789473684
 49
2.559210526315789
 49
-1.279605263157895
  0
LTYPE
  2
PHANTOM
 70
64
  3
_____ _ _ _____ _ _ 
 72
65
 73
6
 40
25.59210526315789
 49
12.79605263157895
 49
-2.559210526315789
 49
2.559210526315789
 49
-2.559210526315789
 49
2.559210526315789
 49
-2.559210526315789
  0
ENDTAB
  0
TABLE
  2
LAYER
 70
3
  0
LAYER
  2
1
 70
0
 62
7
  6
CONTINUOUS
  0
LAYER
  2
0
 70
0
 62
7
  6
CONTINUOUS
  0
ENDTAB
  0
TABLE
  2
STYLE
 70
4
  0
STYLE
  2
STANDARD
 70
0
 40
0
 41
1
 50
0
 71
0
 42
3.5
  3
txt
  4

  0
STYLE
  2
SIMPLEX
 70
0
 40
0
 41
1
 50
0
 71
0
 42
3.5
  3
simplex
  4

  0
STYLE
  2
COMPLEX
 70
0
 40
0
 41
1
 50
0
 71
0
 42
3.5
  3
complex
  4

  0
STYLE
  2
ITALIC
 70
0
 40
0
 41
1
 50
0
 71
0
 42
3.5
  3
italic
  4

  0
ENDTAB
  0
TABLE
  2
VIEW
 70
0
  0
ENDTAB
  0
ENDSEC
  0
SECTION
  2
BLOCKS
  0
BLOCK
  8
0
  2
___R___O_______R
 70
0
 10
0.5
 20
-3.75
 30
0
  0
LINE
  8
1
 62
4
  6
PHANTOM
 10
-194.5
 20
-146
 30
0
 11
194.5
 21
-146
 31
0
  0
LINE
  8
1
 62
4
  6
PHANTOM
 10
194.5
 20
146
 30
0
 11
-194.5
 21
146
 31
0
  0
LINE
  8
1
 62
4
  6
PHANTOM
 10
194.5
 20
146
 30
0
 11
194.5
 21
129
 31
0
  0
LINE
  8
1
 62
4
  6
PHANTOM
 10
-194.5
 20
-146
 30
0
 11
-194.5
 21
146
 31
0
  0
LINE
  8
1
 62
4
  6
PHANTOM
 10
194.5
 20
-136.5
 30
0
 11
194.5
 21
-146
 31
0
  0
TEXT
  8
1
 62
4
 10
178.746911898274
 20
-142.6071298819256
 30
0
 40
5
  1
A3
 41
0.9
 72
1
 73
2
 11
183.246911898274
 21
-140.1071298819256
 31
0
  0
ENDBLK
  8
0
  0
BLOCK
  8
1
  2
*D0
 70
1
 10
0
 20
0
 30
0
  0
LINE
  8
1
 62
2
 10
113.997454836734
 20
-22.0327318479398
 30
0
 11
107.597454836734
 21
-22.0327318479398
 31
0
  0
LINE
  8
1
 62
2
 10
104.597454836734
 20
-22.0327318479398
 30
0
 11
107.597454836734
 21
-22.0327318479398
 31
0
  0
LINE
  8
1
 62
2
 10
104.597454836734
 20
-22.0327318479398
 30
0
 11
93.93121415436571
 21
-22.0327318479398
 31
0
  0
LINE
  8
1
 62
2
 10
104.597454836734
 20
-2.660000000000018
 30
0
 11
104.597454836734
 21
-23.0327318479398
 31
0
  0
LINE
  8
1
 62
2
 10
107.597454836734
 20
-2.100000000000019
 30
0
 11
107.597454836734
 21
-23.0327318479398
 31
0
  0
SOLID
  8
1
 62
2
 10
107.597454836734
 20
-22.0327318479398
 30
0
 11
110.797454836734
 21
-21.6167318479398
 31
0
 12
110.797454836734
 22
-22.4487318479398
 32
0
 13
110.797454836734
 23
-22.4487318479398
 33
0
  0
SOLID
  8
1
 62
2
 10
104.597454836734
 20
-22.0327318479398
 30
0
 11
101.397454836734
 21
-22.4487318479398
 31
0
 12
101.397454836734
 22
-21.6167318479398
 32
0
 13
101.397454836734
 23
-21.6167318479398
 33
0
  0
TEXT
  8
1
 62
2
 10
96.0112141543657
 20
-21.0327318479398
 30
0
 40
3.2
  1
3
 41
0.9
  0
TEXT
  8
1
 62
2
 10
93.93121415436569
 20
-21.0327318479398
 30
0
 40
3.2
  1
(
 41
0.9
  0
TEXT
  8
1
 62
2
 10
99.5312141543657
 20
-21.0327318479398
 30
0
 40
3.2
  1
)
 41
0.9
  0
ENDBLK
  8
0
  0
BLOCK
  8
1
  2
*D1
 70
1
 10
0
 20
0
 30
0
  0
LINE
  8
1
 62
2
 10
45
 20
-33.9727376299534
 30
0
 11
107.597454836734
 21
-33.9727376299534
 31
0
  0
LINE
  8
1
 62
2
 10
45
 20
-18
 30
0
 11
45
 21
-34.9727376299534
 31
0
  0
LINE
  8
1
 62
2
 10
107.597454836734
 20
-2.100000000000023
 30
0
 11
107.597454836734
 21
-34.9727376299534
 31
0
  0
SOLID
  8
1
 62
2
 10
45
 20
-33.9727376299534
 30
0
 11
48.2
 21
-33.5567376299534
 31
0
 12
48.2
 22
-34.3887376299534
 32
0
 13
48.2
 23
-34.3887376299534
 33
0
  0
SOLID
  8
1
 62
2
 10
107.597454836734
 20
-33.9727376299534
 30
0
 11
104.397454836734
 21
-34.3887376299534
 31
0
 12
104.397454836734
 22
-33.5567376299534
 32
0
 13
104.397454836734
 23
-33.5567376299534
 33
0
  0
TEXT
  8
1
 62
2
 10
69.45072741836698
 20
-32.1727376299534
 30
0
 40
3.2
  1
300
 41
0.9
  0
TEXT
  8
1
 62
2
 10
78.73072741836698
 20
-30.0927376299534
 30
0
 40
1.92
  1
+30
 41
0.9
  0
TEXT
  8
1
 62
2
 10
78.73072741836698
 20
-32.9727376299534
 30
0
 40
1.92
  1
 0
 41
0.9
  0
ENDBLK
  8
0
  0
BLOCK
  8
1
  2
*D2
 70
1
 10
0
 20
0
 30
0
  0
LINE
  8
1
 62
2
 10
38.6
 20
38.98563714832
 30
0
 11
45
 21
38.98563714832
 31
0
  0
LINE
  8
1
 62
2
 10
45
 20
38.98563714832
 30
0
 11
46.60000000000014
 21
38.98563714832
 31
0
  0
LINE
  8
1
 62
2
 10
46.60000000000014
 20
38.98563714832
 30
0
 11
59.74252320589901
 21
38.98563714832
 31
0
  0
LINE
  8
1
 62
2
 10
45
 20
18
 30
0
 11
45
 21
39.98563714832
 31
0
  0
LINE
  8
1
 62
2
 10
46.60000000000014
 20
4.245566037735905
 30
0
 11
46.60000000000014
 21
39.98563714832
 31
0
  0
SOLID
  8
1
 62
2
 10
45
 20
38.98563714832
 30
0
 11
41.8
 21
38.56963714832
 31
0
 12
41.8
 22
39.40163714831999
 32
0
 13
41.8
 23
39.40163714831999
 33
0
  0
SOLID
  8
1
 62
2
 10
46.60000000000014
 20
38.98563714832
 30
0
 11
49.80000000000015
 21
39.40163714831999
 31
0
 12
49.80000000000015
 22
38.56963714832
 32
0
 13
49.80000000000015
 23
38.56963714832
 33
0
  0
TEXT
  8
1
 62
2
 10
52.782523205899
 20
39.98563714832
 30
0
 40
3.2
  1
1.6
 41
0.9
  0
TEXT
  8
1
 62
2
 10
50.702523205899
 20
39.98563714832
 30
0
 40
3.2
  1
(
 41
0.9
  0
TEXT
  8
1
 62
2
 10
59.262523205899
 20
39.98563714832
 30
0
 40
3.2
  1
)
 41
0.9
  0
ENDBLK
  8
0
  0
BLOCK
  8
1
  2
*D3
 70
1
 10
0
 20
0
 30
0
  0
LINE
  8
1
 62
2
 10
0
 20
39.0780346737479
 30
0
 11
7.818332684606162
 21
39.0780346737479
 31
0
  0
LINE
  8
1
 62
2
 10
-2.000000000000001
 20
39.0780346737479
 30
0
 11
0
 21
39.0780346737479
 31
0
  0
LINE
  8
1
 62
2
 10
-8.399999999999999
 20
39.0780346737479
 30
0
 11
-2.000000000000001
 21
39.0780346737479
 31
0
  0
LINE
  8
1
 62
2
 10
0
 20
16.5
 30
0
 11
0
 21
40.0780346737479
 31
0
  0
LINE
  8
1
 62
2
 10
-2.000000000000001
 20
4.5
 30
0
 11
-2.000000000000001
 21
40.0780346737479
 31
0
  0
SOLID
  8
1
 62
2
 10
-2.000000000000001
 20
39.0780346737479
 30
0
 11
-5.200000000000001
 21
38.6620346737479
 31
0
 12
-5.200000000000001
 22
39.4940346737479
 32
0
 13
-5.200000000000001
 23
39.4940346737479
 33
0
  0
SOLID
  8
1
 62
2
 10
0
 20
39.0780346737479
 30
0
 11
3.200000000000001
 21
39.4940346737479
 31
0
 12
3.200000000000001
 22
38.6620346737479
 32
0
 13
3.200000000000001
 23
38.6620346737479
 33
0
  0
TEXT
  8
1
 62
2
 10
5.89833268460616
 20
40.0780346737479
 30
0
 40
3.2
  1
2
 41
0.9
  0
ENDBLK
  8
0
  0
BLOCK
  8
1
  2
*D4
 70
1
 10
0
 20
0
 30
0
  0
LINE
  8
1
 62
2
 10
0
 20
50.9823433756303
 30
0
 11
45
 21
50.9823433756303
 31
0
  0
LINE
  8
1
 62
2
 10
0
 20
16.5
 30
0
 11
0
 21
51.9823433756303
 31
0
  0
LINE
  8
1
 62
2
 10
45
 20
18
 30
0
 11
45
 21
51.9823433756303
 31
0
  0
SOLID
  8
1
 62
2
 10
0
 20
50.9823433756303
 30
0
 11
3.200000000000001
 21
51.3983433756303
 31
0
 12
3.200000000000001
 22
50.5663433756303
 32
0
 13
3.200000000000001
 23
50.5663433756303
 33
0
  0
SOLID
  8
1
 62
2
 10
45
 20
50.9823433756303
 30
0
 11
41.8
 21
50.5663433756303
 31
0
 12
41.8
 22
51.3983433756303
 32
0
 13
41.8
 23
51.3983433756303
 33
0
  0
TEXT
  8
1
 62
2
 10
20.1
 20
51.9823433756303
 30
0
 40
3.2
  1
45
 41
0.9
  0
ENDBLK
  8
0
  0
BLOCK
  8
1
  2
*D5
 70
1
 10
0
 20
0
 30
0
  0
LINE
  8
1
 62
2
 10
-12
 20
50.9718475420598
 30
0
 11
0
 21
50.9718475420598
 31
0
  0
LINE
  8
1
 62
2
 10
0
 20
16.5
 30
0
 11
0
 21
51.9718475420598
 31
0
  0
LINE
  8
1
 62
2
 10
-12
 20
2.25
 30
0
 11
-12
 21
51.9718475420598
 31
0
  0
SOLID
  8
1
 62
2
 10
-12
 20
50.9718475420598
 30
0
 11
-8.799999999999999
 21
51.3878475420598
 31
0
 12
-8.799999999999999
 22
50.5558475420598
 32
0
 13
-8.799999999999999
 23
50.5558475420598
 33
0
  0
SOLID
  8
1
 62
2
 10
0
 20
50.9718475420598
 30
0
 11
-3.200000000000001
 21
50.5558475420598
 31
0
 12
-3.200000000000001
 22
51.3878475420598
 32
0
 13
-3.200000000000001
 23
51.3878475420598
 33
0
  0
TEXT
  8
1
 62
2
 10
-7.92
 20
51.9718475420598
 30
0
 40
3.2
  1
12
 41
0.9
  0
ENDBLK
  8
0
  0
BLOCK
  8
1
  2
*D6
 70
1
 10
0
 20
0
 30
0
  0
LINE
  8
1
 62
2
 10
67.42619432286377
 20
-17
 30
0
 11
67.42619432286377
 21
17
 31
0
  0
LINE
  8
1
 62
2
 10
46
 20
-17
 30
0
 11
68.42619432286377
 21
-17
 31
0
  0
LINE
  8
1
 62
2
 10
46
 20
17
 30
0
 11
68.42619432286377
 21
17
 31
0
  0
SOLID
  8
1
 62
2
 10
67.42619432286377
 20
17
 30
0
 11
67.84219432286376
 21
13.8
 31
0
 12
67.01019432286377
 22
13.8
 32
0
 13
67.01019432286377
 23
13.8
 33
0
  0
SOLID
  8
1
 62
2
 10
67.42619432286377
 20
-17
 30
0
 11
67.01019432286377
 21
-13.8
 31
0
 12
67.84219432286376
 22
-13.8
 32
0
 13
67.84219432286376
 23
-13.8
 33
0
  0
TEXT
  8
1
 62
2
 10
65.57286098953043
 20
-0.3764705882352946
 30
0
 40
3.2
  1
34
 50
90
 41
0.9
  0
TEXT
  8
1
 62
2
 10
65.57286098953043
 20
-4.423529411764706
 30
0
 40
3.2
  1
ƒÓ
 50
90
 41
0.9
  0
ENDBLK
  8
0
  0
BLOCK
  8
1
  2
*D7
 70
1
 10
0
 20
0
 30
0
  0
LINE
  8
1
 62
2
 10
-25.016690669123
 20
1.25
 30
0
 11
-25.016690669123
 21
29.40094360202063
 31
0
  0
LINE
  8
1
 62
2
 10
-25.016690669123
 20
-1.25
 30
0
 11
-25.016690669123
 21
1.25
 31
0
  0
LINE
  8
1
 62
2
 10
-25.016690669123
 20
-7.649999999999999
 30
0
 11
-25.016690669123
 21
-1.25
 31
0
  0
LINE
  8
1
 62
2
 10
-13
 20
1.25
 30
0
 11
-26.016690669123
 21
1.25
 31
0
  0
LINE
  8
1
 62
2
 10
-13
 20
-1.25
 30
0
 11
-26.016690669123
 21
-1.25
 31
0
  0
SOLID
  8
1
 62
2
 10
-25.016690669123
 20
1.25
 30
0
 11
-25.432690669123
 21
4.450000000000001
 31
0
 12
-24.600690669123
 22
4.450000000000001
 32
0
 13
-24.600690669123
 23
4.450000000000001
 33
0
  0
SOLID
  8
1
 62
2
 10
-25.016690669123
 20
-1.25
 30
0
 11
-24.600690669123
 21
-4.450000000000001
 31
0
 12
-25.432690669123
 22
-4.450000000000001
 32
0
 13
-25.432690669123
 23
-4.450000000000001
 33
0
  0
TEXT
  8
1
 62
2
 10
-26.816690669123
 20
15.76894360202062
 30
0
 40
3.2
  1
2.5
 50
90
 41
0.9
  0
TEXT
  8
1
 62
2
 10
-28.896690669123
 20
23.20894360202062
 30
0
 40
1.92
  1
 0
 50
90
 41
0.9
  0
TEXT
  8
1
 62
2
 10
-26.016690669123
 20
23.20894360202062
 30
0
 40
1.92
  1
-0.01
 50
90
 41
0.9
  0
TEXT
  8
1
 62
2
 10
-26.816690669123
 20
12.12449915757618
 30
0
 40
3.2
  1
ƒÓ
 50
90
 41
0.9
  0
ENDBLK
  8
0
  0
BLOCK
  8
1
  2
*D8
 70
1
 10
0
 20
0
 30
0
  0
LINE
  8
1
 62
2
 10
-37.07259062875521
 20
4.100000000000019
 30
0
 11
-37.07259062875521
 21
27.96531402538342
 31
0
  0
LINE
  8
1
 62
2
 10
-37.07259062875521
 20
-4.100000000000019
 30
0
 11
-37.07259062875521
 21
4.100000000000019
 31
0
  0
LINE
  8
1
 62
2
 10
-37.07259062875521
 20
-10.50000000000002
 30
0
 11
-37.07259062875521
 21
-4.100000000000019
 31
0
  0
LINE
  8
1
 62
2
 10
-2.899999999999864
 20
4.100000000000019
 30
0
 11
-38.07259062875521
 21
4.100000000000019
 31
0
  0
LINE
  8
1
 62
2
 10
-2.899999999999864
 20
-4.100000000000019
 30
0
 11
-38.07259062875521
 21
-4.100000000000019
 31
0
  0
SOLID
  8
1
 62
2
 10
-37.07259062875521
 20
4.100000000000019
 30
0
 11
-37.48859062875521
 21
7.30000000000002
 31
0
 12
-36.65659062875521
 22
7.30000000000002
 32
0
 13
-36.65659062875521
 23
7.30000000000002
 33
0
  0
SOLID
  8
1
 62
2
 10
-37.07259062875521
 20
-4.100000000000019
 30
0
 11
-36.65659062875521
 21
-7.30000000000002
 31
0
 12
-37.48859062875521
 22
-7.30000000000002
 32
0
 13
-37.48859062875521
 23
-7.30000000000002
 33
0
  0
TEXT
  8
1
 62
2
 10
-38.0725906287552
 20
15.67731402538342
 30
0
 40
3.2
  1
8.2
 50
90
 41
0.9
  0
TEXT
  8
1
 62
2
 10
-38.7125906287552
 20
23.11731402538342
 30
0
 40
1.92
  1
%%p0.2
 50
90
 41
0.9
  0
TEXT
  8
1
 62
2
 10
-38.0725906287552
 20
12.03286958093898
 30
0
 40
3.2
  1
ƒÓ
 50
90
 41
0.9
  0
ENDBLK
  8
0
  0
BLOCK
  8
1
  2
*D9
 70
1
 10
0
 20
0
 30
0
  0
LINE
  8
1
 62
2
 10
-106.9475173606347
 20
-7.832299187881301
 30
0
 11
-116.8953738364239
 21
-27.06295641277415
 31
0
  0
LINE
  8
1
 62
2
 10
-116.8953738364239
 20
-27.06295641277415
 30
0
 11
-64.89537383642387
 21
-27.06295641277415
 31
0
  0
SOLID
  8
1
 62
2
 10
-106.9475173606347
 20
-7.832299187881301
 30
0
 11
-108.0482922234473
 21
-10.8656720138623
 31
0
 12
-108.7872741728937
 22
-10.48340289610301
 32
0
 13
-108.7872741728937
 23
-10.48340289610301
 33
0
  0
TEXT
  8
1
 62
2
 10
-102.4153738364239
 20
-26.06295641277415
 30
0
 40
3.2
  1
3
 41
0.9
  0
TEXT
  8
1
 62
2
 10
-111.6953738364239
 20
-26.06295641277415
 30
0
 40
3.2
  1
3-M
 41
0.9
  0
TEXT
  8
1
 62
2
 10
-98.89537383642387
 20
-26.06295641277415
 30
0
 40
3.2
  1
 DEPTH 3MAX.
 41
0.9
  0
ENDBLK
  8
0
  0
ENDSEC
  0
SECTION
  2
ENTITIES
  0
LINE
  8
1
 62
2
 10
-116.8953738364239
 20
-49
 30
0
 11
-61.08613110016992
 21
-49
 31
0
  0
LINE
  8
1
 62
2
 10
-116.8953738364239
 20
-34
 30
0
 11
-61.08613110016992
 21
-34
 31
0
  0
LINE
  8
1
 62
2
 10
91.83398547653016
 20
19.56463769237626
 30
0
 11
164.7587056195052
 21
19.56463769237626
 31
0
  0
LINE
  8
1
 62
2
 10
-116.8953738364239
 20
-42
 30
0
 11
-61.08613110016992
 21
-42
 31
0
  0
LINE
  8
1
 62
7
 10
54.77394669805312
 20
1.659999999999968
 30
0
 11
60.8477634318831
 21
1.659999999999968
 31
0
  0
LINE
  8
1
 62
7
 10
55.29559716917015
 20
1.659999999999968
 30
0
 11
55.29559716917015
 21
-2.667939847309921
 31
0
  0
LINE
  8
1
 62
7
 10
57.79559716917015
 20
-2.667939847309921
 30
0
 11
57.79559716917015
 21
1.659999999999968
 31
0
  0
LINE
  8
1
 62
7
 10
54.53452267605007
 20
4.583731477860621
 30
0
 11
54.40570466838517
 21
1.872715535701388
 31
0
  0
LINE
  8
1
 62
7
 10
58.05723516286412
 20
5.060000000000059
 30
0
 11
55.03395917547596
 21
5.060000000000059
 31
0
  0
LINE
  8
1
 62
7
 10
58.68548966995399
 20
1.872715535701388
 30
0
 11
58.55667166229
 21
4.583731477860621
 31
0
  0
LINE
  8
1
 62
7
 10
55.29559716917015
 20
-2.667939847309921
 30
0
 11
57.79559716917015
 21
-2.667939847309921
 31
0
  0
LINE
  8
1
 62
7
 10
45.84511721223498
 20
-4.215059489114539
 30
0
 11
45
 21
-4.606399233376409
 31
0
  0
LINE
  8
1
 62
7
 10
46.60000000000014
 20
-3.2455660377359
 30
0
 11
46.60000000000014
 21
3.245566037735902
 31
0
  0
LINE
  8
1
 62
7
 10
45.84511721223498
 20
4.21505948911442
 30
0
 11
45
 21
4.606399233376351
 31
0
  0
LINE
  8
1
 62
7
 10
74.095483301885
 20
-1.660000000000021
 30
0
 11
104.597454836734
 21
-1.660000000000021
 31
0
  0
LINE
  8
1
 62
7
 10
74.095483301885
 20
1.659999999999968
 30
0
 11
104.597454836734
 21
1.659999999999968
 31
0
  0
LINE
  8
1
 62
7
 10
104.597454836734
 20
-1.100000000000019
 30
0
 11
107.597454836734
 21
-1.100000000000019
 31
0
  0
LINE
  8
1
 62
7
 10
104.597454836734
 20
-0.3999999999999808
 30
0
 11
107.597454836734
 21
-0.3999999999999808
 31
0
  0
LINE
  8
1
 62
7
 10
104.597454836734
 20
0.3999999999999808
 30
0
 11
107.597454836734
 21
0.3999999999999808
 31
0
  0
LINE
  8
1
 62
7
 10
104.597454836734
 20
1.100000000000019
 30
0
 11
107.597454836734
 21
1.100000000000019
 31
0
  0
LINE
  8
1
 62
7
 10
104.597454836734
 20
1.659999999999968
 30
0
 11
104.597454836734
 21
-1.660000000000021
 31
0
  0
LINE
  8
1
 62
7
 10
45
 20
7.478504678941871
 30
0
 11
48.52956293441207
 21
7.478504678941871
 31
0
  0
LINE
  8
1
 62
7
 10
49.01903437114311
 20
7.278922217228001
 30
0
 11
53.31398915369414
 21
0.2851178024483296
 31
0
  0
LINE
  8
1
 62
7
 10
54.01323406331016
 20
0
 30
0
 11
55.29559716917015
 21
0
 31
0
  0
LINE
  8
1
 62
7
 10
45
 20
-7.478504678941929
 30
0
 11
48.52956293441207
 21
-7.478504678941929
 31
0
  0
LINE
  8
1
 62
7
 10
49.01903437114311
 20
-7.278922217228111
 30
0
 11
53.31398915369414
 21
-0.2851178024484398
 31
0
  0
LINE
  8
1
 62
7
 10
57.79559716917015
 20
0
 30
0
 11
60.8477634318831
 21
0
 31
0
  0
LINE
  8
1
 62
7
 10
57.79559716917015
 20
-1.660000000000021
 30
0
 11
60.8477634318831
 21
-1.660000000000021
 31
0
  0
LINE
  8
1
 62
7
 10
45
 20
9.138504678941899
 30
0
 11
48.93751528276812
 21
9.138504678941899
 31
0
  0
LINE
  8
1
 62
7
 10
50.32614829352497
 20
8.2056892709731
 30
0
 11
54.31106902780107
 21
1.970938469322959
 31
0
  0
LINE
  8
1
 62
7
 10
45
 20
-9.138504678941899
 30
0
 11
48.93751528276812
 21
-9.138504678941899
 31
0
  0
LINE
  8
1
 62
7
 10
45
 20
17
 30
0
 11
45
 21
-17
 31
0
  0
LINE
  8
1
 62
7
 10
50.32614829352497
 20
-8.205689270973149
 30
0
 11
54.31106902780107
 21
-1.970938469322899
 31
0
  0
LINE
  8
1
 62
7
 10
54.77394669805312
 20
-1.660000000000021
 30
0
 11
55.29559716917015
 21
-1.660000000000021
 31
0
  0
LINE
  8
1
 62
7
 10
74.095483301885
 20
0
 30
0
 11
104.597454836734
 21
0
 31
0
  0
LINE
  8
1
 62
7
 10
14
 20
13.10000000000002
 30
0
 11
14
 21
-13.10000000000002
 31
0
  0
LINE
  8
1
 62
7
 10
31
 20
13.10000000000002
 30
0
 11
14
 21
13.10000000000002
 31
0
  0
LINE
  8
1
 62
7
 10
31
 20
-13.10000000000002
 30
0
 11
31
 21
13.10000000000002
 31
0
  0
LINE
  8
1
 62
7
 10
14
 20
-13.10000000000002
 30
0
 11
31
 21
-13.10000000000002
 31
0
  0
LINE
  8
1
 62
3
 10
-115.0000000000004
 20
0
 30
0
 11
-74.99999999999959
 21
0
 31
0
  0
LINE
  8
1
 62
3
 10
-15
 20
0
 30
0
 11
49.60000000000014
 21
0
 31
0
  0
LINE
  8
1
 62
7
 10
-12
 20
1.25
 30
0
 11
-12
 21
-1.25
 31
0
  0
LINE
  8
1
 62
7
 10
0
 20
4.100000000000019
 30
0
 11
-1.89999999999986
 21
4.100000000000019
 31
0
  0
LINE
  8
1
 62
7
 10
1.5
 20
17
 30
0
 11
45
 21
17
 31
0
  0
LINE
  8
1
 62
7
 10
1.5
 20
-17
 30
0
 11
45
 21
-17
 31
0
  0
LINE
  8
1
 62
7
 10
0
 20
-15.5
 30
0
 11
0
 21
15.5
 31
0
  0
LINE
  8
1
 62
7
 10
-1.89999999999986
 20
-4.100000000000021
 30
0
 11
0
 21
-4.100000000000021
 31
0
  0
LINE
  8
1
 62
7
 10
-2
 20
1.25
 30
0
 11
-12
 21
1.25
 31
0
  0
LINE
  8
1
 62
7
 10
-2
 20
-1.25
 30
0
 11
-12
 21
-1.25
 31
0
  0
LINE
  8
1
 62
7
 10
-2
 20
3.5
 30
0
 11
-2
 21
-3.5
 31
0
  0
LINE
  8
1
 62
7
 10
-2
 20
3.5
 30
0
 11
-1.89999999999986
 21
3.5
 31
0
  0
LINE
  8
1
 62
7
 10
-2
 20
-3.5
 30
0
 11
-1.89999999999986
 21
-3.5
 31
0
  0
LINE
  8
1
 62
7
 10
-1.89999999999986
 20
-4.100000000000021
 30
0
 11
-1.89999999999986
 21
4.100000000000019
 31
0
  0
LINE
  8
1
 62
3
 10
-95
 20
20.00000000000041
 30
0
 11
-95
 21
-20.00000000000041
 31
0
  0
LINE
  8
1
 62
3
 10
-108.4233937588319
 20
-7.750000000100388
 30
0
 11
-104.0932667395634
 21
-5.249999999900696
 31
0
  0
LINE
  8
1
 62
3
 10
-81.57660624116768
 20
-7.75000000009976
 30
0
 11
-85.90673326043597
 21
-5.249999999899671
 31
0
  0
CIRCLE
  8
1
 62
3
  6
CENTER
 10
-95
 20
0
 30
0
 40
13
  0
CIRCLE
  8
1
 62
7
 10
-95
 20
0
 30
0
 40
4.099999999999909
  0
CIRCLE
  8
1
 62
7
 10
-95
 20
0
 30
0
 40
3.5
  0
CIRCLE
  8
1
 62
7
 10
-95
 20
0
 30
0
 40
1.25
  0
CIRCLE
  8
1
 62
7
 10
-95
 20
0
 30
0
 40
17.00000000000041
  0
CIRCLE
  8
1
 62
3
 10
-106.258330249198
 20
-6.5
 30
0
 40
1.50000000019989
  0
CIRCLE
  8
1
 62
7
 10
-95
 20
13
 30
0
 40
1.200000000000003
  0
CIRCLE
  8
1
 62
3
 10
-95
 20
13
 30
0
 40
1.5
  0
CIRCLE
  8
1
 62
7
 10
-83.74166975080229
 20
-6.5
 30
0
 40
1.199999999999992
  0
CIRCLE
  8
1
 62
3
 10
-83.74166975080229
 20
-6.5
 30
0
 40
1.5
  0
CIRCLE
  8
1
 62
7
 10
-106.258330249198
 20
-6.5
 30
0
 40
1.200000000000142
  0
POLYLINE
  8
1
 62
2
 66
1
  0
VERTEX
  8
1
 10
60.8477634318831
 20
1.659999999999968
 30
0
 42
0.004627892300611798
  0
VERTEX
  8
1
 10
60.73563631948675
 20
1.491616220198778
 30
0
 42
0.01432161089925205
  0
VERTEX
  8
1
 10
60.63238211421628
 20
1.323044021152185
 30
0
 42
0.02620784398771864
  0
VERTEX
  8
1
 10
60.54687372319758
 20
1.154094983614786
 30
0
 42
0.04090712517605818
  0
VERTEX
  8
1
 10
60.48798405355652
 20
0.9845806883411793
 30
0
 42
0.05807845058512741
  0
VERTEX
  8
1
 10
60.46458601241898
 20
0.8143127160859613
 30
0
 42
0.06215230223744987
  0
VERTEX
  8
1
 10
60.48181761994763
 20
0.6485926597160037
 30
0
 42
0.04094631376561388
  0
VERTEX
  8
1
 10
60.53474223691296
 20
0.4831443937136308
 30
0
 42
0.03762017696357827
  0
VERTEX
  8
1
 10
60.61736879206037
 20
0.3191248842876406
 30
0
 42
0.02031018658735879
  0
VERTEX
  8
1
 10
60.72370621413528
 20
0.1576910976468312
 30
0
 42
0.02175284297826371
  0
VERTEX
  8
1
 10
60.8477634318831
 20
0
 30
0
 42
0.005899236995687246
  0
VERTEX
  8
1
 10
60.99193641393539
 20
-0.1637579280638382
 30
0
 42
-0.006290958372008577
  0
VERTEX
  8
1
 10
61.13391346168792
 20
-0.3235371166084413
 30
0
 42
-0.0239148850123308
  0
VERTEX
  8
1
 10
61.2580743161973
 20
-0.4809668155035257
 30
0
 42
-0.04938818170592148
  0
VERTEX
  8
1
 10
61.34879871852016
 20
-0.6376762746188072
 30
0
 42
-0.08501367003326776
  0
VERTEX
  8
1
 10
61.3904664097131
 20
-0.7952947438240017
 30
0
 42
-0.09457323444283762
  0
VERTEX
  8
1
 10
61.36918479507097
 20
-0.9648112997999792
 30
0
 42
-0.0599675666568831
  0
VERTEX
  8
1
 10
61.2897305264796
 20
-1.136610852615441
 30
0
 42
-0.03390202050799032
  0
VERTEX
  8
1
 10
61.16664676742629
 20
-1.310122653060516
 30
0
 42
-0.01714841413817199
  0
VERTEX
  8
1
 10
61.01447668139835
 20
-1.484775951925333
 30
0
 42
-0.005242237567701936
  0
VERTEX
  8
1
 10
60.8477634318831
 20
-1.660000000000021
 30
0
  0
SEQEND
  8
1
  0
POLYLINE
  8
1
 62
2
 66
1
  0
VERTEX
  8
1
 10
74.095483301885
 20
1.659999999999968
 30
0
 42
0.004627892300614685
  0
VERTEX
  8
1
 10
73.98335618948872
 20
1.491616220198779
 30
0
 42
0.01432161089925649
  0
VERTEX
  8
1
 10
73.88010198421831
 20
1.323044021152187
 30
0
 42
0.02620784398767953
  0
VERTEX
  8
1
 10
73.79459359319966
 20
1.154094983614789
 30
0
 42
0.04090712517605596
  0
VERTEX
  8
1
 10
73.73570392355863
 20
0.9845806883411814
 30
0
 42
0.05807845058509622
  0
VERTEX
  8
1
 10
73.71230588242111
 20
0.8143127160859613
 30
0
 42
0.06215230223737497
  0
VERTEX
  8
1
 10
73.72953748994974
 20
0.6485926597160013
 30
0
 42
0.04094631376563378
  0
VERTEX
  8
1
 10
73.78246210691502
 20
0.4831443937136258
 30
0
 42
0.03762017696353647
  0
VERTEX
  8
1
 10
73.86508866206238
 20
0.3191248842876343
 30
0
 42
0.02031018658740424
  0
VERTEX
  8
1
 10
73.97142608413722
 20
0.157691097646826
 30
0
 42
0.02175284297826535
  0
VERTEX
  8
1
 10
74.095483301885
 20
0
 30
0
 42
0.005899236995727131
  0
VERTEX
  8
1
 10
74.23965628393727
 20
-0.1637579280638457
 30
0
 42
-0.006290958371931525
  0
VERTEX
  8
1
 10
74.38163333168978
 20
-0.3235371166084508
 30
0
 42
-0.02391488501224559
  0
VERTEX
  8
1
 10
74.50579418619917
 20
-0.4809668155035333
 30
0
 42
-0.04938818170598548
  0
VERTEX
  8
1
 10
74.59651858852205
 20
-0.6376762746188108
 30
0
 42
-0.08501367003334738
  0
VERTEX
  8
1
 10
74.638186279715
 20
-0.7952947438240017
 30
0
 42
-0.09457323444288175
  0
VERTEX
  8
1
 10
74.61690466507289
 20
-0.9648112997999767
 30
0
 42
-0.05996756665684811
  0
VERTEX
  8
1
 10
74.53745039648152
 20
-1.136610852615438
 30
0
 42
-0.03390202050787984
  0
VERTEX
  8
1
 10
74.4143666374282
 20
-1.310122653060513
 30
0
 42
-0.01714841413812301
  0
VERTEX
  8
1
 10
74.26219655140025
 20
-1.484775951925331
 30
0
 42
-0.005242237567722253
  0
VERTEX
  8
1
 10
74.095483301885
 20
-1.660000000000021
 30
0
  0
SEQEND
  8
1
  0
ARC
  8
1
 62
7
 10
54.60530004696898
 20
1.86000000000001
 30
0
 40
0.2000000000004669
 50
176.3548088145813
 51
192.3470653506602
  0
ARC
  8
1
 62
7
 10
58.05723516286412
 20
4.560000000000059
 30
0
 40
0.5000000000002265
 50
2.720449105930216
 51
90
  0
ARC
  8
1
 62
7
 10
55.03395917547596
 20
4.560000000000059
 30
0
 40
0.5
 50
90
 51
177.2795508940698
  0
ARC
  8
1
 62
7
 10
58.4858942913711
 20
1.86000000000001
 30
0
 40
0.2000000000000421
 50
270
 51
3.645191185435566
  0
ARC
  8
1
 62
7
 10
45.60000000000014
 20
-3.2455660377359
 30
0
 40
0.9999999999999224
 50
284.1887607106211
 51
0
  0
ARC
  8
1
 62
7
 10
45.60000000000014
 20
3.245566037735902
 30
0
 40
1
 50
0
 51
75.81123928937721
  0
ARC
  8
1
 62
7
 10
54.01323406331016
 20
-1
 30
0
 40
1
 50
90
 51
134.3664543436555
  0
ARC
  8
1
 62
7
 10
54.01323406331016
 20
1
 30
0
 40
1.000000000000111
 50
225.6335456563489
 51
270
  0
ARC
  8
1
 62
7
 10
48.52956293441207
 20
-6.778504678941889
 30
0
 40
0.7000000000000402
 50
270
 51
314.3664543436377
  0
ARC
  8
1
 62
7
 10
48.52956293441207
 20
6.778504678941768
 30
0
 40
0.6999999999999993
 50
45.63354565636294
 51
90
  0
ARC
  8
1
 62
7
 10
48.93751528276812
 20
7.638504678941899
 30
0
 40
1.500000000000416
 50
22.21746912181914
 51
90
  0
ARC
  8
1
 62
7
 10
48.93751528276812
 20
-7.638504678941899
 30
0
 40
1.5
 50
270
 51
337.7825308781791
  0
ARC
  8
1
 62
7
 10
54.77394669805312
 20
-2.160000000000021
 30
0
 40
0.5
 50
90
 51
157.7825308781651
  0
ARC
  8
1
 62
7
 10
54.77394669805312
 20
2.159999999999968
 30
0
 40
0.4999999999999042
 50
202.217469121823
 51
270
  0
ARC
  8
1
 62
7
 10
1.5
 20
15.5
 30
0
 40
1.5
 50
90
 51
180
  0
ARC
  8
1
 62
7
 10
1.5
 20
-15.5
 30
0
 40
1.5
 50
180
 51
270
  0
LINE
  8
1
 62
2
 10
164.7587056195051
 20
26.56463769237626
 30
0
 11
94.83038431519321
 21
26.56463769237626
 31
0
  0
LINE
  8
1
 62
2
 10
94.83038431519321
 20
26.56463769237626
 30
0
 11
84.13873748996821
 21
1.659999999999968
 31
0
  0
SOLID
  8
1
 62
2
 10
85.09602895526352
 20
5.05792800202635
 30
0
 11
85.94285852039464
 21
4.69438115009554
 31
0
 12
84.13873748996821
 22
1.659999999999968
 32
0
 13
84.13873748996821
 23
1.659999999999968
 33
0
  0
LINE
  8
1
 62
2
 10
28.20422801210498
 20
27
 30
0
 11
5.52248035771413
 21
27
 31
0
  0
LINE
  8
1
 62
2
 10
5.52248035771413
 20
27
 30
0
 11
15.49832531488596
 21
13.10000000000002
 31
0
  0
SOLID
  8
1
 62
2
 10
13.083241225345
 20
15.67481853669894
 30
0
 11
13.83194529511921
 21
16.21215348050261
 31
0
 12
15.49832531488596
 22
13.10000000000002
 32
0
 13
15.49832531488596
 23
13.10000000000002
 33
0
  0
TEXT
  8
1
 62
2
 10
-78.30402317725678
 20
-47.4982903482229
 30
0
 40
2.5
  1
%%p0.00787
 41
0.7200000000000001
 72
1
 73
2
 11
-69.30402317725678
 21
-46.2482903482229
 31
0
  0
TEXT
  8
1
 62
2
 10
-73.69654356891499
 20
-40.49932045948471
 30
0
 40
2.5
  1
%%p0.2
 41
0.7200000000000001
 72
1
 73
2
 11
-68.29654356891498
 21
-39.24932045948471
 31
0
  0
TEXT
  8
1
 62
2
 10
-112.8670375020349
 20
-47.9982903482229
 30
0
 40
3.5
  1
(P.C.D=1.024DIA.     )
 41
0.8550000000000001
 73
2
 11
-112.8670375020349
 21
-46.2482903482229
 31
0
  0
TEXT
  8
1
 62
2
 10
97.24669839265016
 20
27.84971452164847
 30
0
 40
3.5
  1
LEAD WIRES (RED,BLACK)
 41
0.9
 73
2
 11
97.24669839265016
 21
29.59971452164847
 31
0
  0
TEXT
  8
1
 62
2
 10
97.24669839265016
 20
20.75309253258666
 30
0
 40
3.5
  1
UL1007 AWG22
 41
0.9
 73
2
 11
97.24669839265016
 21
22.50309253258666
 31
0
  0
TEXT
  8
1
 62
2
 10
-112.8670375020349
 20
-32.9848168531369
 30
0
 40
3.5
  1
(3-M3 DEPTH 0.118MAX)
 41
0.72
 73
2
 11
-112.8670375020349
 21
-31.2348168531369
 31
0
  0
TEXT
  8
1
 62
2
 10
-111.3670375020349
 20
-40.99932045948471
 30
0
 40
3.5
  1
P=120%%d P.C.D=ƒÓ26
 41
0.8100000000000001
 73
2
 11
-111.3670375020349
 21
-39.24932045948471
 31
0
  0
TEXT
  8
1
 62
2
 10
77.16784230225704
 20
-37.2
 30
0
 40
2
  1
+1.181
 41
0.63
  0
TEXT
  8
1
 62
2
 10
77.16784230225704
 20
-39.59999999999999
 30
0
 40
2
  1
 0
 41
0.63
  0
TEXT
  8
1
 62
2
 10
65.62149852911509
 20
-39
 30
0
 40
3.2
  1
(11.811   )
 41
0.6300000000000001
 72
1
 73
2
 11
76.70949852911508
 21
-37.4
 31
0
  0
TEXT
  8
1
 62
2
 10
90.14400000000005
 20
-26.2195935692656
 30
0
 40
3.2
  1
(0.118)
 41
0.6300000000000001
 72
1
 73
2
 11
97.20000000000005
 21
-24.6195935692656
 31
0
  0
TEXT
  8
1
 62
2
 10
9.35700959971506
 20
28.01493706720249
 30
0
 40
3.2
  1
NAME PLATE
 41
0.54
 72
1
 73
2
 11
17.99700959971506
 21
29.61493706720249
 31
0
  0
TEXT
  8
1
 62
2
 10
48.14400000000005
 20
34.7896193441085
 30
0
 40
3.2
  1
(0.063)
 41
0.6300000000000001
 72
1
 73
2
 11
55.20000000000005
 21
36.3896193441085
 31
0
  0
TEXT
  8
1
 62
2
 10
-0.863999999999951
 20
34.7896193441085
 30
0
 40
3.2
  1
(0.0787)
 41
0.6300000000000001
 72
1
 73
2
 11
7.200000000000051
 21
36.3896193441085
 31
0
  0
TEXT
  8
1
 62
2
 10
15.74400000000005
 20
46.8160189045415
 30
0
 40
3.2
  1
(1.772)
 41
0.6300000000000001
 72
1
 73
2
 11
22.80000000000005
 21
48.4160189045415
 31
0
  0
TEXT
  8
1
 62
2
 10
-13.056
 20
46.8160189045415
 30
0
 40
3.2
  1
(0.472)
 41
0.6300000000000001
 72
1
 73
2
 11
-6
 21
48.4160189045415
 31
0
  0
TEXT
  8
1
 62
2
 10
71.19229171368596
 20
-11.088
 30
0
 40
3.2
  1
(1.339DIA.)
 50
90
 41
0.6300000000000001
 72
1
 73
2
 11
69.59229171368595
 21
0
 31
0
  0
TEXT
  8
1
 62
2
 10
-33.39777068274702
 20
20.3308060271026
 30
0
 40
2
  1
 %%p0.00787
 50
90
 41
0.63
 72
1
 73
2
 11
-34.39777068274702
 21
27.2608060271026
 31
0
  0
TEXT
  8
1
 62
2
 10
-32.79777068274702
 20
4.494462253960798
 30
0
 40
3.2
  1
(0.323DIA.     )
 50
90
 41
0.6300000000000001
 72
1
 73
2
 11
-34.39777068274702
 21
20.6224622539608
 31
0
  0
TEXT
  8
1
 62
2
 10
-21.8
 20
23.39080602710261
 30
0
 40
2
  1
 0
 50
90
 41
0.63
  0
TEXT
  8
1
 62
2
 10
-19.4
 20
23.39080602710261
 30
0
 40
2
  1
-0.000394
 50
90
 41
0.63
  0
TEXT
  8
1
 62
2
 10
-20
 20
2.478462253960796
 30
0
 40
3.2
  1
(0.0984DIA.      )
 50
90
 41
0.6300000000000001
 72
1
 73
2
 11
-21.6
 21
20.6224622539608
 31
0
  0
TEXT
  8
1
 62
2
 10
-138
 20
93.5
 30
0
 40
5
  1
DME34K
 41
0.9
 72
1
 73
2
 11
-124.5
 21
96
 31
0
  0
DIMENSION
  8
1
  6
CONTINUOUS
 62
2
  2
*D0
  3
DMST_1
 10
104.597454836734
 20
-22.0327318479398
 30
0
 11
96.9712141543657
 21
-19.4327318479398
 31
0
 12
0
 22
0
 32
0
 70
0
  1
(<>
 13
107.597454836734
 23
-1.100000000000019
 33
0
 14
104.597454836734
 24
-1.660000000000021
 34
0
 53
0
  0
DIMENSION
  8
1
  6
CONTINUOUS
 62
2
  2
*D1
  3
DMST_2
 10
45
 20
-33.9727376299534
 30
0
 11
76.29872741836698
 21
-30.5727376299534
 31
0
 12
0
 22
0
 32
0
 70
0
  1
300
 13
107.597454836734
 23
-1.100000000000019
 33
0
 14
45
 24
-17
 34
0
 53
0
  0
DIMENSION
  8
1
  6
CONTINUOUS
 62
2
  2
*D2
  3
DMST_1
 10
46.60000000000014
 20
38.98563714832
 30
0
 11
55.222523205899
 21
41.58563714832
 31
0
 12
0
 22
0
 32
0
 70
0
  1
(<>
 13
45
 23
17
 33
0
 14
46.60000000000014
 24
3.245566037735902
 34
0
 53
0
  0
DIMENSION
  8
1
  6
CONTINUOUS
 62
2
  2
*D3
  3
DMST_3
 10
0
 20
39.0780346737479
 30
0
 11
6.85833268460616
 21
41.6780346737479
 31
0
 12
0
 22
0
 32
0
 70
0
 13
-2
 23
3.5
 33
0
 14
0
 24
15.5
 34
0
 53
0
  0
DIMENSION
  8
1
  6
CONTINUOUS
 62
2
  2
*D4
  3
DMST_3
 10
0
 20
50.9823433756303
 30
0
 11
22.5
 21
53.5823433756303
 31
0
 12
0
 22
0
 32
0
 70
0
 13
45
 23
17
 33
0
 14
0
 24
15.5
 34
0
 53
0
  0
DIMENSION
  8
1
  6
CONTINUOUS
 62
2
  2
*D5
  3
DMST_3
 10
0
 20
50.9718475420598
 30
0
 11
-6
 21
53.5718475420598
 31
0
 12
0
 22
0
 32
0
 70
0
 13
-12
 23
1.25
 33
0
 14
0
 24
15.5
 34
0
 53
0
  0
DIMENSION
  8
1
  6
CONTINUOUS
 62
2
  2
*D6
  3
DMST_3
 10
67.42619432286377
 20
-17
 30
0
 11
64.39952765619709
 21
0
 31
0
 12
0
 22
0
 32
0
 70
0
  1
ƒÓ<>
 13
45
 23
17
 33
0
 14
45
 24
-17
 34
0
 50
90
 53
0
  0
DIMENSION
  8
1
  6
CONTINUOUS
 62
2
  2
*D7
  3
DMST_4
 10
-25.016690669123
 20
1.25
 30
0
 11
-28.416690669123
 21
20.7627213797984
 31
0
 12
0
 22
0
 32
0
 70
0
  1
ƒÓ<>
 13
-12
 23
-1.25
 33
0
 14
-12
 24
1.25
 34
0
 50
90
 53
0
  0
DIMENSION
  8
1
  6
CONTINUOUS
 62
2
  2
*D8
  3
DMST_5
 10
-37.07259062875521
 20
4.100000000000019
 30
0
 11
-39.6725906287552
 21
19.9990918031612
 31
0
 12
0
 22
0
 32
0
 70
0
  1
ƒÓ<>
 13
-1.89999999999986
 23
-4.100000000000021
 33
0
 14
-1.89999999999986
 24
4.100000000000019
 34
0
 50
90
 53
0
  0
INSERT
  8
0
  2
___R___O_______R
 10
0.5
 20
-3.75
 30
0
  0
INSERT
  8
1
  2
*D9
 10
0
 20
0
 30
0
  0
ENDSEC
  0
EOF
