  0
SECTION
  2
HEADER
  9
$ACADVER
  1
AC1009
  9
$INSBASE
 10
0
 20
0
  9
$EXTMIN
 10
-194.5
 20
-146
  9
$EXTMAX
 10
194.5
 20
146
  9
$LIMMIN
 10
-194.5
 20
-146
  9
$LIMMAX
 10
194.5
 20
146
  9
$VIEWCTR
 10
10
 20
10
  9
$VIEWSIZE
 40
10
  9
$SNAPMODE
 70
0
  9
$SNAPUNIT
 10
1
 20
1
  9
$SNAPBASE
 10
0
 20
0
  9
$SNAPANG
 50
0
  9
$SNAPSTYLE
 70
0
  9
$SNAPISOPAIR
 70
0
  9
$GRIDMODE
 70
0
  9
$GRIDUNIT
 10
0
 20
0
  9
$ORTHOMODE
 70
0
  9
$REGENMODE
 70
1
  9
$FILLMODE
 70
1
  9
$QTEXTMODE
 70
0
  9
$DRAGMODE
 70
2
  9
$LTSCALE
 40
1
  9
$OSMODE
 70
0
  9
$ATTMODE
 70
1
  9
$TEXTSIZE
 40
3.5
  9
$TRACEWID
 40
0.5
  9
$TEXTSTYLE
  7
STANDARD
  9
$CLAYER
  8
0
  9
$CELTYPE
  6
BYLAYER
  9
$CECOLOR
 62
256
  9
$DIMSCALE
 40
1
  9
$DIMASZ
 40
0.18
  9
$DIMEXO
 40
0.0625
  9
$DIMDLI
 40
0.38
  9
$DIMRND
 40
0
  9
$DIMDLE
 40
0
  9
$DIMEXE
 40
0.18
  9
$DIMTP
 40
0
  9
$DIMTM
 40
0
  9
$DIMTXT
 40
0.18
  9
$DIMCEN
 40
0.09
  9
$DIMTSZ
 40
0
  9
$DIMTOL
 70
0
  9
$DIMLIM
 70
0
  9
$DIMTIH
 70
1
  9
$DIMTOH
 70
1
  9
$DIMSE1
 70
0
  9
$DIMSE2
 70
0
  9
$DIMTAD
 70
0
  9
$DIMZIN
 70
0
  9
$DIMBLK
  1

  9
$DIMASO
 70
1
  9
$DIMSHO
 70
1
  9
$DIMPOST
  1

  9
$DIMAPOST
  1

  9
$DIMALT
 70
0
  9
$DIMALTD
 70
2
  9
$DIMALTF
 40
25.4
  9
$DIMLFAC
 40
1
  9
$DIMTOFL
 70
0
  9
$DIMTVP
 40
0
  9
$DIMTIX
 70
0
  9
$DIMSOXD
 70
0
  9
$DIMSAH
 70
0
  9
$DIMBLK1
  1

  9
$DIMBLK2
  1

  9
$DIMSTYLE
  2
*UNNAMED
  9
$DIMCLRD
 70
0
  9
$DIMCLRE
 70
0
  9
$DIMCLRT
 70
0
  9
$DIMTFAC
 40
1
  9
$DIMGAP
 40
0.09
  9
$LUNITS
 70
2
  9
$LUPREC
 70
4
  9
$AXISMODE
 70
0
  9
$AXISUNIT
 10
0
 20
0
  9
$SKETCHINC
 40
0.1
  9
$FILLETRAD
 40
2
  9
$AUNITS
 70
0
  9
$AUPREC
 70
0
  9
$MENU
  1
ACAD
  9
$ELEVATION
 40
0
  9
$THICKNESS
 40
0
  9
$VIEWDIR
 10
0
 20
0
 30
1
  9
$LIMCHECK
 70
0
  9
$BLIPMODE
 70
1
  9
$CHAMFERA
 40
0
  9
$CHAMFERB
 40
0
  9
$FASTZOOM
 70
1
  9
$SKPOLY
 70
0
  9
$ANGBASE
 50
0
  9
$ANGDIR
 70
0
  9
$PDMODE
 70
0
  9
$PDSIZE
 40
0
  9
$PLINEWID
 40
0
  9
$COORDS
 70
2
  0
ENDSEC
  0
SECTION
  2
TABLES
  0
TABLE
  2
DIMSTYLE
 70
5
  0
DIMSTYLE
  2
DMST_1
 70
0
  3

  4

  5

  6

  7

 40
1
 41
3.2
 42
1
 43
7
 44
1
 45
0
 46
0
 47
0
 48
0.01
140
3.2
141
0
142
0
143
25.4
144
1
145
0
146
0.6
147
0.09
 71
1
 72
0
 73
0
 74
0
 75
0
 76
0
 77
1
 78
9
170
0
171
2
172
0
173
0
174
0
175
0
176
2
177
2
178
2
  0
DIMSTYLE
  2
DMST_2
 70
0
  3

  4

  5

  6

  7

 40
1
 41
3.2
 42
1
 43
7
 44
1
 45
0
 46
0
 47
0.2
 48
0.2
140
3.2
141
0
142
0
143
25.4
144
1
145
0
146
0.6
147
0.09
 71
1
 72
0
 73
0
 74
0
 75
0
 76
0
 77
1
 78
9
170
0
171
2
172
0
173
0
174
0
175
0
176
2
177
2
178
2
  0
DIMSTYLE
  2
DMST_3
 70
0
  3
)
  4

  5

  6

  7

 40
1
 41
3.2
 42
1
 43
7
 44
1
 45
0
 46
0
 47
0
 48
0
140
3.2
141
0
142
0
143
25.4
144
1
145
0
146
1
147
0.09
 71
0
 72
0
 73
0
 74
0
 75
0
 76
0
 77
1
 78
9
170
0
171
2
172
0
173
0
174
0
175
0
176
2
177
2
178
2
  0
DIMSTYLE
  2
DMST_4
 70
0
  3

  4

  5

  6

  7

 40
1
 41
3.2
 42
1
 43
7
 44
1
 45
0
 46
0
 47
0
 48
0
140
3.2
141
0
142
0
143
25.4
144
1
145
0
146
1
147
0.09
 71
0
 72
0
 73
0
 74
0
 75
0
 76
0
 77
1
 78
9
170
0
171
2
172
0
173
0
174
0
175
0
176
2
177
2
178
2
  0
DIMSTYLE
  2
DMST_5
 70
0
  3

  4

  5

  6

  7

 40
1
 41
3.200000000000001
 42
1
 43
7
 44
1
 45
0
 46
0
 47
0
 48
0
140
3.200000000000001
141
0
142
0
143
25.4
144
1
145
0
146
1
147
0.09
 71
0
 72
0
 73
1
 74
1
 75
0
 76
0
 77
1
 78
9
170
0
171
2
172
0
173
0
174
0
175
0
176
2
177
2
178
2
  0
ENDTAB
  0
TABLE
  2
LTYPE
 70
9
  0
LTYPE
  2
CONTINUOUS
 70
64
  3
Solid line
 72
65
 73
0
 40
0
  0
LTYPE
  2
BORDER
 70
64
  3
__ __ . __ __ .
 72
65
 73
6
 40
17.91447368421053
 49
5.118421052631579
 49
-2.559210526315789
 49
5.118421052631579
 49
-2.559210526315789
 49
0
 49
-2.559210526315789
  0
LTYPE
  2
CENTER
 70
64
  3
____ _ ____ _
 72
65
 73
4
 40
20.47368421052632
 49
12.79605263157895
 49
-2.559210526315789
 49
2.559210526315789
 49
-2.559210526315789
  0
LTYPE
  2
DASHDOT
 70
64
  3
__ . __ . __ .
 72
65
 73
4
 40
10.23684210526316
 49
5.118421052631579
 49
-2.559210526315789
 49
0
 49
-2.559210526315789
  0
LTYPE
  2
DASHED
 70
64
  3
__ __ __ __ __
 72
65
 73
2
 40
7.677631578947368
 49
5.118421052631579
 49
-2.559210526315789
  0
LTYPE
  2
DIVIDE
 70
64
  3
__ . . __ . . 
 72
65
 73
6
 40
12.79605263157895
 49
5.118421052631579
 49
-2.559210526315789
 49
0
 49
-2.559210526315789
 49
0
 49
-2.559210526315789
  0
LTYPE
  2
DOT
 70
64
  3
..............
 72
65
 73
4
 40
5.118421052631579
 49
0
 49
-2.559210526315789
 49
0
 49
-2.559210526315789
  0
LTYPE
  2
HIDDEN
 70
64
  3
_ _ _ _ _ _ _
 72
65
 73
2
 40
3.838815789473684
 49
2.559210526315789
 49
-1.279605263157895
  0
LTYPE
  2
PHANTOM
 70
64
  3
_____ _ _ _____ _ _ 
 72
65
 73
6
 40
25.59210526315789
 49
12.79605263157895
 49
-2.559210526315789
 49
2.559210526315789
 49
-2.559210526315789
 49
2.559210526315789
 49
-2.559210526315789
  0
ENDTAB
  0
TABLE
  2
LAYER
 70
3
  0
LAYER
  2
1
 70
0
 62
7
  6
CONTINUOUS
  0
LAYER
  2
0
 70
0
 62
7
  6
CONTINUOUS
  0
ENDTAB
  0
TABLE
  2
STYLE
 70
4
  0
STYLE
  2
STANDARD
 70
0
 40
0
 41
1
 50
0
 71
0
 42
3.5
  3
txt
  4

  0
STYLE
  2
SIMPLEX
 70
0
 40
0
 41
1
 50
0
 71
0
 42
3.5
  3
simplex
  4

  0
STYLE
  2
COMPLEX
 70
0
 40
0
 41
1
 50
0
 71
0
 42
3.5
  3
complex
  4

  0
STYLE
  2
ITALIC
 70
0
 40
0
 41
1
 50
0
 71
0
 42
3.5
  3
italic
  4

  0
ENDTAB
  0
TABLE
  2
VIEW
 70
0
  0
ENDTAB
  0
ENDSEC
  0
SECTION
  2
BLOCKS
  0
BLOCK
  8
0
  2
___R___O_______R
 70
0
 10
0.5
 20
-3.75
 30
0
  0
LINE
  8
1
 62
4
  6
PHANTOM
 10
-194.5
 20
-146
 30
0
 11
194.5
 21
-146
 31
0
  0
LINE
  8
1
 62
4
  6
PHANTOM
 10
194.5
 20
146
 30
0
 11
-194.5
 21
146
 31
0
  0
LINE
  8
1
 62
4
  6
PHANTOM
 10
194.5
 20
146
 30
0
 11
194.5
 21
129
 31
0
  0
LINE
  8
1
 62
4
  6
PHANTOM
 10
-194.5
 20
-146
 30
0
 11
-194.5
 21
146
 31
0
  0
LINE
  8
1
 62
4
  6
PHANTOM
 10
194.5
 20
-136.5
 30
0
 11
194.5
 21
-146
 31
0
  0
TEXT
  8
1
 62
4
 10
178.746911898274
 20
-142.6071298819256
 30
0
 40
5
  1
A3
 41
0.9
 72
1
 73
2
 11
183.246911898274
 21
-140.1071298819256
 31
0
  0
ENDBLK
  8
0
  0
BLOCK
  8
1
  2
*D0
 70
1
 10
0
 20
0
 30
0
  0
LINE
  8
1
 62
2
 10
11.9399591802382
 20
-7.649999999999888
 30
0
 11
11.9399591802382
 21
-1.24999999999989
 31
0
  0
LINE
  8
1
 62
2
 10
11.9399591802382
 20
-1.24999999999989
 30
0
 11
11.9399591802382
 21
1.25000000000011
 31
0
  0
LINE
  8
1
 62
2
 10
11.9399591802382
 20
1.25000000000011
 30
0
 11
11.9399591802382
 21
29.19109854255217
 31
0
  0
LINE
  8
1
 62
2
 10
23.99999999999999
 20
-1.24999999999989
 30
0
 11
10.9399591802382
 21
-1.24999999999989
 31
0
  0
LINE
  8
1
 62
2
 10
23.99999999999999
 20
1.25000000000011
 30
0
 11
10.9399591802382
 21
1.25000000000011
 31
0
  0
SOLID
  8
1
 62
2
 10
11.9399591802382
 20
1.25000000000011
 30
0
 11
11.5239591802382
 21
4.450000000000111
 31
0
 12
12.3559591802382
 22
4.450000000000111
 32
0
 13
12.3559591802382
 23
4.450000000000111
 33
0
  0
SOLID
  8
1
 62
2
 10
11.9399591802382
 20
-1.24999999999989
 30
0
 11
12.3559591802382
 21
-4.449999999999891
 31
0
 12
11.5239591802382
 22
-4.449999999999891
 32
0
 13
11.5239591802382
 23
-4.449999999999891
 33
0
  0
TEXT
  8
1
 62
2
 10
10.1399591802382
 20
15.55909854255217
 30
0
 40
3.2
  1
2.5
 50
90
 41
0.9
  0
TEXT
  8
1
 62
2
 10
8.059959180238195
 20
22.99909854255217
 30
0
 40
1.92
  1
 0
 50
90
 41
0.9
  0
TEXT
  8
1
 62
2
 10
10.9399591802382
 20
22.99909854255217
 30
0
 40
1.92
  1
-0.01
 50
90
 41
0.9
  0
TEXT
  8
1
 62
2
 10
10.1399591802382
 20
11.91465409810773
 30
0
 40
3.2
  1
ƒÓ
 50
90
 41
0.9
  0
ENDBLK
  8
0
  0
BLOCK
  8
1
  2
*D1
 70
1
 10
0
 20
0
 30
0
  0
LINE
  8
1
 62
2
 10
-0.1843952082356708
 20
-10.49999999999991
 30
0
 11
-0.1843952082356708
 21
-4.099999999999909
 31
0
  0
LINE
  8
1
 62
2
 10
-0.1843952082356708
 20
-4.099999999999909
 30
0
 11
-0.1843952082356708
 21
4.100000000000041
 31
0
  0
LINE
  8
1
 62
2
 10
-0.1843952082356708
 20
4.100000000000041
 30
0
 11
-0.1843952082356708
 21
27.95884240205355
 31
0
  0
LINE
  8
1
 62
2
 10
34.10000000000014
 20
-4.099999999999909
 30
0
 11
-1.184395208235671
 21
-4.099999999999909
 31
0
  0
LINE
  8
1
 62
2
 10
34.10000000000014
 20
4.100000000000041
 30
0
 11
-1.184395208235671
 21
4.100000000000041
 31
0
  0
SOLID
  8
1
 62
2
 10
-0.1843952082356708
 20
4.100000000000041
 30
0
 11
-0.6003952082356718
 21
7.300000000000042
 31
0
 12
0.2316047917643277
 22
7.300000000000042
 32
0
 13
0.2316047917643277
 23
7.300000000000042
 33
0
  0
SOLID
  8
1
 62
2
 10
-0.1843952082356708
 20
-4.099999999999909
 30
0
 11
0.2316047917643284
 21
-7.29999999999991
 31
0
 12
-0.6003952082356712
 22
-7.29999999999991
 32
0
 13
-0.6003952082356712
 23
-7.29999999999991
 33
0
  0
TEXT
  8
1
 62
2
 10
-1.184395208235674
 20
15.67084240205355
 30
0
 40
3.2
  1
8.2
 50
90
 41
0.9
  0
TEXT
  8
1
 62
2
 10
-1.824395208235674
 20
23.11084240205355
 30
0
 40
1.92
  1
%%p0.2
 50
90
 41
0.9
  0
TEXT
  8
1
 62
2
 10
-1.184395208235674
 20
12.02639795760911
 30
0
 40
3.2
  1
ƒÓ
 50
90
 41
0.9
  0
ENDBLK
  8
0
  0
BLOCK
  8
1
  2
*D2
 70
1
 10
0
 20
0
 30
0
  0
LINE
  8
1
 62
2
 10
95.59999999999999
 20
-63.38376931610912
 30
0
 11
95.59999999999999
 21
-51.90681048990014
 31
0
  0
LINE
  8
1
 62
2
 10
95.59999999999999
 20
-66.38376931610912
 30
0
 11
95.59999999999999
 21
-63.38376931610912
 31
0
  0
LINE
  8
1
 62
2
 10
95.59999999999999
 20
-72.78376931610913
 30
0
 11
95.59999999999999
 21
-66.38376931610912
 31
0
  0
LINE
  8
1
 62
2
 10
75.56411360257107
 20
-63.38376931610912
 30
0
 11
96.59999999999999
 21
-63.38376931610912
 31
0
  0
LINE
  8
1
 62
2
 10
75.301311140694
 20
-66.38376931610912
 30
0
 11
96.59999999999999
 21
-66.38376931610912
 31
0
  0
SOLID
  8
1
 62
2
 10
95.59999999999999
 20
-66.38376931610912
 30
0
 11
96.01599999999999
 21
-69.58376931610913
 31
0
 12
95.184
 22
-69.58376931610913
 32
0
 13
95.184
 23
-69.58376931610913
 33
0
  0
SOLID
  8
1
 62
2
 10
95.59999999999999
 20
-63.38376931610912
 30
0
 11
95.184
 21
-60.18376931610911
 31
0
 12
96.01599999999999
 22
-60.18376931610911
 32
0
 13
96.01599999999999
 23
-60.18376931610911
 33
0
  0
TEXT
  8
1
 62
2
 10
94.59999999999999
 20
-55.90681048990014
 30
0
 40
3.2
  1
3
 50
90
 41
0.9
  0
TEXT
  8
1
 62
2
 10
94.59999999999999
 20
-57.98681048990014
 30
0
 40
3.2
  1
(
 50
90
 41
0.9
  0
TEXT
  8
1
 62
2
 10
94.59999999999999
 20
-52.38681048990014
 30
0
 40
3.2
  1
)
 50
90
 41
0.9
  0
ENDBLK
  8
0
  0
BLOCK
  8
1
  2
*D3
 70
1
 10
0
 20
0
 30
0
  0
LINE
  8
1
 62
2
 10
37
 20
38.9906185816117
 30
0
 11
45.2496575852767
 21
38.9906185816117
 31
0
  0
LINE
  8
1
 62
2
 10
35
 20
38.9906185816117
 30
0
 11
37
 21
38.9906185816117
 31
0
  0
LINE
  8
1
 62
2
 10
28.6
 20
38.9906185816117
 30
0
 11
35
 21
38.9906185816117
 31
0
  0
LINE
  8
1
 62
2
 10
37
 20
16.50000000000011
 30
0
 11
37
 21
39.9906185816117
 31
0
  0
LINE
  8
1
 62
2
 10
35
 20
4.500000000000114
 30
0
 11
35
 21
39.9906185816117
 31
0
  0
SOLID
  8
1
 62
2
 10
35
 20
38.9906185816117
 30
0
 11
31.8
 21
38.5746185816117
 31
0
 12
31.8
 22
39.4066185816117
 32
0
 13
31.8
 23
39.4066185816117
 33
0
  0
SOLID
  8
1
 62
2
 10
37
 20
38.9906185816117
 30
0
 11
40.2
 21
39.4066185816117
 31
0
 12
40.2
 22
38.5746185816117
 32
0
 13
40.2
 23
38.5746185816117
 33
0
  0
TEXT
  8
1
 62
2
 10
43.3296575852767
 20
39.9906185816117
 30
0
 40
3.2
  1
2
 41
0.9
  0
ENDBLK
  8
0
  0
BLOCK
  8
1
  2
*D4
 70
1
 10
0
 20
0
 30
0
  0
LINE
  8
1
 62
2
 10
95.59999999999999
 20
-15.70000000000005
 30
0
 11
95.59999999999999
 21
15.70000000000005
 31
0
  0
LINE
  8
1
 62
2
 10
86.20000000000005
 20
15.70000000000005
 30
0
 11
96.59999999999999
 21
15.70000000000005
 31
0
  0
LINE
  8
1
 62
2
 10
86.20000000000005
 20
-15.70000000000005
 30
0
 11
96.59999999999999
 21
-15.70000000000005
 31
0
  0
SOLID
  8
1
 62
2
 10
95.59999999999999
 20
15.70000000000005
 30
0
 11
96.01599999999999
 21
12.50000000000005
 31
0
 12
95.184
 22
12.50000000000005
 32
0
 13
95.184
 23
12.50000000000005
 33
0
  0
SOLID
  8
1
 62
2
 10
95.59999999999999
 20
-15.70000000000005
 30
0
 11
95.184
 21
-12.50000000000005
 31
0
 12
96.01599999999999
 22
-12.50000000000005
 32
0
 13
96.01599999999999
 23
-12.50000000000005
 33
0
  0
TEXT
  8
1
 62
2
 10
94.59999999999999
 20
-5.480000000000002
 30
0
 40
3.200000000000001
  1
ƒÓ31.4
 50
90
 41
0.9
  0
TEXT
  8
1
 62
2
 10
94.59999999999999
 20
-7.560000000000002
 30
0
 40
3.200000000000001
  1
(
 50
90
 41
0.9
  0
TEXT
  8
1
 62
2
 10
94.59999999999999
 20
7.080000000000004
 30
0
 40
3.200000000000001
  1
)
 50
90
 41
0.9
  0
ENDBLK
  8
0
  0
BLOCK
  8
1
  2
*D5
 70
1
 10
0
 20
0
 30
0
  0
LINE
  8
1
 62
2
 10
107.6181625646513
 20
-16.99999999999989
 30
0
 11
107.6181625646513
 21
17.00000000000011
 31
0
  0
LINE
  8
1
 62
2
 10
73
 20
17.00000000000011
 30
0
 11
108.6181625646513
 21
17.00000000000011
 31
0
  0
LINE
  8
1
 62
2
 10
73
 20
-16.99999999999989
 30
0
 11
108.6181625646513
 21
-16.99999999999989
 31
0
  0
SOLID
  8
1
 62
2
 10
107.6181625646513
 20
17.00000000000011
 30
0
 11
108.0341625646513
 21
13.80000000000011
 31
0
 12
107.2021625646513
 22
13.80000000000011
 32
0
 13
107.2021625646513
 23
13.80000000000011
 33
0
  0
SOLID
  8
1
 62
2
 10
107.6181625646513
 20
-16.99999999999989
 30
0
 11
107.2021625646513
 21
-13.79999999999989
 31
0
 12
108.0341625646513
 22
-13.79999999999989
 32
0
 13
108.0341625646513
 23
-13.79999999999989
 33
0
  0
TEXT
  8
1
 62
2
 10
106.6181625646513
 20
-0.5777777777776638
 30
0
 40
3.200000000000001
  1
34
 50
90
 41
0.9
  0
TEXT
  8
1
 62
2
 10
106.6181625646513
 20
-4.22222222222211
 30
0
 40
3.200000000000001
  1
ƒÓ
 50
90
 41
0.9
  0
ENDBLK
  8
0
  0
BLOCK
  8
1
  2
*D6
 70
1
 10
0
 20
0
 30
0
  0
LINE
  8
1
 62
2
 10
37
 20
50.94565965929691
 30
0
 11
85.60000000000014
 21
50.94565965929691
 31
0
  0
LINE
  8
1
 62
2
 10
85.60000000000014
 20
16.30000000000006
 30
0
 11
85.60000000000014
 21
51.94565965929691
 31
0
  0
LINE
  8
1
 62
2
 10
37
 20
16.50000000000011
 30
0
 11
37
 21
51.94565965929691
 31
0
  0
SOLID
  8
1
 62
2
 10
37
 20
50.94565965929691
 30
0
 11
40.2
 21
51.36165965929691
 31
0
 12
40.2
 22
50.52965965929691
 32
0
 13
40.2
 23
50.52965965929691
 33
0
  0
SOLID
  8
1
 62
2
 10
85.60000000000014
 20
50.94565965929691
 30
0
 11
82.40000000000013
 21
50.52965965929691
 31
0
 12
82.40000000000013
 22
51.36165965929691
 32
0
 13
82.40000000000013
 23
51.36165965929691
 33
0
  0
TEXT
  8
1
 62
2
 10
56.94000000000007
 20
51.9456596592969
 30
0
 40
3.200000000000001
  1
48.6
 41
0.9
  0
ENDBLK
  8
0
  0
BLOCK
  8
1
  2
*D7
 70
1
 10
0
 20
0
 30
0
  0
LINE
  8
1
 62
2
 10
25
 20
50.9456596592969
 30
0
 11
37
 21
50.9456596592969
 31
0
  0
LINE
  8
1
 62
2
 10
37
 20
16.50000000000011
 30
0
 11
37
 21
51.9456596592969
 31
0
  0
LINE
  8
1
 62
2
 10
25
 20
2.250000000000114
 30
0
 11
25
 21
51.9456596592969
 31
0
  0
SOLID
  8
1
 62
2
 10
25
 20
50.9456596592969
 30
0
 11
28.2
 21
51.3616596592969
 31
0
 12
28.2
 22
50.5296596592969
 32
0
 13
28.2
 23
50.5296596592969
 33
0
  0
SOLID
  8
1
 62
2
 10
37
 20
50.9456596592969
 30
0
 11
33.8
 21
50.5296596592969
 31
0
 12
33.8
 22
51.3616596592969
 32
0
 13
33.8
 23
51.3616596592969
 33
0
  0
TEXT
  8
1
 62
2
 10
29.08
 20
51.9456596592969
 30
0
 40
3.2
  1
12
 41
0.9
  0
ENDBLK
  8
0
  0
BLOCK
  8
1
  2
*D8
 70
1
 10
0
 20
0
 30
0
  0
LINE
  8
1
 62
2
 10
107.5979811944729
 20
-66.38376931610914
 30
0
 11
107.5979811944729
 21
-32.6111012600816
 31
0
  0
LINE
  8
1
 62
2
 10
75.301311140694
 20
-66.38376931610914
 30
0
 11
108.5979811944729
 21
-66.38376931610914
 31
0
  0
SOLID
  8
1
 62
2
 10
107.5979811944729
 20
-66.38376931610914
 30
0
 11
107.1819811944729
 21
-63.18376931610914
 31
0
 12
108.0139811944729
 22
-63.18376931610914
 32
0
 13
108.0139811944729
 23
-63.18376931610914
 33
0
  0
TEXT
  8
1
 62
2
 10
105.7979811944729
 20
-46.30710126008161
 30
0
 40
3.200000000000001
  1
300
 50
90
 41
0.9
  0
TEXT
  8
1
 62
2
 10
103.7179811944729
 20
-37.0271012600816
 30
0
 40
1.920000000000001
  1
+30
 50
90
 41
0.9
  0
TEXT
  8
1
 62
2
 10
106.5979811944729
 20
-35.2991012600816
 30
0
 40
1.920000000000001
  1
 0
 50
90
 41
0.9
  0
ENDBLK
  8
0
  0
BLOCK
  8
1
  2
*D9
 70
1
 10
0
 20
0
 30
0
  0
LINE
  8
1
 62
2
 10
-81.73028477891727
 20
-7.711304636281497
 30
0
 11
-94.7169291679196
 21
-41.0424447516126
 31
0
  0
LINE
  8
1
 62
2
 10
-94.7169291679196
 20
-41.0424447516126
 30
0
 11
-38.7969291679196
 21
-41.0424447516126
 31
0
  0
SOLID
  8
1
 62
2
 10
-81.73028477891727
 20
-7.711304636281497
 30
0
 11
-82.50440152230851
 21
-10.84400303663882
 31
0
 12
-83.27963648952877
 22
-10.54195213761846
 32
0
 13
-83.27963648952877
 23
-10.54195213761846
 33
0
  0
TEXT
  8
1
 62
2
 10
-80.2369291679196
 20
-40.0424447516126
 30
0
 40
3.2
  1
2.6
 41
0.9
  0
TEXT
  8
1
 62
2
 10
-89.5169291679196
 20
-40.0424447516126
 30
0
 40
3.2
  1
3-M
 41
0.9
  0
TEXT
  8
1
 62
2
 10
-72.7969291679196
 20
-40.0424447516126
 30
0
 40
3.2
  1
 DEPTH 3MAX.
 41
0.9
  0
ENDBLK
  8
0
  0
ENDSEC
  0
SECTION
  2
ENTITIES
  0
LINE
  8
1
 62
2
 10
61.40792255952644
 20
-57.72859832042582
 30
0
 11
12.11667698099854
 21
-57.72859832042582
 31
0
  0
LINE
  8
1
 62
7
 10
35
 20
-1.249999999999886
 30
0
 11
25
 21
-1.249999999999886
 31
0
  0
LINE
  8
1
 62
2
 10
-94.39030144903208
 20
-47.99999999999994
 30
0
 11
-37.5676022948844
 21
-47.99999999999983
 31
0
  0
LINE
  8
1
 62
7
 10
35.10000000000014
 20
-4.099999999999909
 30
0
 11
37
 21
-4.099999999999909
 31
0
  0
LINE
  8
1
 62
7
 10
35.10000000000014
 20
4.100000000000023
 30
0
 11
35.10000000000014
 21
-4.099999999999909
 31
0
  0
LINE
  8
1
 62
7
 10
25
 20
1.250000000000114
 30
0
 11
35
 21
1.250000000000114
 31
0
  0
LINE
  8
1
 62
3
 10
-83.44735510201798
 20
-7.763834088038941
 30
0
 11
-79.17465276012399
 21
-5.296988240779569
 31
0
  0
LINE
  8
1
 62
2
 10
-94.39030144903208
 20
-54.99999999999984
 30
0
 11
-37.5676022948844
 21
-54.99999999999984
 31
0
  0
LINE
  8
1
 62
3
 10
-70
 20
18
 30
0
 11
-70
 21
-18
 31
0
  0
LINE
  8
1
 62
3
 10
-61.104930974092
 20
-5.135570496567901
 30
0
 11
-56.78492409760408
 21
-7.629727629609501
 31
0
  0
LINE
  8
1
 62
2
 10
-94.39030144903208
 20
-61.99999999999984
 30
0
 11
-37.5676022948844
 21
-61.99999999999973
 31
0
  0
LINE
  8
1
 62
7
 10
72.70687665034302
 20
-63.38376931610912
 30
0
 11
74.56411360257107
 21
-63.38376931610912
 31
0
  0
LINE
  8
1
 62
7
 10
73.73000000000002
 20
-63.38376931610912
 30
0
 11
73.73000000000002
 21
-66.38376931610912
 31
0
  0
LINE
  8
1
 62
7
 10
73.15687665034307
 20
-63.38376931610912
 30
0
 11
73.15687665034307
 21
-66.38376931610912
 31
0
  0
LINE
  8
1
 62
7
 10
74.301311140694
 20
-63.38376931610912
 30
0
 11
74.301311140694
 21
-66.38376931610912
 31
0
  0
LINE
  8
1
 62
7
 10
72.70687665034239
 20
-40.49350967879295
 30
0
 11
72.70687665034302
 21
-63.38376931610912
 31
0
  0
LINE
  8
1
 62
7
 10
74.18000000000006
 20
-40.59726678595166
 30
0
 11
74.18000000000006
 21
-63.38376931610912
 31
0
  0
LINE
  8
1
 62
7
 10
74.56411360257107
 20
-40.710902816062
 30
0
 11
74.56411360257107
 21
-63.38376931610912
 31
0
  0
LINE
  8
1
 62
7
 10
72.70687665034239
 20
-14.49999999999994
 30
0
 11
72.70687665034302
 21
-38.04349537409394
 31
0
  0
LINE
  8
1
 62
7
 10
74.18000000000006
 20
-15.7526673324329
 30
0
 11
74.18000000000006
 21
-38.11456951847379
 31
0
  0
LINE
  8
1
 62
7
 10
74.56411360257107
 20
-15.7526673324329
 30
0
 11
74.56411360257107
 21
-38.26088851136296
 31
0
  0
LINE
  8
1
 62
7
 10
85.20000000000005
 20
-15.70000000000005
 30
0
 11
85.60000000000014
 21
-15.30000000000006
 31
0
  0
LINE
  8
1
 62
7
 10
85.20000000000005
 20
15.70000000000005
 30
0
 11
85.60000000000014
 21
15.30000000000006
 31
0
  0
LINE
  8
1
 62
3
 10
-92.2877346344219
 20
5.684341886080801e-014
 30
0
 11
-48.64500100222494
 21
5.684341886080801e-014
 31
0
  0
LINE
  8
1
 62
7
 10
85.20000000000005
 20
-15.70000000000005
 30
0
 11
73.60000000000002
 21
-15.69999999999996
 31
0
  0
LINE
  8
1
 62
7
 10
72
 20
-16.99999999999994
 30
0
 11
38.5
 21
-16.99999999999989
 31
0
  0
LINE
  8
1
 62
7
 10
85.20000000000005
 20
15.70000000000005
 30
0
 11
73.60000000000002
 21
15.70000000000005
 31
0
  0
LINE
  8
1
 62
7
 10
25
 20
1.250000000000114
 30
0
 11
25
 21
-1.249999999999886
 31
0
  0
LINE
  8
1
 62
7
 10
37
 20
4.100000000000023
 30
0
 11
35.10000000000014
 21
4.100000000000023
 31
0
  0
LINE
  8
1
 62
7
 10
38.5
 20
17.00000000000011
 30
0
 11
72
 21
17.00000000000011
 31
0
  0
LINE
  8
1
 62
7
 10
72
 20
17.00000000000011
 30
0
 11
72
 21
-16.99999999999994
 31
0
  0
LINE
  8
1
 62
7
 10
37
 20
-15.49999999999989
 30
0
 11
37
 21
15.50000000000011
 31
0
  0
LINE
  8
1
 62
7
 10
35
 20
3.500000000000114
 30
0
 11
35
 21
-3.499999999999886
 31
0
  0
LINE
  8
1
 62
7
 10
35
 20
3.500000000000114
 30
0
 11
35.10000000000014
 21
3.500000000000114
 31
0
  0
LINE
  8
1
 62
7
 10
35
 20
-3.499999999999886
 30
0
 11
35.10000000000014
 21
-3.499999999999886
 31
0
  0
LINE
  8
1
 62
3
 10
22.41643210502798
 20
1.13686837721616e-013
 30
0
 11
87.39458842742714
 21
-1.13686837721616e-013
 31
0
  0
LINE
  8
1
 62
2
 10
107.6000000000001
 20
-18.81246974367707
 30
0
 11
107.6000000000001
 21
-33.04356930757309
 31
0
  0
LINE
  8
1
 62
7
 10
85.60000000000014
 20
-15.30000000000006
 30
0
 11
85.60000000000014
 21
15.30000000000006
 31
0
  0
LINE
  8
1
 62
7
 10
76.00000000000011
 20
-14.34616665308795
 30
0
 11
76.00000000000011
 21
-13.93255753170067
 31
0
  0
LINE
  8
1
 62
7
 10
73.60000000000002
 20
-14.34616665308795
 30
0
 11
76.00000000000011
 21
-14.34616665308795
 31
0
  0
LINE
  8
1
 62
7
 10
73.60000000000002
 20
-14.49999999999994
 30
0
 11
72
 21
-14.49999999999994
 31
0
  0
LINE
  8
1
 62
2
 10
73.19999999999999
 20
-13.16260777522956
 30
0
 11
73.19999999999999
 21
-14.06525918244415
 31
0
  0
LINE
  8
1
 62
7
 10
72.19999999999999
 20
-13.16260777522956
 30
0
 11
72.19999999999999
 21
-14.06525918244415
 31
0
  0
LINE
  8
1
 62
7
 10
72
 20
-14.06525918244415
 30
0
 11
73.5
 21
-14.06525918244415
 31
0
  0
LINE
  8
1
 62
7
 10
72
 20
-13.16260777522956
 30
0
 11
73.5
 21
-13.16260777522956
 31
0
  0
LINE
  8
1
 62
7
 10
73.60000000000002
 20
-13.93255753170067
 30
0
 11
85.19999999999999
 21
-13.93255753170067
 31
0
  0
LINE
  8
1
 62
7
 10
73.60000000000002
 20
-15.69999999999996
 30
0
 11
73.60000000000002
 21
15.70000000000005
 31
0
  0
LINE
  8
1
 62
7
 10
73.60000000000002
 20
14.50000000000006
 30
0
 11
72
 21
14.50000000000014
 31
0
  0
LINE
  8
1
 62
7
 10
73.5
 20
14.50000000000006
 30
0
 11
73.5
 21
-14.49999999999994
 31
0
  0
LINE
  8
1
 62
7
 10
46
 20
13.10000000000005
 30
0
 11
46
 21
-13.09999999999997
 31
0
  0
LINE
  8
1
 62
7
 10
63
 20
13.10000000000005
 30
0
 11
46
 21
13.10000000000005
 31
0
  0
LINE
  8
1
 62
7
 10
63
 20
-13.09999999999997
 30
0
 11
63
 21
13.10000000000005
 31
0
  0
LINE
  8
1
 62
7
 10
46
 20
-13.09999999999997
 30
0
 11
63
 21
-13.09999999999997
 31
0
  0
LINE
  8
1
 62
7
 10
85.19999999999999
 20
-13.93255753170067
 30
0
 11
85.60042855919988
 21
-13.53212897250086
 31
0
  0
LINE
  8
1
 62
7
 10
-84.34903476320059
 20
-9.116205425749342
 30
0
 11
-95.45696249745228
 21
-20.22413316000154
 31
0
  0
LINE
  8
1
 62
7
 10
-79.11649206404579
 20
-14.34884308815546
 30
0
 11
-90.0949538912806
 21
-25.32730491539056
 31
0
  0
LINE
  8
1
 62
7
 10
-81.4862870714023
 20
-12.53256595088715
 30
0
 11
-92.61743949730308
 21
-23.66371837678835
 31
0
  0
LINE
  8
1
 62
7
 10
-83.48775820933918
 20
-10.34796494420056
 30
0
 11
-94.00172281649759
 21
-20.86192955135874
 31
0
  0
LINE
  8
1
 62
7
 10
-82.5327946873322
 20
-11.48603749450527
 30
0
 11
-93.0979066996515
 21
-22.05114950682434
 31
0
  0
LINE
  8
1
 62
7
 10
-80.3482356016695
 20
-13.48755055346746
 30
0
 11
-91.61379936125528
 21
-24.75311431305335
 31
0
  0
ARC
  8
1
 62
2
  6
CENTER
 10
-70
 20
5.684341886080801e-014
 30
0
 40
13
 50
180
 51
0
  0
ARC
  8
1
 62
2
  6
CENTER
 10
-70
 20
5.684341886080801e-014
 30
0
 40
13
 50
0
 51
180
  0
ARC
  8
1
 62
7
 10
-70
 20
5.684341886080801e-014
 30
0
 40
17.00000000000114
 50
0
 51
180
  0
ARC
  8
1
 62
7
 10
-70
 20
5.684341886080801e-014
 30
0
 40
17
 50
180
 51
330.0000000000011
  0
ARC
  8
1
 62
7
 10
-70
 20
5.684341886080801e-014
 30
0
 40
17.00000000000061
 50
330.0000000000011
 51
0
  0
CIRCLE
  8
1
 62
2
 10
-81.25833024919768
 20
-6.499999999999943
 30
0
 40
1.299999999999983
  0
CIRCLE
  8
1
 62
7
 10
-81.25833024919768
 20
-6.499999999999943
 30
0
 40
0.7999999999994145
  0
CIRCLE
  8
1
 62
7
 10
-70
 20
13
 30
0
 40
0.7999999999998977
  0
CIRCLE
  8
1
 62
7
 10
-58.74166975080198
 20
-6.499999999999943
 30
0
 40
0.7999999999999545
  0
CIRCLE
  8
1
 62
2
 10
-70
 20
13
 30
0
 40
1.299999999999898
  0
CIRCLE
  8
1
 62
2
 10
-58.74166975080198
 20
-6.499999999999943
 30
0
 40
1.299999999999045
  0
CIRCLE
  8
1
 62
7
 10
-70
 20
5.684341886080801e-014
 30
0
 40
4.100000000000136
  0
CIRCLE
  8
1
 62
7
 10
-70
 20
5.684341886080801e-014
 30
0
 40
3.5
  0
CIRCLE
  8
1
 62
7
 10
-70
 20
5.684341886080801e-014
 30
0
 40
1.25
  0
POLYLINE
  8
1
 62
2
 66
1
  0
VERTEX
  8
1
 10
72.70687665034239
 20
-40.49350967879295
 30
0
 42
0.005990442273371268
  0
VERTEX
  8
1
 10
72.89632609595256
 20
-40.57922384347855
 30
0
 42
0.01857273981285178
  0
VERTEX
  8
1
 10
73.08511077358222
 20
-40.65369977030225
 30
0
 42
0.03402482871164544
  0
VERTEX
  8
1
 10
73.27256591525087
 20
-40.70569922140214
 30
0
 42
0.05219554665086655
  0
VERTEX
  8
1
 10
73.45802675297799
 20
-40.72398395891634
 30
0
 42
0.06953214956666405
  0
VERTEX
  8
1
 10
73.64082851878311
 20
-40.69731574498292
 30
0
 42
0.02555657270400814
  0
VERTEX
  8
1
 10
73.71716659984035
 20
-40.67075737327016
 30
0
 42
0.004845086635740018
  0
VERTEX
  8
1
 10
73.7931452617963
 20
-40.63902753323775
 30
0
 42
-0.005930739902744003
  0
VERTEX
  8
1
 10
73.86899868224573
 20
-40.60698980798234
 30
0
 42
-0.02057384356751406
  0
VERTEX
  8
1
 10
73.94496103878342
 20
-40.57950778060054
 30
0
 42
-0.03710741402544542
  0
VERTEX
  8
1
 10
74.02126650900414
 20
-40.56144503418898
 30
0
 42
-0.05823850215063546
  0
VERTEX
  8
1
 10
74.12849019206085
 20
-40.55804151025733
 30
0
 42
-0.04328891620580578
  0
VERTEX
  8
1
 10
74.23661103222202
 20
-40.57683470652985
 30
0
 42
-0.02844427389321321
  0
VERTEX
  8
1
 10
74.34540474021151
 20
-40.6122754429555
 30
0
 42
-0.0158460246589003
  0
VERTEX
  8
1
 10
74.45464702675324
 20
-40.65881453948323
 30
0
 42
-0.005067418684437604
  0
VERTEX
  8
1
 10
74.56411360257107
 20
-40.710902816062
 30
0
  0
SEQEND
  8
1
  0
POLYLINE
  8
1
 62
2
 66
1
  0
VERTEX
  8
1
 10
72.70687665034302
 20
-38.04349537409394
 30
0
 42
0.005990442273342178
  0
VERTEX
  8
1
 10
72.8963260959529
 20
-38.12920953877946
 30
0
 42
0.01857273981291342
  0
VERTEX
  8
1
 10
73.08511077358227
 20
-38.20368546560309
 30
0
 42
0.03402482871149455
  0
VERTEX
  8
1
 10
73.27256591525065
 20
-38.25568491670298
 30
0
 42
0.05219554665097376
  0
VERTEX
  8
1
 10
73.45802675297753
 20
-38.27396965421723
 30
0
 42
0.06953214956646113
  0
VERTEX
  8
1
 10
73.64082851878243
 20
-38.24730144028396
 30
0
 42
0.02555657270425266
  0
VERTEX
  8
1
 10
73.7171665998398
 20
-38.2207430685712
 30
0
 42
0.004845086635546891
  0
VERTEX
  8
1
 10
73.79314526179589
 20
-38.18901322853877
 30
0
 42
-0.005930739902734677
  0
VERTEX
  8
1
 10
73.86899868224546
 20
-38.15697550328333
 30
0
 42
-0.02057384356741565
  0
VERTEX
  8
1
 10
73.94496103878328
 20
-38.12949347590151
 30
0
 42
-0.03710741402565265
  0
VERTEX
  8
1
 10
74.02126650900414
 20
-38.11143072948994
 30
0
 42
-0.05823850215071433
  0
VERTEX
  8
1
 10
74.12849019206087
 20
-38.10802720555833
 30
0
 42
-0.04328891620603536
  0
VERTEX
  8
1
 10
74.23661103222202
 20
-38.12682040183086
 30
0
 42
-0.02844427389336454
  0
VERTEX
  8
1
 10
74.34540474021152
 20
-38.16226113825649
 30
0
 42
-0.01584602465895494
  0
VERTEX
  8
1
 10
74.45464702675324
 20
-38.20880023478421
 30
0
 42
-0.005067418684698292
  0
VERTEX
  8
1
 10
74.56411360257107
 20
-38.26088851136296
 30
0
  0
SEQEND
  8
1
  0
POLYLINE
  8
1
 62
2
 66
1
  0
VERTEX
  8
1
 10
-95.45696249745228
 20
-20.22413316000154
 30
0
 42
-0.004973204009893033
  0
VERTEX
  8
1
 10
-94.98037479270101
 20
-20.39689487450083
 30
0
 42
-0.01558350921512815
  0
VERTEX
  8
1
 10
-94.52129569527784
 20
-20.58476254447411
 30
0
 42
-0.02810582374320283
  0
VERTEX
  8
1
 10
-94.09723381251092
 20
-20.80284212539535
 30
0
 42
-0.04313588807546089
  0
VERTEX
  8
1
 10
-93.72569775172832
 20
-21.06623957273854
 30
0
 42
-0.05875561934393041
  0
VERTEX
  8
1
 10
-93.42419612025819
 20
-21.39006084197766
 30
0
 42
-0.06196519083316961
  0
VERTEX
  8
1
 10
-93.15903880790408
 20
-21.88662170690909
 30
0
 42
-0.02794345996029747
  0
VERTEX
  8
1
 10
-92.97546601639775
 20
-22.45316908002931
 30
0
 42
-0.000539441858162498
  0
VERTEX
  8
1
 10
-92.81997156405618
 20
-23.04313684491586
 30
0
 42
0.02682241455310027
  0
VERTEX
  8
1
 10
-92.63904926919632
 20
-23.60995888514629
 30
0
 42
0.05960617178516699
  0
VERTEX
  8
1
 10
-92.37919295013518
 20
-24.10706908429816
 30
0
 42
0.07540290019273958
  0
VERTEX
  8
1
 10
-92.04812599901845
 20
-24.46154753134962
 30
0
 42
0.03699895446642326
  0
VERTEX
  8
1
 10
-91.63320514079894
 20
-24.74240512451243
 30
0
 42
0.03996683570688401
  0
VERTEX
  8
1
 10
-91.15539385225232
 20
-24.96804707725875
 30
0
 42
0.006405846420771217
  0
VERTEX
  8
1
 10
-90.63565561015432
 20
-25.15687860306074
 30
0
 42
0.01517241172566889
  0
VERTEX
  8
1
 10
-90.0949538912806
 20
-25.32730491539056
 30
0
  0
SEQEND
  8
1
  0
ARC
  8
1
 62
7
 10
38.5
 20
15.50000000000011
 30
0
 40
1.5
 50
90
 51
180
  0
ARC
  8
1
 62
7
 10
38.5
 20
-15.49999999999989
 30
0
 40
1.5
 50
180
 51
270
  0
LINE
  8
1
 62
2
 10
12.11667698099857
 20
-64.72859832042582
 30
0
 11
54.0038746832787
 21
-64.72859832042582
 31
0
  0
LINE
  8
1
 62
2
 10
54.0038746832787
 20
-64.72859832042582
 30
0
 11
72.32855428562219
 21
-47.40391871808225
 31
0
  0
SOLID
  8
1
 62
2
 10
70.10181741175542
 20
-50.1432552346578
 30
0
 11
69.46869916936954
 21
-49.47359269495054
 31
0
 12
72.32855428562219
 22
-47.40391871808225
 32
0
 13
72.32855428562219
 23
-47.40391871808225
 33
0
  0
LINE
  8
1
 62
2
 10
67.20422801210496
 20
26.99999999999993
 30
0
 11
45.02248035771504
 21
26.99999999999993
 31
0
  0
LINE
  8
1
 62
2
 10
45.02248035771504
 20
26.99999999999993
 30
0
 11
53.4048817723162
 21
13.10000000000005
 31
0
  0
SOLID
  8
1
 62
2
 10
51.20284172692865
 20
15.85922838760986
 30
0
 11
51.99201527845456
 21
16.33513986204703
 31
0
 12
53.4048817723162
 22
13.10000000000005
 32
0
 13
53.4048817723162
 23
13.10000000000005
 33
0
  0
TEXT
  8
1
 62
2
 10
116.9268232171691
 20
-56.29109508747397
 30
0
 40
3.2
  1
(FROM MOTOR CASE)
 50
90
 41
0.6300000000000001
 72
1
 73
2
 11
115.3268232171691
 21
-39.15509508747397
 31
0
  0
TEXT
  8
1
 62
2
 10
-140.25
 20
93.5
 30
0
 40
5
  1
DME34BM
 41
0.9
 72
1
 73
2
 11
-124.5
 21
96
 31
0
  0
TEXT
  8
1
 62
2
 10
110.8000000000001
 20
-38.93648758321875
 30
0
 40
2
  1
+1.181
 50
90
 41
0.63
  0
TEXT
  8
1
 62
2
 10
113.2000000000001
 20
-38.93648758321875
 30
0
 40
2
  1
 0
 50
90
 41
0.63
  0
TEXT
  8
1
 62
2
 10
112.6000000000001
 20
-50.48283135636094
 30
0
 40
3.2
  1
(11.811   )
 50
90
 41
0.6300000000000001
 72
1
 73
2
 11
111.0000000000001
 21
-39.39483135636094
 31
0
  0
TEXT
  8
1
 62
2
 10
99.79643201557721
 20
-62.46032988547574
 30
0
 40
3.2
  1
(0.118)
 50
90
 41
0.6300000000000001
 72
1
 73
2
 11
98.1964320155772
 21
-55.40432988547575
 31
0
  0
TEXT
  8
1
 62
2
 10
47.77382659345405
 20
27.50157890021708
 30
0
 40
3.2
  1
NAME PLATE
 41
0.54
 72
1
 73
2
 11
56.41382659345405
 21
29.10157890021708
 31
0
  0
TEXT
  8
1
 62
2
 10
36.13600000000005
 20
34.7983645630168
 30
0
 40
3.2
  1
(0.0787)
 41
0.6300000000000001
 72
1
 73
2
 11
44.20000000000005
 21
36.3983645630168
 31
0
  0
TEXT
  8
1
 62
2
 10
54.14400000000005
 20
46.79238891534131
 30
0
 40
3.2
  1
(1.913)
 41
0.6300000000000001
 72
1
 73
2
 11
61.20000000000005
 21
48.39238891534131
 31
0
  0
TEXT
  8
1
 62
2
 10
23.944
 20
46.7923889153413
 30
0
 40
3.2
  1
(0.472)
 41
0.6300000000000001
 72
1
 73
2
 11
31
 21
48.3923889153413
 31
0
  0
TEXT
  8
1
 62
2
 10
111.8084407270186
 20
-10.07999999999994
 30
0
 40
3.2
  1
(1.26DIA.)
 50
90
 41
0.6300000000000001
 72
1
 73
2
 11
110.2084407270186
 21
6.039613253960852e-014
 31
0
  0
TEXT
  8
1
 62
2
 10
3.70949852911485
 20
17.93080602710265
 30
0
 40
2
  1
 %%p0.00787
 50
90
 41
0.63
 72
1
 73
2
 11
2.70949852911485
 21
24.86080602710265
 31
0
  0
TEXT
  8
1
 62
2
 10
4.309498529114849
 20
2.094462253960845
 30
0
 40
3.2
  1
(0.323DIA.     )
 50
90
 41
0.6300000000000001
 72
1
 73
2
 11
2.70949852911485
 21
18.22246225396085
 31
0
  0
TEXT
  8
1
 62
2
 10
15.2
 20
22.99080602710266
 30
0
 40
2
  1
 0
 50
90
 41
0.63
  0
TEXT
  8
1
 62
2
 10
17.6
 20
22.99080602710266
 30
0
 40
2
  1
-0.000394
 50
90
 41
0.63
  0
TEXT
  8
1
 62
2
 10
17
 20
2.278462253960843
 30
0
 40
3.2
  1
(0.0984DIA.      )
 50
90
 41
0.6300000000000001
 72
1
 73
2
 11
15.4
 21
20.42246225396085
 31
0
  0
TEXT
  8
1
 62
2
 10
-89.9036094600072
 20
-46.98481685313675
 30
0
 40
3.5
  1
(3-M2.6 DEPTH 0.118MAX)
 41
0.7020000000000001
 73
2
 11
-89.9036094600072
 21
-45.23481685313675
 31
0
  0
TEXT
  8
1
 62
2
 10
-88.9036094600072
 20
-54.00433206764751
 30
0
 40
3.5
  1
P=120%%d P.C.D=ƒÓ26
 41
0.9
 73
2
 11
-88.9036094600072
 21
-52.25433206764751
 31
0
  0
TEXT
  8
1
 62
2
 10
13.53299105845552
 20
-64.08294683936366
 30
0
 40
3.5
  1
UL1007 AWG24
 41
0.8100000000000001
 73
2
 11
13.53299105845552
 21
-62.33294683936366
 31
0
  0
TEXT
  8
1
 62
2
 10
13.53299105845552
 20
-56.98632485030186
 30
0
 40
3.5
  1
LEAD WIRES
 41
0.9
 73
2
 11
13.53299105845552
 21
-55.23632485030186
 31
0
  0
TEXT
  8
1
 62
2
 10
-89.9036094600072
 20
-61.00433206764744
 30
0
 40
3.5
  1
(P.C.D=1.024DIA.     )
 41
0.8550000000000001
 73
2
 11
-89.9036094600072
 21
-59.25433206764744
 31
0
  0
TEXT
  8
1
 62
2
 10
-46.73311552688724
 20
-53.50433206764751
 30
0
 40
2.5
  1
%%p0.2
 41
0.7200000000000001
 72
1
 73
2
 11
-41.33311552688724
 21
-52.25433206764751
 31
0
  0
TEXT
  8
1
 62
2
 10
-55.84059513522905
 20
-60.50433206764744
 30
0
 40
2.5
  1
%%p0.00787
 41
0.7200000000000001
 72
1
 73
2
 11
-46.84059513522905
 21
-59.25433206764744
 31
0
  0
TEXT
  8
1
 62
2
 10
99.80844072701861
 20
-11.08799999999994
 30
0
 40
3.2
  1
(1.236DIA.)
 50
90
 41
0.6300000000000001
 72
1
 73
2
 11
98.2084407270186
 21
6.039613253960852e-014
 31
0
  0
DIMENSION
  8
1
  6
CONTINUOUS
 62
2
  2
*D0
  3
DMST_1
 10
11.9399591802382
 20
1.25000000000011
 30
0
 11
8.539959180238196
 21
20.55287632032995
 31
0
 12
0
 22
0
 32
0
 70
0
  1
ƒÓ<>
 13
25
 23
-1.249999999999886
 33
0
 14
25
 24
1.250000000000114
 34
0
 50
90
 53
0
  0
DIMENSION
  8
1
  6
CONTINUOUS
 62
2
  2
*D1
  3
DMST_2
 10
-0.1843952082356708
 20
4.100000000000041
 30
0
 11
-2.784395208235674
 21
19.99262017983133
 31
0
 12
0
 22
0
 32
0
 70
0
  1
ƒÓ<>
 13
35.10000000000014
 23
-4.099999999999909
 33
0
 14
35.10000000000014
 24
4.100000000000023
 34
0
 50
90
 53
0
  0
DIMENSION
  8
1
  6
CONTINUOUS
 62
2
  2
*D2
  3
DMST_3
 10
95.59999999999999
 20
-63.38376931610912
 30
0
 11
93
 21
-54.94681048990014
 31
0
 12
0
 22
0
 32
0
 70
0
  1
(<>
 13
74.301311140694
 23
-66.38376931610912
 33
0
 14
74.56411360257107
 24
-63.38376931610912
 34
0
 50
90
 53
0
  0
DIMENSION
  8
1
  6
CONTINUOUS
 62
2
  2
*D3
  3
DMST_4
 10
37
 20
38.9906185816117
 30
0
 11
44.2896575852767
 21
41.5906185816117
 31
0
 12
0
 22
0
 32
0
 70
0
 13
35
 23
3.500000000000114
 33
0
 14
37
 24
15.50000000000011
 34
0
 53
0
  0
DIMENSION
  8
1
  6
CONTINUOUS
 62
2
  2
*D4
  3
DMST_3
 10
95.59999999999999
 20
15.70000000000005
 30
0
 11
93
 21
0
 31
0
 12
0
 22
0
 32
0
 70
0
  1
ƒÓ31.4
 13
85.20000000000005
 23
-15.70000000000005
 33
0
 14
85.20000000000005
 24
15.70000000000005
 34
0
 50
90
 53
0
  0
DIMENSION
  8
1
  6
CONTINUOUS
 62
2
  2
*D5
  3
DMST_4
 10
107.6181625646513
 20
17.00000000000011
 30
0
 11
105.0181625646513
 21
1.13686837721616e-013
 31
0
 12
0
 22
0
 32
0
 70
0
  1
34
 13
72
 23
-16.99999999999994
 33
0
 14
72
 24
17.00000000000011
 34
0
 50
90
 53
0
  0
DIMENSION
  8
1
  6
CONTINUOUS
 62
2
  2
*D6
  3
DMST_5
 10
85.60000000000014
 20
50.94565965929691
 30
0
 11
61.30000000000007
 21
53.5456596592969
 31
0
 12
0
 22
0
 32
0
 70
0
 13
37
 23
15.50000000000011
 33
0
 14
85.60000000000014
 24
15.30000000000006
 34
0
 53
0
  0
DIMENSION
  8
1
  6
CONTINUOUS
 62
2
  2
*D7
  3
DMST_4
 10
37
 20
50.9456596592969
 30
0
 11
31
 21
53.5456596592969
 31
0
 12
0
 22
0
 32
0
 70
0
 13
25
 23
1.250000000000114
 33
0
 14
37
 24
15.50000000000011
 34
0
 53
0
  0
INSERT
  8
0
  2
___R___O_______R
 10
0.5
 20
-3.75
 30
0
  0
INSERT
  8
1
  2
*D8
 10
0
 20
0
 30
0
  0
INSERT
  8
1
  2
*D9
 10
0
 20
0
 30
0
  0
ENDSEC
  0
EOF
