  0
SECTION
  2
HEADER
  9
$ACADVER
  1
AC1009
  9
$INSBASE
 10
0
 20
0
  9
$EXTMIN
 10
-194.5
 20
-146
  9
$EXTMAX
 10
194.5
 20
146
  9
$LIMMIN
 10
-194.5
 20
-146
  9
$LIMMAX
 10
194.5
 20
146
  9
$VIEWCTR
 10
10
 20
10
  9
$VIEWSIZE
 40
10
  9
$SNAPMODE
 70
0
  9
$SNAPUNIT
 10
1
 20
1
  9
$SNAPBASE
 10
0
 20
0
  9
$SNAPANG
 50
0
  9
$SNAPSTYLE
 70
0
  9
$SNAPISOPAIR
 70
0
  9
$GRIDMODE
 70
0
  9
$GRIDUNIT
 10
0
 20
0
  9
$ORTHOMODE
 70
0
  9
$REGENMODE
 70
1
  9
$FILLMODE
 70
1
  9
$QTEXTMODE
 70
0
  9
$DRAGMODE
 70
2
  9
$LTSCALE
 40
1
  9
$OSMODE
 70
0
  9
$ATTMODE
 70
1
  9
$TEXTSIZE
 40
3.5
  9
$TRACEWID
 40
0.5
  9
$TEXTSTYLE
  7
STANDARD
  9
$CLAYER
  8
0
  9
$CELTYPE
  6
BYLAYER
  9
$CECOLOR
 62
256
  9
$DIMSCALE
 40
1
  9
$DIMASZ
 40
0.18
  9
$DIMEXO
 40
0.0625
  9
$DIMDLI
 40
0.38
  9
$DIMRND
 40
0
  9
$DIMDLE
 40
0
  9
$DIMEXE
 40
0.18
  9
$DIMTP
 40
0
  9
$DIMTM
 40
0
  9
$DIMTXT
 40
0.18
  9
$DIMCEN
 40
0.09
  9
$DIMTSZ
 40
0
  9
$DIMTOL
 70
0
  9
$DIMLIM
 70
0
  9
$DIMTIH
 70
1
  9
$DIMTOH
 70
1
  9
$DIMSE1
 70
0
  9
$DIMSE2
 70
0
  9
$DIMTAD
 70
0
  9
$DIMZIN
 70
0
  9
$DIMBLK
  1

  9
$DIMASO
 70
1
  9
$DIMSHO
 70
1
  9
$DIMPOST
  1

  9
$DIMAPOST
  1

  9
$DIMALT
 70
0
  9
$DIMALTD
 70
2
  9
$DIMALTF
 40
25.4
  9
$DIMLFAC
 40
1
  9
$DIMTOFL
 70
0
  9
$DIMTVP
 40
0
  9
$DIMTIX
 70
0
  9
$DIMSOXD
 70
0
  9
$DIMSAH
 70
0
  9
$DIMBLK1
  1

  9
$DIMBLK2
  1

  9
$DIMSTYLE
  2
*UNNAMED
  9
$DIMCLRD
 70
0
  9
$DIMCLRE
 70
0
  9
$DIMCLRT
 70
0
  9
$DIMTFAC
 40
1
  9
$DIMGAP
 40
0.09
  9
$LUNITS
 70
2
  9
$LUPREC
 70
4
  9
$AXISMODE
 70
0
  9
$AXISUNIT
 10
0
 20
0
  9
$SKETCHINC
 40
0.1
  9
$FILLETRAD
 40
2
  9
$AUNITS
 70
0
  9
$AUPREC
 70
0
  9
$MENU
  1
ACAD
  9
$ELEVATION
 40
0
  9
$THICKNESS
 40
0
  9
$VIEWDIR
 10
0
 20
0
 30
1
  9
$LIMCHECK
 70
0
  9
$BLIPMODE
 70
1
  9
$CHAMFERA
 40
0
  9
$CHAMFERB
 40
0
  9
$FASTZOOM
 70
1
  9
$SKPOLY
 70
0
  9
$ANGBASE
 50
0
  9
$ANGDIR
 70
0
  9
$PDMODE
 70
0
  9
$PDSIZE
 40
0
  9
$PLINEWID
 40
0
  9
$COORDS
 70
2
  0
ENDSEC
  0
SECTION
  2
TABLES
  0
TABLE
  2
DIMSTYLE
 70
8
  0
DIMSTYLE
  2
DMST_1
 70
0
  3

  4

  5

  6

  7

 40
1
 41
3.2
 42
1
 43
7
 44
1
 45
0
 46
0
 47
0
 48
0
140
3.2
141
0
142
0
143
25.4
144
1
145
0
146
1
147
0.09
 71
0
 72
0
 73
0
 74
0
 75
0
 76
0
 77
1
 78
9
170
0
171
2
172
0
173
0
174
0
175
0
176
2
177
2
178
2
  0
DIMSTYLE
  2
DMST_2
 70
0
  3

  4

  5

  6

  7

 40
1
 41
3.2
 42
1
 43
7
 44
1
 45
0
 46
0
 47
0.3
 48
0.3
140
3.2
141
0
142
0
143
25.4
144
1
145
0
146
0.6
147
0.09
 71
1
 72
0
 73
0
 74
0
 75
0
 76
0
 77
1
 78
9
170
0
171
2
172
0
173
0
174
0
175
0
176
2
177
2
178
2
  0
DIMSTYLE
  2
DMST_3
 70
0
  3

  4

  5

  6

  7

 40
1
 41
3.2
 42
1
 43
7
 44
1
 45
0
 46
0
 47
0
 48
0.02
140
3.2
141
0
142
0
143
25.4
144
1
145
0
146
0.6
147
0.09
 71
1
 72
0
 73
0
 74
0
 75
0
 76
0
 77
1
 78
9
170
0
171
2
172
0
173
0
174
0
175
0
176
2
177
2
178
2
  0
DIMSTYLE
  2
DMST_4
 70
0
  3

  4

  5

  6

  7

 40
1
 41
3
 42
1
 43
7
 44
1
 45
0
 46
0
 47
0.5
 48
0.5
140
3.2
141
0
142
0
143
25.4
144
1
145
0
146
0.6
147
0.09
 71
1
 72
0
 73
0
 74
0
 75
0
 76
0
 77
1
 78
9
170
0
171
2
172
0
173
0
174
0
175
0
176
2
177
2
178
2
  0
DIMSTYLE
  2
DMST_5
 70
0
  3

  4

  5

  6

  7

 40
1
 41
3
 42
1
 43
7
 44
1
 45
0
 46
0
 47
0.3
 48
0.3
140
3.2
141
0
142
0
143
25.4
144
1
145
0
146
0.6
147
0.09
 71
1
 72
0
 73
0
 74
0
 75
0
 76
0
 77
1
 78
9
170
0
171
2
172
0
173
0
174
0
175
0
176
2
177
2
178
2
  0
DIMSTYLE
  2
DMST_6
 70
0
  3

  4

  5

  6

  7

 40
1
 41
3
 42
1
 43
7
 44
1
 45
0
 46
0
 47
0
 48
0
140
3.2
141
0
142
0
143
25.4
144
1
145
0
146
1
147
0.09
 71
0
 72
0
 73
0
 74
0
 75
0
 76
0
 77
1
 78
9
170
0
171
2
172
0
173
0
174
0
175
0
176
2
177
2
178
2
  0
DIMSTYLE
  2
DMST_7
 70
0
  3
)
  4

  5

  6

  7

 40
1
 41
3.2
 42
1
 43
7
 44
1
 45
0
 46
0
 47
0
 48
0
140
3.2
141
0
142
0
143
25.4
144
1
145
0
146
1
147
0.09
 71
0
 72
0
 73
0
 74
0
 75
0
 76
0
 77
1
 78
9
170
0
171
2
172
0
173
0
174
0
175
0
176
2
177
2
178
2
  0
DIMSTYLE
  2
DMST_8
 70
0
  3

  4

  5

  6

  7

 40
1
 41
3.2
 42
1
 43
7
 44
1
 45
0
 46
0
 47
0
 48
0
140
3.2
141
0
142
0
143
25.4
144
1
145
0
146
0.6
147
0.09
 71
1
 72
0
 73
0
 74
0
 75
0
 76
0
 77
1
 78
9
170
0
171
2
172
0
173
0
174
0
175
0
176
2
177
2
178
2
  0
ENDTAB
  0
TABLE
  2
LTYPE
 70
9
  0
LTYPE
  2
CONTINUOUS
 70
64
  3
Solid line
 72
65
 73
0
 40
0
  0
LTYPE
  2
BORDER
 70
64
  3
__ __ . __ __ .
 72
65
 73
6
 40
17.91447368421053
 49
5.118421052631579
 49
-2.559210526315789
 49
5.118421052631579
 49
-2.559210526315789
 49
0
 49
-2.559210526315789
  0
LTYPE
  2
CENTER
 70
64
  3
____ _ ____ _
 72
65
 73
4
 40
20.47368421052632
 49
12.79605263157895
 49
-2.559210526315789
 49
2.559210526315789
 49
-2.559210526315789
  0
LTYPE
  2
DASHDOT
 70
64
  3
__ . __ . __ .
 72
65
 73
4
 40
10.23684210526316
 49
5.118421052631579
 49
-2.559210526315789
 49
0
 49
-2.559210526315789
  0
LTYPE
  2
DASHED
 70
64
  3
__ __ __ __ __
 72
65
 73
2
 40
7.677631578947368
 49
5.118421052631579
 49
-2.559210526315789
  0
LTYPE
  2
DIVIDE
 70
64
  3
__ . . __ . . 
 72
65
 73
6
 40
12.79605263157895
 49
5.118421052631579
 49
-2.559210526315789
 49
0
 49
-2.559210526315789
 49
0
 49
-2.559210526315789
  0
LTYPE
  2
DOT
 70
64
  3
..............
 72
65
 73
4
 40
5.118421052631579
 49
0
 49
-2.559210526315789
 49
0
 49
-2.559210526315789
  0
LTYPE
  2
HIDDEN
 70
64
  3
_ _ _ _ _ _ _
 72
65
 73
2
 40
3.838815789473684
 49
2.559210526315789
 49
-1.279605263157895
  0
LTYPE
  2
PHANTOM
 70
64
  3
_____ _ _ _____ _ _ 
 72
65
 73
6
 40
25.59210526315789
 49
12.79605263157895
 49
-2.559210526315789
 49
2.559210526315789
 49
-2.559210526315789
 49
2.559210526315789
 49
-2.559210526315789
  0
ENDTAB
  0
TABLE
  2
LAYER
 70
3
  0
LAYER
  2
1
 70
0
 62
7
  6
CONTINUOUS
  0
LAYER
  2
0
 70
0
 62
7
  6
CONTINUOUS
  0
ENDTAB
  0
TABLE
  2
STYLE
 70
4
  0
STYLE
  2
STANDARD
 70
0
 40
0
 41
1
 50
0
 71
0
 42
3.5
  3
txt
  4

  0
STYLE
  2
SIMPLEX
 70
0
 40
0
 41
1
 50
0
 71
0
 42
3.5
  3
simplex
  4

  0
STYLE
  2
COMPLEX
 70
0
 40
0
 41
1
 50
0
 71
0
 42
3.5
  3
complex
  4

  0
STYLE
  2
ITALIC
 70
0
 40
0
 41
1
 50
0
 71
0
 42
3.5
  3
italic
  4

  0
ENDTAB
  0
TABLE
  2
VIEW
 70
0
  0
ENDTAB
  0
ENDSEC
  0
SECTION
  2
BLOCKS
  0
BLOCK
  8
0
  2
___R___O_______R
 70
0
 10
0.5000000000000568
 20
-3.75
 30
0
  0
LINE
  8
1
 62
4
  6
PHANTOM
 10
-194.5
 20
-146
 30
0
 11
194.5
 21
-146
 31
0
  0
LINE
  8
1
 62
4
  6
PHANTOM
 10
194.5
 20
146
 30
0
 11
-194.5
 21
146
 31
0
  0
LINE
  8
1
 62
4
  6
PHANTOM
 10
194.5
 20
146
 30
0
 11
194.5
 21
129
 31
0
  0
LINE
  8
1
 62
4
  6
PHANTOM
 10
-194.5
 20
-146
 30
0
 11
-194.5
 21
146
 31
0
  0
LINE
  8
1
 62
4
  6
PHANTOM
 10
194.5
 20
-136.5
 30
0
 11
194.5
 21
-146
 31
0
  0
TEXT
  8
1
 62
4
 10
178.746911898274
 20
-142.6071298819256
 30
0
 40
5
  1
A3
 41
0.9
 72
1
 73
2
 11
183.246911898274
 21
-140.1071298819256
 31
0
  0
ENDBLK
  8
0
  0
BLOCK
  8
1
  2
*D0
 70
1
 10
0
 20
0
 30
0
  0
LINE
  8
1
 62
2
 10
15
 20
64.32896449662651
 30
0
 11
80.50000000000033
 21
64.32896449662651
 31
0
  0
LINE
  8
1
 62
2
 10
80.50000000000033
 20
17.99999999999999
 30
0
 11
80.50000000000033
 21
65.32896449662651
 31
0
  0
LINE
  8
1
 62
2
 10
15
 20
30.49999999999999
 30
0
 11
15
 21
65.32896449662651
 31
0
  0
SOLID
  8
1
 62
2
 10
15
 20
64.32896449662651
 30
0
 11
18.2
 21
64.74496449662651
 31
0
 12
18.2
 22
63.91296449662652
 32
0
 13
18.2
 23
63.91296449662652
 33
0
  0
SOLID
  8
1
 62
2
 10
80.50000000000033
 20
64.32896449662651
 30
0
 11
77.30000000000032
 21
63.91296449662652
 31
0
 12
77.30000000000032
 22
64.74496449662651
 32
0
 13
77.30000000000032
 23
64.74496449662651
 33
0
  0
TEXT
  8
1
 62
2
 10
43.39000000000016
 20
65.32896449662651
 30
0
 40
3.2
  1
65.5
 41
0.9
  0
ENDBLK
  8
0
  0
BLOCK
  8
1
  2
*D1
 70
1
 10
0
 20
0
 30
0
  0
LINE
  8
1
 62
2
 10
-10
 20
52.4681057506801
 30
0
 11
1.999999999999998
 21
52.4681057506801
 31
0
  0
LINE
  8
1
 62
2
 10
-10
 20
13.5
 30
0
 11
-10
 21
53.4681057506801
 31
0
  0
LINE
  8
1
 62
2
 10
1.999999999999998
 20
13.5
 30
0
 11
1.999999999999998
 21
53.4681057506801
 31
0
  0
SOLID
  8
1
 62
2
 10
-10
 20
52.4681057506801
 30
0
 11
-6.800000000000001
 21
52.88410575068009
 31
0
 12
-6.800000000000001
 22
52.0521057506801
 32
0
 13
-6.800000000000001
 23
52.0521057506801
 33
0
  0
SOLID
  8
1
 62
2
 10
1.999999999999998
 20
52.4681057506801
 30
0
 11
-1.200000000000002
 21
52.0521057506801
 31
0
 12
-1.200000000000002
 22
52.88410575068009
 32
0
 13
-1.200000000000002
 23
52.88410575068009
 33
0
  0
TEXT
  8
1
 62
2
 10
-5.920000000000002
 20
53.46810575068009
 30
0
 40
3.2
  1
12
 41
0.9
  0
ENDBLK
  8
0
  0
BLOCK
  8
1
  2
*D2
 70
1
 10
0
 20
0
 30
0
  0
LINE
  8
1
 62
2
 10
-19.46223690423403
 20
0.6000000000001187
 30
0
 11
-19.46223690423403
 21
7.000000000000121
 31
0
  0
LINE
  8
1
 62
2
 10
-19.46223690423403
 20
7.000000000000121
 30
0
 11
-19.46223690423403
 21
12.5
 31
0
  0
LINE
  8
1
 62
2
 10
-19.46223690423403
 20
12.5
 30
0
 11
-19.46223690423403
 21
35.8056550740146
 31
0
  0
LINE
  8
1
 62
2
 10
-11
 20
7.000000000000121
 30
0
 11
-20.46223690423403
 21
7.000000000000121
 31
0
  0
LINE
  8
1
 62
2
 10
-11
 20
12.5
 30
0
 11
-20.46223690423403
 21
12.5
 31
0
  0
SOLID
  8
1
 62
2
 10
-19.46223690423403
 20
12.5
 30
0
 11
-19.87823690423403
 21
15.7
 31
0
 12
-19.04623690423404
 22
15.7
 32
0
 13
-19.04623690423404
 23
15.7
 33
0
  0
SOLID
  8
1
 62
2
 10
-19.46223690423403
 20
7.000000000000121
 30
0
 11
-19.04623690423403
 21
3.80000000000012
 31
0
 12
-19.87823690423403
 22
3.80000000000012
 32
0
 13
-19.87823690423403
 23
3.80000000000012
 33
0
  0
TEXT
  8
1
 62
2
 10
-20.46223690423394
 20
23.5176550740146
 30
0
 40
3.2
  1
5.5
 50
90
 41
0.9
  0
TEXT
  8
1
 62
2
 10
-21.10223690423394
 20
30.9576550740146
 30
0
 40
1.92
  1
%%p0.3
 50
90
 41
0.9
  0
ENDBLK
  8
0
  0
BLOCK
  8
1
  2
*D3
 70
1
 10
0
 20
0
 30
0
  0
LINE
  8
1
 62
2
 10
-31.49652299425385
 20
0.600000000000108
 30
0
 11
-31.49652299425385
 21
7.000000000000107
 31
0
  0
LINE
  8
1
 62
2
 10
-31.49652299425385
 20
7.000000000000107
 30
0
 11
-31.49652299425385
 21
13.00000000000011
 31
0
  0
LINE
  8
1
 62
2
 10
-31.49652299425385
 20
13.00000000000011
 30
0
 11
-31.49652299425385
 21
39.9216312692783
 31
0
  0
LINE
  8
1
 62
2
 10
-11.00000000000001
 20
7.000000000000107
 30
0
 11
-32.49652299425385
 21
7.000000000000107
 31
0
  0
LINE
  8
1
 62
2
 10
1.499999999999986
 20
13.00000000000011
 30
0
 11
-32.49652299425385
 21
13.00000000000011
 31
0
  0
SOLID
  8
1
 62
2
 10
-31.49652299425385
 20
7.000000000000107
 30
0
 11
-31.08052299425385
 21
3.800000000000106
 31
0
 12
-31.91252299425385
 22
3.800000000000106
 32
0
 13
-31.91252299425385
 23
3.800000000000106
 33
0
  0
SOLID
  8
1
 62
2
 10
-31.49652299425385
 20
13.00000000000011
 30
0
 11
-31.91252299425385
 21
16.20000000000011
 31
0
 12
-31.08052299425386
 22
16.20000000000011
 32
0
 13
-31.08052299425386
 23
16.20000000000011
 33
0
  0
TEXT
  8
1
 62
2
 10
-33.29652299425394
 20
29.63363126927831
 30
0
 40
3.2
  1
6
 50
90
 41
0.9
  0
TEXT
  8
1
 62
2
 10
-35.37652299425394
 20
33.15363126927831
 30
0
 40
1.92
  1
 0
 50
90
 41
0.9
  0
TEXT
  8
1
 62
2
 10
-32.49652299425394
 20
33.15363126927831
 30
0
 40
1.92
  1
-0.02
 50
90
 41
0.9
  0
TEXT
  8
1
 62
2
 10
-33.29652299425394
 20
25.98918682483387
 30
0
 40
3.2
  1
âË
 50
90
 41
0.9
  0
ENDBLK
  8
0
  0
BLOCK
  8
1
  2
*D4
 70
1
 10
0
 20
0
 30
0
  0
LINE
  8
1
 62
2
 10
-43.49820191931394
 20
1.0001839906908
 30
0
 11
-43.49820191931394
 21
19
 31
0
  0
LINE
  8
1
 62
2
 10
-43.49820191931394
 20
19
 30
0
 11
-43.49820191931394
 21
32.57069692846512
 31
0
  0
LINE
  8
1
 62
2
 10
9
 20
1.0001839906908
 30
0
 11
-44.49820191931394
 21
1.0001839906908
 31
0
  0
LINE
  8
1
 62
2
 10
9
 20
19
 30
0
 11
-44.49820191931394
 21
19
 31
0
  0
SOLID
  8
1
 62
2
 10
-43.49820191931394
 20
19
 30
0
 11
-43.08220191931395
 21
15.8
 31
0
 12
-43.91420191931394
 22
15.8
 32
0
 13
-43.91420191931394
 23
15.8
 33
0
  0
SOLID
  8
1
 62
2
 10
-43.49820191931394
 20
1.0001839906908
 30
0
 11
-43.91420191931395
 21
4.200183990690801
 31
0
 12
-43.08220191931395
 22
4.200183990690801
 32
0
 13
-43.08220191931395
 23
4.200183990690801
 33
0
  0
TEXT
  8
1
 62
2
 10
-44.49820191931385
 20
28.73069692846512
 30
0
 40
3.2
  1
18
 50
90
 41
0.9
  0
TEXT
  8
1
 62
2
 10
-44.49820191931385
 20
25.08625248402068
 30
0
 40
3.2
  1
âË
 50
90
 41
0.9
  0
ENDBLK
  8
0
  0
BLOCK
  8
1
  2
*D5
 70
1
 10
0
 20
0
 30
0
  0
LINE
  8
1
 62
2
 10
-10
 20
64.449904520602
 30
0
 11
15
 21
64.449904520602
 31
0
  0
LINE
  8
1
 62
2
 10
-10
 20
13.5
 30
0
 11
-10
 21
65.449904520602
 31
0
  0
LINE
  8
1
 62
2
 10
15
 20
30.49999999999999
 30
0
 11
15
 21
65.449904520602
 31
0
  0
SOLID
  8
1
 62
2
 10
-10
 20
64.449904520602
 30
0
 11
-6.800000000000001
 21
64.865904520602
 31
0
 12
-6.800000000000001
 22
64.03390452060201
 32
0
 13
-6.800000000000001
 23
64.03390452060201
 33
0
  0
SOLID
  8
1
 62
2
 10
15
 20
64.449904520602
 30
0
 11
11.8
 21
64.03390452060201
 31
0
 12
11.8
 22
64.865904520602
 32
0
 13
11.8
 23
64.865904520602
 33
0
  0
TEXT
  8
1
 62
2
 10
0.09999999999999787
 20
65.449904520602
 30
0
 40
3.2
  1
25
 41
0.9
  0
ENDBLK
  8
0
  0
BLOCK
  8
1
  2
*D6
 70
1
 10
0
 20
0
 30
0
  0
LINE
  8
1
 62
2
 10
15
 20
52.51402115598501
 30
0
 11
44
 21
52.51402115598501
 31
0
  0
LINE
  8
1
 62
2
 10
15
 20
30.49999999999999
 30
0
 11
15
 21
53.51402115598501
 31
0
  0
LINE
  8
1
 62
2
 10
44
 20
30.99999999999999
 30
0
 11
44
 21
53.51402115598501
 31
0
  0
SOLID
  8
1
 62
2
 10
15
 20
52.51402115598501
 30
0
 11
18.2
 21
52.930021155985
 31
0
 12
18.2
 22
52.09802115598501
 32
0
 13
18.2
 23
52.09802115598501
 33
0
  0
SOLID
  8
1
 62
2
 10
44
 20
52.51402115598501
 30
0
 11
40.8
 21
52.09802115598501
 31
0
 12
40.8
 22
52.930021155985
 32
0
 13
40.8
 23
52.930021155985
 33
0
  0
TEXT
  8
1
 62
2
 10
27.1
 20
53.514021155985
 30
0
 40
3.2
  1
29
 41
0.9
  0
ENDBLK
  8
0
  0
BLOCK
  8
1
  2
*D7
 70
1
 10
0
 20
0
 30
0
  0
LINE
  8
1
 62
2
 10
21.4
 20
52.5339907954604
 30
0
 11
15
 21
52.5339907954604
 31
0
  0
LINE
  8
1
 62
2
 10
10
 20
52.5339907954604
 30
0
 11
15
 21
52.5339907954604
 31
0
  0
LINE
  8
1
 62
2
 10
10
 20
52.5339907954604
 30
0
 11
3.6
 21
52.5339907954604
 31
0
  0
LINE
  8
1
 62
2
 10
10
 20
20.00000000000012
 30
0
 11
10
 21
53.5339907954604
 31
0
  0
LINE
  8
1
 62
2
 10
15
 20
30.5
 30
0
 11
15
 21
53.5339907954604
 31
0
  0
SOLID
  8
1
 62
2
 10
10
 20
52.5339907954604
 30
0
 11
6.799999999999999
 21
52.1179907954604
 31
0
 12
6.799999999999999
 22
52.94999079546039
 32
0
 13
6.799999999999999
 23
52.94999079546039
 33
0
  0
SOLID
  8
1
 62
2
 10
15
 20
52.5339907954604
 30
0
 11
18.2
 21
52.94999079546039
 31
0
 12
18.2
 22
52.1179907954604
 32
0
 13
18.2
 23
52.1179907954604
 33
0
  0
TEXT
  8
1
 62
2
 10
5.0369181135408
 20
53.5339907954604
 30
0
 40
3.2
  1
5
 41
0.9
  0
ENDBLK
  8
0
  0
BLOCK
  8
1
  2
*D8
 70
1
 10
0
 20
0
 30
0
  0
LINE
  8
1
 62
2
 10
-69.4462016085883
 20
0
 30
0
 11
-69.4462016085883
 21
-13.67285247127719
 31
0
  0
LINE
  8
1
 62
2
 10
-69.4462016085883
 20
0
 30
0
 11
-69.4462016085883
 21
10
 31
0
  0
LINE
  8
1
 62
2
 10
-99.9999999999999
 20
10
 30
0
 11
-68.4462016085883
 21
10
 31
0
  0
LINE
  8
1
 62
2
 10
-78.49999999999989
 20
0
 30
0
 11
-68.4462016085883
 21
0
 31
0
  0
SOLID
  8
1
 62
2
 10
-69.4462016085883
 20
10
 30
0
 11
-69.0562016085883
 21
7
 31
0
 12
-69.8362016085883
 22
7
 32
0
 13
-69.8362016085883
 23
7
 33
0
  0
SOLID
  8
1
 62
2
 10
-69.4462016085883
 20
0
 30
0
 11
-69.8362016085883
 21
3
 31
0
 12
-69.0562016085883
 22
3
 32
0
 13
-69.0562016085883
 23
3
 33
0
  0
TEXT
  8
1
 62
2
 10
-70.4462016085883
 20
-13.67285247127719
 30
0
 40
3.2
  1
10
 50
90
 41
0.9
  0
TEXT
  8
1
 62
2
 10
-71.0862016085883
 20
-8.232852471277191
 30
0
 40
1.92
  1
%%p0.5
 50
90
 41
0.9
  0
ENDBLK
  8
0
  0
BLOCK
  8
1
  2
*D9
 70
1
 10
0
 20
0
 30
0
  0
LINE
  8
1
 62
2
 10
-57.3809956736108
 20
-24.75
 30
0
 11
-57.3809956736108
 21
24.75
 31
0
  0
LINE
  8
1
 62
2
 10
-78.49999999999989
 20
24.75
 30
0
 11
-56.3809956736108
 21
24.75
 31
0
  0
LINE
  8
1
 62
2
 10
-78.49999999999989
 20
-24.75
 30
0
 11
-56.3809956736108
 21
-24.75
 31
0
  0
SOLID
  8
1
 62
2
 10
-57.3809956736108
 20
24.75
 30
0
 11
-56.9909956736108
 21
21.75
 31
0
 12
-57.7709956736108
 22
21.75
 32
0
 13
-57.7709956736108
 23
21.75
 33
0
  0
SOLID
  8
1
 62
2
 10
-57.3809956736108
 20
-24.75
 30
0
 11
-57.7709956736108
 21
-21.75
 31
0
 12
-56.9909956736108
 22
-21.75
 32
0
 13
-56.9909956736108
 23
-21.75
 33
0
  0
TEXT
  8
1
 62
2
 10
-58.3809956736108
 20
-7.584
 30
0
 40
3.2
  1
49.5
 50
90
 41
0.9
  0
TEXT
  8
1
 62
2
 10
-59.0209956736108
 20
2.736000000000001
 30
0
 40
1.92
  1
%%p0.3
 50
90
 41
0.9
  0
ENDBLK
  8
0
  0
BLOCK
  8
1
  2
*D10
 70
1
 10
0
 20
0
 30
0
  0
LINE
  8
1
 62
2
 10
-134.7499999999999
 20
40.4603039403511
 30
0
 11
-85.24999999999989
 21
40.4603039403511
 31
0
  0
LINE
  8
1
 62
2
 10
-85.24999999999989
 20
31.5
 30
0
 11
-85.24999999999989
 21
41.4603039403511
 31
0
  0
LINE
  8
1
 62
2
 10
-134.7499999999999
 20
31.5
 30
0
 11
-134.7499999999999
 21
41.4603039403511
 31
0
  0
SOLID
  8
1
 62
2
 10
-134.7499999999999
 20
40.4603039403511
 30
0
 11
-131.7499999999999
 21
40.8503039403511
 31
0
 12
-131.7499999999999
 22
40.0703039403511
 32
0
 13
-131.7499999999999
 23
40.0703039403511
 33
0
  0
SOLID
  8
1
 62
2
 10
-85.24999999999989
 20
40.4603039403511
 30
0
 11
-88.24999999999989
 21
40.0703039403511
 31
0
 12
-88.24999999999989
 22
40.8503039403511
 32
0
 13
-88.24999999999989
 23
40.8503039403511
 33
0
  0
TEXT
  8
1
 62
2
 10
-117.5839999999999
 20
41.4603039403511
 30
0
 40
3.2
  1
49.5
 41
0.9
  0
TEXT
  8
1
 62
2
 10
-107.2639999999999
 20
42.1003039403511
 30
0
 40
1.92
  1
%%p0.3
 41
0.9
  0
ENDBLK
  8
0
  0
BLOCK
  8
1
  2
*D11
 70
1
 10
0
 20
0
 30
0
  0
LINE
  8
1
 62
2
 10
-140.5
 20
52.3174890833463
 30
0
 11
-79.49999999999989
 21
52.3174890833463
 31
0
  0
LINE
  8
1
 62
2
 10
-79.49999999999989
 20
25.75
 30
0
 11
-79.49999999999989
 21
53.3174890833463
 31
0
  0
LINE
  8
1
 62
2
 10
-140.5
 20
25.75
 30
0
 11
-140.5
 21
53.3174890833463
 31
0
  0
SOLID
  8
1
 62
2
 10
-140.5
 20
52.3174890833463
 30
0
 11
-137.5
 21
52.7074890833463
 31
0
 12
-137.5
 22
51.9274890833463
 32
0
 13
-137.5
 23
51.9274890833463
 33
0
  0
SOLID
  8
1
 62
2
 10
-79.49999999999989
 20
52.3174890833463
 30
0
 11
-82.49999999999989
 21
51.9274890833463
 31
0
 12
-82.49999999999989
 22
52.7074890833463
 32
0
 13
-82.49999999999989
 23
52.7074890833463
 33
0
  0
TEXT
  8
1
 62
2
 10
-109.831111111111
 20
53.3174890833463
 30
0
 40
3.2
  1
61
 41
0.9
  0
TEXT
  8
1
 62
2
 10
-114.0088888888888
 20
53.3174890833463
 30
0
 40
3.2
  1
üá
 41
0.9
  0
ENDBLK
  8
0
  0
BLOCK
  8
1
  2
*D12
 70
1
 10
0
 20
0
 30
0
  0
LINE
  8
1
 62
2
 10
102.3899275099671
 20
-17
 30
0
 11
102.3899275099671
 21
17
 31
0
  0
LINE
  8
1
 62
2
 10
81.50000000000031
 20
17
 30
0
 11
103.3899275099671
 21
17
 31
0
  0
LINE
  8
1
 62
2
 10
81.50000000000031
 20
-17
 30
0
 11
103.3899275099671
 21
-17
 31
0
  0
SOLID
  8
1
 62
2
 10
102.3899275099671
 20
17
 30
0
 11
102.8059275099671
 21
13.8
 31
0
 12
101.9739275099671
 22
13.8
 32
0
 13
101.9739275099671
 23
13.8
 33
0
  0
SOLID
  8
1
 62
2
 10
102.3899275099671
 20
-17
 30
0
 11
101.9739275099671
 21
-13.8
 31
0
 12
102.8059275099671
 22
-13.8
 32
0
 13
102.8059275099671
 23
-13.8
 33
0
  0
TEXT
  8
1
 62
2
 10
101.3899275099671
 20
-0.5777777777777782
 30
0
 40
3.2
  1
34
 50
90
 41
0.9
  0
TEXT
  8
1
 62
2
 10
101.3899275099671
 20
-4.222222222222222
 30
0
 40
3.2
  1
âË
 50
90
 41
0.9
  0
ENDBLK
  8
0
  0
BLOCK
  8
1
  2
*D13
 70
1
 10
0
 20
0
 30
0
  0
LINE
  8
1
 62
2
 10
140.0974548367342
 20
-26.9495106922798
 30
0
 11
128.8540594418271
 21
-26.9495106922798
 31
0
  0
LINE
  8
1
 62
2
 10
140.0974548367342
 20
-26.9495106922798
 30
0
 11
143.0974548367342
 21
-26.9495106922798
 31
0
  0
LINE
  8
1
 62
2
 10
149.4974548367342
 20
-26.9495106922798
 30
0
 11
143.0974548367342
 21
-26.9495106922798
 31
0
  0
LINE
  8
1
 62
2
 10
143.0974548367342
 20
-2.099999999999991
 30
0
 11
143.0974548367342
 21
-27.9495106922798
 31
0
  0
LINE
  8
1
 62
2
 10
140.0974548367342
 20
-2.66
 30
0
 11
140.0974548367342
 21
-27.9495106922798
 31
0
  0
SOLID
  8
1
 62
2
 10
143.0974548367342
 20
-26.9495106922798
 30
0
 11
146.2974548367342
 21
-26.5335106922798
 31
0
 12
146.2974548367342
 22
-27.3655106922798
 32
0
 13
146.2974548367342
 23
-27.3655106922798
 33
0
  0
SOLID
  8
1
 62
2
 10
140.0974548367342
 20
-26.9495106922798
 30
0
 11
136.8974548367342
 21
-27.3655106922798
 31
0
 12
136.8974548367342
 22
-26.5335106922798
 32
0
 13
136.8974548367342
 23
-26.5335106922798
 33
0
  0
TEXT
  8
1
 62
2
 10
130.9340594418271
 20
-25.9495106922798
 30
0
 40
3.2
  1
3
 41
0.9
  0
TEXT
  8
1
 62
2
 10
128.8540594418271
 20
-25.9495106922798
 30
0
 40
3.2
  1
(
 41
0.9
  0
TEXT
  8
1
 62
2
 10
134.4540594418271
 20
-25.9495106922798
 30
0
 40
3.2
  1
)
 41
0.9
  0
ENDBLK
  8
0
  0
BLOCK
  8
1
  2
*D14
 70
1
 10
0
 20
0
 30
0
  0
LINE
  8
1
 62
2
 10
80.50000000000034
 20
-38.9161652772744
 30
0
 11
143.0974548367342
 21
-38.9161652772744
 31
0
  0
LINE
  8
1
 62
2
 10
143.0974548367342
 20
-2.099999999999994
 30
0
 11
143.0974548367342
 21
-39.9161652772744
 31
0
  0
LINE
  8
1
 62
2
 10
80.50000000000034
 20
-18
 30
0
 11
80.50000000000034
 21
-39.9161652772744
 31
0
  0
SOLID
  8
1
 62
2
 10
80.50000000000034
 20
-38.9161652772744
 30
0
 11
83.70000000000034
 21
-38.50016527727441
 31
0
 12
83.70000000000034
 22
-39.3321652772744
 32
0
 13
83.70000000000034
 23
-39.3321652772744
 33
0
  0
SOLID
  8
1
 62
2
 10
143.0974548367342
 20
-38.9161652772744
 30
0
 11
139.8974548367342
 21
-39.3321652772744
 31
0
 12
139.8974548367342
 22
-38.50016527727441
 32
0
 13
139.8974548367342
 23
-38.50016527727441
 33
0
  0
TEXT
  8
1
 62
2
 10
104.9507274183673
 20
-37.11616527727441
 30
0
 40
3.2
  1
300
 41
0.9
  0
TEXT
  8
1
 62
2
 10
114.2307274183673
 20
-35.03616527727441
 30
0
 40
1.92
  1
+30
 41
0.9
  0
TEXT
  8
1
 62
2
 10
115.9587274183673
 20
-37.9161652772744
 30
0
 40
1.92
  1
 0
 41
0.9
  0
ENDBLK
  8
0
  0
BLOCK
  8
1
  2
*D15
 70
1
 10
0
 20
0
 30
0
  0
LINE
  8
1
 62
2
 10
82.10000000000011
 20
52.6129032258064
 30
0
 11
95.46965929684708
 21
52.6129032258064
 31
0
  0
LINE
  8
1
 62
2
 10
80.50000000000031
 20
52.6129032258064
 30
0
 11
82.10000000000011
 21
52.6129032258064
 31
0
  0
LINE
  8
1
 62
2
 10
74.10000000000031
 20
52.6129032258064
 30
0
 11
80.50000000000031
 21
52.6129032258064
 31
0
  0
LINE
  8
1
 62
2
 10
82.10000000000011
 20
4.245566037735898
 30
0
 11
82.10000000000011
 21
53.6129032258064
 31
0
  0
LINE
  8
1
 62
2
 10
80.50000000000031
 20
18
 30
0
 11
80.50000000000031
 21
53.6129032258064
 31
0
  0
SOLID
  8
1
 62
2
 10
80.50000000000031
 20
52.6129032258064
 30
0
 11
77.30000000000031
 21
52.1969032258064
 31
0
 12
77.30000000000031
 22
53.0289032258064
 32
0
 13
77.30000000000031
 23
53.0289032258064
 33
0
  0
SOLID
  8
1
 62
2
 10
82.10000000000011
 20
52.6129032258064
 30
0
 11
85.30000000000011
 21
53.0289032258064
 31
0
 12
85.30000000000011
 22
52.1969032258064
 32
0
 13
85.30000000000011
 23
52.1969032258064
 33
0
  0
TEXT
  8
1
 62
2
 10
88.50965929684709
 20
53.6129032258064
 30
0
 40
3.2
  1
1.6
 41
0.9
  0
TEXT
  8
1
 62
2
 10
86.42965929684709
 20
53.6129032258064
 30
0
 40
3.2
  1
(
 41
0.9
  0
TEXT
  8
1
 62
2
 10
94.98965929684709
 20
53.6129032258064
 30
0
 40
3.2
  1
)
 41
0.9
  0
ENDBLK
  8
0
  0
BLOCK
  8
1
  2
*D16
 70
1
 10
0
 20
0
 30
0
  0
LINE
  8
1
 62
2
 10
-84.01181377609426
 20
-26.32063518199814
 30
0
 11
-72.81610602716101
 21
-40.5223539043864
 31
0
  0
LINE
  8
1
 62
2
 10
-72.81610602716101
 20
-40.5223539043864
 30
0
 11
-21.856106027161
 21
-40.5223539043864
 31
0
  0
SOLID
  8
1
 62
2
 10
-84.01181377609426
 20
-26.32063518199814
 30
0
 11
-81.84826057974618
 21
-28.43514164133375
 31
0
 12
-82.46080830072546
 22
-28.91803426865694
 32
0
 13
-82.46080830072546
 23
-28.91803426865694
 33
0
  0
TEXT
  8
1
 62
2
 10
-58.336106027161
 20
-39.5223539043864
 30
0
 40
3.2
  1
4
 41
0.9
  0
TEXT
  8
1
 62
2
 10
-67.616106027161
 20
-39.5223539043864
 30
0
 40
3.2
  1
4-M
 41
0.9
  0
TEXT
  8
1
 62
2
 10
-54.816106027161
 20
-39.5223539043864
 30
0
 40
3.2
  1
 DEPTH 6MAX
 41
0.9
  0
ENDBLK
  8
0
  0
ENDSEC
  0
SECTION
  2
ENTITIES
  0
LINE
  8
1
 62
7
 10
45.5
 20
16.5
 30
0
 11
45.5
 21
-16.50000000000005
 31
0
  0
LINE
  8
1
 62
7
 10
44.30000000000017
 20
-17.50000000000005
 30
0
 11
44.5
 21
-17.50000000000005
 31
0
  0
LINE
  8
1
 62
7
 10
44.30000000000017
 20
17.5
 30
0
 11
44.5
 21
17.5
 31
0
  0
LINE
  8
0
 62
3
 10
11.53217701381914
 20
-24.75
 30
0
 11
49
 21
-24.75
 31
0
  0
LINE
  8
0
 62
3
 10
49
 20
24.75000000000012
 30
0
 11
10.8833735563062
 21
24.75
 31
0
  0
LINE
  8
1
 62
7
 10
22.76859531800505
 20
31.5
 30
0
 11
35.89800658932018
 21
31.5
 31
0
  0
LINE
  8
0
 62
7
 10
42
 20
30.5
 30
0
 11
42
 21
-30.5
 31
0
  0
LINE
  8
0
 62
7
 10
44
 20
-30
 30
0
 11
44
 21
30
 31
0
  0
LINE
  8
0
 62
7
 10
42
 20
30
 30
0
 11
44
 21
30
 31
0
  0
LINE
  8
0
 62
7
 10
44
 20
-30
 30
0
 11
42
 21
-30
 31
0
  0
LINE
  8
1
 62
7
 10
42
 20
-30.5
 30
0
 11
16
 21
-30.5
 31
0
  0
LINE
  8
1
 62
7
 10
42
 20
30.5
 30
0
 11
16
 21
30.5
 31
0
  0
LINE
  8
1
 62
7
 10
2.49999999999992
 20
13
 30
0
 11
10
 21
13
 31
0
  0
LINE
  8
1
 62
7
 10
15
 20
-29.5
 30
0
 11
15
 21
-20
 31
0
  0
LINE
  8
1
 62
7
 10
15
 20
29.5
 30
0
 11
15
 21
19.86602540378459
 31
0
  0
LINE
  8
1
 62
3
 10
19.08282950123612
 20
10
 30
0
 11
-13.32728113355893
 21
10
 31
0
  0
LINE
  8
1
 62
7
 10
15.49999999999992
 20
19.86602540378459
 30
0
 11
15.5
 21
-19.86602540378447
 31
0
  0
LINE
  8
1
 62
7
 10
15
 20
19.86602540378459
 30
0
 11
15
 21
29.5
 31
0
  0
LINE
  8
1
 62
7
 10
-10
 20
12.5
 30
0
 11
-10
 21
7.000000000000121
 31
0
  0
LINE
  8
1
 62
7
 10
-10
 20
7.000000000000121
 30
0
 11
10
 21
7
 31
0
  0
LINE
  8
1
 62
7
 10
1.999999999999998
 20
12.5
 30
0
 11
-10
 21
12.5
 31
0
  0
LINE
  8
1
 62
7
 10
10
 20
19.00000000000012
 30
0
 11
10
 21
1.000183990690921
 31
0
  0
LINE
  8
1
 62
7
 10
15.5
 20
19.00000000000012
 30
0
 11
10
 21
19.00000000000012
 31
0
  0
LINE
  8
1
 62
7
 10
10
 20
1.000183990690921
 30
0
 11
15.5
 21
1.000183990690921
 31
0
  0
LINE
  8
1
 62
7
 10
45.33360848093708
 20
28.20403352100783
 30
0
 11
44.10871557427504
 21
28.24961946980921
 31
0
  0
LINE
  8
1
 62
7
 10
45.33360848093708
 20
21.29596647899229
 30
0
 11
44.10871557427504
 21
21.25038053019091
 31
0
  0
LINE
  8
1
 62
7
 10
45.33360848093708
 20
-21.29596647899217
 30
0
 11
44.10871557427504
 21
-21.25038053019079
 31
0
  0
LINE
  8
1
 62
7
 10
45.33360848093708
 20
-28.20403352100783
 30
0
 11
44.10871557427504
 21
-28.2496194698092
 31
0
  0
LINE
  8
1
 62
3
 10
-79.49999999999989
 20
-24.75
 30
0
 11
-76.91979331410232
 21
-24.75
 31
0
  0
LINE
  8
1
 62
3
 10
-134.7499999999999
 20
30.5
 30
0
 11
-134.7499999999999
 21
16
 31
0
  0
LINE
  8
1
 62
3
 10
-140.5
 20
24.75
 30
0
 11
-143.5
 21
24.75
 31
0
  0
LINE
  8
1
 62
3
 10
-85.24999999999989
 20
30.5
 30
0
 11
-85.24999999999989
 21
32.77579593310037
 31
0
  0
LINE
  8
1
 62
3
 10
-79.49999999999989
 20
24.75
 30
0
 11
-77.65571212396208
 21
24.75
 31
0
  0
LINE
  8
1
 62
3
 10
-100.9999999999999
 20
10
 30
0
 11
-98.44541850249914
 21
10
 31
0
  0
LINE
  8
1
 62
3
 10
-79.49999999999989
 20
0
 30
0
 11
-75.49999999999989
 21
0
 31
0
  0
LINE
  8
1
 62
2
 10
-72.4622431925531
 20
-47.5
 30
0
 11
-22.19197273139051
 21
-47.5
 31
0
  0
LINE
  8
1
 62
7
 10
-140.5
 20
24.75
 30
0
 11
-140.5
 21
-24.75
 31
0
  0
LINE
  8
1
 62
7
 10
-79.49999999999989
 20
24.75
 30
0
 11
-79.49999999999989
 21
-24.75
 31
0
  0
LINE
  8
1
 62
3
 10
-144.5
 20
0
 30
0
 11
-79.49999999999989
 21
0
 31
0
  0
LINE
  8
1
 62
3
 10
-134.7499999999999
 20
32.40783652817061
 30
0
 11
-134.7499999999999
 21
30.5
 31
0
  0
LINE
  8
1
 62
3
 10
-126.1839797024649
 20
24.75
 30
0
 11
-140.5
 21
24.75
 31
0
  0
LINE
  8
1
 62
3
 10
-121.8108407155454
 20
10
 30
0
 11
-100.9999999999999
 21
10
 31
0
  0
LINE
  8
1
 62
3
 10
-85.24999999999989
 20
-16
 30
0
 11
-85.24999999999989
 21
-30.5
 31
0
  0
LINE
  8
1
 62
3
 10
-134.7499999999999
 20
-16
 30
0
 11
-134.7499999999999
 21
-30.5
 31
0
  0
LINE
  8
1
 62
3
 10
-143.683979702465
 20
-24.75
 30
0
 11
-125.9999999999999
 21
-24.75
 31
0
  0
LINE
  8
1
 62
3
 10
-93.99999999999989
 20
-24.75
 30
0
 11
-79.49999999999989
 21
-24.75
 31
0
  0
LINE
  8
1
 62
3
 10
-93.99999999999989
 20
24.75
 30
0
 11
-79.49999999999989
 21
24.75
 31
0
  0
LINE
  8
1
 62
7
 10
-111.6583123951776
 20
12.5
 30
0
 11
-108.3416876048223
 21
12.5
 31
0
  0
LINE
  8
1
 62
3
 10
-130.4999999999999
 20
16.50000000000005
 30
0
 11
-130.4999999999999
 21
8.499999999999954
 31
0
  0
LINE
  8
1
 62
3
 10
-134.5
 20
12.5
 30
0
 11
-126.5
 21
12.5
 31
0
  0
LINE
  8
1
 62
3
 10
-89.49999999999989
 20
16.50000000000005
 30
0
 11
-89.49999999999989
 21
8.499999999999954
 31
0
  0
LINE
  8
1
 62
3
 10
-93.5
 20
12.5
 30
0
 11
-85.49999999999984
 21
12.5
 31
0
  0
LINE
  8
1
 62
3
 10
-110
 20
34.5
 30
0
 11
-110
 21
-34.5
 31
0
  0
LINE
  8
1
 62
3
 10
-113.9999999999998
 20
-23.5
 30
0
 11
-106.0000000000002
 21
-23.5
 31
0
  0
LINE
  8
1
 62
7
 10
-134.7499999999999
 20
-30.5
 30
0
 11
-85.24999999999989
 21
-30.5
 31
0
  0
LINE
  8
1
 62
3
 10
-134.7499999999999
 20
-30.5
 30
0
 11
-134.7499999999999
 21
-33.5
 31
0
  0
LINE
  8
1
 62
3
 10
-85.24999999999989
 20
-30.5
 30
0
 11
-85.24999999999989
 21
-33.5
 31
0
  0
LINE
  8
1
 62
3
 10
-85.24999999999989
 20
16
 30
0
 11
-85.24999999999989
 21
30.5
 31
0
  0
LINE
  8
1
 62
7
 10
-134.7499999999999
 20
30.5
 30
0
 11
-85.24999999999989
 21
30.5
 31
0
  0
LINE
  8
1
 62
7
 10
-88.49411764705872
 20
12.79999999999998
 30
0
 11
-88.09999999999991
 21
12.79999999999998
 31
0
  0
LINE
  8
1
 62
7
 10
-88.49411764705872
 20
12.19999999999999
 30
0
 11
-88.09999999999991
 21
12.19999999999999
 31
0
  0
LINE
  8
1
 62
7
 10
-89.19999999999993
 20
11.5
 30
0
 11
-89.19999999999993
 21
11.09999999999999
 31
0
  0
LINE
  8
1
 62
7
 10
-89.69999999999993
 20
14
 30
0
 11
-89.29999999999984
 21
14
 31
0
  0
LINE
  8
1
 62
7
 10
-89.69999999999993
 20
11
 30
0
 11
-89.29999999999984
 21
11
 31
0
  0
LINE
  8
1
 62
7
 10
-87.99999999999989
 20
12.69999999999999
 30
0
 11
-87.99999999999989
 21
12.29999999999998
 31
0
  0
LINE
  8
1
 62
7
 10
-90.99999999999989
 20
12.69999999999999
 30
0
 11
-90.99999999999989
 21
12.29999999999998
 31
0
  0
LINE
  8
1
 62
7
 10
-90.89999999999986
 20
12.79999999999998
 30
0
 11
-90.49999999999989
 21
12.79999999999998
 31
0
  0
LINE
  8
1
 62
7
 10
-90.89999999999986
 20
12.19999999999999
 30
0
 11
-90.49999999999989
 21
12.19999999999999
 31
0
  0
LINE
  8
1
 62
7
 10
-89.79999999999984
 20
11.09999999999999
 30
0
 11
-89.79999999999984
 21
11.5
 31
0
  0
LINE
  8
1
 62
7
 10
-89.79999999999984
 20
13.90000000000001
 30
0
 11
-89.79999999999984
 21
13.5
 31
0
  0
LINE
  8
1
 62
7
 10
-89.19999999999993
 20
13.90000000000001
 30
0
 11
-89.19999999999993
 21
13.5
 31
0
  0
LINE
  8
1
 62
7
 10
-129.4941176470587
 20
12.79999999999998
 30
0
 11
-129.0999999999999
 21
12.79999999999998
 31
0
  0
LINE
  8
1
 62
7
 10
-129.4941176470587
 20
12.19999999999999
 30
0
 11
-129.0999999999999
 21
12.19999999999999
 31
0
  0
LINE
  8
1
 62
7
 10
-130.1999999999999
 20
11.5
 30
0
 11
-130.1999999999999
 21
11.09999999999999
 31
0
  0
LINE
  8
1
 62
7
 10
-130.6999999999999
 20
14
 30
0
 11
-130.2999999999998
 21
14
 31
0
  0
LINE
  8
1
 62
7
 10
-130.6999999999999
 20
11
 30
0
 11
-130.2999999999998
 21
11
 31
0
  0
LINE
  8
1
 62
7
 10
-128.9999999999999
 20
12.69999999999999
 30
0
 11
-128.9999999999999
 21
12.29999999999998
 31
0
  0
LINE
  8
1
 62
7
 10
-131.9999999999999
 20
12.69999999999999
 30
0
 11
-131.9999999999999
 21
12.29999999999998
 31
0
  0
LINE
  8
1
 62
7
 10
-131.8999999999999
 20
12.79999999999998
 30
0
 11
-131.4999999999999
 21
12.79999999999998
 31
0
  0
LINE
  8
1
 62
7
 10
-131.8999999999999
 20
12.19999999999999
 30
0
 11
-131.4999999999999
 21
12.19999999999999
 31
0
  0
LINE
  8
1
 62
7
 10
-130.7999999999998
 20
11.09999999999999
 30
0
 11
-130.7999999999998
 21
11.5
 31
0
  0
LINE
  8
1
 62
7
 10
-130.7999999999998
 20
13.90000000000001
 30
0
 11
-130.7999999999998
 21
13.5
 31
0
  0
LINE
  8
1
 62
7
 10
-130.1999999999999
 20
13.90000000000001
 30
0
 11
-130.1999999999999
 21
13.5
 31
0
  0
LINE
  8
1
 62
7
 10
-108.9941176470588
 20
-23.20000000000002
 30
0
 11
-108.6
 21
-23.20000000000002
 31
0
  0
LINE
  8
1
 62
7
 10
-108.9941176470588
 20
-23.80000000000001
 30
0
 11
-108.6
 21
-23.80000000000001
 31
0
  0
LINE
  8
1
 62
7
 10
-109.7
 20
-24.5
 30
0
 11
-109.7
 21
-24.90000000000001
 31
0
  0
LINE
  8
1
 62
7
 10
-110.2
 20
-22
 30
0
 11
-109.8
 21
-22
 31
0
  0
LINE
  8
1
 62
7
 10
-110.2
 20
-25
 30
0
 11
-109.8
 21
-25
 31
0
  0
LINE
  8
1
 62
7
 10
-108.5
 20
-23.30000000000001
 30
0
 11
-108.5
 21
-23.70000000000002
 31
0
  0
LINE
  8
1
 62
7
 10
-111.5
 20
-23.30000000000001
 30
0
 11
-111.5
 21
-23.70000000000002
 31
0
  0
LINE
  8
1
 62
7
 10
-111.4
 20
-23.20000000000002
 30
0
 11
-111
 21
-23.20000000000002
 31
0
  0
LINE
  8
1
 62
7
 10
-111.4
 20
-23.80000000000001
 30
0
 11
-111
 21
-23.80000000000001
 31
0
  0
LINE
  8
1
 62
7
 10
-110.3
 20
-24.90000000000001
 30
0
 11
-110.3
 21
-24.5
 31
0
  0
LINE
  8
1
 62
7
 10
-110.3
 20
-22.09999999999999
 30
0
 11
-110.3
 21
-22.5
 31
0
  0
LINE
  8
1
 62
7
 10
-109.7
 20
-22.09999999999999
 30
0
 11
-109.7
 21
-22.5
 31
0
  0
LINE
  8
1
 62
7
 10
54.50000000000009
 20
13.09999999999999
 30
0
 11
54.50000000000009
 21
-13.09999999999999
 31
0
  0
LINE
  8
1
 62
7
 10
71.50000000000031
 20
13.09999999999999
 30
0
 11
54.50000000000009
 21
13.09999999999999
 31
0
  0
LINE
  8
1
 62
7
 10
71.50000000000031
 20
-13.09999999999999
 30
0
 11
71.50000000000031
 21
13.09999999999999
 31
0
  0
LINE
  8
1
 62
7
 10
54.50000000000009
 20
-13.09999999999999
 30
0
 11
71.50000000000031
 21
-13.09999999999999
 31
0
  0
LINE
  8
1
 62
7
 10
47.00000000000021
 20
17
 30
0
 11
80.50000000000031
 21
17
 31
0
  0
LINE
  8
1
 62
7
 10
47.00000000000021
 20
-17
 30
0
 11
80.50000000000031
 21
-17
 31
0
  0
LINE
  8
1
 62
7
 10
80.50000000000031
 20
17
 30
0
 11
80.50000000000031
 21
-17
 31
0
  0
LINE
  8
1
 62
3
 10
12.5231892751692
 20
0
 30
0
 11
85.09937217460023
 21
0
 31
0
  0
LINE
  8
1
 62
7
 10
109.5954833018852
 20
0
 30
0
 11
140.0974548367342
 21
0
 31
0
  0
LINE
  8
1
 62
7
 10
90.27394669805332
 20
-1.659999999999997
 30
0
 11
90.79559716917024
 21
-1.659999999999997
 31
0
  0
LINE
  8
1
 62
7
 10
85.82614829352528
 20
-8.205689270973096
 30
0
 11
89.81106902780127
 21
-1.970938469322903
 31
0
  0
LINE
  8
1
 62
7
 10
80.50000000000031
 20
-9.138504678941899
 30
0
 11
84.43751528276832
 21
-9.138504678941899
 31
0
  0
LINE
  8
1
 62
7
 10
85.82614829352528
 20
8.205689270973096
 30
0
 11
89.81106902780127
 21
1.970938469322988
 31
0
  0
LINE
  8
1
 62
7
 10
80.50000000000031
 20
9.138504678941899
 30
0
 11
84.43751528276832
 21
9.138504678941899
 31
0
  0
LINE
  8
1
 62
7
 10
93.29559716917024
 20
-1.659999999999997
 30
0
 11
96.34776343188329
 21
-1.659999999999997
 31
0
  0
LINE
  8
1
 62
7
 10
93.29559716917024
 20
0
 30
0
 11
96.34776343188329
 21
0
 31
0
  0
LINE
  8
1
 62
7
 10
84.51903437114331
 20
-7.278922217228114
 30
0
 11
88.81398915369422
 21
-0.2851178024484113
 31
0
  0
LINE
  8
1
 62
7
 10
80.50000000000031
 20
-7.478504678941903
 30
0
 11
84.02956293441227
 21
-7.478504678941903
 31
0
  0
LINE
  8
1
 62
7
 10
89.51323406331025
 20
0
 30
0
 11
90.79559716917024
 21
0
 31
0
  0
LINE
  8
1
 62
7
 10
84.51903437114331
 20
7.278922217228001
 30
0
 11
88.81398915369422
 21
0.2851178024482977
 31
0
  0
LINE
  8
1
 62
7
 10
80.50000000000031
 20
7.478504678941903
 30
0
 11
84.02956293441227
 21
7.478504678941903
 31
0
  0
LINE
  8
1
 62
7
 10
140.0974548367342
 20
1.659999999999997
 30
0
 11
140.0974548367342
 21
-1.659999999999997
 31
0
  0
LINE
  8
1
 62
7
 10
140.0974548367342
 20
1.099999999999994
 30
0
 11
143.0974548367342
 21
1.099999999999994
 31
0
  0
LINE
  8
1
 62
7
 10
140.0974548367342
 20
0.4000000000000057
 30
0
 11
143.0974548367342
 21
0.4000000000000057
 31
0
  0
LINE
  8
1
 62
7
 10
140.0974548367342
 20
-0.4000000000000057
 30
0
 11
143.0974548367342
 21
-0.4000000000000057
 31
0
  0
LINE
  8
1
 62
7
 10
140.0974548367342
 20
-1.099999999999994
 30
0
 11
143.0974548367342
 21
-1.099999999999994
 31
0
  0
LINE
  8
1
 62
7
 10
109.5954833018852
 20
1.659999999999997
 30
0
 11
140.0974548367342
 21
1.659999999999997
 31
0
  0
LINE
  8
1
 62
7
 10
109.5954833018852
 20
-1.659999999999997
 30
0
 11
140.0974548367342
 21
-1.659999999999997
 31
0
  0
LINE
  8
1
 62
7
 10
81.34511721223529
 20
4.215059489114395
 30
0
 11
80.50000000000031
 21
4.606399233376379
 31
0
  0
LINE
  8
1
 62
7
 10
82.10000000000011
 20
-3.245566037735898
 30
0
 11
82.10000000000011
 21
3.245566037735898
 31
0
  0
LINE
  8
1
 62
7
 10
81.34511721223529
 20
-4.215059489114509
 30
0
 11
80.50000000000031
 21
-4.606399233376408
 31
0
  0
LINE
  8
1
 62
7
 10
90.79559716917024
 20
-2.667939847309896
 30
0
 11
93.29559716917024
 21
-2.667939847309896
 31
0
  0
LINE
  8
1
 62
7
 10
94.18548966995431
 20
1.872715535701388
 30
0
 11
94.05667166228929
 21
4.583731477860596
 31
0
  0
LINE
  8
1
 62
7
 10
93.55723516286432
 20
5.060000000000088
 30
0
 11
90.53395917547627
 21
5.060000000000088
 31
0
  0
LINE
  8
1
 62
7
 10
90.03452267605027
 20
4.583731477860596
 30
0
 11
89.90570466838526
 21
1.872715535701388
 31
0
  0
LINE
  8
1
 62
7
 10
93.29559716917024
 20
-2.667939847309896
 30
0
 11
93.29559716917024
 21
1.659999999999997
 31
0
  0
LINE
  8
1
 62
7
 10
90.79559716917024
 20
1.659999999999997
 30
0
 11
90.79559716917024
 21
-2.667939847309896
 31
0
  0
LINE
  8
1
 62
7
 10
90.27394669805332
 20
1.659999999999997
 30
0
 11
96.34776343188329
 21
1.659999999999997
 31
0
  0
LINE
  8
1
 62
2
 10
118.9418732101785
 20
19.56463769237634
 30
0
 11
187.9915661320341
 21
19.56463769237634
 31
0
  0
ARC
  8
1
 62
7
 10
38.60507042253517
 20
24.76521753674314
 30
0
 40
8.000000000000185
 50
2.04003516455392
 51
21.50479479967072
  0
ARC
  8
1
 62
7
 10
38.60507042253517
 20
24.73478246325698
 30
0
 40
8.000000000000128
 50
338.49520520033
 51
357.959964835447
  0
ARC
  8
1
 62
7
 10
47.47500000000014
 20
24.75000000000012
 30
0
 40
0.9250000000000025
 50
161.0753555839483
 51
198.9246444160519
  0
ARC
  8
1
 62
7
 10
38.60507042253517
 20
-24.73478246325697
 30
0
 40
8.000000000000185
 50
2.040035164553869
 51
21.50479479967072
  0
ARC
  8
1
 62
7
 10
38.60507042253517
 20
-24.76521753674313
 30
0
 40
8.000000000000128
 50
338.49520520033
 51
357.9599648354469
  0
ARC
  8
1
 62
7
 10
47.47500000000014
 20
-24.75
 30
0
 40
0.9250000000000037
 50
161.0753555839481
 51
198.9246444160519
  0
ARC
  8
1
 62
7
 10
-90.50294117647047
 20
13.50294117647059
 30
0
 40
0.7029473295325305
 50
270.2397298960806
 51
359.760270103919
  0
ARC
  8
1
 62
7
 10
-88.4970588235293
 20
13.50294117647059
 30
0
 40
0.7029473295325518
 50
180.2397298960809
 51
270.2397298960806
  0
ARC
  8
1
 62
7
 10
-88.4970588235293
 20
11.49705882352939
 30
0
 40
0.7029473295325216
 50
89.76027010391938
 51
179.7602701039174
  0
ARC
  8
1
 62
7
 10
-90.50294117647047
 20
11.49705882352939
 30
0
 40
0.7029473295325519
 50
0.2397298960826468
 51
89.76027010391938
  0
ARC
  8
1
 62
7
 10
-131.5029411764705
 20
13.50294117647059
 30
0
 40
0.7029473295325306
 50
270.239729896083
 51
359.7602701039191
  0
ARC
  8
1
 62
7
 10
-129.4970588235293
 20
13.50294117647059
 30
0
 40
0.7029473295325234
 50
180.2397298960809
 51
270.239729896083
  0
ARC
  8
1
 62
7
 10
-129.4970588235293
 20
11.49705882352939
 30
0
 40
0.7029473295325217
 50
89.76027010391707
 51
179.7602701039173
  0
ARC
  8
1
 62
7
 10
-131.5029411764705
 20
11.49705882352939
 30
0
 40
0.7029473295326087
 50
0.2397298960826274
 51
89.76027010391707
  0
ARC
  8
1
 62
7
 10
-111.0029411764706
 20
-22.49705882352941
 30
0
 40
0.7029473295325306
 50
270.2397298960818
 51
359.760270103919
  0
ARC
  8
1
 62
7
 10
-108.9970588235294
 20
-22.49705882352941
 30
0
 40
0.7029473295325234
 50
180.2397298960809
 51
270.2397298960818
  0
ARC
  8
1
 62
7
 10
-108.9970588235294
 20
-24.50294117647061
 30
0
 40
0.7029473295325199
 50
89.76027010391822
 51
179.7602701039173
  0
ARC
  8
1
 62
7
 10
-111.0029411764706
 20
-24.50294117647061
 30
0
 40
0.7029473295325235
 50
0.2397298960826564
 51
89.76027010391822
  0
CIRCLE
  8
1
 62
7
 10
-110
 20
-23.5
 30
0
 40
2.999999999999816
  0
CIRCLE
  8
1
 62
7
 10
-110
 20
10
 30
0
 40
3
  0
CIRCLE
  8
1
 62
7
 10
-110
 20
10
 30
0
 40
5.249999999999901
  0
CIRCLE
  8
1
 62
7
 10
-110
 20
10
 30
0
 40
9.0000000000001
  0
CIRCLE
  8
1
 62
7
 10
-134.7499999999999
 20
-24.75
 30
0
 40
5.75
  0
CIRCLE
  8
1
 62
7
 10
-85.24999999999989
 20
-24.75
 30
0
 40
5.75
  0
CIRCLE
  8
1
 62
7
 10
-85.24999999999989
 20
24.75
 30
0
 40
5.75
  0
CIRCLE
  8
1
 62
7
 10
-134.7499999999999
 20
24.75
 30
0
 40
5.75
  0
CIRCLE
  8
1
 62
3
 10
-85.24999999999989
 20
-24.75
 30
0
 40
2
  0
CIRCLE
  8
1
 62
7
 10
-85.24999999999989
 20
-24.75
 30
0
 40
1.625
  0
CIRCLE
  8
1
 62
7
 10
-134.7499999999999
 20
-24.75
 30
0
 40
1.625
  0
CIRCLE
  8
1
 62
3
 10
-134.7499999999999
 20
-24.75
 30
0
 40
2
  0
CIRCLE
  8
1
 62
7
 10
-134.7499999999999
 20
24.75
 30
0
 40
1.625
  0
CIRCLE
  8
1
 62
3
 10
-134.7499999999999
 20
24.75
 30
0
 40
2
  0
CIRCLE
  8
1
 62
7
 10
-85.24999999999989
 20
24.75
 30
0
 40
1.625
  0
CIRCLE
  8
1
 62
3
 10
-85.24999999999989
 20
24.75
 30
0
 40
2
  0
CIRCLE
  8
1
 62
7
 10
-130.4999999999999
 20
12.5
 30
0
 40
2.999999999999985
  0
CIRCLE
  8
1
 62
7
 10
-89.49999999999989
 20
12.5
 30
0
 40
3.000000000000046
  0
POLYLINE
  8
1
 62
2
 66
1
  0
VERTEX
  8
1
 10
109.5954833018852
 20
1.659999999999997
 30
0
 42
0.004627892300497887
  0
VERTEX
  8
1
 10
109.4833561894889
 20
1.491616220198809
 30
0
 42
0.01432161089937331
  0
VERTEX
  8
1
 10
109.3801019842185
 20
1.323044021152218
 30
0
 42
0.02620784398756355
  0
VERTEX
  8
1
 10
109.2945935931999
 20
1.15409498361482
 30
0
 42
0.04090712517620943
  0
VERTEX
  8
1
 10
109.2357039235588
 20
0.9845806883412134
 30
0
 42
0.05807845058486429
  0
VERTEX
  8
1
 10
109.2123058824213
 20
0.8143127160859933
 30
0
 42
0.06215230223764669
  0
VERTEX
  8
1
 10
109.2295374899499
 20
0.648592659716027
 30
0
 42
0.04094631376531941
  0
VERTEX
  8
1
 10
109.2824621069152
 20
0.4831443937136449
 30
0
 42
0.0376201769638882
  0
VERTEX
  8
1
 10
109.3650886620626
 20
0.3191248842876469
 30
0
 42
0.02031018658711355
  0
VERTEX
  8
1
 10
109.4714260841374
 20
0.1576910976468321
 30
0
 42
0.02175284297846656
  0
VERTEX
  8
1
 10
109.5954833018852
 20
0
 30
0
 42
0.005899236995561481
  0
VERTEX
  8
1
 10
109.7396562839375
 20
-0.1637579280638463
 30
0
 42
-0.006290958372030671
  0
VERTEX
  8
1
 10
109.88163333169
 20
-0.3235371166084518
 30
0
 42
-0.02391488501218527
  0
VERTEX
  8
1
 10
110.0057941861994
 20
-0.4809668155035342
 30
0
 42
-0.04938818170584959
  0
VERTEX
  8
1
 10
110.0965185885223
 20
-0.6376762746188116
 30
0
 42
-0.08501367003293162
  0
VERTEX
  8
1
 10
110.1381862797152
 20
-0.7952947438240017
 30
0
 42
-0.09457323444296699
  0
VERTEX
  8
1
 10
110.1169046650731
 20
-0.9648112997999724
 30
0
 42
-0.05996756665691006
  0
VERTEX
  8
1
 10
110.0374503964817
 20
-1.136610852615429
 30
0
 42
-0.03390202050804946
  0
VERTEX
  8
1
 10
109.9143666374284
 20
-1.310122653060499
 30
0
 42
-0.01714841413817221
  0
VERTEX
  8
1
 10
109.7621965514005
 20
-1.484775951925312
 30
0
 42
-0.005242237567723363
  0
VERTEX
  8
1
 10
109.5954833018852
 20
-1.659999999999997
 30
0
  0
SEQEND
  8
1
  0
POLYLINE
  8
1
 62
2
 66
1
  0
VERTEX
  8
1
 10
96.34776343188329
 20
1.659999999999997
 30
0
 42
0.004627892300613353
  0
VERTEX
  8
1
 10
96.23563631948696
 20
1.491616220198808
 30
0
 42
0.01432161089922029
  0
VERTEX
  8
1
 10
96.13238211421648
 20
1.323044021152216
 30
0
 42
0.02620784398773442
  0
VERTEX
  8
1
 10
96.04687372319778
 20
1.154094983614818
 30
0
 42
0.04090712517605997
  0
VERTEX
  8
1
 10
95.98798405355672
 20
0.9845806883412114
 30
0
 42
0.05807845058512629
  0
VERTEX
  8
1
 10
95.96458601241918
 20
0.8143127160859933
 30
0
 42
0.06215230223747038
  0
VERTEX
  8
1
 10
95.98181761994783
 20
0.6485926597160291
 30
0
 42
0.04094631376556835
  0
VERTEX
  8
1
 10
96.03474223691316
 20
0.4831443937136495
 30
0
 42
0.03762017696358547
  0
VERTEX
  8
1
 10
96.11736879206056
 20
0.3191248842876527
 30
0
 42
0.0203101865874018
  0
VERTEX
  8
1
 10
96.22370621413548
 20
0.1576910976468369
 30
0
 42
0.02175284297819154
  0
VERTEX
  8
1
 10
96.34776343188329
 20
0
 30
0
 42
0.005899236995791888
  0
VERTEX
  8
1
 10
96.49193641393559
 20
-0.1637579280638393
 30
0
 42
-0.006290958371934744
  0
VERTEX
  8
1
 10
96.63391346168811
 20
-0.3235371166084429
 30
0
 42
-0.02391488501218717
  0
VERTEX
  8
1
 10
96.75807431619751
 20
-0.4809668155035271
 30
0
 42
-0.04938818170578059
  0
VERTEX
  8
1
 10
96.84879871852037
 20
-0.6376762746188078
 30
0
 42
-0.08501367003319094
  0
VERTEX
  8
1
 10
96.8904664097133
 20
-0.7952947438240017
 30
0
 42
-0.09457323444296531
  0
VERTEX
  8
1
 10
96.86918479507118
 20
-0.9648112997999747
 30
0
 42
-0.05996756665691017
  0
VERTEX
  8
1
 10
96.78973052647979
 20
-1.136610852615432
 30
0
 42
-0.03390202050809869
  0
VERTEX
  8
1
 10
96.66664676742647
 20
-1.310122653060502
 30
0
 42
-0.01714841413821908
  0
VERTEX
  8
1
 10
96.51447668139855
 20
-1.484775951925314
 30
0
 42
-0.005242237567722697
  0
VERTEX
  8
1
 10
96.34776343188329
 20
-1.659999999999997
 30
0
  0
SEQEND
  8
1
  0
ARC
  8
1
 62
7
 10
15.99999999999992
 20
19.86602540378459
 30
0
 40
0.9999999999999201
 50
180
 51
240.0000000000049
  0
ARC
  8
1
 62
7
 10
16
 20
-20
 30
0
 40
0.9999999999999406
 50
120.000000000002
 51
180
  0
ARC
  8
1
 62
7
 10
44.5
 20
-16.50000000000005
 30
0
 40
1
 50
270
 51
0
  0
ARC
  8
1
 62
7
 10
44.5
 20
16.5
 30
0
 40
1
 50
0
 51
90
  0
ARC
  8
1
 62
7
 10
44.30000000000017
 20
-17.80000000000001
 30
0
 40
0.2999999999999616
 50
90
 51
180
  0
ARC
  8
1
 62
7
 10
44.30000000000017
 20
17.80000000000001
 30
0
 40
0.3000000000001677
 50
180
 51
270
  0
ARC
  8
1
 62
7
 10
16
 20
-29.5
 30
0
 40
1
 50
180
 51
270
  0
ARC
  8
1
 62
7
 10
16
 20
29.5
 30
0
 40
1
 50
90
 51
180
  0
ARC
  8
1
 62
7
 10
1.999999999999998
 20
13
 30
0
 40
0.5
 50
270
 51
0
  0
ARC
  8
1
 62
7
 10
45.3038560597231
 20
27.40458696655157
 30
0
 40
0.7999999999999875
 50
21.50479479968178
 51
87.86864827537697
  0
ARC
  8
1
 62
7
 10
45.3038560597231
 20
22.0954130334485
 30
0
 40
0.8000000000000003
 50
272.1313517246232
 51
338.4952052003289
  0
ARC
  8
1
 62
7
 10
44.10000000000014
 20
21.35000000000008
 30
0
 40
0.1000000000001435
 50
180
 51
275.0000000000738
  0
ARC
  8
1
 62
7
 10
44.10000000000014
 20
28.15000000000009
 30
0
 40
0.09999999999995707
 50
84.99999999992369
 51
180
  0
ARC
  8
1
 62
7
 10
45.3038560597231
 20
-22.09541303344843
 30
0
 40
0.7999999999999472
 50
21.50479479967444
 51
87.86864827537697
  0
ARC
  8
1
 62
7
 10
45.3038560597231
 20
-27.40458696655156
 30
0
 40
0.8000000000000606
 50
272.131351724623
 51
338.4952052003255
  0
ARC
  8
1
 62
7
 10
44.10000000000014
 20
-28.15000000000003
 30
0
 40
0.1000000000001435
 50
180
 51
275.0000000000738
  0
ARC
  8
1
 62
7
 10
44.10000000000014
 20
-21.34999999999996
 30
0
 40
0.1000000000000066
 50
84.99999999992616
 51
180
  0
ARC
  8
1
 62
7
 10
-90.89999999999986
 20
12.69999999999999
 30
0
 40
0.09999999999998899
 50
90
 51
180
  0
ARC
  8
1
 62
7
 10
-90.89999999999986
 20
12.29999999999998
 30
0
 40
0.1000000000000227
 50
180
 51
270
  0
ARC
  8
1
 62
7
 10
-89.69999999999993
 20
11.09999999999999
 30
0
 40
0.09999999999990905
 50
180
 51
270
  0
ARC
  8
1
 62
7
 10
-89.29999999999984
 20
11.09999999999999
 30
0
 40
0.09999999999999076
 50
270
 51
0
  0
ARC
  8
1
 62
7
 10
-88.09999999999991
 20
12.29999999999998
 30
0
 40
0.09999999999998899
 50
270
 51
0
  0
ARC
  8
1
 62
7
 10
-88.09999999999991
 20
12.69999999999999
 30
0
 40
0.1000000000000227
 50
0
 51
90
  0
ARC
  8
1
 62
7
 10
-89.29999999999984
 20
13.90000000000001
 30
0
 40
0.09999999999990905
 50
0
 51
90
  0
ARC
  8
1
 62
7
 10
-89.69999999999993
 20
13.90000000000001
 30
0
 40
0.09999999999999076
 50
90
 51
180
  0
ARC
  8
1
 62
7
 10
-131.8999999999999
 20
12.69999999999999
 30
0
 40
0.09999999999998899
 50
90
 51
180
  0
ARC
  8
1
 62
7
 10
-131.8999999999999
 20
12.29999999999998
 30
0
 40
0.09999999999999432
 50
180
 51
270
  0
ARC
  8
1
 62
7
 10
-130.6999999999999
 20
11.09999999999999
 30
0
 40
0.09999999999990905
 50
180
 51
270
  0
ARC
  8
1
 62
7
 10
-130.2999999999998
 20
11.09999999999999
 30
0
 40
0.09999999999999076
 50
270
 51
0
  0
ARC
  8
1
 62
7
 10
-129.0999999999999
 20
12.29999999999998
 30
0
 40
0.09999999999998899
 50
270
 51
0
  0
ARC
  8
1
 62
7
 10
-129.0999999999999
 20
12.69999999999999
 30
0
 40
0.1000000000000227
 50
0
 51
90
  0
ARC
  8
1
 62
7
 10
-130.2999999999998
 20
13.90000000000001
 30
0
 40
0.09999999999990905
 50
0
 51
90
  0
ARC
  8
1
 62
7
 10
-130.6999999999999
 20
13.90000000000001
 30
0
 40
0.09999999999999076
 50
90
 51
180
  0
ARC
  8
1
 62
7
 10
-111.4
 20
-23.30000000000001
 30
0
 40
0.09999999999999076
 50
90
 51
180
  0
ARC
  8
1
 62
7
 10
-111.4
 20
-23.70000000000002
 30
0
 40
0.09999999999999432
 50
180
 51
270
  0
ARC
  8
1
 62
7
 10
-110.2
 20
-24.90000000000001
 30
0
 40
0.09999999999999432
 50
180
 51
270
  0
ARC
  8
1
 62
7
 10
-109.8
 20
-24.90000000000001
 30
0
 40
0.09999999999999076
 50
270
 51
0
  0
ARC
  8
1
 62
7
 10
-108.6
 20
-23.70000000000002
 30
0
 40
0.09999999999999076
 50
270
 51
0
  0
ARC
  8
1
 62
7
 10
-108.6
 20
-23.30000000000001
 30
0
 40
0.09999999999999432
 50
0
 51
90
  0
ARC
  8
1
 62
7
 10
-109.8
 20
-22.09999999999999
 30
0
 40
0.09999999999999432
 50
0
 51
90
  0
ARC
  8
1
 62
7
 10
-110.2
 20
-22.09999999999999
 30
0
 40
0.09999999999999076
 50
90
 51
180
  0
ARC
  8
1
 62
7
 10
47.00000000000021
 20
15.5
 30
0
 40
1.5
 50
90
 51
180
  0
ARC
  8
1
 62
7
 10
47.00000000000021
 20
-15.5
 30
0
 40
1.5
 50
180
 51
270
  0
ARC
  8
1
 62
7
 10
90.27394669805332
 20
2.159999999999997
 30
0
 40
0.4999999999999041
 50
202.217469121823
 51
270
  0
ARC
  8
1
 62
7
 10
90.27394669805332
 20
-2.159999999999997
 30
0
 40
0.5
 50
90
 51
157.782530878168
  0
ARC
  8
1
 62
7
 10
84.43751528276832
 20
-7.638504678941899
 30
0
 40
1.5
 50
270
 51
337.7825308781825
  0
ARC
  8
1
 62
7
 10
84.43751528276832
 20
7.638504678941899
 30
0
 40
1.500000000000513
 50
22.21746912181748
 51
90
  0
ARC
  8
1
 62
7
 10
84.02956293441227
 20
6.7785046789418
 30
0
 40
0.6999999999999759
 50
45.63354565636107
 51
90
  0
ARC
  8
1
 62
7
 10
84.02956293441227
 20
-6.778504678941914
 30
0
 40
0.6999999999999886
 50
270
 51
314.366454343639
  0
ARC
  8
1
 62
7
 10
89.51323406331025
 20
1
 30
0
 40
1.000000000000139
 50
225.63354565635
 51
270
  0
ARC
  8
1
 62
7
 10
89.51323406331025
 20
-1
 30
0
 40
1
 50
90
 51
134.3664543436546
  0
ARC
  8
1
 62
7
 10
81.10000000000014
 20
3.245566037735898
 30
0
 40
0.9999999999999716
 50
0
 51
75.81123928935915
  0
ARC
  8
1
 62
7
 10
81.10000000000014
 20
-3.245566037735898
 30
0
 40
0.9999999999999731
 50
284.1887607106393
 51
0
  0
ARC
  8
1
 62
7
 10
93.9858942913713
 20
1.859999999999985
 30
0
 40
0.199999999999988
 50
270
 51
3.64519118544041
  0
ARC
  8
1
 62
7
 10
90.53395917547627
 20
4.560000000000088
 30
0
 40
0.5
 50
90
 51
177.2795508940766
  0
ARC
  8
1
 62
7
 10
93.55723516286432
 20
4.560000000000088
 30
0
 40
0.4999999999993154
 50
2.720449105928962
 51
90
  0
ARC
  8
1
 62
7
 10
90.10530004696929
 20
1.859999999999985
 30
0
 40
0.2000000000006954
 50
176.3548088145782
 51
192.3470653506442
  0
LINE
  8
1
 62
2
 10
41.23246015591621
 20
40.5
 30
0
 11
18.55071250152514
 21
40.5
 31
0
  0
LINE
  8
1
 62
2
 10
18.55071250152514
 20
40.5
 30
0
 11
26.2782321438101
 21
31.5
 31
0
  0
SOLID
  8
1
 62
2
 10
23.6486132462084
 20
33.85529745676809
 30
0
 11
24.34781117601194
 21
34.45563809414607
 31
0
 12
26.2782321438101
 22
31.5
 32
0
 13
26.2782321438101
 23
31.5
 33
0
  0
LINE
  8
1
 62
2
 10
187.9915661320341
 20
26.56463769237635
 30
0
 11
120.9632448277221
 21
26.56463769237635
 31
0
  0
LINE
  8
1
 62
2
 10
120.9632448277221
 20
26.56463769237635
 30
0
 11
113.7715980024971
 21
1.659999999999997
 31
0
  0
SOLID
  8
1
 62
2
 10
114.2999138319111
 20
5.150444676666968
 30
0
 11
115.1853054647636
 21
4.894772459944331
 31
0
 12
113.7715980024971
 22
1.659999999999997
 32
0
 13
113.7715980024971
 23
1.659999999999997
 33
0
  0
LINE
  8
1
 62
2
 10
75.2375899081471
 20
27.00000000000014
 30
0
 11
52.55584225375605
 21
27.00000000000014
 31
0
  0
LINE
  8
1
 62
2
 10
52.55584225375605
 20
27.00000000000014
 30
0
 11
59.91582092176514
 21
13.10000000000005
 31
0
  0
SOLID
  8
1
 62
2
 10
57.87079201746973
 20
15.97752991940637
 30
0
 11
58.68523423359324
 21
16.40877289329091
 31
0
 12
59.91582092176514
 22
13.10000000000005
 32
0
 13
59.91582092176514
 23
13.10000000000005
 33
0
  0
TEXT
  8
1
 62
2
 10
-26.49999999999991
 20
16.63694505751928
 30
0
 40
3.2
  1
(0.236DIA.      )
 50
90
 41
0.6300000000000001
 72
1
 73
2
 11
-28.09999999999991
 21
33.77294505751929
 31
0
  0
TEXT
  8
1
 62
2
 10
-28.29999999999991
 20
35.64128883066108
 30
0
 40
2
  1
 0
 50
90
 41
0.63
  0
TEXT
  8
1
 62
2
 10
-25.89999999999991
 20
35.64128883066108
 30
0
 40
2
  1
-0.000787
 50
90
 41
0.63
  0
TEXT
  8
1
 62
2
 10
-15.31844320358587
 20
19.1849450575193
 30
0
 40
3.2
  1
(0.217    )
 50
90
 41
0.6300000000000001
 72
1
 73
2
 11
-16.91844320358587
 21
30.2729450575193
 31
0
  0
TEXT
  8
1
 62
2
 10
-15.91844320358587
 20
27.16765118319298
 30
0
 40
2
  1
 %%p0.0118
 50
90
 41
0.63
 72
1
 73
2
 11
-16.91844320358587
 21
33.46765118319298
 31
0
  0
TEXT
  8
1
 62
2
 10
22.8809966758411
 20
48.1492510903264
 30
0
 40
3.2
  1
(1.142)
 41
0.6300000000000001
 72
1
 73
2
 11
29.9369966758411
 21
49.7492510903264
 31
0
  0
TEXT
  8
1
 62
2
 10
0.8969966758410983
 20
48.1492510903264
 30
0
 40
3.2
  1
(0.197)
 41
0.45
 72
1
 73
2
 11
5.936996675841099
 21
49.7492510903264
 31
0
  0
TEXT
  8
1
 62
2
 10
-11.1190033241589
 20
48.30000000000001
 30
0
 40
3.2
  1
(0.472)
 41
0.6300000000000001
 72
1
 73
2
 11
-4.063003324158901
 21
49.90000000000001
 31
0
  0
TEXT
  8
1
 62
2
 10
-4.919003324158856
 20
60.30000000000001
 30
0
 40
3.2
  1
(0.984)
 41
0.6300000000000001
 72
1
 73
2
 11
2.136996675841145
 21
61.90000000000001
 31
0
  0
TEXT
  8
1
 62
2
 10
-39.29497474686596
 20
18.0407427540474
 30
0
 40
3.2
  1
(0.709DIA.)
 50
90
 41
0.6300000000000001
 72
1
 73
2
 11
-40.89497474686596
 21
29.1287427540474
 31
0
  0
TEXT
  8
1
 62
2
 10
20.57524174352607
 20
41.6149370672025
 30
0
 40
3
  1
NAME PLATE
 41
0.6300000000000001
 72
1
 73
2
 11
30.02524174352607
 21
43.1149370672025
 31
0
  0
TEXT
  8
1
 62
2
 10
-65.08589412299281
 20
-20.588
 30
0
 40
3.2
  1
(0.394    )
 50
90
 41
0.6300000000000001
 72
1
 73
2
 11
-66.68589412299282
 21
-9.499999999999998
 31
0
  0
TEXT
  8
1
 62
2
 10
-65.68589412299282
 20
-10.42256923055042
 30
0
 40
2
  1
%%p0.0197
 50
90
 41
0.63
 72
1
 73
2
 11
-66.68589412299282
 21
-4.752569230550419
 31
0
  0
TEXT
  8
1
 62
2
 10
-67.7597364447559
 20
-46.48481685313686
 30
0
 40
3.5
  1
(4-M4 DEPTH 0.236MAX)
 41
0.6570000000000001
 73
2
 11
-67.7597364447559
 21
-44.73481685313686
 31
0
  0
TEXT
  8
1
 62
2
 10
-121.088
 20
48.26368327390348
 30
0
 40
3.2
  1
(2.402SQU.)
 41
0.6300000000000001
 72
1
 73
2
 11
-110
 21
49.86368327390348
 31
0
  0
TEXT
  8
1
 62
2
 10
-121.088
 20
36.26368327390348
 30
0
 40
3.2
  1
(1.949    )
 41
0.6300000000000001
 72
1
 73
2
 11
-110
 21
37.86368327390348
 31
0
  0
TEXT
  8
1
 62
2
 10
-111.4384551780371
 20
36.86368327390348
 30
0
 40
2
  1
%%p0.0118
 41
0.63
 72
1
 73
2
 11
-105.7684551780371
 21
37.86368327390348
 31
0
  0
TEXT
  8
1
 62
2
 10
-53.08589412299282
 20
-11.088
 30
0
 40
3.2
  1
(1.949    )
 50
90
 41
0.6300000000000001
 72
1
 73
2
 11
-54.68589412299282
 21
0
 31
0
  0
TEXT
  8
1
 62
2
 10
-53.68589412299282
 20
-1.422569230550421
 30
0
 40
2
  1
%%p0.0118
 50
90
 41
0.63
 72
1
 73
2
 11
-54.68589412299282
 21
4.247430769449579
 31
0
  0
TEXT
  8
1
 62
2
 10
-142.5
 20
93.5
 30
0
 40
5
  1
DME34B6H
 41
0.9
 72
1
 73
2
 11
-124.5
 21
96
 31
0
  0
TEXT
  8
1
 62
2
 10
40.84400000000011
 20
60.24037315737758
 30
0
 40
3.2
  1
(2.579)
 41
0.6300000000000001
 72
1
 73
2
 11
47.90000000000011
 21
61.84037315737758
 31
0
  0
TEXT
  8
1
 62
2
 10
121.379558905179
 20
20.75309253258675
 30
0
 40
3.5
  1
UL1007 AWG22
 41
0.9
 73
2
 11
121.379558905179
 21
22.50309253258675
 31
0
  0
TEXT
  8
1
 62
2
 10
121.379558905179
 20
27.84971452164851
 30
0
 40
3.5
  1
LEAD WIRES (RED,BLACK)
 41
0.9
 73
2
 11
121.379558905179
 21
29.59971452164851
 31
0
  0
TEXT
  8
1
 62
2
 10
106.7277110073942
 20
-11.088
 30
0
 40
3.2
  1
(1.339DIA.)
 50
90
 41
0.6300000000000001
 72
1
 73
2
 11
105.1277110073942
 21
0
 31
0
  0
TEXT
  8
1
 62
2
 10
83.44400000000029
 20
48.30961381709259
 30
0
 40
3.2
  1
(0.063)
 41
0.6300000000000001
 72
1
 73
2
 11
90.50000000000028
 21
49.90961381709259
 31
0
  0
TEXT
  8
1
 62
2
 10
56.39037149575725
 20
28.01493706720265
 30
0
 40
3.2
  1
NAME PLATE
 41
0.54
 72
1
 73
2
 11
65.03037149575725
 21
29.61493706720265
 31
0
  0
TEXT
  8
1
 62
2
 10
124.6748771293953
 20
-31.13793532042634
 30
0
 40
3.2
  1
(0.118)
 41
0.6300000000000001
 72
1
 73
2
 11
131.7308771293953
 21
-29.53793532042634
 31
0
  0
TEXT
  8
1
 62
2
 10
100.6523756585101
 20
-44
 30
0
 40
3.2
  1
(11.811   )
 41
0.6300000000000001
 72
1
 73
2
 11
111.7403756585101
 21
-42.4
 31
0
  0
TEXT
  8
1
 62
2
 10
112.0987194316523
 20
-42.2
 30
0
 40
2
  1
+1.181
 41
0.63
  0
TEXT
  8
1
 62
2
 10
112.0987194316523
 20
-44.59999999999999
 30
0
 40
2
  1
 0
 41
0.63
  0
DIMENSION
  8
1
  6
CONTINUOUS
 62
2
  2
*D0
  3
DMST_1
 10
80.50000000000033
 20
64.32896449662651
 30
0
 11
47.75000000000016
 21
66.92896449662651
 31
0
 12
0
 22
0
 32
0
 70
0
 13
15
 23
29.5
 33
0
 14
80.50000000000031
 24
17
 34
0
 53
0
  0
DIMENSION
  8
1
  6
CONTINUOUS
 62
2
  2
*D1
  3
DMST_1
 10
-10
 20
52.4681057506801
 30
0
 11
-4.000000000000002
 21
55.06810575068009
 31
0
 12
0
 22
0
 32
0
 70
1
 13
1.999999999999998
 23
12.5
 33
0
 14
-10
 24
12.5
 34
0
 53
0
  0
DIMENSION
  8
1
  6
CONTINUOUS
 62
2
  2
*D2
  3
DMST_2
 10
-19.46223690423403
 20
12.5
 30
0
 11
-22.06223690423394
 21
29.6616550740146
 31
0
 12
0
 22
0
 32
0
 70
0
 13
-10
 23
7.000000000000121
 33
0
 14
-10
 24
12.5
 34
0
 50
90
 53
0
  0
DIMENSION
  8
1
  6
CONTINUOUS
 62
2
  2
*D3
  3
DMST_3
 10
-31.49652299425385
 20
13.00000000000011
 30
0
 11
-34.89652299425394
 21
32.95540904705609
 31
0
 12
0
 22
0
 32
0
 70
0
  1
âË<>
 13
-10
 23
7.000000000000121
 33
0
 14
2.49999999999992
 24
13
 34
0
 50
90
 53
0
  0
DIMENSION
  8
1
  6
CONTINUOUS
 62
2
  2
*D4
  3
DMST_1
 10
-43.49820191931394
 20
19
 30
0
 11
-46.09820191931385
 21
28.8284747062429
 31
0
 12
0
 22
0
 32
0
 70
0
  1
âË<>
 13
10
 23
1.000183990690921
 33
0
 14
10
 24
19.00000000000012
 34
0
 50
90
 53
0
  0
DIMENSION
  8
1
  6
CONTINUOUS
 62
2
  2
*D5
  3
DMST_1
 10
-10
 20
64.449904520602
 30
0
 11
2.499999999999998
 21
67.049904520602
 31
0
 12
0
 22
0
 32
0
 70
0
 13
15
 23
29.5
 33
0
 14
-10
 24
12.5
 34
0
 53
0
  0
DIMENSION
  8
1
  6
CONTINUOUS
 62
2
  2
*D6
  3
DMST_1
 10
15
 20
52.51402115598501
 30
0
 11
29.5
 21
55.114021155985
 31
0
 12
0
 22
0
 32
0
 70
0
 13
44
 23
30
 33
0
 14
15
 24
29.5
 34
0
 53
0
  0
DIMENSION
  8
1
  6
CONTINUOUS
 62
2
  2
*D7
  3
DMST_1
 10
10
 20
52.5339907954604
 30
0
 11
5.9969181135408
 21
55.1339907954604
 31
0
 12
0
 22
0
 32
0
 70
0
 13
15
 23
29.5
 33
0
 14
10
 24
19.00000000000012
 34
0
 53
0
  0
DIMENSION
  8
1
  6
CONTINUOUS
 62
2
  2
*D8
  3
DMST_4
 10
-69.4462016085883
 20
0
 30
0
 11
-72.04620160858829
 21
-8.52885247127719
 31
0
 12
0
 22
0
 32
0
 70
0
 13
-100.9999999999999
 23
10
 33
0
 14
-79.49999999999989
 24
0
 34
0
 50
90
 53
0
  0
DIMENSION
  8
1
  6
CONTINUOUS
 62
2
  2
*D9
  3
DMST_5
 10
-57.3809956736108
 20
24.75
 30
0
 11
-59.9809956736108
 21
-2.775557561562891e-016
 31
0
 12
0
 22
0
 32
0
 70
0
 13
-79.49999999999989
 23
-24.75
 33
0
 14
-79.49999999999989
 24
24.75
 34
0
 50
90
 53
0
  0
DIMENSION
  8
1
  6
CONTINUOUS
 62
2
  2
*D10
  3
DMST_5
 10
-134.7499999999999
 20
40.4603039403511
 30
0
 11
-109.9999999999999
 21
43.0603039403511
 31
0
 12
0
 22
0
 32
0
 70
0
 13
-85.24999999999989
 23
30.5
 33
0
 14
-134.7499999999999
 24
30.5
 34
0
 53
0
  0
DIMENSION
  8
1
  6
CONTINUOUS
 62
2
  2
*D11
  3
DMST_6
 10
-79.49999999999989
 20
52.3174890833463
 30
0
 11
-109.9999999999999
 21
54.9174890833463
 31
0
 12
0
 22
0
 32
0
 70
0
  1
üá<>
 13
-140.5
 23
24.75
 33
0
 14
-79.49999999999989
 24
24.75
 34
0
 53
0
  0
DIMENSION
  8
1
  6
CONTINUOUS
 62
2
  2
*D12
  3
DMST_1
 10
102.3899275099671
 20
17
 30
0
 11
99.78992750996709
 21
-2.220446049250313e-016
 31
0
 12
0
 22
0
 32
0
 70
0
  1
âË<>
 13
80.50000000000031
 23
-17
 33
0
 14
80.50000000000031
 24
17
 34
0
 50
90
 53
0
  0
DIMENSION
  8
1
  6
CONTINUOUS
 62
2
  2
*D13
  3
DMST_7
 10
140.0974548367342
 20
-26.9495106922798
 30
0
 11
131.8940594418271
 21
-24.3495106922798
 31
0
 12
0
 22
0
 32
0
 70
0
  1
(<>
 13
143.0974548367342
 23
-1.099999999999994
 33
0
 14
140.0974548367342
 24
-1.659999999999997
 34
0
 53
0
  0
DIMENSION
  8
1
  6
CONTINUOUS
 62
2
  2
*D14
  3
DMST_8
 10
143.0974548367342
 20
-38.9161652772744
 30
0
 11
111.7987274183673
 21
-35.5161652772744
 31
0
 12
0
 22
0
 32
0
 70
0
  1
300
 13
80.50000000000031
 23
-17
 33
0
 14
143.0974548367342
 24
-1.099999999999994
 34
0
 53
0
  0
DIMENSION
  8
1
  6
CONTINUOUS
 62
2
  2
*D15
  3
DMST_7
 10
82.10000000000011
 20
52.6129032258064
 30
0
 11
90.94965929684709
 21
55.2129032258064
 31
0
 12
0
 22
0
 32
0
 70
0
  1
(<>
 13
80.50000000000031
 23
17
 33
0
 14
82.10000000000011
 24
3.245566037735898
 34
0
 53
0
  0
INSERT
  8
0
  2
___R___O_______R
 10
0.5000000000000568
 20
-3.75
 30
0
  0
INSERT
  8
1
  2
*D16
 10
0
 20
0
 30
0
  0
ENDSEC
  0
EOF
