  0
SECTION
  2
HEADER
  9
$ACADVER
  1
AC1009
  9
$INSBASE
 10
0
 20
0
  9
$EXTMIN
 10
-194.5
 20
-146
  9
$EXTMAX
 10
194.5
 20
146
  9
$LIMMIN
 10
-194.5
 20
-146
  9
$LIMMAX
 10
194.5
 20
146
  9
$VIEWCTR
 10
10
 20
10
  9
$VIEWSIZE
 40
10
  9
$SNAPMODE
 70
0
  9
$SNAPUNIT
 10
1
 20
1
  9
$SNAPBASE
 10
0
 20
0
  9
$SNAPANG
 50
0
  9
$SNAPSTYLE
 70
0
  9
$SNAPISOPAIR
 70
0
  9
$GRIDMODE
 70
0
  9
$GRIDUNIT
 10
0
 20
0
  9
$ORTHOMODE
 70
0
  9
$REGENMODE
 70
1
  9
$FILLMODE
 70
1
  9
$QTEXTMODE
 70
0
  9
$DRAGMODE
 70
2
  9
$LTSCALE
 40
1
  9
$OSMODE
 70
0
  9
$ATTMODE
 70
1
  9
$TEXTSIZE
 40
3.5
  9
$TRACEWID
 40
0.5
  9
$TEXTSTYLE
  7
STANDARD
  9
$CLAYER
  8
0
  9
$CELTYPE
  6
BYLAYER
  9
$CECOLOR
 62
256
  9
$DIMSCALE
 40
1
  9
$DIMASZ
 40
0.18
  9
$DIMEXO
 40
0.0625
  9
$DIMDLI
 40
0.38
  9
$DIMRND
 40
0
  9
$DIMDLE
 40
0
  9
$DIMEXE
 40
0.18
  9
$DIMTP
 40
0
  9
$DIMTM
 40
0
  9
$DIMTXT
 40
0.18
  9
$DIMCEN
 40
0.09
  9
$DIMTSZ
 40
0
  9
$DIMTOL
 70
0
  9
$DIMLIM
 70
0
  9
$DIMTIH
 70
1
  9
$DIMTOH
 70
1
  9
$DIMSE1
 70
0
  9
$DIMSE2
 70
0
  9
$DIMTAD
 70
0
  9
$DIMZIN
 70
0
  9
$DIMBLK
  1

  9
$DIMASO
 70
1
  9
$DIMSHO
 70
1
  9
$DIMPOST
  1

  9
$DIMAPOST
  1

  9
$DIMALT
 70
0
  9
$DIMALTD
 70
2
  9
$DIMALTF
 40
25.4
  9
$DIMLFAC
 40
1
  9
$DIMTOFL
 70
0
  9
$DIMTVP
 40
0
  9
$DIMTIX
 70
0
  9
$DIMSOXD
 70
0
  9
$DIMSAH
 70
0
  9
$DIMBLK1
  1

  9
$DIMBLK2
  1

  9
$DIMSTYLE
  2
*UNNAMED
  9
$DIMCLRD
 70
0
  9
$DIMCLRE
 70
0
  9
$DIMCLRT
 70
0
  9
$DIMTFAC
 40
1
  9
$DIMGAP
 40
0.09
  9
$LUNITS
 70
2
  9
$LUPREC
 70
4
  9
$AXISMODE
 70
0
  9
$AXISUNIT
 10
0
 20
0
  9
$SKETCHINC
 40
0.1
  9
$FILLETRAD
 40
2
  9
$AUNITS
 70
0
  9
$AUPREC
 70
0
  9
$MENU
  1
ACAD
  9
$ELEVATION
 40
0
  9
$THICKNESS
 40
0
  9
$VIEWDIR
 10
0
 20
0
 30
1
  9
$LIMCHECK
 70
0
  9
$BLIPMODE
 70
1
  9
$CHAMFERA
 40
0
  9
$CHAMFERB
 40
0
  9
$FASTZOOM
 70
1
  9
$SKPOLY
 70
0
  9
$ANGBASE
 50
0
  9
$ANGDIR
 70
0
  9
$PDMODE
 70
0
  9
$PDSIZE
 40
0
  9
$PLINEWID
 40
0
  9
$COORDS
 70
2
  0
ENDSEC
  0
SECTION
  2
TABLES
  0
TABLE
  2
DIMSTYLE
 70
7
  0
DIMSTYLE
  2
DMST_1
 70
0
  3

  4

  5

  6

  7

 40
1
 41
3.2
 42
1
 43
7
 44
1
 45
0
 46
0
 47
0
 48
0
140
3.2
141
0
142
0
143
25.4
144
1
145
0
146
1
147
0.09
 71
0
 72
0
 73
0
 74
0
 75
0
 76
0
 77
1
 78
9
170
0
171
2
172
0
173
0
174
0
175
0
176
2
177
2
178
2
  0
DIMSTYLE
  2
DMST_2
 70
0
  3
)
  4

  5

  6

  7

 40
1
 41
3.2
 42
1
 43
7
 44
1
 45
0
 46
0
 47
0
 48
0
140
3.2
141
0
142
0
143
25.4
144
1
145
0
146
1
147
0.09
 71
0
 72
0
 73
0
 74
0
 75
0
 76
0
 77
1
 78
9
170
0
171
2
172
0
173
0
174
0
175
0
176
2
177
2
178
2
  0
DIMSTYLE
  2
DMST_3
 70
0
  3

  4

  5

  6

  7

 40
1
 41
3.2
 42
1
 43
7
 44
1
 45
0
 46
0
 47
0
 48
0.02
140
3.2
141
0
142
0
143
25.4
144
1
145
0
146
0.6
147
0.09
 71
1
 72
0
 73
0
 74
0
 75
0
 76
0
 77
1
 78
9
170
0
171
2
172
0
173
0
174
0
175
0
176
2
177
2
178
2
  0
DIMSTYLE
  2
DMST_4
 70
0
  3

  4

  5

  6

  7

 40
1
 41
3.2
 42
1
 43
7
 44
1
 45
0
 46
0
 47
0.3
 48
0.3
140
3.2
141
0
142
0
143
25.4
144
1
145
0
146
0.6
147
0.09
 71
1
 72
0
 73
0
 74
0
 75
0
 76
0
 77
1
 78
9
170
0
171
2
172
0
173
0
174
0
175
0
176
2
177
2
178
2
  0
DIMSTYLE
  2
DMST_5
 70
0
  3

  4

  5

  6

  7

 40
1
 41
3.2
 42
1
 43
7
 44
1
 45
0
 46
0
 47
0
 48
0
140
3.2
141
0
142
0
143
25.4
144
1
145
0
146
1
147
0.09
 71
0
 72
0
 73
1
 74
1
 75
0
 76
0
 77
1
 78
9
170
0
171
2
172
0
173
0
174
0
175
0
176
2
177
2
178
2
  0
DIMSTYLE
  2
DMST_6
 70
0
  3

  4

  5

  6

  7

 40
1
 41
3.2
 42
1
 43
7
 44
1
 45
0
 46
0
 47
30
 48
0
140
3.2
141
0
142
0
143
25.4
144
1
145
0
146
0.6
147
0.09
 71
1
 72
0
 73
0
 74
0
 75
0
 76
0
 77
1
 78
9
170
0
171
2
172
0
173
0
174
0
175
0
176
2
177
2
178
2
  0
DIMSTYLE
  2
DMST_7
 70
0
  3
)
  4

  5

  6

  7

 40
1
 41
3.2
 42
1
 43
7
 44
1
 45
0
 46
0
 47
0
 48
0
140
3.2
141
0
142
0
143
25.4
144
1
145
0
146
1
147
0.09
 71
0
 72
0
 73
1
 74
1
 75
0
 76
0
 77
1
 78
9
170
0
171
2
172
0
173
0
174
0
175
0
176
2
177
2
178
2
  0
ENDTAB
  0
TABLE
  2
LTYPE
 70
9
  0
LTYPE
  2
CONTINUOUS
 70
64
  3
Solid line
 72
65
 73
0
 40
0
  0
LTYPE
  2
BORDER
 70
64
  3
__ __ . __ __ .
 72
65
 73
6
 40
17.91447368421053
 49
5.118421052631579
 49
-2.559210526315789
 49
5.118421052631579
 49
-2.559210526315789
 49
0
 49
-2.559210526315789
  0
LTYPE
  2
CENTER
 70
64
  3
____ _ ____ _
 72
65
 73
4
 40
20.47368421052632
 49
12.79605263157895
 49
-2.559210526315789
 49
2.559210526315789
 49
-2.559210526315789
  0
LTYPE
  2
DASHDOT
 70
64
  3
__ . __ . __ .
 72
65
 73
4
 40
10.23684210526316
 49
5.118421052631579
 49
-2.559210526315789
 49
0
 49
-2.559210526315789
  0
LTYPE
  2
DASHED
 70
64
  3
__ __ __ __ __
 72
65
 73
2
 40
7.677631578947368
 49
5.118421052631579
 49
-2.559210526315789
  0
LTYPE
  2
DIVIDE
 70
64
  3
__ . . __ . . 
 72
65
 73
6
 40
12.79605263157895
 49
5.118421052631579
 49
-2.559210526315789
 49
0
 49
-2.559210526315789
 49
0
 49
-2.559210526315789
  0
LTYPE
  2
DOT
 70
64
  3
..............
 72
65
 73
4
 40
5.118421052631579
 49
0
 49
-2.559210526315789
 49
0
 49
-2.559210526315789
  0
LTYPE
  2
HIDDEN
 70
64
  3
_ _ _ _ _ _ _
 72
65
 73
2
 40
3.838815789473684
 49
2.559210526315789
 49
-1.279605263157895
  0
LTYPE
  2
PHANTOM
 70
64
  3
_____ _ _ _____ _ _ 
 72
65
 73
6
 40
25.59210526315789
 49
12.79605263157895
 49
-2.559210526315789
 49
2.559210526315789
 49
-2.559210526315789
 49
2.559210526315789
 49
-2.559210526315789
  0
ENDTAB
  0
TABLE
  2
LAYER
 70
3
  0
LAYER
  2
1
 70
0
 62
7
  6
CONTINUOUS
  0
LAYER
  2
0
 70
0
 62
7
  6
CONTINUOUS
  0
ENDTAB
  0
TABLE
  2
STYLE
 70
4
  0
STYLE
  2
STANDARD
 70
0
 40
0
 41
1
 50
0
 71
0
 42
3.5
  3
txt
  4

  0
STYLE
  2
SIMPLEX
 70
0
 40
0
 41
1
 50
0
 71
0
 42
3.5
  3
simplex
  4

  0
STYLE
  2
COMPLEX
 70
0
 40
0
 41
1
 50
0
 71
0
 42
3.5
  3
complex
  4

  0
STYLE
  2
ITALIC
 70
0
 40
0
 41
1
 50
0
 71
0
 42
3.5
  3
italic
  4

  0
ENDTAB
  0
TABLE
  2
VIEW
 70
0
  0
ENDTAB
  0
ENDSEC
  0
SECTION
  2
BLOCKS
  0
BLOCK
  8
0
  2
___R___O_______R
 70
0
 10
0.5000000000000568
 20
-3.75
 30
0
  0
LINE
  8
1
 62
4
  6
PHANTOM
 10
-194.5
 20
-146
 30
0
 11
194.5
 21
-146
 31
0
  0
LINE
  8
1
 62
4
  6
PHANTOM
 10
194.5
 20
146
 30
0
 11
-194.5
 21
146
 31
0
  0
LINE
  8
1
 62
4
  6
PHANTOM
 10
194.5
 20
146
 30
0
 11
194.5
 21
129
 31
0
  0
LINE
  8
1
 62
4
  6
PHANTOM
 10
-194.5
 20
-146
 30
0
 11
-194.5
 21
146
 31
0
  0
LINE
  8
1
 62
4
  6
PHANTOM
 10
194.5
 20
-136.5
 30
0
 11
194.5
 21
-146
 31
0
  0
TEXT
  8
1
 62
4
 10
178.746911898274
 20
-142.6071298819256
 30
0
 40
5
  1
A3
 41
0.9
 72
1
 73
2
 11
183.246911898274
 21
-140.1071298819256
 31
0
  0
ENDBLK
  8
0
  0
BLOCK
  8
1
  2
*D0
 70
1
 10
0
 20
0
 30
0
  0
LINE
  8
1
 62
2
 10
-36.49999999999996
 20
69.25287468379881
 30
0
 11
24.69953971201316
 21
69.25287468379881
 31
0
  0
LINE
  8
1
 62
2
 10
24.69953971201316
 20
49.25
 30
0
 11
24.69953971201316
 21
70.25287468379881
 31
0
  0
LINE
  8
1
 62
2
 10
-36.49999999999996
 20
22.27700676729667
 30
0
 11
-36.49999999999996
 21
70.25287468379881
 31
0
  0
SOLID
  8
1
 62
2
 10
-36.49999999999996
 20
69.25287468379881
 30
0
 11
-33.29999999999996
 21
69.66887468379881
 31
0
 12
-33.29999999999996
 22
68.83687468379881
 32
0
 13
-33.29999999999996
 23
68.83687468379881
 33
0
  0
SOLID
  8
1
 62
2
 10
24.69953971201316
 20
69.25287468379881
 30
0
 11
21.49953971201316
 21
68.83687468379881
 31
0
 12
21.49953971201316
 22
69.66887468379881
 32
0
 13
21.49953971201316
 23
69.66887468379881
 33
0
  0
TEXT
  8
1
 62
2
 10
-9.7802301439934
 20
70.25287468379881
 30
0
 40
3.2
  1
61.2
 41
0.9
  0
ENDBLK
  8
0
  0
BLOCK
  8
1
  2
*D1
 70
1
 10
0
 20
0
 30
0
  0
LINE
  8
1
 62
2
 10
-36.5
 20
57.3159105113614
 30
0
 11
-14.49999999999999
 21
57.3159105113614
 31
0
  0
LINE
  8
1
 62
2
 10
-36.5
 20
22.27700676729668
 30
0
 11
-36.5
 21
58.3159105113614
 31
0
  0
LINE
  8
1
 62
2
 10
-14.49999999999999
 20
48.25
 30
0
 11
-14.49999999999999
 21
58.3159105113614
 31
0
  0
SOLID
  8
1
 62
2
 10
-36.5
 20
57.3159105113614
 30
0
 11
-33.3
 21
57.7319105113614
 31
0
 12
-33.3
 22
56.89991051136141
 32
0
 13
-33.3
 23
56.89991051136141
 33
0
  0
SOLID
  8
1
 62
2
 10
-14.49999999999999
 20
57.3159105113614
 30
0
 11
-17.69999999999999
 21
56.89991051136141
 31
0
 12
-17.69999999999999
 22
57.7319105113614
 32
0
 13
-17.69999999999999
 23
57.7319105113614
 33
0
  0
TEXT
  8
1
 62
2
 10
-27.89999999999999
 20
58.3159105113614
 30
0
 40
3.2
  1
22
 41
0.9
  0
ENDBLK
  8
0
  0
BLOCK
  8
1
  2
*D2
 70
1
 10
0
 20
0
 30
0
  0
LINE
  8
1
 62
2
 10
163.5
 20
57.3159105113614
 30
0
 11
175
 21
57.3159105113614
 31
0
  0
LINE
  8
1
 62
2
 10
163.5
 20
44.25
 30
0
 11
163.5
 21
58.3159105113614
 31
0
  0
LINE
  8
1
 62
2
 10
175
 20
44.25000000000004
 30
0
 11
175
 21
58.3159105113614
 31
0
  0
SOLID
  8
1
 62
2
 10
163.5
 20
57.3159105113614
 30
0
 11
166.7
 21
57.7319105113614
 31
0
 12
166.7
 22
56.89991051136141
 32
0
 13
166.7
 23
56.89991051136141
 33
0
  0
SOLID
  8
1
 62
2
 10
175
 20
57.3159105113614
 30
0
 11
171.8
 21
56.89991051136141
 31
0
 12
171.8
 22
57.7319105113614
 32
0
 13
171.8
 23
57.7319105113614
 33
0
  0
TEXT
  8
1
 62
2
 10
167.81
 20
58.3159105113614
 30
0
 40
3.2
  1
11
 41
0.9
  0
TEXT
  8
1
 62
2
 10
165.73
 20
58.3159105113614
 30
0
 40
3.2
  1
(
 41
0.9
  0
TEXT
  8
1
 62
2
 10
172.29
 20
58.3159105113614
 30
0
 40
3.2
  1
)
 41
0.9
  0
ENDBLK
  8
0
  0
BLOCK
  8
1
  2
*D3
 70
1
 10
0
 20
0
 30
0
  0
LINE
  8
1
 62
2
 10
115
 20
57.3159105113614
 30
0
 11
126.5
 21
57.3159105113614
 31
0
  0
LINE
  8
1
 62
2
 10
115
 20
44.25
 30
0
 11
115
 21
58.3159105113614
 31
0
  0
LINE
  8
1
 62
2
 10
126.5
 20
44.25
 30
0
 11
126.5
 21
58.3159105113614
 31
0
  0
SOLID
  8
1
 62
2
 10
115
 20
57.3159105113614
 30
0
 11
118.2
 21
57.7319105113614
 31
0
 12
118.2
 22
56.89991051136141
 32
0
 13
118.2
 23
56.89991051136141
 33
0
  0
SOLID
  8
1
 62
2
 10
126.5
 20
57.3159105113614
 30
0
 11
123.3
 21
56.89991051136141
 31
0
 12
123.3
 22
57.7319105113614
 32
0
 13
123.3
 23
57.7319105113614
 33
0
  0
TEXT
  8
1
 62
2
 10
119.31
 20
58.3159105113614
 30
0
 40
3.2
  1
11
 41
0.9
  0
TEXT
  8
1
 62
2
 10
117.23
 20
58.3159105113614
 30
0
 40
3.2
  1
(
 41
0.9
  0
TEXT
  8
1
 62
2
 10
123.79
 20
58.3159105113614
 30
0
 40
3.2
  1
)
 41
0.9
  0
ENDBLK
  8
0
  0
BLOCK
  8
1
  2
*D4
 70
1
 10
0
 20
0
 30
0
  0
LINE
  8
1
 62
2
 10
-53.5
 20
-10.24999999999999
 30
0
 11
-39.49999999999999
 21
-10.24999999999999
 31
0
  0
LINE
  8
1
 62
2
 10
-53.5
 20
-19.25000000000001
 30
0
 11
-53.5
 21
-9.249999999999991
 31
0
  0
LINE
  8
1
 62
2
 10
-39.49999999999999
 20
-18.25000000000001
 30
0
 11
-39.49999999999999
 21
-9.249999999999991
 31
0
  0
SOLID
  8
1
 62
2
 10
-53.5
 20
-10.24999999999999
 30
0
 11
-50.3
 21
-9.833999999999991
 31
0
 12
-50.3
 22
-10.66599999999999
 32
0
 13
-50.3
 23
-10.66599999999999
 33
0
  0
SOLID
  8
1
 62
2
 10
-39.49999999999999
 20
-10.24999999999999
 30
0
 11
-42.7
 21
-10.66599999999999
 31
0
 12
-42.7
 22
-9.833999999999991
 32
0
 13
-42.7
 23
-9.833999999999991
 33
0
  0
TEXT
  8
1
 62
2
 10
-48.42
 20
-9.249999999999991
 30
0
 40
3.2
  1
14
 41
0.9
  0
ENDBLK
  8
0
  0
BLOCK
  8
1
  2
*D5
 70
1
 10
0
 20
0
 30
0
  0
LINE
  8
1
 62
2
 10
-74.96524210975855
 20
-19.25000000000001
 30
0
 11
-74.96524210975855
 21
2.07665869286361
 31
0
  0
LINE
  8
1
 62
2
 10
-74.96524210975855
 20
-27.25000000000001
 30
0
 11
-74.96524210975855
 21
-19.25000000000001
 31
0
  0
LINE
  8
1
 62
2
 10
-74.96524210975855
 20
-33.65000000000001
 30
0
 11
-74.96524210975855
 21
-27.25000000000001
 31
0
  0
LINE
  8
1
 62
2
 10
-40.50000000000001
 20
-19.25000000000001
 30
0
 11
-75.96524210975855
 21
-19.25000000000001
 31
0
  0
LINE
  8
1
 62
2
 10
-54.5
 20
-27.25000000000001
 30
0
 11
-75.96524210975855
 21
-27.25000000000001
 31
0
  0
SOLID
  8
1
 62
2
 10
-74.96524210975855
 20
-19.25000000000001
 30
0
 11
-75.38124210975855
 21
-16.05000000000001
 31
0
 12
-74.54924210975855
 22
-16.05000000000001
 32
0
 13
-74.54924210975855
 23
-16.05000000000001
 33
0
  0
SOLID
  8
1
 62
2
 10
-74.96524210975855
 20
-27.25000000000001
 30
0
 11
-74.54924210975855
 21
-30.45000000000001
 31
0
 12
-75.38124210975855
 22
-30.45000000000001
 32
0
 13
-75.38124210975855
 23
-30.45000000000001
 33
0
  0
TEXT
  8
1
 62
2
 10
-76.76524210975856
 20
-8.211341307136388
 30
0
 40
3.2
  1
8
 50
90
 41
0.9
  0
TEXT
  8
1
 62
2
 10
-78.84524210975856
 20
-4.691341307136388
 30
0
 40
1.92
  1
 0
 50
90
 41
0.9
  0
TEXT
  8
1
 62
2
 10
-75.96524210975855
 20
-4.691341307136388
 30
0
 40
1.92
  1
-0.02
 50
90
 41
0.9
  0
TEXT
  8
1
 62
2
 10
-76.76524210975856
 20
-11.85578575158083
 30
0
 40
3.2
  1
ƒÓ
 50
90
 41
0.9
  0
ENDBLK
  8
0
  0
BLOCK
  8
1
  2
*D6
 70
1
 10
0
 20
0
 30
0
  0
LINE
  8
1
 62
2
 10
-62.92692826673143
 20
-20.25000000000001
 30
0
 11
-62.92692826673143
 21
-10.6054867277327
 31
0
  0
LINE
  8
1
 62
2
 10
-62.92692826673143
 20
-27.25000000000001
 30
0
 11
-62.92692826673143
 21
-20.25000000000001
 31
0
  0
LINE
  8
1
 62
2
 10
-62.92692826673143
 20
-33.65000000000001
 30
0
 11
-62.92692826673143
 21
-27.25000000000001
 31
0
  0
LINE
  8
1
 62
2
 10
-54.49999999999999
 20
-20.25000000000001
 30
0
 11
-63.92692826673143
 21
-20.25000000000001
 31
0
  0
LINE
  8
1
 62
2
 10
-54.49999999999999
 20
-27.25000000000001
 30
0
 11
-63.92692826673143
 21
-27.25000000000001
 31
0
  0
SOLID
  8
1
 62
2
 10
-62.92692826673143
 20
-20.25000000000001
 30
0
 11
-63.34292826673143
 21
-17.05000000000001
 31
0
 12
-62.51092826673143
 22
-17.05000000000001
 32
0
 13
-62.51092826673143
 23
-17.05000000000001
 33
0
  0
SOLID
  8
1
 62
2
 10
-62.92692826673143
 20
-27.25000000000001
 30
0
 11
-62.51092826673143
 21
-30.45000000000001
 31
0
 12
-63.34292826673143
 22
-30.45000000000001
 32
0
 13
-63.34292826673143
 23
-30.45000000000001
 33
0
  0
TEXT
  8
1
 62
2
 10
-63.92692826673143
 20
-12.5254867277327
 30
0
 40
3.2
  1
7
 50
90
 41
0.9
  0
ENDBLK
  8
0
  0
BLOCK
  8
1
  2
*D7
 70
1
 10
0
 20
0
 30
0
  0
LINE
  8
1
 62
2
 10
-149.4562364348919
 20
69.30722910344591
 30
0
 11
-89.45623643489208
 21
69.30722910344591
 31
0
  0
LINE
  8
1
 62
2
 10
-149.4562364348919
 20
44.25000000000001
 30
0
 11
-149.4562364348919
 21
70.30722910344591
 31
0
  0
LINE
  8
1
 62
2
 10
-89.45623643489208
 20
44.25000000000001
 30
0
 11
-89.45623643489208
 21
70.30722910344591
 31
0
  0
SOLID
  8
1
 62
2
 10
-149.4562364348919
 20
69.30722910344591
 30
0
 11
-146.256236434892
 21
69.7232291034459
 31
0
 12
-146.256236434892
 22
68.89122910344591
 32
0
 13
-146.256236434892
 23
68.89122910344591
 33
0
  0
SOLID
  8
1
 62
2
 10
-89.45623643489208
 20
69.30722910344591
 30
0
 11
-92.65623643489208
 21
68.89122910344591
 31
0
 12
-92.65623643489208
 22
69.7232291034459
 32
0
 13
-92.65623643489208
 23
69.7232291034459
 33
0
  0
TEXT
  8
1
 62
2
 10
-121.856236434892
 20
70.30722910344591
 30
0
 40
3.2
  1
60
 41
0.9
  0
ENDBLK
  8
0
  0
BLOCK
  8
1
  2
*D8
 70
1
 10
0
 20
0
 30
0
  0
LINE
  8
1
 62
2
 10
-171.4915159331527
 20
-47.25000000000001
 30
0
 11
-171.4915159331527
 21
47.25000000000001
 31
0
  0
LINE
  8
1
 62
2
 10
-146.456236434892
 20
-47.25000000000001
 30
0
 11
-172.4915159331527
 21
-47.25000000000001
 31
0
  0
LINE
  8
1
 62
2
 10
-146.456236434892
 20
47.25000000000001
 30
0
 11
-172.4915159331527
 21
47.25000000000001
 31
0
  0
SOLID
  8
1
 62
2
 10
-171.4915159331527
 20
-47.25000000000001
 30
0
 11
-171.9075159331527
 21
-44.05
 31
0
 12
-171.0755159331527
 22
-44.05
 32
0
 13
-171.0755159331527
 23
-44.05
 33
0
  0
SOLID
  8
1
 62
2
 10
-171.4915159331527
 20
47.25000000000001
 30
0
 11
-171.0755159331527
 21
44.05
 31
0
 12
-171.9075159331527
 22
44.05
 32
0
 13
-171.9075159331527
 23
44.05
 33
0
  0
TEXT
  8
1
 62
2
 10
-172.4915159331527
 20
-4.359999999999986
 30
0
 40
3.2
  1
94.5
 50
90
 41
0.9
  0
ENDBLK
  8
0
  0
BLOCK
  8
1
  2
*D9
 70
1
 10
0
 20
0
 30
0
  0
LINE
  8
1
 62
2
 10
-159.456236434892
 20
-47.25000000000001
 30
0
 11
-159.456236434892
 21
-23.25000000000001
 31
0
  0
LINE
  8
1
 62
2
 10
-146.4562364348919
 20
-47.25000000000001
 30
0
 11
-160.456236434892
 21
-47.25000000000001
 31
0
  0
LINE
  8
1
 62
2
 10
-150.4562364348919
 20
-23.25000000000001
 30
0
 11
-160.456236434892
 21
-23.25000000000001
 31
0
  0
SOLID
  8
1
 62
2
 10
-159.456236434892
 20
-23.25000000000001
 30
0
 11
-159.040236434892
 21
-26.45000000000001
 31
0
 12
-159.872236434892
 22
-26.45000000000001
 32
0
 13
-159.872236434892
 23
-26.45000000000001
 33
0
  0
SOLID
  8
1
 62
2
 10
-159.456236434892
 20
-47.25000000000001
 30
0
 11
-159.872236434892
 21
-44.05
 31
0
 12
-159.040236434892
 22
-44.05
 32
0
 13
-159.040236434892
 23
-44.05
 33
0
  0
TEXT
  8
1
 62
2
 10
-160.456236434892
 20
-37.65000000000001
 30
0
 40
3.2
  1
24
 50
90
 41
0.9
  0
ENDBLK
  8
0
  0
BLOCK
  8
1
  2
*D10
 70
1
 10
0
 20
0
 30
0
  0
LINE
  8
1
 62
2
 10
-159.456236434892
 20
-23.25000000000001
 30
0
 11
-159.456236434892
 21
16.75000000000001
 31
0
  0
LINE
  8
1
 62
2
 10
-150.4562364348919
 20
-23.25000000000001
 30
0
 11
-160.456236434892
 21
-23.25000000000001
 31
0
  0
LINE
  8
1
 62
2
 10
-150.4562364348919
 20
16.75000000000001
 30
0
 11
-160.456236434892
 21
16.75000000000001
 31
0
  0
SOLID
  8
1
 62
2
 10
-159.456236434892
 20
16.75000000000001
 30
0
 11
-159.040236434892
 21
13.55000000000001
 31
0
 12
-159.872236434892
 22
13.55000000000001
 32
0
 13
-159.872236434892
 23
13.55000000000001
 33
0
  0
SOLID
  8
1
 62
2
 10
-159.456236434892
 20
-23.25000000000001
 30
0
 11
-159.872236434892
 21
-20.05000000000002
 31
0
 12
-159.040236434892
 22
-20.05000000000002
 32
0
 13
-159.040236434892
 23
-20.05000000000002
 33
0
  0
TEXT
  8
1
 62
2
 10
-160.456236434892
 20
-8.874000000000017
 30
0
 40
3.2
  1
40
 50
90
 41
0.9
  0
TEXT
  8
1
 62
2
 10
-161.096236434892
 20
-2.474000000000014
 30
0
 40
1.92
  1
%%p0.3
 50
90
 41
0.9
  0
ENDBLK
  8
0
  0
BLOCK
  8
1
  2
*D11
 70
1
 10
0
 20
0
 30
0
  0
LINE
  8
1
 62
2
 10
-159.456236434892
 20
31.25000000000001
 30
0
 11
-159.456236434892
 21
47.25000000000001
 31
0
  0
LINE
  8
1
 62
2
 10
-126.456236434892
 20
31.25000000000001
 30
0
 11
-160.456236434892
 21
31.25000000000001
 31
0
  0
LINE
  8
1
 62
2
 10
-146.456236434892
 20
47.25000000000001
 30
0
 11
-160.456236434892
 21
47.25000000000001
 31
0
  0
SOLID
  8
1
 62
2
 10
-159.456236434892
 20
31.25000000000001
 30
0
 11
-159.872236434892
 21
34.45000000000001
 31
0
 12
-159.040236434892
 22
34.45000000000001
 32
0
 13
-159.040236434892
 23
34.45000000000001
 33
0
  0
SOLID
  8
1
 62
2
 10
-159.456236434892
 20
47.25000000000001
 30
0
 11
-159.040236434892
 21
44.05
 31
0
 12
-159.872236434892
 22
44.05
 32
0
 13
-159.872236434892
 23
44.05
 33
0
  0
TEXT
  8
1
 62
2
 10
-160.456236434892
 20
37.33000000000001
 30
0
 40
3.2
  1
16
 50
90
 41
0.9
  0
ENDBLK
  8
0
  0
BLOCK
  8
1
  2
*D12
 70
1
 10
0
 20
0
 30
0
  0
LINE
  8
1
 62
2
 10
-139.4562364348919
 20
57.3159105113614
 30
0
 11
-99.45623643489208
 21
57.3159105113614
 31
0
  0
LINE
  8
1
 62
2
 10
-139.4562364348919
 20
48.25
 30
0
 11
-139.4562364348919
 21
58.3159105113614
 31
0
  0
LINE
  8
1
 62
2
 10
-99.45623643489208
 20
48.3593059936909
 30
0
 11
-99.45623643489208
 21
58.3159105113614
 31
0
  0
SOLID
  8
1
 62
2
 10
-139.4562364348919
 20
57.3159105113614
 30
0
 11
-136.256236434892
 21
57.7319105113614
 31
0
 12
-136.256236434892
 22
56.89991051136141
 32
0
 13
-136.256236434892
 23
56.89991051136141
 33
0
  0
SOLID
  8
1
 62
2
 10
-99.45623643489208
 20
57.3159105113614
 30
0
 11
-102.6562364348921
 21
56.89991051136141
 31
0
 12
-102.6562364348921
 22
57.7319105113614
 32
0
 13
-102.6562364348921
 23
57.7319105113614
 33
0
  0
TEXT
  8
1
 62
2
 10
-125.080236434892
 20
58.3159105113614
 30
0
 40
3.2
  1
40
 41
0.9
  0
TEXT
  8
1
 62
2
 10
-118.680236434892
 20
58.9559105113614
 30
0
 40
1.92
  1
%%p0.3
 41
0.9
  0
ENDBLK
  8
0
  0
BLOCK
  8
1
  2
*D13
 70
1
 10
0
 20
0
 30
0
  0
LINE
  8
1
 62
2
 10
-14.49999999999999
 20
57.3159105113614
 30
0
 11
0
 21
57.3159105113614
 31
0
  0
LINE
  8
1
 62
2
 10
-14.49999999999999
 20
48.25
 30
0
 11
-14.49999999999999
 21
58.3159105113614
 31
0
  0
LINE
  8
1
 62
2
 10
0
 20
36.96016652147836
 30
0
 11
0
 21
58.3159105113614
 31
0
  0
SOLID
  8
1
 62
2
 10
-14.49999999999999
 20
57.3159105113614
 30
0
 11
-11.29999999999999
 21
57.7319105113614
 31
0
 12
-11.29999999999999
 22
56.89991051136141
 32
0
 13
-11.29999999999999
 23
56.89991051136141
 33
0
  0
SOLID
  8
1
 62
2
 10
0
 20
57.3159105113614
 30
0
 11
-3.200000000000001
 21
56.89991051136141
 31
0
 12
-3.200000000000001
 22
57.7319105113614
 32
0
 13
-3.200000000000001
 23
57.7319105113614
 33
0
  0
TEXT
  8
1
 62
2
 10
-11.13
 20
58.3159105113614
 30
0
 40
3.2
  1
14.5
 41
0.9
  0
TEXT
  8
1
 62
2
 10
-13.20999999999999
 20
58.3159105113614
 30
0
 40
3.2
  1
(
 41
0.9
  0
TEXT
  8
1
 62
2
 10
-1.769999999999994
 20
58.3159105113614
 30
0
 40
3.2
  1
)
 41
0.9
  0
ENDBLK
  8
0
  0
BLOCK
  8
1
  2
*D14
 70
1
 10
0
 20
0
 30
0
  0
LINE
  8
1
 62
2
 10
-53.5
 20
-0.2499999999999889
 30
0
 11
-36.5
 21
-0.2499999999999889
 31
0
  0
LINE
  8
1
 62
2
 10
-53.5
 20
-19.25000000000001
 30
0
 11
-53.5
 21
0.7500000000000111
 31
0
  0
LINE
  8
1
 62
2
 10
-36.5
 20
-17.7229932327033
 30
0
 11
-36.5
 21
0.7500000000000111
 31
0
  0
SOLID
  8
1
 62
2
 10
-53.5
 20
-0.2499999999999889
 30
0
 11
-50.3
 21
0.1660000000000112
 31
0
 12
-50.3
 22
-0.6659999999999891
 32
0
 13
-50.3
 23
-0.6659999999999891
 33
0
  0
SOLID
  8
1
 62
2
 10
-36.5
 20
-0.2499999999999889
 30
0
 11
-39.7
 21
-0.6659999999999883
 31
0
 12
-39.7
 22
0.1660000000000113
 32
0
 13
-39.7
 23
0.1660000000000113
 33
0
  0
TEXT
  8
1
 62
2
 10
-46.92
 20
0.7500000000000111
 30
0
 40
3.2
  1
17
 41
0.9
  0
ENDBLK
  8
0
  0
BLOCK
  8
1
  2
*D15
 70
1
 10
0
 20
0
 30
0
  0
LINE
  8
1
 62
2
 10
-29.59999999999999
 20
9.749999999999981
 30
0
 11
-35.99999999999999
 21
9.749999999999981
 31
0
  0
LINE
  8
1
 62
2
 10
-36.49999999999999
 20
9.749999999999981
 30
0
 11
-35.99999999999999
 21
9.749999999999981
 31
0
  0
LINE
  8
1
 62
2
 10
-36.49999999999999
 20
9.749999999999981
 30
0
 11
-47.49173007942997
 21
9.749999999999981
 31
0
  0
LINE
  8
1
 62
2
 10
-36.49999999999999
 20
-17.7229932327033
 30
0
 11
-36.49999999999999
 21
10.74999999999998
 31
0
  0
LINE
  8
1
 62
2
 10
-35.99999999999999
 20
-15.21301556963091
 30
0
 11
-35.99999999999999
 21
10.74999999999998
 31
0
  0
SOLID
  8
1
 62
2
 10
-36.49999999999999
 20
9.749999999999981
 30
0
 11
-39.69999999999999
 21
9.333999999999982
 31
0
 12
-39.69999999999999
 22
10.16599999999998
 32
0
 13
-39.69999999999999
 23
10.16599999999998
 33
0
  0
SOLID
  8
1
 62
2
 10
-35.99999999999999
 20
9.749999999999981
 30
0
 11
-32.79999999999998
 21
10.16599999999998
 31
0
 12
-32.79999999999998
 22
9.33399999999998
 32
0
 13
-32.79999999999998
 23
9.33399999999998
 33
0
  0
TEXT
  8
1
 62
2
 10
-47.49173007942997
 20
10.74999999999998
 30
0
 40
3.2
  1
0.5
 41
0.9
  0
ENDBLK
  8
0
  0
BLOCK
  8
1
  2
*D16
 70
1
 10
0
 20
0
 30
0
  0
LINE
  8
1
 62
2
 10
185
 20
15.25000000000001
 30
0
 11
185
 21
47.25000000000001
 31
0
  0
LINE
  8
1
 62
2
 10
170.25
 20
15.25000000000001
 30
0
 11
186
 21
15.25000000000001
 31
0
  0
LINE
  8
1
 62
2
 10
172
 20
47.25000000000001
 30
0
 11
186
 21
47.25000000000001
 31
0
  0
SOLID
  8
1
 62
2
 10
185
 20
47.25000000000001
 30
0
 11
185.416
 21
44.05000000000001
 31
0
 12
184.584
 22
44.05000000000001
 32
0
 13
184.584
 23
44.05000000000001
 33
0
  0
SOLID
  8
1
 62
2
 10
185
 20
15.25000000000001
 30
0
 11
184.584
 21
18.45000000000001
 31
0
 12
185.416
 22
18.45000000000001
 32
0
 13
185.416
 23
18.45000000000001
 33
0
  0
TEXT
  8
1
 62
2
 10
184
 20
28.85000000000001
 30
0
 40
3.2
  1
32
 50
90
 41
0.9
  0
TEXT
  8
1
 62
2
 10
184
 20
26.77000000000001
 30
0
 40
3.2
  1
(
 50
90
 41
0.9
  0
TEXT
  8
1
 62
2
 10
184
 20
35.25000000000001
 30
0
 40
3.2
  1
)
 50
90
 41
0.9
  0
ENDBLK
  8
0
  0
BLOCK
  8
1
  2
*D17
 70
1
 10
0
 20
0
 30
0
  0
LINE
  8
1
 62
2
 10
105
 20
25.75000000000001
 30
0
 11
105
 21
47.25000000000001
 31
0
  0
LINE
  8
1
 62
2
 10
119.75
 20
25.75000000000001
 30
0
 11
104
 21
25.75000000000001
 31
0
  0
LINE
  8
1
 62
2
 10
118
 20
47.25000000000001
 30
0
 11
104
 21
47.25000000000001
 31
0
  0
SOLID
  8
1
 62
2
 10
105
 20
47.25000000000001
 30
0
 11
105.416
 21
44.05
 31
0
 12
104.584
 22
44.05
 32
0
 13
104.584
 23
44.05
 33
0
  0
SOLID
  8
1
 62
2
 10
105
 20
25.75000000000001
 30
0
 11
104.584
 21
28.95000000000001
 31
0
 12
105.416
 22
28.95000000000001
 32
0
 13
105.416
 23
28.95000000000001
 33
0
  0
TEXT
  8
1
 62
2
 10
104
 20
32.62000000000001
 30
0
 40
3.2
  1
21.5
 50
90
 41
0.9
  0
TEXT
  8
1
 62
2
 10
104
 20
30.54000000000001
 30
0
 40
3.2
  1
(
 50
90
 41
0.9
  0
TEXT
  8
1
 62
2
 10
104
 20
41.98
 30
0
 40
3.2
  1
)
 50
90
 41
0.9
  0
ENDBLK
  8
0
  0
BLOCK
  8
1
  2
*D18
 70
1
 10
0
 20
0
 30
0
  0
LINE
  8
1
 62
2
 10
46.81342684150343
 20
14.25000000000001
 30
0
 11
46.81342684150343
 21
48.25000000000001
 31
0
  0
LINE
  8
1
 62
2
 10
25.69953971201316
 20
14.25000000000001
 30
0
 11
47.81342684150343
 21
14.25000000000001
 31
0
  0
LINE
  8
1
 62
2
 10
25.69953971201316
 20
48.25000000000001
 30
0
 11
47.81342684150343
 21
48.25000000000001
 31
0
  0
SOLID
  8
1
 62
2
 10
46.81342684150343
 20
48.25000000000001
 30
0
 11
47.22942684150343
 21
45.05000000000001
 31
0
 12
46.39742684150343
 22
45.05000000000001
 32
0
 13
46.39742684150343
 23
45.05000000000001
 33
0
  0
SOLID
  8
1
 62
2
 10
46.81342684150343
 20
14.25000000000001
 30
0
 11
46.39742684150343
 21
17.45000000000001
 31
0
 12
47.22942684150343
 22
17.45000000000001
 32
0
 13
47.22942684150343
 23
17.45000000000001
 33
0
  0
TEXT
  8
1
 62
2
 10
45.81342684150343
 20
30.67222222222223
 30
0
 40
3.2
  1
34
 50
90
 41
0.9
  0
TEXT
  8
1
 62
2
 10
45.81342684150343
 20
27.02777777777779
 30
0
 40
3.2
  1
ƒÓ
 50
90
 41
0.9
  0
ENDBLK
  8
0
  0
BLOCK
  8
1
  2
*D19
 70
1
 10
0
 20
0
 30
0
  0
LINE
  8
1
 62
2
 10
93.6969945487469
 20
9.2508277434888
 30
0
 11
87.2969945487469
 21
9.2508277434888
 31
0
  0
LINE
  8
1
 62
2
 10
84.2969945487469
 20
9.2508277434888
 30
0
 11
87.2969945487469
 21
9.2508277434888
 31
0
  0
LINE
  8
1
 62
2
 10
84.2969945487469
 20
9.2508277434888
 30
0
 11
73.27952946095202
 21
9.2508277434888
 31
0
  0
LINE
  8
1
 62
2
 10
84.2969945487469
 20
28.58999999999999
 30
0
 11
84.2969945487469
 21
8.2508277434888
 31
0
  0
LINE
  8
1
 62
2
 10
87.2969945487469
 20
29.14999999999999
 30
0
 11
87.2969945487469
 21
8.2508277434888
 31
0
  0
SOLID
  8
1
 62
2
 10
87.2969945487469
 20
9.2508277434888
 30
0
 11
90.4969945487469
 21
9.666827743488801
 31
0
 12
90.4969945487469
 22
8.8348277434888
 32
0
 13
90.4969945487469
 23
8.8348277434888
 33
0
  0
SOLID
  8
1
 62
2
 10
84.2969945487469
 20
9.2508277434888
 30
0
 11
81.09699454874689
 21
8.834827743488802
 31
0
 12
81.09699454874689
 22
9.666827743488801
 32
0
 13
81.09699454874689
 23
9.666827743488801
 33
0
  0
TEXT
  8
1
 62
2
 10
75.35952946095203
 20
10.2508277434888
 30
0
 40
3.2
  1
3
 41
0.9
  0
TEXT
  8
1
 62
2
 10
73.27952946095202
 20
10.2508277434888
 30
0
 40
3.2
  1
(
 41
0.9
  0
TEXT
  8
1
 62
2
 10
78.87952946095203
 20
10.2508277434888
 30
0
 40
3.2
  1
)
 41
0.9
  0
ENDBLK
  8
0
  0
BLOCK
  8
1
  2
*D20
 70
1
 10
0
 20
0
 30
0
  0
LINE
  8
1
 62
2
 10
24.69953971201315
 20
-2.75643022744908
 30
0
 11
87.2969945487469
 21
-2.75643022744908
 31
0
  0
LINE
  8
1
 62
2
 10
24.69953971201315
 20
13.25000000000001
 30
0
 11
24.69953971201315
 21
-3.75643022744908
 31
0
  0
LINE
  8
1
 62
2
 10
87.2969945487469
 20
29.14999999999999
 30
0
 11
87.2969945487469
 21
-3.75643022744908
 31
0
  0
SOLID
  8
1
 62
2
 10
24.69953971201315
 20
-2.75643022744908
 30
0
 11
27.89953971201315
 21
-2.34043022744908
 31
0
 12
27.89953971201315
 22
-3.17243022744908
 32
0
 13
27.89953971201315
 23
-3.17243022744908
 33
0
  0
SOLID
  8
1
 62
2
 10
87.2969945487469
 20
-2.75643022744908
 30
0
 11
84.09699454874689
 21
-3.172430227449079
 31
0
 12
84.09699454874689
 22
-2.34043022744908
 32
0
 13
84.09699454874689
 23
-2.34043022744908
 33
0
  0
TEXT
  8
1
 62
2
 10
49.15026713038002
 20
-0.9564302274490801
 30
0
 40
3.2
  1
300
 41
0.9
  0
TEXT
  8
1
 62
2
 10
58.43026713038002
 20
1.12356977255092
 30
0
 40
1.92
  1
+30
 41
0.9
  0
TEXT
  8
1
 62
2
 10
60.15826713038003
 20
-1.75643022744908
 30
0
 40
1.92
  1
 0
 41
0.9
  0
ENDBLK
  8
0
  0
BLOCK
  8
1
  2
*D21
 70
1
 10
0
 20
0
 30
0
  0
LINE
  8
1
 62
2
 10
26.29953971201319
 20
57.3023755994684
 30
0
 11
39.70463849383179
 21
57.3023755994684
 31
0
  0
LINE
  8
1
 62
2
 10
24.69953971201316
 20
57.3023755994684
 30
0
 11
26.29953971201319
 21
57.3023755994684
 31
0
  0
LINE
  8
1
 62
2
 10
18.29953971201317
 20
57.3023755994684
 30
0
 11
24.69953971201316
 21
57.3023755994684
 31
0
  0
LINE
  8
1
 62
2
 10
26.29953971201319
 20
35.49556603773591
 30
0
 11
26.29953971201319
 21
58.3023755994684
 31
0
  0
LINE
  8
1
 62
2
 10
24.69953971201316
 20
49.25000000000001
 30
0
 11
24.69953971201316
 21
58.3023755994684
 31
0
  0
SOLID
  8
1
 62
2
 10
24.69953971201316
 20
57.3023755994684
 30
0
 11
21.49953971201316
 21
56.8863755994684
 31
0
 12
21.49953971201316
 22
57.7183755994684
 32
0
 13
21.49953971201316
 23
57.7183755994684
 33
0
  0
SOLID
  8
1
 62
2
 10
26.29953971201319
 20
57.3023755994684
 30
0
 11
29.49953971201319
 21
57.7183755994684
 31
0
 12
29.49953971201319
 22
56.8863755994684
 32
0
 13
29.49953971201319
 23
56.8863755994684
 33
0
  0
TEXT
  8
1
 62
2
 10
32.7446384938318
 20
58.3023755994684
 30
0
 40
3.2
  1
1.6
 41
0.9
  0
TEXT
  8
1
 62
2
 10
30.6646384938318
 20
58.3023755994684
 30
0
 40
3.2
  1
(
 41
0.9
  0
TEXT
  8
1
 62
2
 10
39.2246384938318
 20
58.3023755994684
 30
0
 40
3.2
  1
)
 41
0.9
  0
ENDBLK
  8
0
  0
BLOCK
  8
1
  2
*D22
 70
1
 10
0
 20
0
 30
0
  0
LINE
  8
1
 62
2
 10
-73.0644513178752
 20
-57.3022212403035
 30
0
 11
-22.1044513178752
 21
-57.3022212403035
 31
0
  0
LINE
  8
1
 62
2
 10
-98.23105500449474
 20
-24.8308005764832
 30
0
 11
-73.0644513178752
 21
-57.3022212403035
 31
0
  0
SOLID
  8
1
 62
2
 10
-98.23105500449474
 20
-24.8308005764832
 30
0
 11
-95.94195819595053
 21
-27.10524376133367
 31
0
 12
-96.59957123576754
 22
-27.61491923637895
 32
0
 13
-96.59957123576754
 23
-27.61491923637895
 33
0
  0
TEXT
  8
1
 62
2
 10
-58.5844513178752
 20
-56.3022212403035
 30
0
 40
3.2
  1
4
 41
0.9
  0
TEXT
  8
1
 62
2
 10
-67.86445131787519
 20
-56.3022212403035
 30
0
 40
3.2
  1
4-M
 41
0.9
  0
TEXT
  8
1
 62
2
 10
-55.0644513178752
 20
-56.3022212403035
 30
0
 40
3.2
  1
 DEPTH 6MAX
 41
0.9
  0
ENDBLK
  8
0
  0
ENDSEC
  0
SECTION
  2
ENTITIES
  0
LINE
  8
1
 62
7
 10
-107.4215295173192
 20
45.02135057081991
 30
0
 11
-119.456236434892
 21
47.25000000000001
 31
0
  0
LINE
  8
1
 62
7
 10
-30
 20
4.364285714285714
 30
0
 11
-30.64142135623728
 21
4.272654091966004
 31
0
  0
LINE
  8
1
 62
7
 10
-30.64142135623728
 20
-5.972654091966191
 30
0
 11
-30
 21
-6.064285714285901
 31
0
  0
LINE
  8
1
 62
7
 10
-31.5
 20
3.282704598304903
 30
0
 11
-31.5
 21
-4.982704598305091
 31
0
  0
LINE
  8
1
 62
7
 10
-36.02773500981123
 20
11.72376305610079
 30
0
 11
-28
 21
11.25000000000001
 31
0
  0
LINE
  8
1
 62
7
 10
-28
 20
22.25000000000001
 30
0
 11
-36.02773500981123
 21
21.77623694389941
 31
0
  0
LINE
  8
1
 62
7
 10
-30.64142135623728
 20
22.57265409196602
 30
0
 11
-30
 21
22.66428571428561
 31
0
  0
LINE
  8
1
 62
7
 10
-28
 20
17.7499999999999
 30
0
 11
-30
 21
17.75000000000001
 31
0
  0
LINE
  8
1
 62
7
 10
-30
 20
17.75000000000001
 30
0
 11
-30
 21
15.75000000000001
 31
0
  0
LINE
  8
1
 62
7
 10
-30
 20
15.75000000000001
 30
0
 11
-28
 21
15.75000000000001
 31
0
  0
LINE
  8
1
 62
7
 10
-11.56639151906335
 20
-46.20403352100782
 30
0
 11
-12.79128442572539
 21
-46.24961946980922
 31
0
  0
LINE
  8
1
 62
3
 10
-15.49999999999999
 20
-42.75000000000001
 30
0
 11
-8.900000000000084
 21
-42.75000000000001
 31
0
  0
LINE
  8
1
 62
7
 10
-11.56639151906335
 20
-39.29596647899221
 30
0
 11
-12.79128442572539
 21
-39.25038053019081
 31
0
  0
LINE
  8
1
 62
7
 10
-11.56639151906335
 20
-21.70403352100782
 30
0
 11
-12.79128442572539
 21
-21.74961946980922
 31
0
  0
LINE
  8
1
 62
3
 10
-15.49999999999999
 20
-18.25000000000001
 30
0
 11
-8.900000000000084
 21
-18.25000000000001
 31
0
  0
LINE
  8
1
 62
7
 10
-11.56639151906335
 20
-14.79596647899221
 30
0
 11
-12.79128442572539
 21
-14.75038053019081
 31
0
  0
LINE
  8
1
 62
7
 10
-11.56639151906335
 20
6.295966478992185
 30
0
 11
-12.79128442572539
 21
6.25038053019081
 31
0
  0
LINE
  8
1
 62
3
 10
-15.49999999999999
 20
9.750000000000014
 30
0
 11
-8.900000000000084
 21
9.750000000000014
 31
0
  0
LINE
  8
1
 62
7
 10
-11.56639151906335
 20
13.20403352100779
 30
0
 11
-12.79128442572539
 21
13.24961946980922
 31
0
  0
LINE
  8
1
 62
7
 10
-11.56639151906335
 20
13.29596647899218
 30
0
 11
-12.79128442572539
 21
13.25038053019081
 31
0
  0
LINE
  8
1
 62
3
 10
-15.49999999999999
 20
16.75000000000001
 30
0
 11
-8.900000000000084
 21
16.75000000000001
 31
0
  0
LINE
  8
1
 62
7
 10
-11.56639151906335
 20
20.20403352100779
 30
0
 11
-12.79128442572539
 21
20.24961946980922
 31
0
  0
LINE
  8
1
 62
7
 10
168.3000000000001
 20
-42.35000000000001
 30
0
 11
168.9
 21
-42.35000000000001
 31
0
  0
LINE
  8
1
 62
7
 10
168.2
 20
-43.05
 30
0
 11
168.2
 21
-42.45
 31
0
  0
LINE
  8
1
 62
7
 10
168.9
 20
-43.14999999999999
 30
0
 11
168.3000000000001
 21
-43.14999999999999
 31
0
  0
LINE
  8
1
 62
7
 10
170.1
 20
-44.95
 30
0
 11
170.1
 21
-44.35000000000001
 31
0
  0
LINE
  8
1
 62
7
 10
170.7999999999999
 20
-45.05
 30
0
 11
170.2
 21
-45.05
 31
0
  0
LINE
  8
1
 62
7
 10
170.9
 20
-44.35000000000001
 30
0
 11
170.9
 21
-44.95
 31
0
  0
LINE
  8
1
 62
7
 10
172.6999999999999
 20
-43.14999999999999
 30
0
 11
172.1
 21
-43.14999999999999
 31
0
  0
LINE
  8
1
 62
7
 10
172.7999999999999
 20
-42.45
 30
0
 11
172.7999999999999
 21
-43.05
 31
0
  0
LINE
  8
1
 62
7
 10
172.1
 20
-42.35000000000001
 30
0
 11
172.6999999999999
 21
-42.35000000000001
 31
0
  0
LINE
  8
1
 62
7
 10
170.9
 20
-40.55
 30
0
 11
170.9
 21
-41.14999999999999
 31
0
  0
LINE
  8
1
 62
7
 10
170.2
 20
-40.45
 30
0
 11
170.7999999999999
 21
-40.45
 31
0
  0
LINE
  8
1
 62
7
 10
170.1
 20
-41.14999999999999
 30
0
 11
170.1
 21
-40.55
 31
0
  0
LINE
  8
1
 62
7
 10
117.3000000000001
 20
-17.85000000000001
 30
0
 11
117.9
 21
-17.85000000000001
 31
0
  0
LINE
  8
1
 62
7
 10
117.2
 20
-18.55
 30
0
 11
117.2
 21
-17.95
 31
0
  0
LINE
  8
1
 62
7
 10
117.9
 20
-18.64999999999999
 30
0
 11
117.3000000000001
 21
-18.64999999999999
 31
0
  0
LINE
  8
1
 62
7
 10
119.1
 20
-20.45
 30
0
 11
119.1
 21
-19.85000000000001
 31
0
  0
LINE
  8
1
 62
7
 10
119.7999999999999
 20
-20.55
 30
0
 11
119.2
 21
-20.55
 31
0
  0
LINE
  8
1
 62
7
 10
119.9
 20
-19.85000000000001
 30
0
 11
119.9
 21
-20.45
 31
0
  0
LINE
  8
1
 62
7
 10
121.6999999999999
 20
-18.64999999999999
 30
0
 11
121.1
 21
-18.64999999999999
 31
0
  0
LINE
  8
1
 62
7
 10
121.7999999999999
 20
-17.95
 30
0
 11
121.7999999999999
 21
-18.55
 31
0
  0
LINE
  8
1
 62
7
 10
121.1
 20
-17.85000000000001
 30
0
 11
121.6999999999999
 21
-17.85000000000001
 31
0
  0
LINE
  8
1
 62
7
 10
119.9
 20
-16.05
 30
0
 11
119.9
 21
-16.64999999999999
 31
0
  0
LINE
  8
1
 62
7
 10
119.2
 20
-15.95
 30
0
 11
119.7999999999999
 21
-15.95
 31
0
  0
LINE
  8
1
 62
7
 10
119.1
 20
-16.64999999999999
 30
0
 11
119.1
 21
-16.05
 31
0
  0
LINE
  8
1
 62
7
 10
168.3000000000001
 20
10.14999999999999
 30
0
 11
168.9
 21
10.14999999999999
 31
0
  0
LINE
  8
1
 62
7
 10
168.2
 20
9.450000000000003
 30
0
 11
168.2
 21
10.04999999999997
 31
0
  0
LINE
  8
1
 62
7
 10
168.9
 20
9.34999999999998
 30
0
 11
168.3000000000001
 21
9.34999999999998
 31
0
  0
LINE
  8
1
 62
7
 10
170.1
 20
7.549999999999969
 30
0
 11
170.1
 21
8.149999999999992
 31
0
  0
LINE
  8
1
 62
7
 10
170.7999999999999
 20
7.450000000000003
 30
0
 11
170.2
 21
7.450000000000003
 31
0
  0
LINE
  8
1
 62
7
 10
170.9
 20
8.149999999999992
 30
0
 11
170.9
 21
7.549999999999969
 31
0
  0
LINE
  8
1
 62
7
 10
172.6999999999999
 20
9.34999999999998
 30
0
 11
172.1
 21
9.34999999999998
 31
0
  0
LINE
  8
1
 62
7
 10
172.7999999999999
 20
10.04999999999997
 30
0
 11
172.7999999999999
 21
9.450000000000003
 31
0
  0
LINE
  8
1
 62
7
 10
172.1
 20
10.14999999999999
 30
0
 11
172.6999999999999
 21
10.14999999999999
 31
0
  0
LINE
  8
1
 62
7
 10
170.9
 20
11.95
 30
0
 11
170.9
 21
11.34999999999998
 31
0
  0
LINE
  8
1
 62
7
 10
170.2
 20
12.04999999999997
 30
0
 11
170.7999999999999
 21
12.04999999999997
 31
0
  0
LINE
  8
1
 62
7
 10
170.1
 20
11.34999999999998
 30
0
 11
170.1
 21
11.95
 31
0
  0
LINE
  8
1
 62
7
 10
118.5500000000001
 20
17.14999999999999
 30
0
 11
119.15
 21
17.14999999999999
 31
0
  0
LINE
  8
1
 62
7
 10
118.45
 20
16.45
 30
0
 11
118.45
 21
17.04999999999997
 31
0
  0
LINE
  8
1
 62
7
 10
119.15
 20
16.34999999999998
 30
0
 11
118.5500000000001
 21
16.34999999999998
 31
0
  0
LINE
  8
1
 62
7
 10
120.35
 20
14.54999999999997
 30
0
 11
120.35
 21
15.14999999999999
 31
0
  0
LINE
  8
1
 62
7
 10
121.0499999999999
 20
14.45
 30
0
 11
120.45
 21
14.45
 31
0
  0
LINE
  8
1
 62
7
 10
121.15
 20
15.14999999999999
 30
0
 11
121.15
 21
14.54999999999997
 31
0
  0
LINE
  8
1
 62
7
 10
122.9499999999999
 20
16.34999999999998
 30
0
 11
122.35
 21
16.34999999999998
 31
0
  0
LINE
  8
1
 62
7
 10
123.0499999999999
 20
17.04999999999997
 30
0
 11
123.0499999999999
 21
16.45
 31
0
  0
LINE
  8
1
 62
7
 10
122.35
 20
17.14999999999999
 30
0
 11
122.9499999999999
 21
17.14999999999999
 31
0
  0
LINE
  8
1
 62
7
 10
121.15
 20
18.95
 30
0
 11
121.15
 21
18.34999999999998
 31
0
  0
LINE
  8
1
 62
7
 10
120.45
 20
19.04999999999997
 30
0
 11
121.0499999999999
 21
19.04999999999997
 31
0
  0
LINE
  8
1
 62
7
 10
120.35
 20
18.34999999999998
 30
0
 11
120.35
 21
18.95
 31
0
  0
LINE
  8
1
 62
7
 10
-11.40000000000008
 20
-30.9918669205634
 30
0
 11
-12.90000000000008
 21
-30.9918669205634
 31
0
  0
LINE
  8
1
 62
7
 10
-12.90000000000008
 20
25.80517241379307
 30
0
 11
-12.90000000000008
 21
-47.25000000000001
 31
0
  0
LINE
  8
1
 62
7
 10
-108.2110142807134
 20
17.75000000000001
 30
0
 11
-104.3552159204585
 21
17.75000000000001
 31
0
  0
LINE
  8
1
 62
7
 10
-109.056236434892
 20
15.75000000000001
 30
0
 11
-104.3552159204585
 21
15.75000000000001
 31
0
  0
LINE
  8
1
 62
3
 10
169.25
 20
12.26904978840601
 30
0
 11
169.25
 21
38.05581862774598
 31
0
  0
LINE
  8
1
 62
3
 10
120.75
 20
37.643217169756
 30
0
 11
120.75
 21
23.69535325297001
 31
0
  0
LINE
  8
1
 62
3
 10
163.4442108240314
 20
19.25000000000001
 30
0
 11
175
 21
19.25000000000001
 31
0
  0
LINE
  8
1
 62
7
 10
170.75
 20
25.95849737787081
 30
0
 11
170.75
 21
22.95809924354792
 31
0
  0
LINE
  8
1
 62
7
 10
167.75
 20
25.95849737787081
 30
0
 11
167.75
 21
22.95809924354792
 31
0
  0
LINE
  8
1
 62
7
 10
171
 20
45.75000000000001
 30
0
 11
166
 21
45.75000000000001
 31
0
  0
LINE
  8
1
 62
7
 10
173.5
 20
39.25000000000001
 30
0
 11
173.5
 21
43.25000000000001
 31
0
  0
LINE
  8
1
 62
7
 10
166
 20
36.75000000000001
 30
0
 11
171
 21
36.75000000000001
 31
0
  0
LINE
  8
1
 62
7
 10
163.5
 20
43.25000000000001
 30
0
 11
163.5
 21
39.25000000000001
 31
0
  0
LINE
  8
1
 62
7
 10
116.5
 20
43.25000000000001
 30
0
 11
116.5
 21
39.25000000000001
 31
0
  0
LINE
  8
1
 62
7
 10
124
 20
45.75000000000001
 30
0
 11
119
 21
45.75000000000001
 31
0
  0
LINE
  8
1
 62
7
 10
126.5
 20
39.25000000000001
 30
0
 11
126.5
 21
43.25000000000001
 31
0
  0
LINE
  8
1
 62
7
 10
119
 20
36.75000000000001
 30
0
 11
124
 21
36.75000000000001
 31
0
  0
LINE
  8
1
 62
7
 10
145.9505243733251
 20
-30.9918669205634
 30
0
 11
150.8194599972971
 21
-28.44363893044719
 31
0
  0
LINE
  8
1
 62
7
 10
139.1805400027026
 20
-18.05636106955289
 30
0
 11
144.0494756266748
 21
-15.5081330794366
 31
0
  0
LINE
  8
1
 62
7
 10
145.5672014791921
 20
-29.72520520771361
 30
0
 11
149.9971692363874
 21
-27.40671740955541
 31
0
  0
LINE
  8
1
 62
7
 10
140.0028307636121
 20
-19.0932825904447
 30
0
 11
144.4327985208074
 21
-16.77479479228641
 31
0
  0
LINE
  8
1
 62
3
 10
119.5
 20
-39.32394952935
 30
0
 11
119.5
 21
-46.066949151842
 31
0
  0
LINE
  8
1
 62
3
 10
133.7999999999997
 20
1.150170926205007
 30
0
 11
133.7999999999997
 21
-4.889644558334012
 31
0
  0
LINE
  8
1
 62
3
 10
138.1999999999998
 20
3.666760711430001
 30
0
 11
138.1999999999998
 21
-2.804470164861996
 31
0
  0
LINE
  8
1
 62
3
 10
151.2999999999997
 20
11.64794545885702
 30
0
 11
151.2999999999997
 21
4.745299190811991
 31
0
  0
LINE
  8
1
 62
3
 10
120.75
 20
21.25000000000001
 30
0
 11
120.75
 21
12.25000000000001
 31
0
  0
LINE
  8
1
 62
3
 10
116.033409923285
 20
-42.75000000000001
 30
0
 11
122.8376020048918
 21
-42.75000000000001
 31
0
  0
LINE
  8
1
 62
3
 10
130.977647870387
 20
-1.850000000000009
 30
0
 11
136.6124385181788
 21
-1.850000000000009
 31
0
  0
LINE
  8
1
 62
3
 10
135.0756774324168
 20
0.2199999999999847
 30
0
 11
141.1658046982129
 21
0.2199999999999847
 31
0
  0
LINE
  8
1
 62
3
 10
147.8820198137628
 20
8.149999999999992
 30
0
 11
154.5982349293129
 21
8.149999999999992
 31
0
  0
LINE
  8
1
 62
7
 10
175
 20
-43.25000000000001
 30
0
 11
175
 21
43.25000000000004
 31
0
  0
LINE
  8
1
 62
7
 10
120.75
 20
24.75000000000001
 30
0
 11
117.5
 21
24.75000000000001
 31
0
  0
LINE
  8
1
 62
7
 10
127.25
 20
31.25000000000001
 30
0
 11
127.25
 21
43.25000000000001
 31
0
  0
LINE
  8
1
 62
3
 10
134.2000000000001
 20
-23.25000000000001
 30
0
 11
155.8
 21
-23.25000000000001
 31
0
  0
LINE
  8
1
 62
7
 10
169.25
 20
14.25000000000001
 30
0
 11
172.5
 21
14.25000000000001
 31
0
  0
LINE
  8
1
 62
7
 10
119
 20
47.25000000000001
 30
0
 11
139.255437353462
 21
47.25000000000001
 31
0
  0
LINE
  8
1
 62
7
 10
162.75
 20
43.25000000000001
 30
0
 11
162.75
 21
31.25000000000001
 31
0
  0
LINE
  8
1
 62
7
 10
115
 20
-43.25000000000001
 30
0
 11
115
 21
43.25000000000001
 31
0
  0
LINE
  8
1
 62
7
 10
119
 20
-47.25000000000001
 30
0
 11
171
 21
-47.25000000000001
 31
0
  0
LINE
  8
1
 62
3
 10
145
 20
-51.25000000000001
 30
0
 11
145
 21
51.24999999999999
 31
0
  0
LINE
  8
1
 62
3
 10
-56.86903757315348
 20
-23.25000000000001
 30
0
 11
-8.006599104008494
 21
-23.25000000000001
 31
0
  0
LINE
  8
1
 62
7
 10
-39.5
 20
-19.25000000000001
 30
0
 11
-36.5
 21
-19.25000000000001
 31
0
  0
LINE
  8
1
 62
7
 10
-39.5
 20
-20.25000000000001
 30
0
 11
-39.5
 21
-19.25000000000001
 31
0
  0
LINE
  8
1
 62
7
 10
-53.5
 20
-20.25000000000001
 30
0
 11
-39.5
 21
-20.25000000000001
 31
0
  0
LINE
  8
1
 62
7
 10
-53.5
 20
-27.25000000000001
 30
0
 11
-53.5
 21
-20.25000000000001
 31
0
  0
LINE
  8
1
 62
7
 10
-36.5
 20
-27.25000000000001
 30
0
 11
-53.5
 21
-27.25000000000001
 31
0
  0
LINE
  8
1
 62
7
 10
-30
 20
-33.25000000000001
 30
0
 11
-30
 21
-28.63196843679519
 31
0
  0
LINE
  8
1
 62
7
 10
-35.53834824944244
 20
-30.78551167311981
 30
0
 11
-30
 21
-31.25000000000001
 31
0
  0
LINE
  8
1
 62
7
 10
-30
 20
-15.25000000000001
 30
0
 11
-35.53834824944244
 21
-15.71448832688021
 31
0
  0
LINE
  8
1
 62
7
 10
-28
 20
46.25000000000001
 30
0
 11
-28
 21
-46.25000000000001
 31
0
  0
LINE
  8
1
 62
7
 10
-30
 20
-33.25000000000001
 30
0
 11
-28
 21
-33.25000000000001
 31
0
  0
LINE
  8
1
 62
7
 10
-30
 20
26.75000000000001
 30
0
 11
-30
 21
22.13196843679528
 31
0
  0
LINE
  8
1
 62
7
 10
-28
 20
26.75000000000003
 30
0
 11
-30
 21
26.75000000000001
 31
0
  0
LINE
  8
1
 62
7
 10
-30.64142135623728
 20
25.62734590803389
 30
0
 11
-30
 21
25.53571428571429
 31
0
  0
LINE
  8
1
 62
7
 10
-31.5
 20
35.88270459830501
 30
0
 11
-31.5
 21
26.61729540169507
 31
0
  0
LINE
  8
1
 62
7
 10
-28.85857864376271
 20
37.12734590803389
 30
0
 11
-30.64142135623728
 21
36.87265409196608
 31
0
  0
LINE
  8
1
 62
7
 10
-14.49999999999999
 20
-47.25000000000001
 30
0
 11
-14.49999999999999
 21
47.25000000000001
 31
0
  0
LINE
  8
1
 62
7
 10
-27
 20
-47.25000000000001
 30
0
 11
-12.90000000000008
 21
-47.25000000000001
 31
0
  0
LINE
  8
1
 62
7
 10
-14.49999999999999
 20
47.25000000000001
 30
0
 11
-27
 21
47.25000000000001
 31
0
  0
LINE
  8
1
 62
7
 10
-92.45623643489205
 20
-41.4181829468336
 30
0
 11
-92.45623643489205
 21
41.41818294683357
 31
0
  0
LINE
  8
1
 62
7
 10
-94.55725694932568
 20
-24.25000000000001
 30
0
 11
-92.45623643489205
 21
-24.25000000000001
 31
0
  0
LINE
  8
1
 62
7
 10
-94.55725694932568
 20
-22.25000000000001
 30
0
 11
-92.45623643489205
 21
-22.25000000000001
 31
0
  0
LINE
  8
1
 62
7
 10
-111.5189825016983
 20
-24.25000000000001
 30
0
 11
-104.3552159204585
 21
-24.25000000000001
 31
0
  0
LINE
  8
1
 62
7
 10
-111.5189825016983
 20
-22.25000000000001
 30
0
 11
-104.3552159204585
 21
-22.25000000000001
 31
0
  0
LINE
  8
1
 62
7
 10
-134.5572569493256
 20
-24.25000000000001
 30
0
 11
-127.3934903680858
 21
-24.25000000000001
 31
0
  0
LINE
  8
1
 62
7
 10
-134.5572569493256
 20
-22.25000000000001
 30
0
 11
-127.3934903680858
 21
-22.25000000000001
 31
0
  0
LINE
  8
1
 62
7
 10
-146.4562364348919
 20
-41.4181829468336
 30
0
 11
-146.4562364348919
 21
41.41818294683357
 31
0
  0
LINE
  8
1
 62
7
 10
-146.4562364348919
 20
-24.25000000000001
 30
0
 11
-144.3552159204584
 21
-24.25000000000001
 31
0
  0
LINE
  8
1
 62
7
 10
-146.4562364348919
 20
-22.25000000000001
 30
0
 11
-144.3552159204584
 21
-22.25000000000001
 31
0
  0
LINE
  8
1
 62
7
 10
-98.45623643489205
 20
-33.25000000000001
 30
0
 11
-98.45623643489205
 21
-28.14897948556641
 31
0
  0
LINE
  8
1
 62
7
 10
-100.456236434892
 20
-33.25000000000001
 30
0
 11
-98.45623643489205
 21
-33.25000000000001
 31
0
  0
LINE
  8
1
 62
7
 10
-100.456236434892
 20
-28.14897948556641
 30
0
 11
-100.456236434892
 21
-33.25000000000001
 31
0
  0
LINE
  8
1
 62
7
 10
-98.45623643489205
 20
11.85102051443359
 30
0
 11
-98.45623643489205
 21
-18.35102051443361
 31
0
  0
LINE
  8
1
 62
7
 10
-100.456236434892
 20
11.85102051443359
 30
0
 11
-100.456236434892
 21
-18.35102051443361
 31
0
  0
LINE
  8
1
 62
7
 10
-98.45623643489205
 20
26.75000000000001
 30
0
 11
-98.45623643489205
 21
21.64897948556639
 31
0
  0
LINE
  8
1
 62
7
 10
-100.456236434892
 20
26.75000000000001
 30
0
 11
-98.45623643489205
 21
26.75000000000001
 31
0
  0
LINE
  8
1
 62
7
 10
-100.456236434892
 20
21.64897948556639
 30
0
 11
-100.456236434892
 21
26.75000000000001
 31
0
  0
LINE
  8
1
 62
7
 10
-94.55725694932568
 20
15.75000000000001
 30
0
 11
-92.45623643489205
 21
15.75000000000001
 31
0
  0
LINE
  8
1
 62
7
 10
-94.55725694932568
 20
17.75000000000001
 30
0
 11
-92.45623643489205
 21
17.75000000000001
 31
0
  0
LINE
  8
1
 62
7
 10
-134.5572569493256
 20
15.75000000000001
 30
0
 11
-116.2562364348919
 21
15.75000000000001
 31
0
  0
LINE
  8
1
 62
7
 10
-134.5572569493256
 20
17.75000000000001
 30
0
 11
-117.1014585890705
 21
17.75000000000001
 31
0
  0
LINE
  8
1
 62
7
 10
-146.4562364348919
 20
15.75000000000001
 30
0
 11
-144.3552159204584
 21
15.75000000000001
 31
0
  0
LINE
  8
1
 62
7
 10
-146.4562364348919
 20
17.75000000000001
 30
0
 11
-144.3552159204584
 21
17.75000000000001
 31
0
  0
LINE
  8
1
 62
7
 10
-138.4562364348919
 20
-33.25000000000001
 30
0
 11
-138.4562364348919
 21
-28.14897948556641
 31
0
  0
LINE
  8
1
 62
7
 10
-140.4562364348919
 20
-33.25000000000001
 30
0
 11
-138.4562364348919
 21
-33.25000000000001
 31
0
  0
LINE
  8
1
 62
7
 10
-140.4562364348919
 20
-28.14897948556641
 30
0
 11
-140.4562364348919
 21
-33.25000000000001
 31
0
  0
LINE
  8
1
 62
7
 10
-138.4562364348919
 20
11.85102051443359
 30
0
 11
-138.4562364348919
 21
-18.35102051443361
 31
0
  0
LINE
  8
1
 62
7
 10
-140.4562364348919
 20
11.85102051443359
 30
0
 11
-140.4562364348919
 21
-18.35102051443361
 31
0
  0
LINE
  8
1
 62
7
 10
-138.4562364348919
 20
26.75000000000001
 30
0
 11
-138.4562364348919
 21
21.64897948556639
 31
0
  0
LINE
  8
1
 62
7
 10
-140.4562364348919
 20
26.75000000000001
 30
0
 11
-138.4562364348919
 21
26.75000000000001
 31
0
  0
LINE
  8
1
 62
7
 10
-140.4562364348919
 20
26.75000000000001
 30
0
 11
-140.4562364348919
 21
21.64897948556639
 31
0
  0
LINE
  8
1
 62
3
 10
-119.0258674992225
 20
2.138752246048384
 30
0
 11
-102.9193234034902
 21
-3.826634456074814
 31
0
  0
LINE
  8
1
 62
7
 10
-109.8191510360983
 20
-6.069869423256691
 30
0
 11
-115.2191510360983
 21
-4.069869423256691
 31
0
  0
LINE
  8
1
 62
7
 10
-112.0933218336859
 20
4.369869423256674
 30
0
 11
-106.6933218336859
 21
2.369869423256702
 31
0
  0
LINE
  8
1
 62
3
 10
-99.45623643489205
 20
47.3593059936909
 30
0
 11
-99.45623643489205
 21
-50.25000000000001
 31
0
  0
LINE
  8
1
 62
3
 10
-139.4562364348919
 20
47.25000000000001
 30
0
 11
-139.4562364348919
 21
-50.25
 31
0
  0
LINE
  8
1
 62
3
 10
-149.4562364348919
 20
16.75000000000001
 30
0
 11
-86.45623643489205
 21
16.75000000000001
 31
0
  0
LINE
  8
1
 62
3
 10
-149.4562364348919
 20
-23.25000000000001
 30
0
 11
-86.45623643489205
 21
-23.25000000000001
 31
0
  0
LINE
  8
1
 62
3
 10
-119.456236434892
 20
51.25000000000001
 30
0
 11
-119.456236434892
 21
-51.25000000000001
 31
0
  0
LINE
  8
1
 62
3
 10
-125.456236434892
 20
31.25000000000001
 30
0
 11
-110.456236434892
 21
31.25000000000001
 31
0
  0
LINE
  8
1
 62
3
 10
-132.256236434892
 20
8.149999999999992
 30
0
 11
-119.256236434892
 21
8.149999999999992
 31
0
  0
LINE
  8
1
 62
3
 10
-125.756236434892
 20
14.64999999999999
 30
0
 11
-125.756236434892
 21
1.649999999999991
 31
0
  0
LINE
  8
1
 62
3
 10
-112.656236434892
 20
24.95
 30
0
 11
-112.656236434892
 21
11.95
 31
0
  0
LINE
  8
1
 62
3
 10
-119.156236434892
 20
18.45
 30
0
 11
-106.156236434892
 21
18.45
 31
0
  0
LINE
  8
1
 62
7
 10
-119.456236434892
 20
47.25000000000001
 30
0
 11
-145.6383256950743
 21
42.40146495181808
 31
0
  0
LINE
  8
1
 62
7
 10
-93.27414717470975
 20
42.40146495181808
 30
0
 11
-104.1615003816428
 21
44.41764147162048
 31
0
  0
LINE
  8
1
 62
7
 10
-119.456236434892
 20
-47.25000000000001
 30
0
 11
-93.27414717470975
 21
-42.40146495181811
 31
0
  0
LINE
  8
1
 62
7
 10
-145.6383256950743
 20
-42.40146495181811
 30
0
 11
-119.456236434892
 21
-47.25000000000001
 31
0
  0
LINE
  8
1
 62
7
 10
-89.45623643489205
 20
-43.25000000000001
 30
0
 11
-89.45623643489205
 21
43.25000000000001
 31
0
  0
LINE
  8
1
 62
7
 10
-145.4562364348919
 20
-47.25000000000001
 30
0
 11
-93.45623643489205
 21
-47.25000000000001
 31
0
  0
LINE
  8
1
 62
7
 10
-25
 20
47.25000000000001
 30
0
 11
-25
 21
-47.25000000000001
 31
0
  0
LINE
  8
1
 62
7
 10
-28
 20
42.25000000000001
 30
0
 11
-25
 21
42.25000000000001
 31
0
  0
LINE
  8
1
 62
7
 10
-28
 20
-42.25000000000001
 30
0
 11
-25
 21
-42.25000000000001
 31
0
  0
LINE
  8
1
 62
7
 10
0
 20
35.96016652147836
 30
0
 11
0
 21
26.53983347852169
 31
0
  0
LINE
  8
1
 62
7
 10
0
 20
34.29999999999995
 30
0
 11
1.199999999999818
 21
34.29999999999995
 31
0
  0
LINE
  8
1
 62
7
 10
1.199999999999818
 20
28.19999999999998
 30
0
 11
0
 21
28.19999999999998
 31
0
  0
LINE
  8
1
 62
7
 10
-14.49999999999999
 20
47.25000000000001
 30
0
 11
-10.29999999999991
 21
47.25000000000004
 31
0
  0
LINE
  8
1
 62
7
 10
-12.90000000000008
 20
47.25000000000001
 30
0
 11
-12.90000000000008
 21
36.6948275862069
 31
0
  0
LINE
  8
1
 62
7
 10
-12.90000000000008
 20
39.89999999999999
 30
0
 11
-10.79999999999995
 21
39.89999999999999
 31
0
  0
LINE
  8
1
 62
7
 10
-12.90000000000008
 20
20.39999999999999
 30
0
 11
-10.79999999999995
 21
20.39999999999999
 31
0
  0
LINE
  8
1
 62
7
 10
-36
 20
-28.27783407997201
 30
0
 11
-36
 21
-30.286984430369
 31
0
  0
LINE
  8
1
 62
7
 10
-36
 20
-18.2220717301165
 30
0
 11
-36
 21
-16.21301556963091
 31
0
  0
LINE
  8
1
 62
7
 10
-30
 20
-17.8680315632047
 30
0
 11
-30
 21
11.36803156320481
 31
0
  0
LINE
  8
1
 62
3
 10
-39.14881184975251
 20
16.75000000000001
 30
0
 11
-23.27019400765749
 21
16.75000000000001
 31
0
  0
LINE
  8
1
 62
7
 10
-122.1019877459566
 20
-20.25000000000001
 30
0
 11
-116.8104851238274
 21
-20.25000000000001
 31
0
  0
LINE
  8
1
 62
7
 10
157.5
 20
16.75000000000001
 30
0
 11
157.5
 21
6.750000000000014
 31
0
  0
LINE
  8
1
 62
7
 10
160
 20
16.75000000000001
 30
0
 11
160
 21
6.750000000000014
 31
0
  0
LINE
  8
1
 62
7
 10
151.2439580109853
 20
-11.8986569800288
 30
0
 11
164.0258499886097
 21
4.642614991014185
 31
0
  0
LINE
  8
1
 62
7
 10
167.1909899941781
 20
2.196824986711093
 30
0
 11
154.409098016554
 21
-14.3444469843319
 31
0
  0
LINE
  8
1
 62
7
 10
125
 20
9.250000000000014
 30
0
 11
125
 21
-10.755811097706
 31
0
  0
LINE
  8
1
 62
7
 10
127.5
 20
-10.75000000000001
 30
0
 11
127.5
 21
9.250000000000014
 31
0
  0
LINE
  8
1
 62
7
 10
126.9671116266729
 20
-21.75222368525921
 30
0
 11
132.3456909021317
 21
-22.8068470726041
 31
0
  0
LINE
  8
1
 62
7
 10
127.736769469557
 20
-17.82696868655061
 30
0
 11
133.1153487450158
 21
-18.8815920738955
 31
0
  0
LINE
  8
1
 62
7
 10
124.6468993986962
 20
-36.2963787469932
 30
0
 11
133.6425675348037
 21
-29.4173384076169
 31
0
  0
LINE
  8
1
 62
7
 10
136.0723679650869
 20
-32.59476973952572
 30
0
 11
127.0766998289794
 21
-39.47381007890199
 31
0
  0
LINE
  8
1
 62
7
 10
155.6278698074318
 20
-30.70629693217809
 30
0
 11
163.4289321881345
 21
-38.50735931288069
 31
0
  0
LINE
  8
1
 62
7
 10
166.2573593128807
 20
-35.67893218813451
 30
0
 11
158.456296932178
 21
-27.87786980743191
 31
0
  0
LINE
  8
1
 62
3
 10
116.25
 20
16.75000000000001
 30
0
 11
125.25
 21
16.75000000000001
 31
0
  0
LINE
  8
1
 62
3
 10
174
 20
-42.75000000000001
 30
0
 11
174.4160916152368
 21
-42.75000000000001
 31
0
  0
LINE
  8
1
 62
7
 10
-11.40000000000008
 20
-21.6801690413139
 30
0
 11
-11.40000000000008
 21
-30.9918669205634
 31
0
  0
LINE
  8
1
 62
7
 10
-30
 20
15.75000000000001
 30
0
 11
-30
 21
17.75000000000001
 31
0
  0
LINE
  8
1
 62
7
 10
-30
 20
-22.25000000000001
 30
0
 11
-30
 21
-24.25000000000001
 31
0
  0
LINE
  8
1
 62
7
 10
-28
 20
-17.75000000000001
 30
0
 11
-36.02773500981112
 21
-18.22376305610059
 31
0
  0
LINE
  8
1
 62
7
 10
-36.02773500981112
 20
-28.27623694389929
 30
0
 11
-28
 21
-28.7499999999999
 31
0
  0
LINE
  8
1
 62
7
 10
-36.5
 20
-18.7229932327033
 30
0
 11
-36.5
 21
-27.77700676729661
 31
0
  0
LINE
  8
1
 62
7
 10
-28
 20
-22.25000000000001
 30
0
 11
-30
 21
-22.25000000000001
 31
0
  0
LINE
  8
1
 62
7
 10
-28
 20
-24.25000000000001
 30
0
 11
-30
 21
-24.25000000000001
 31
0
  0
LINE
  8
1
 62
7
 10
-31.5
 20
11.28270459830487
 30
0
 11
-31.5
 21
5.025785323693881
 31
0
  0
LINE
  8
1
 62
2
 10
-14.49999999999999
 20
24.75000000000001
 30
0
 11
-12.90000000000008
 21
24.75000000000001
 31
0
  0
LINE
  8
1
 62
2
 10
-72.69068014033576
 20
-64.25000000000001
 30
0
 11
-22.19068014033575
 21
-64.25000000000001
 31
0
  0
LINE
  8
1
 62
3
 10
-149.4562364348919
 20
16.75000000000001
 30
0
 11
-153.4562364348919
 21
16.75000000000001
 31
0
  0
LINE
  8
1
 62
7
 10
-149.4562364348919
 20
43.25000000000001
 30
0
 11
-149.4562364348919
 21
-43.25000000000001
 31
0
  0
LINE
  8
1
 62
3
 10
-149.4562364348919
 20
-23.25000000000001
 30
0
 11
-153.4562364348919
 21
-23.25000000000001
 31
0
  0
LINE
  8
1
 62
3
 10
-99.45623643489205
 20
47.3593059936909
 30
0
 11
-99.45623643489205
 21
50.25000000000001
 31
0
  0
LINE
  8
1
 62
3
 10
-139.4562364348919
 20
47.25000000000001
 30
0
 11
-139.4562364348919
 21
50.25000000000001
 31
0
  0
LINE
  8
1
 62
7
 10
-145.4562364348919
 20
47.25000000000001
 30
0
 11
-93.45623643489205
 21
47.25000000000001
 31
0
  0
LINE
  8
1
 62
3
 10
-125.456236434892
 20
31.25000000000001
 30
0
 11
-128.456236434892
 21
31.25000000000001
 31
0
  0
LINE
  8
1
 62
7
 10
-0.2896613172481457
 20
26.24001167871558
 30
0
 11
-14.5
 21
25.74999999999999
 31
0
  0
LINE
  8
1
 62
7
 10
1.5
 20
33.99999999999999
 30
0
 11
1.5
 21
28.49999999999999
 31
0
  0
LINE
  8
1
 62
7
 10
-0.2896613172481457
 20
36.25998832128437
 30
0
 11
-14.5
 21
36.74999999999999
 31
0
  0
LINE
  8
1
 62
3
 10
127.976988059924
 20
42.74999999999999
 30
0
 11
135.28740521038
 21
42.74999999999999
 31
0
  0
LINE
  8
1
 62
3
 10
155.1129386781931
 20
42.74999999999999
 30
0
 11
161.310901044885
 21
42.74999999999999
 31
0
  0
LINE
  8
1
 62
3
 10
131.7
 20
47.24999999999999
 30
0
 11
131.7
 21
38.68331000869898
 31
0
  0
LINE
  8
1
 62
3
 10
158.3
 20
46.233079364373
 30
0
 11
158.3
 21
38.970920269867
 31
0
  0
LINE
  8
1
 62
3
 10
166
 20
9.750000000000014
 30
0
 11
175
 21
9.750000000000014
 31
0
  0
LINE
  8
1
 62
3
 10
170.5
 20
14.25000000000001
 30
0
 11
170.5
 21
5.250000000000014
 31
0
  0
LINE
  8
1
 62
3
 10
166
 20
-42.75000000000001
 30
0
 11
175
 21
-42.75000000000001
 31
0
  0
LINE
  8
1
 62
3
 10
170.5
 20
-38.25000000000001
 30
0
 11
170.5
 21
-47.25000000000001
 31
0
  0
LINE
  8
1
 62
3
 10
119.5
 20
-13.75000000000001
 30
0
 11
119.5
 21
-22.75000000000001
 31
0
  0
LINE
  8
1
 62
3
 10
115
 20
-18.25000000000001
 30
0
 11
124
 21
-18.25000000000001
 31
0
  0
LINE
  8
1
 62
7
 10
164.2867489613315
 20
18.64490568738788
 30
0
 11
162.75
 21
31.25000000000001
 31
0
  0
LINE
  8
1
 62
3
 10
111.5465326903838
 20
31.25000000000001
 30
0
 11
177.6938493032267
 21
31.25000000000001
 31
0
  0
LINE
  8
1
 62
7
 10
150.744562646538
 20
47.25000000000001
 30
0
 11
171
 21
47.25000000000001
 31
0
  0
LINE
  8
1
 62
7
 10
159.3682586059194
 20
35.55733614121489
 30
0
 11
160.0941108742501
 21
36.55733614121505
 31
0
  0
LINE
  8
1
 62
7
 10
136.691495321058
 20
22.11149532105811
 30
0
 11
139.143259273763
 21
22.11149532105811
 31
0
  0
LINE
  8
1
 62
7
 10
136.691495321058
 20
23.77149532105808
 30
0
 11
139.1166710979869
 21
23.77149532105808
 31
0
  0
LINE
  8
1
 62
7
 10
152.4785046789419
 20
39.55850467894187
 30
0
 11
152.4785046789419
 21
37.10674072710317
 31
0
  0
LINE
  8
1
 62
7
 10
154.138504678942
 20
39.55850467894187
 30
0
 11
154.138504678942
 21
37.13332890202902
 31
0
  0
LINE
  8
1
 62
7
 10
34.47348641006641
 20
29.58999999999999
 30
0
 11
34.99513688118297
 21
29.58999999999999
 31
0
  0
LINE
  8
1
 62
7
 10
30.02568800553779
 20
23.04431072902692
 30
0
 11
34.01060873981424
 21
29.27906153067711
 31
0
  0
LINE
  8
1
 62
7
 10
24.69953971201316
 20
22.11149532105811
 30
0
 11
28.63705499478139
 21
22.11149532105811
 31
0
  0
LINE
  8
1
 62
7
 10
30.02568800553779
 20
39.45568927097311
 30
0
 11
34.01060873981412
 21
33.22093846932297
 31
0
  0
LINE
  8
1
 62
7
 10
24.69953971201316
 20
40.38850467894191
 30
0
 11
28.63705499478139
 21
40.38850467894191
 31
0
  0
LINE
  8
1
 62
3
 10
151.4246693522268
 20
37.67466935222679
 30
0
 11
155.1836306635673
 21
41.43363066356729
 31
0
  0
LINE
  8
1
 62
3
 10
135.0757622789326
 20
21.32576227893277
 30
0
 11
138.2425584521848
 21
24.49255845218489
 31
0
  0
LINE
  8
1
 62
3
 10
135.5072204999255
 20
40.74277950007452
 30
0
 11
138.0448180171575
 21
38.20518198284249
 31
0
  0
LINE
  8
1
 62
3
 10
152.0406293196965
 20
24.20937068030328
 30
0
 11
154.7189918423307
 21
21.53100815766932
 31
0
  0
LINE
  8
1
 62
7
 10
37.49513688118309
 20
29.58999999999999
 30
0
 11
40.54730314389604
 21
29.58999999999999
 31
0
  0
LINE
  8
1
 62
7
 10
37.49513688118309
 20
31.25000000000001
 30
0
 11
40.54730314389604
 21
31.25000000000001
 31
0
  0
LINE
  8
1
 62
7
 10
28.71857408315604
 20
23.9710777827719
 30
0
 11
33.01352886570707
 21
30.96488219755157
 31
0
  0
LINE
  8
1
 62
7
 10
24.69953971201316
 20
23.77149532105808
 30
0
 11
28.22910264642501
 21
23.77149532105808
 31
0
  0
LINE
  8
1
 62
7
 10
33.71277377532311
 20
31.25000000000001
 30
0
 11
34.99513688118309
 21
31.25000000000001
 31
0
  0
LINE
  8
1
 62
7
 10
28.71857408315604
 20
38.52892221722801
 30
0
 11
33.01352886570707
 21
31.53511780244828
 31
0
  0
LINE
  8
1
 62
7
 10
24.69953971201316
 20
38.72850467894189
 30
0
 11
28.22910264642501
 21
38.72850467894189
 31
0
  0
LINE
  8
1
 62
7
 10
-1.309269856006452
 20
36.36379310344832
 30
0
 11
-1.309269856006452
 21
44.34999999999998
 31
0
  0
LINE
  8
1
 62
7
 10
-1.309269856006452
 20
44.34999999999998
 30
0
 11
15.69073014399354
 21
44.34999999999998
 31
0
  0
LINE
  8
1
 62
7
 10
15.69073014399354
 20
44.34999999999998
 30
0
 11
15.69073014399354
 21
18.14999999999999
 31
0
  0
LINE
  8
1
 62
7
 10
15.69073014399354
 20
18.14999999999999
 30
0
 11
-1.309269856006452
 21
18.14999999999999
 31
0
  0
LINE
  8
1
 62
7
 10
-1.309269856006452
 20
18.14999999999999
 30
0
 11
-1.309269856006452
 21
26.13620689655171
 31
0
  0
LINE
  8
1
 62
7
 10
34.99513688118309
 20
28.58206015269009
 30
0
 11
37.49513688118309
 21
28.58206015269009
 31
0
  0
LINE
  8
1
 62
7
 10
38.38502938196761
 20
33.1227155357014
 30
0
 11
38.2562113743027
 21
35.83373147786058
 31
0
  0
LINE
  8
1
 62
7
 10
37.75677487487705
 20
36.31000000000007
 30
0
 11
34.73349888748913
 21
36.31000000000007
 31
0
  0
LINE
  8
1
 62
7
 10
34.23406238806346
 20
35.83373147786058
 30
0
 11
34.10524438039845
 21
33.1227155357014
 31
0
  0
LINE
  8
1
 62
7
 10
37.49513688118309
 20
28.58206015269009
 30
0
 11
37.49513688118309
 21
32.90999999999998
 31
0
  0
LINE
  8
1
 62
7
 10
34.99513688118309
 20
32.90999999999998
 30
0
 11
34.99513688118309
 21
28.58206015269009
 31
0
  0
LINE
  8
1
 62
7
 10
40.54730314389604
 20
32.90999999999998
 30
0
 11
34.47348641006629
 21
32.90999999999998
 31
0
  0
LINE
  8
1
 62
3
 10
-106.1562364348921
 20
45.89793268284798
 30
0
 11
-106.1562364348921
 21
39.23958352937179
 31
0
  0
LINE
  8
1
 62
3
 10
-103.0988973796969
 20
42.75000000000007
 30
0
 11
-109.300674019792
 21
42.75000000000007
 31
0
  0
LINE
  8
1
 62
7
 10
53.79502301389805
 20
31.25000000000001
 30
0
 11
84.2969945487469
 21
31.25000000000001
 31
0
  0
LINE
  8
1
 62
7
 10
-36.49999999999996
 20
21.27700676729667
 30
0
 11
-36.49999999999996
 21
12.22299323270342
 31
0
  0
LINE
  8
1
 62
7
 10
24.69953971201316
 20
48.25000000000001
 30
0
 11
24.69953971201316
 21
14.25000000000001
 31
0
  0
LINE
  8
1
 62
7
 10
159.942920471376
 20
32.55733614121489
 30
0
 11
160.9970479931862
 21
31.55733614121489
 31
0
  0
LINE
  8
1
 62
7
 10
129.0029520068137
 20
30.94266385878508
 30
0
 11
130.0570795286237
 21
29.94266385878508
 31
0
  0
LINE
  8
1
 62
7
 10
130.6317413940801
 20
26.94266385878508
 30
0
 11
129.9058891257498
 21
25.94266385878508
 31
0
  0
LINE
  8
1
 62
7
 10
-10.29999999999991
 20
36.60581171420741
 30
0
 11
-10.29999999999991
 21
47.25000000000004
 31
0
  0
LINE
  8
1
 62
3
 10
-35.83466636605456
 20
31.25000000000001
 30
0
 11
29.79408929416608
 21
31.25000000000001
 31
0
  0
LINE
  8
1
 62
7
 10
-8.799999999999912
 20
14.25000000000001
 30
0
 11
24.69953971201316
 21
14.25000000000001
 31
0
  0
LINE
  8
1
 62
7
 10
-8.799999999999912
 20
48.25000000000001
 30
0
 11
24.69953971201316
 21
48.25000000000001
 31
0
  0
LINE
  8
1
 62
7
 10
84.2969945487469
 20
32.90999999999998
 30
0
 11
84.2969945487469
 21
29.58999999999999
 31
0
  0
LINE
  8
1
 62
7
 10
84.2969945487469
 20
32.34999999999998
 30
0
 11
87.2969945487469
 21
32.34999999999998
 31
0
  0
LINE
  8
1
 62
7
 10
84.2969945487469
 20
31.64999999999999
 30
0
 11
87.2969945487469
 21
31.64999999999999
 31
0
  0
LINE
  8
1
 62
7
 10
84.2969945487469
 20
30.84999999999998
 30
0
 11
87.2969945487469
 21
30.84999999999998
 31
0
  0
LINE
  8
1
 62
7
 10
84.2969945487469
 20
30.14999999999999
 30
0
 11
87.2969945487469
 21
30.14999999999999
 31
0
  0
LINE
  8
1
 62
7
 10
-10.29999999999991
 20
15.75000000000001
 30
0
 11
-10.29999999999991
 21
25.89418828579268
 31
0
  0
LINE
  8
1
 62
7
 10
53.79502301389805
 20
32.90999999999998
 30
0
 11
84.2969945487469
 21
32.90999999999998
 31
0
  0
LINE
  8
1
 62
7
 10
53.79502301389805
 20
29.58999999999999
 30
0
 11
84.2969945487469
 21
29.58999999999999
 31
0
  0
LINE
  8
1
 62
7
 10
25.54465692424849
 20
35.46505948911438
 30
0
 11
24.69953971201316
 21
35.85639923337642
 31
0
  0
LINE
  8
1
 62
7
 10
26.29953971201319
 20
28.00443396226412
 30
0
 11
26.29953971201319
 21
34.49556603773591
 31
0
  0
LINE
  8
1
 62
7
 10
25.54465692424849
 20
27.03494051088548
 30
0
 11
24.69953971201316
 21
26.64360076662361
 31
0
  0
LINE
  8
1
 62
2
 10
44.60924009025204
 20
59.25000000000001
 30
0
 11
104.1530175416557
 21
59.25000000000001
 31
0
  0
ARC
  8
1
 62
7
 10
-9.425000000000061
 20
-42.75000000000001
 30
0
 40
0.9250000000001039
 50
161.0753555839507
 51
198.9246444160485
  0
ARC
  8
1
 62
7
 10
-18.29492957746492
 20
-42.76521753674309
 30
0
 40
8.000000000000034
 50
338.4952052003295
 51
357.9599648354466
  0
ARC
  8
1
 62
7
 10
-18.29492957746492
 20
-42.73478246325699
 30
0
 40
7.999999999999964
 50
2.040035164553977
 51
21.50479479967101
  0
ARC
  8
1
 62
7
 10
-9.425000000000061
 20
-18.25000000000001
 30
0
 40
0.9250000000001062
 50
161.0753555839503
 51
198.9246444160485
  0
ARC
  8
1
 62
7
 10
-18.29492957746492
 20
-18.26521753674309
 30
0
 40
8.000000000000034
 50
338.4952052003295
 51
357.9599648354466
  0
ARC
  8
1
 62
7
 10
-18.29492957746492
 20
-18.23478246325699
 30
0
 40
7.999999999999964
 50
2.040035164554003
 51
21.50479479967101
  0
ARC
  8
1
 62
7
 10
-9.425000000000061
 20
9.750000000000014
 30
0
 40
0.9249999999999842
 50
161.0753555839513
 51
198.9246444160519
  0
ARC
  8
1
 62
7
 10
-18.29492957746492
 20
9.734782463256877
 30
0
 40
8.000000000000023
 50
338.4952052003297
 51
357.9599648354469
  0
ARC
  8
1
 62
7
 10
-18.29492957746492
 20
9.765217536742981
 30
0
 40
8.000000000000073
 50
2.040035164553961
 51
21.504794799671
  0
ARC
  8
1
 62
7
 10
-9.425000000000061
 20
16.75000000000001
 30
0
 40
0.925000000000089
 50
161.0753555839534
 51
198.9246444160497
  0
ARC
  8
1
 62
7
 10
-18.29492957746492
 20
16.73478246325688
 30
0
 40
8.000000000000025
 50
338.4952052003297
 51
357.9599648354467
  0
ARC
  8
1
 62
7
 10
-18.29492957746492
 20
16.76521753674298
 30
0
 40
7.999999999999964
 50
2.040035164553977
 51
21.50479479967101
  0
ARC
  8
1
 62
7
 10
145
 20
-23.25000000000001
 30
0
 40
7.800000000000038
 50
138.2523439171434
 51
276.9995818175419
  0
ARC
  8
1
 62
7
 10
145
 20
-23.25000000000001
 30
0
 40
7.799999999999843
 50
318.2523439171416
 51
96.99958181754271
  0
ARC
  8
1
 62
7
 10
145
 20
-23.25000000000001
 30
0
 40
6.500000000000133
 50
140.2458278153837
 51
275.0060979193
  0
ARC
  8
1
 62
7
 10
145
 20
-23.25000000000001
 30
0
 40
6.499999999999819
 50
320.2458278153803
 51
95.00609791930431
  0
ARC
  8
1
 62
7
 10
169.25
 20
19.25000000000001
 30
0
 40
4.999999999999939
 50
186.9509076652039
 51
270
  0
ARC
  8
1
 62
7
 10
-108.256236434892
 20
-1.850000000000009
 30
0
 40
4.50000000000006
 50
249.6768631703356
 51
69.6768631703381
  0
ARC
  8
1
 62
7
 10
-113.656236434892
 20
0.1499999999999915
 30
0
 40
4.499999999999986
 50
69.67686317033814
 51
249.6768631703356
  0
ARC
  8
1
 62
7
 10
158.75
 20
7.031250000000014
 30
0
 40
1.28125
 50
192.6803834918198
 51
347.3196165081802
  0
ARC
  8
1
 62
7
 10
158.75
 20
16.46875000000001
 30
0
 40
1.28125
 50
12.68038349181982
 51
167.3196165081802
  0
ARC
  8
1
 62
7
 10
126.2493376133996
 20
-10.46793933682791
 30
0
 40
1.282074343774989
 50
192.9755909515071
 51
347.2907696670898
  0
ARC
  8
1
 62
7
 10
126.25
 20
8.97289613913479
 30
0
 40
1.280346261644253
 50
12.49936792538156
 51
167.5006320746185
  0
ARC
  8
1
 62
7
 10
131.7
 20
42.74999999999999
 30
0
 40
2.300000000000016
 50
30.8254486064992
 51
247.4771219263434
  0
ARC
  8
1
 62
7
 10
138.2
 20
16.75
 30
0
 40
1.500000000000537
 50
193.9114582810324
 51
295.838626088404
  0
ARC
  8
1
 62
7
 10
158.3
 20
42.74999999999999
 30
0
 40
1.499999999999998
 50
285.7310845793643
 51
0
  0
ARC
  8
1
 62
7
 10
158.3
 20
42.74999999999999
 30
0
 40
1.5
 50
0
 51
155.9663448877936
  0
ARC
  8
1
 62
7
 10
136.691495321058
 20
22.9414953210581
 30
0
 40
1.49999999999977
 50
33.59599548152094
 51
326.4040045184788
  0
ARC
  8
1
 62
7
 10
136.691495321058
 20
22.9414953210581
 30
0
 40
0.8299999999999805
 50
90
 51
270
  0
ARC
  8
1
 62
7
 10
153.308504678942
 20
39.55850467894187
 30
0
 40
0.8300000000000125
 50
0
 51
180
  0
ARC
  8
1
 62
7
 10
153.308504678942
 20
39.55850467894187
 30
0
 40
1.500000000000001
 50
303.5959954815165
 51
236.4040045184784
  0
ARC
  8
1
 62
3
 10
145.0000000000018
 20
31.2499999999966
 30
0
 40
11.75000000000404
 50
125.5304748934445
 51
145.0358580471549
  0
ARC
  8
1
 62
3
 10
145.0000000000027
 20
31.25000000000297
 30
0
 40
11.75000000000414
 50
214.5750951658359
 51
237.982622513817
  0
ARC
  8
1
 62
3
 10
144.9999999999991
 20
31.25000000000138
 30
0
 40
11.7500000000015
 50
306.4656623470249
 51
324.5585821053725
  0
ARC
  8
1
 62
3
 10
145
 20
31.25000000000001
 30
0
 40
11.74999999999995
 50
31.50579932768044
 51
55.8811874311825
  0
ARC
  8
1
 62
7
 10
-119.456236434892
 20
31.25000000000001
 30
0
 40
17.00000000000007
 50
32.44358033691593
 51
49.25384913024112
  0
ARC
  8
1
 62
7
 10
144.9999999999959
 20
31.24999999999928
 30
0
 40
15.00000000000396
 50
5.000000000001509
 51
16.68775087494233
  0
ARC
  8
1
 62
7
 10
144.9999999999929
 20
31.24999999999859
 30
0
 40
14.99999999999293
 50
184.9999999999971
 51
196.6877508749464
  0
ARC
  8
1
 62
7
 10
-119.456236434892
 20
31.25000000000001
 30
0
 40
17.00000000000002
 50
70.25007720435721
 51
109.7499227956425
  0
CIRCLE
  8
1
 62
2
 10
-139.4562364348919
 20
-23.25000000000001
 30
0
 40
2
  0
CIRCLE
  8
1
 62
7
 10
169.25
 20
19.25000000000001
 30
0
 40
3.5
  0
CIRCLE
  8
1
 62
7
 10
169.25
 20
19.25000000000001
 30
0
 40
1.899999999999807
  0
CIRCLE
  8
1
 62
7
 10
169.25
 20
31.25000000000001
 30
0
 40
1.75
  0
CIRCLE
  8
1
 62
7
 10
120.75
 20
31.25000000000001
 30
0
 40
1.75
  0
CIRCLE
  8
1
 62
7
 10
169.25
 20
31.25000000000001
 30
0
 40
5
  0
CIRCLE
  8
1
 62
7
 10
120.75
 20
31.25000000000001
 30
0
 40
5
  0
CIRCLE
  8
1
 62
7
 10
169.25
 20
31.25000000000001
 30
0
 40
3.549999999999699
  0
CIRCLE
  8
1
 62
7
 10
120.75
 20
31.25000000000001
 30
0
 40
3.549999999999699
  0
CIRCLE
  8
1
 62
7
 10
169.25
 20
31.25000000000001
 30
0
 40
3.049999999999699
  0
CIRCLE
  8
1
 62
7
 10
120.75
 20
31.25000000000001
 30
0
 40
3.049999999999699
  0
CIRCLE
  8
1
 62
7
 10
133.7999999999997
 20
-1.850000000000009
 30
0
 40
1.5
  0
CIRCLE
  8
1
 62
7
 10
138.1999999999998
 20
0.2199999999999847
 30
0
 40
1.5
  0
CIRCLE
  8
1
 62
7
 10
151.2999999999997
 20
8.149999999999992
 30
0
 40
1.5
  0
CIRCLE
  8
1
 62
7
 10
119.5
 20
-42.75000000000001
 30
0
 40
1.5
  0
CIRCLE
  8
1
 62
7
 10
145
 20
-23.25000000000001
 30
0
 40
4
  0
CIRCLE
  8
1
 62
7
 10
-125.756236434892
 20
8.149999999999992
 30
0
 40
4.5
  0
CIRCLE
  8
1
 62
7
 10
-112.656236434892
 20
18.45
 30
0
 40
4.5
  0
CIRCLE
  8
1
 62
7
 10
-99.45623643489205
 20
16.75000000000001
 30
0
 40
1.399999999999977
  0
CIRCLE
  8
1
 62
2
 10
-99.45623643489205
 20
16.75000000000001
 30
0
 40
2
  0
CIRCLE
  8
1
 62
7
 10
-99.45623643489205
 20
-23.25000000000001
 30
0
 40
1.399999999999977
  0
CIRCLE
  8
1
 62
7
 10
-139.4562364348919
 20
-23.25000000000001
 30
0
 40
1.400000000000205
  0
CIRCLE
  8
1
 62
2
 10
-99.45623643489205
 20
-23.25000000000001
 30
0
 40
1.999999999999957
  0
CIRCLE
  8
1
 62
7
 10
-139.4562364348919
 20
16.75000000000001
 30
0
 40
1.400000000000205
  0
CIRCLE
  8
1
 62
2
 10
-139.4562364348919
 20
16.75000000000001
 30
0
 40
2
  0
CIRCLE
  8
1
 62
7
 10
-119.456236434892
 20
-23.25000000000001
 30
0
 40
5.5
  0
CIRCLE
  8
1
 62
7
 10
-119.456236434892
 20
31.25000000000001
 30
0
 40
6
  0
CIRCLE
  8
1
 62
7
 10
120.75
 20
16.75000000000001
 30
0
 40
3.5
  0
CIRCLE
  8
1
 62
7
 10
170.5
 20
9.750000000000014
 30
0
 40
3.5
  0
CIRCLE
  8
1
 62
7
 10
119.5
 20
-18.25000000000001
 30
0
 40
3.5
  0
CIRCLE
  8
1
 62
7
 10
170.5
 20
-42.75000000000001
 30
0
 40
3.5
  0
CIRCLE
  8
1
 62
7
 10
-99.45623643489205
 20
-23.25000000000001
 30
0
 40
5.000000000000114
  0
CIRCLE
  8
1
 62
7
 10
-119.456236434892
 20
-23.25000000000001
 30
0
 40
8
  0
CIRCLE
  8
1
 62
7
 10
-119.456236434892
 20
-23.25000000000001
 30
0
 40
4
  0
CIRCLE
  8
1
 62
7
 10
-139.4562364348919
 20
-23.25000000000001
 30
0
 40
5
  0
CIRCLE
  8
1
 62
7
 10
-99.45623643489205
 20
16.75000000000001
 30
0
 40
5.000000000000114
  0
CIRCLE
  8
1
 62
7
 10
-139.4562364348919
 20
16.75000000000001
 30
0
 40
5
  0
CIRCLE
  8
1
 62
7
 10
169.25
 20
31.25000000000001
 30
0
 40
5.500000000000019
  0
CIRCLE
  8
1
 62
7
 10
169.25
 20
19.25000000000001
 30
0
 40
4
  0
CIRCLE
  8
1
 62
7
 10
120.75
 20
31.25000000000001
 30
0
 40
5.5
  0
CIRCLE
  8
1
 62
7
 10
136.691495321058
 20
39.55850467894187
 30
0
 40
1.000000000000045
  0
CIRCLE
  8
1
 62
7
 10
153.308504678942
 20
22.94149532105821
 30
0
 40
1.000000000000018
  0
CIRCLE
  8
1
 62
7
 10
-106.1562364348921
 20
42.75000000000007
 30
0
 40
2.599999999999994
  0
CIRCLE
  8
1
 62
7
 10
145
 20
31.25000000000001
 30
0
 40
17
  0
CIRCLE
  8
1
 62
7
 10
145
 20
31.25000000000001
 30
0
 40
1
  0
CIRCLE
  8
1
 62
7
 10
145
 20
31.25000000000001
 30
0
 40
1.5
  0
CIRCLE
  8
1
 62
7
 10
145
 20
31.25000000000001
 30
0
 40
5
  0
CIRCLE
  8
1
 62
7
 10
145
 20
31.25000000000001
 30
0
 40
16
  0
POLYLINE
  8
1
 62
2
 66
1
  0
VERTEX
  8
1
 10
139.2310031260689
 20
21.95666482117272
 30
0
 42
-0.003029259463178469
  0
VERTEX
  8
1
 10
139.2021486358331
 20
22.00301160322661
 30
0
 42
-0.009295256952084998
  0
VERTEX
  8
1
 10
139.174749516656
 20
22.04952405488761
 30
0
 42
-0.01615836029158079
  0
VERTEX
  8
1
 10
139.1502611395963
 20
22.09636784576284
 30
0
 42
-0.02388695630858705
  0
VERTEX
  8
1
 10
139.1301388757127
 20
22.1437086454594
 30
0
 42
-0.03239089993713807
  0
VERTEX
  8
1
 10
139.1158380960638
 20
22.19171212358441
 30
0
 42
-0.0846501203316796
  0
VERTEX
  8
1
 10
139.1103422162888
 20
22.32865887621839
 30
0
 42
-0.04413284591493936
  0
VERTEX
  8
1
 10
139.1414284950354
 20
22.47007473803438
 30
0
 42
-0.01108135967779752
  0
VERTEX
  8
1
 10
139.1898098753543
 20
22.61406904424372
 30
0
 42
0.01810236028224595
  0
VERTEX
  8
1
 10
139.2361993002963
 20
22.75875113005775
 30
0
 42
0.05045145884020064
  0
VERTEX
  8
1
 10
139.2613097129118
 20
22.90223033068781
 30
0
 42
0.04232233621306492
  0
VERTEX
  8
1
 10
139.2604406037956
 20
22.97372629003674
 30
0
 42
0.01984777916935658
  0
VERTEX
  8
1
 10
139.2506779023292
 20
23.0448348066632
 30
0
 42
0.03063717158846079
  0
VERTEX
  8
1
 10
139.2334700428417
 20
23.11595711609041
 30
0
 42
0.007510884164338129
  0
VERTEX
  8
1
 10
139.2102654596619
 20
23.18749445384158
 30
0
 42
0.01879300864572567
  0
VERTEX
  8
1
 10
139.1825125871188
 20
23.2598480554399
 30
0
 42
0.002259050056809801
  0
VERTEX
  8
1
 10
139.1455978754429
 20
23.34858099613559
 30
0
 42
-0.01159081285230885
  0
VERTEX
  8
1
 10
139.1104956817507
 20
23.43754122826801
 30
0
 42
-0.02783487577105044
  0
VERTEX
  8
1
 10
139.0835466043699
 20
23.52517759398953
 30
0
 42
-0.04946532788459006
  0
VERTEX
  8
1
 10
139.0710912416278
 20
23.60993893545252
 30
0
 42
-0.0755729482330042
  0
VERTEX
  8
1
 10
139.0794701918518
 20
23.69027409480933
 30
0
 42
-0.05491221948057728
  0
VERTEX
  8
1
 10
139.1012167198367
 20
23.74492404274965
 30
0
 42
-0.03872474018294758
  0
VERTEX
  8
1
 10
139.1343271832714
 20
23.79707440183527
 30
0
 42
-0.02477074001758271
  0
VERTEX
  8
1
 10
139.1759605982934
 20
23.84735006927987
 30
0
 42
-0.01364045017649044
  0
VERTEX
  8
1
 10
139.2232759810404
 20
23.89637594229712
 30
0
 42
-0.004344365109405248
  0
VERTEX
  8
1
 10
139.2734323476499
 20
23.9447769181007
 30
0
  0
SEQEND
  8
1
  0
POLYLINE
  8
1
 62
2
 66
1
  0
VERTEX
  8
1
 10
40.54730314389604
 20
32.90999999999998
 30
0
 42
0.004627892300635113
  0
VERTEX
  8
1
 10
40.43517603149977
 20
32.7416162201988
 30
0
 42
0.01432161089923228
  0
VERTEX
  8
1
 10
40.33192182622936
 20
32.57304402115221
 30
0
 42
0.02620784398769798
  0
VERTEX
  8
1
 10
40.24641343521071
 20
32.40409498361481
 30
0
 42
0.04090712517604818
  0
VERTEX
  8
1
 10
40.18752376556968
 20
32.2345806883412
 30
0
 42
0.05807845058507416
  0
VERTEX
  8
1
 10
40.16412572443215
 20
32.06431271608598
 30
0
 42
0.06215230223743672
  0
VERTEX
  8
1
 10
40.18135733196078
 20
31.89859265971602
 30
0
 42
0.04094631376551127
  0
VERTEX
  8
1
 10
40.23428194892605
 20
31.73314439371364
 30
0
 42
0.03762017696369853
  0
VERTEX
  8
1
 10
40.31690850407341
 20
31.56912488428764
 30
0
 42
0.02031018658725883
  0
VERTEX
  8
1
 10
40.42324592614826
 20
31.40769109764683
 30
0
 42
0.02175284297840383
  0
VERTEX
  8
1
 10
40.54730314389604
 20
31.25000000000001
 30
0
 42
0.005899236995627374
  0
VERTEX
  8
1
 10
40.69147612594833
 20
31.08624207193616
 30
0
 42
-0.006290958371873902
  0
VERTEX
  8
1
 10
40.83345317370088
 20
30.92646288339156
 30
0
 42
-0.02391488501228936
  0
VERTEX
  8
1
 10
40.95761402821029
 20
30.76903318449647
 30
0
 42
-0.04938818170599205
  0
VERTEX
  8
1
 10
41.04833843053318
 20
30.6123237253812
 30
0
 42
-0.08501367003321521
  0
VERTEX
  8
1
 10
41.09000612172614
 20
30.45470525617601
 30
0
 42
-0.09457323444284131
  0
VERTEX
  8
1
 10
41.06872450708403
 20
30.28518870020004
 30
0
 42
-0.0599675666568831
  0
VERTEX
  8
1
 10
40.98927023849263
 20
30.11338914738457
 30
0
 42
-0.03390202050799699
  0
VERTEX
  8
1
 10
40.86618647943929
 20
29.9398773469395
 30
0
 42
-0.01714841413816366
  0
VERTEX
  8
1
 10
40.71401639341133
 20
29.76522404807468
 30
0
 42
-0.005242237567695718
  0
VERTEX
  8
1
 10
40.54730314389604
 20
29.58999999999999
 30
0
  0
SEQEND
  8
1
  0
POLYLINE
  8
1
 62
2
 66
1
  0
VERTEX
  8
1
 10
152.3236741790565
 20
37.01899687393099
 30
0
 42
-0.00302925946243514
  0
VERTEX
  8
1
 10
152.3700209611104
 20
37.04785136416678
 30
0
 42
-0.009295256951208817
  0
VERTEX
  8
1
 10
152.4165334127714
 20
37.07525048334387
 30
0
 42
-0.01615836029128247
  0
VERTEX
  8
1
 10
152.4633772036466
 20
37.09973886040358
 30
0
 42
-0.02388695630811357
  0
VERTEX
  8
1
 10
152.5107180033432
 20
37.11986112428718
 30
0
 42
-0.03239089993756911
  0
VERTEX
  8
1
 10
152.5587214814682
 20
37.134161903936
 30
0
 42
-0.08465012033177642
  0
VERTEX
  8
1
 10
152.6956682341022
 20
37.13965778371107
 30
0
 42
-0.04413284591456249
  0
VERTEX
  8
1
 10
152.8370840959182
 20
37.10857150496442
 30
0
 42
-0.01108135967772535
  0
VERTEX
  8
1
 10
152.9810784021275
 20
37.06019012464546
 30
0
 42
0.01810236028220669
  0
VERTEX
  8
1
 10
153.1257604879415
 20
37.01380069970353
 30
0
 42
0.05045145884022206
  0
VERTEX
  8
1
 10
153.2692396885716
 20
36.988690287088
 30
0
 42
0.04232233621313727
  0
VERTEX
  8
1
 10
153.3407356479205
 20
36.98955939620421
 30
0
 42
0.01984777916918182
  0
VERTEX
  8
1
 10
153.411844164547
 20
36.99932209767058
 30
0
 42
0.03063717158869938
  0
VERTEX
  8
1
 10
153.4829664739742
 20
37.01652995715816
 30
0
 42
0.007510884163988333
  0
VERTEX
  8
1
 10
153.5545038117254
 20
37.03973454033796
 30
0
 42
0.01879300864611416
  0
VERTEX
  8
1
 10
153.6268574133237
 20
37.06748741288102
 30
0
 42
0.002259050056905447
  0
VERTEX
  8
1
 10
153.7155903540194
 20
37.10440212455694
 30
0
 42
-0.01159081285311048
  0
VERTEX
  8
1
 10
153.8045505861518
 20
37.13950431824905
 30
0
 42
-0.02783487577106158
  0
VERTEX
  8
1
 10
153.8921869518733
 20
37.16645339562992
 30
0
 42
-0.04946532788456567
  0
VERTEX
  8
1
 10
153.9769482933363
 20
37.17890875837205
 30
0
 42
-0.07557294823287289
  0
VERTEX
  8
1
 10
154.0572834526931
 20
37.170529808148
 30
0
 42
-0.05491221948048196
  0
VERTEX
  8
1
 10
154.1119334006334
 20
37.14878328016317
 30
0
 42
-0.03872474018255886
  0
VERTEX
  8
1
 10
154.1640837597191
 20
37.11567281672849
 30
0
 42
-0.02477074001677975
  0
VERTEX
  8
1
 10
154.2143594271637
 20
37.07403940170642
 30
0
 42
-0.01364045017654019
  0
VERTEX
  8
1
 10
154.2633853001809
 20
37.02672401895943
 30
0
 42
-0.00434436510951172
  0
VERTEX
  8
1
 10
154.3117862759845
 20
36.97656765234997
 30
0
  0
SEQEND
  8
1
  0
POLYLINE
  8
1
 62
2
 66
1
  0
VERTEX
  8
1
 10
53.79502301389805
 20
32.90999999999998
 30
0
 42
0.004627892300635113
  0
VERTEX
  8
1
 10
53.68289590150178
 20
32.7416162201988
 30
0
 42
0.01432161089923228
  0
VERTEX
  8
1
 10
53.57964169623138
 20
32.57304402115221
 30
0
 42
0.02620784398768109
  0
VERTEX
  8
1
 10
53.49413330521272
 20
32.40409498361481
 30
0
 42
0.04090712517610023
  0
VERTEX
  8
1
 10
53.4352436355717
 20
32.2345806883412
 30
0
 42
0.05807845058500487
  0
VERTEX
  8
1
 10
53.41184559443416
 20
32.06431271608598
 30
0
 42
0.06215230223750715
  0
VERTEX
  8
1
 10
53.4290772019628
 20
31.89859265971602
 30
0
 42
0.04094631376543734
  0
VERTEX
  8
1
 10
53.48200181892807
 20
31.73314439371364
 30
0
 42
0.03762017696377802
  0
VERTEX
  8
1
 10
53.56462837407543
 20
31.56912488428765
 30
0
 42
0.02031018658717425
  0
VERTEX
  8
1
 10
53.67096579615028
 20
31.40769109764684
 30
0
 42
0.02175284297848278
  0
VERTEX
  8
1
 10
53.79502301389805
 20
31.25000000000001
 30
0
 42
0.005899236995541635
  0
VERTEX
  8
1
 10
53.93919599595034
 20
31.08624207193616
 30
0
 42
-0.00629095837190621
  0
VERTEX
  8
1
 10
54.0811730437029
 20
30.92646288339155
 30
0
 42
-0.0239148850122917
  0
VERTEX
  8
1
 10
54.20533389821232
 20
30.76903318449647
 30
0
 42
-0.04938818170595087
  0
VERTEX
  8
1
 10
54.29605830053521
 20
30.6123237253812
 30
0
 42
-0.08501367003327481
  0
VERTEX
  8
1
 10
54.33772599172818
 20
30.45470525617601
 30
0
 42
-0.09457323444292162
  0
VERTEX
  8
1
 10
54.31644437708606
 20
30.28518870020004
 30
0
 42
-0.05996756665687886
  0
VERTEX
  8
1
 10
54.23699010849467
 20
30.11338914738457
 30
0
 42
-0.03390202050796954
  0
VERTEX
  8
1
 10
54.11390634944132
 20
29.9398773469395
 30
0
 42
-0.01714841413814056
  0
VERTEX
  8
1
 10
53.96173626341335
 20
29.76522404807468
 30
0
 42
-0.005242237567674402
  0
VERTEX
  8
1
 10
53.79502301389805
 20
29.58999999999999
 30
0
  0
SEQEND
  8
1
  0
ARC
  8
1
 62
7
 10
-10.80000000000017
 20
20.89999999999998
 30
0
 40
0.4999999999999893
 50
270.0000000000252
 51
0
  0
ARC
  8
1
 62
7
 10
-36
 20
21.27700676729661
 30
0
 40
0.5000000000000926
 50
93.17983011986011
 51
180
  0
ARC
  8
1
 62
7
 10
-36
 20
12.22299323270342
 30
0
 40
0.4999999999999574
 50
180
 51
266.8201698801388
  0
ARC
  8
1
 62
7
 10
-30.5
 20
21.58270459830489
 30
0
 40
0.9999999999999589
 50
98.13010235415466
 51
152.1220809242138
  0
ARC
  8
1
 62
7
 10
-12.80000000000017
 20
-39.35000000000001
 30
0
 40
0.1000000000000249
 50
84.99999999999349
 51
180
  0
ARC
  8
1
 62
7
 10
-12.80000000000017
 20
-46.14999999999999
 30
0
 40
0.09999999999991083
 50
180
 51
275.0000000000051
  0
ARC
  8
1
 62
7
 10
-11.59614394027721
 20
-45.40458696655161
 30
0
 40
0.7999999999999961
 50
272.1313517246148
 51
338.4952052003327
  0
ARC
  8
1
 62
7
 10
-11.59614394027721
 20
-40.09541303344839
 30
0
 40
0.800000000000026
 50
21.50479479966728
 51
87.86864827538516
  0
ARC
  8
1
 62
7
 10
-12.80000000000017
 20
-14.85000000000001
 30
0
 40
0.1000000000000266
 50
84.99999999999358
 51
180
  0
ARC
  8
1
 62
7
 10
-12.80000000000017
 20
-21.64999999999999
 30
0
 40
0.09999999999991083
 50
180
 51
275.0000000000051
  0
ARC
  8
1
 62
7
 10
-11.59614394027721
 20
-20.90458696655161
 30
0
 40
0.7999999999999961
 50
272.1313517246148
 51
338.4952052003325
  0
ARC
  8
1
 62
7
 10
-11.59614394027721
 20
-15.59541303344839
 30
0
 40
0.8000000000000268
 50
21.5047947996674
 51
87.86864827538516
  0
ARC
  8
1
 62
7
 10
-12.80000000000017
 20
13.14999999999999
 30
0
 40
0.1000000000000567
 50
84.99999999999508
 51
180
  0
ARC
  8
1
 62
7
 10
-12.80000000000017
 20
6.34999999999998
 30
0
 40
0.09999999999991083
 50
180
 51
275.000000000008
  0
ARC
  8
1
 62
7
 10
-11.59614394027709
 20
7.095413033448395
 30
0
 40
0.7999999999999906
 50
272.1313517246061
 51
338.4952052003291
  0
ARC
  8
1
 62
7
 10
-11.59614394027709
 20
12.40458696655158
 30
0
 40
0.7999999999999143
 50
21.50479479967057
 51
87.8686482753939
  0
ARC
  8
1
 62
7
 10
-12.80000000000017
 20
20.14999999999999
 30
0
 40
0.1000000000000532
 50
84.9999999999949
 51
180
  0
ARC
  8
1
 62
7
 10
-12.80000000000017
 20
13.34999999999998
 30
0
 40
0.09999999999991083
 50
180
 51
275.000000000008
  0
ARC
  8
1
 62
7
 10
-11.59614394027721
 20
14.09541303344839
 30
0
 40
0.7999999999999961
 50
272.1313517246148
 51
338.4952052003326
  0
ARC
  8
1
 62
7
 10
-11.59614394027721
 20
19.40458696655158
 30
0
 40
0.8000000000000274
 50
21.50479479966752
 51
87.86864827538524
  0
ARC
  8
1
 62
7
 10
172.6999999999999
 20
-42.45
 30
0
 40
0.09999999999999432
 50
0
 51
90
  0
ARC
  8
1
 62
7
 10
172.6999999999999
 20
-43.05
 30
0
 40
0.09999999999999432
 50
270
 51
0
  0
ARC
  8
1
 62
7
 10
170.7999999999999
 20
-44.95
 30
0
 40
0.09999999999999432
 50
270
 51
0
  0
ARC
  8
1
 62
7
 10
170.2
 20
-44.95
 30
0
 40
0.09999999999999432
 50
180
 51
270
  0
ARC
  8
1
 62
7
 10
168.3000000000001
 20
-43.05
 30
0
 40
0.100000000000108
 50
180
 51
270
  0
ARC
  8
1
 62
7
 10
168.3000000000001
 20
-42.45
 30
0
 40
0.09999999999999432
 50
90
 51
180
  0
ARC
  8
1
 62
7
 10
170.7999999999999
 20
-40.55
 30
0
 40
0.100000000000108
 50
0
 51
90
  0
ARC
  8
1
 62
7
 10
170.2
 20
-40.55
 30
0
 40
0.09999999999999432
 50
90
 51
180
  0
ARC
  8
1
 62
7
 10
172.1
 20
-44.35000000000001
 30
0
 40
1.200000000000017
 50
90
 51
180
  0
ARC
  8
1
 62
7
 10
168.9
 20
-44.35000000000001
 30
0
 40
1.199999999999989
 50
0
 51
90
  0
ARC
  8
1
 62
7
 10
172.1
 20
-41.14999999999999
 30
0
 40
1.199999999999989
 50
180
 51
270
  0
ARC
  8
1
 62
7
 10
168.9
 20
-41.14999999999999
 30
0
 40
1.200000000000017
 50
270
 51
0
  0
ARC
  8
1
 62
7
 10
121.6999999999999
 20
-17.95
 30
0
 40
0.09999999999999432
 50
0
 51
90
  0
ARC
  8
1
 62
7
 10
121.6999999999999
 20
-18.55
 30
0
 40
0.09999999999999076
 50
270
 51
0
  0
ARC
  8
1
 62
7
 10
119.7999999999999
 20
-20.45
 30
0
 40
0.1000000000000014
 50
270
 51
0
  0
ARC
  8
1
 62
7
 10
119.2
 20
-20.45
 30
0
 40
0.1000000000000085
 50
180
 51
270
  0
ARC
  8
1
 62
7
 10
117.3000000000001
 20
-18.55
 30
0
 40
0.1000000000000938
 50
180
 51
270
  0
ARC
  8
1
 62
7
 10
117.3000000000001
 20
-17.95
 30
0
 40
0.09999999999999076
 50
90
 51
180
  0
ARC
  8
1
 62
7
 10
119.7999999999999
 20
-16.05
 30
0
 40
0.100000000000108
 50
0
 51
90
  0
ARC
  8
1
 62
7
 10
119.2
 20
-16.05
 30
0
 40
0.1000000000000014
 50
90
 51
180
  0
ARC
  8
1
 62
7
 10
121.1
 20
-19.85000000000001
 30
0
 40
1.200000000000017
 50
90
 51
180
  0
ARC
  8
1
 62
7
 10
117.9
 20
-19.85000000000001
 30
0
 40
1.199999999999989
 50
0
 51
90
  0
ARC
  8
1
 62
7
 10
121.1
 20
-16.64999999999999
 30
0
 40
1.199999999999989
 50
180
 51
270
  0
ARC
  8
1
 62
7
 10
117.9
 20
-16.64999999999999
 30
0
 40
1.200000000000017
 50
270
 51
0
  0
ARC
  8
1
 62
7
 10
172.6999999999999
 20
10.04999999999997
 30
0
 40
0.09999999999999432
 50
0
 51
90
  0
ARC
  8
1
 62
7
 10
172.6999999999999
 20
9.450000000000003
 30
0
 40
0.1000000000000227
 50
270
 51
0
  0
ARC
  8
1
 62
7
 10
170.7999999999999
 20
7.549999999999969
 30
0
 40
0.09999999999996589
 50
270
 51
0
  0
ARC
  8
1
 62
7
 10
170.2
 20
7.549999999999969
 30
0
 40
0.09999999999999432
 50
180
 51
270
  0
ARC
  8
1
 62
7
 10
168.3000000000001
 20
9.450000000000003
 30
0
 40
0.100000000000108
 50
180
 51
270
  0
ARC
  8
1
 62
7
 10
168.3000000000001
 20
10.04999999999997
 30
0
 40
0.1000000000000192
 50
90
 51
180
  0
ARC
  8
1
 62
7
 10
170.7999999999999
 20
11.95
 30
0
 40
0.100000000000108
 50
0
 51
90
  0
ARC
  8
1
 62
7
 10
170.2
 20
11.95
 30
0
 40
0.09999999999997122
 50
90
 51
180
  0
ARC
  8
1
 62
7
 10
172.1
 20
8.149999999999992
 30
0
 40
1.199999999999989
 50
90
 51
180
  0
ARC
  8
1
 62
7
 10
168.9
 20
8.149999999999992
 30
0
 40
1.199999999999989
 50
0
 51
90
  0
ARC
  8
1
 62
7
 10
172.1
 20
11.34999999999998
 30
0
 40
1.199999999999989
 50
180
 51
270
  0
ARC
  8
1
 62
7
 10
168.9
 20
11.34999999999998
 30
0
 40
1.19999999999999
 50
270
 51
0
  0
ARC
  8
1
 62
7
 10
122.9499999999999
 20
17.04999999999997
 30
0
 40
0.09999999999999432
 50
0
 51
90
  0
ARC
  8
1
 62
7
 10
122.9499999999999
 20
16.45
 30
0
 40
0.1000000000000192
 50
270
 51
0
  0
ARC
  8
1
 62
7
 10
121.0499999999999
 20
14.54999999999997
 30
0
 40
0.09999999999997122
 50
270
 51
0
  0
ARC
  8
1
 62
7
 10
120.45
 20
14.54999999999997
 30
0
 40
0.1000000000000085
 50
180
 51
270
  0
ARC
  8
1
 62
7
 10
118.5500000000001
 20
16.45
 30
0
 40
0.1000000000000938
 50
180
 51
270
  0
ARC
  8
1
 62
7
 10
118.5500000000001
 20
17.04999999999997
 30
0
 40
0.1000000000000227
 50
90
 51
180
  0
ARC
  8
1
 62
7
 10
121.0499999999999
 20
18.95
 30
0
 40
0.100000000000108
 50
0
 51
90
  0
ARC
  8
1
 62
7
 10
120.45
 20
18.95
 30
0
 40
0.09999999999996945
 50
90
 51
180
  0
ARC
  8
1
 62
7
 10
122.35
 20
15.14999999999999
 30
0
 40
1.19999999999999
 50
90
 51
180
  0
ARC
  8
1
 62
7
 10
119.15
 20
15.14999999999999
 30
0
 40
1.199999999999989
 50
0
 51
90
  0
ARC
  8
1
 62
7
 10
122.35
 20
18.34999999999998
 30
0
 40
1.199999999999989
 50
180
 51
270
  0
ARC
  8
1
 62
7
 10
119.15
 20
18.34999999999998
 30
0
 40
1.199999999999989
 50
270
 51
0
  0
ARC
  8
1
 62
7
 10
171
 20
43.25000000000001
 30
0
 40
2.5
 50
0
 51
90
  0
ARC
  8
1
 62
7
 10
166
 20
43.25000000000001
 30
0
 40
2.5
 50
90
 51
180
  0
ARC
  8
1
 62
7
 10
171
 20
39.25000000000001
 30
0
 40
2.5
 50
270
 51
0
  0
ARC
  8
1
 62
7
 10
166
 20
39.25000000000001
 30
0
 40
2.5
 50
180
 51
270
  0
ARC
  8
1
 62
7
 10
124
 20
43.25000000000001
 30
0
 40
2.5
 50
0
 51
90
  0
ARC
  8
1
 62
7
 10
124
 20
39.25000000000001
 30
0
 40
2.5
 50
270
 51
0
  0
ARC
  8
1
 62
7
 10
119
 20
39.25000000000001
 30
0
 40
2.5
 50
180
 51
270
  0
ARC
  8
1
 62
7
 10
119
 20
43.25000000000001
 30
0
 40
2.5
 50
90
 51
180
  0
ARC
  8
1
 62
7
 10
158.75
 20
43.25000000000001
 30
0
 40
4
 50
0
 51
90
  0
ARC
  8
1
 62
7
 10
131.25
 20
43.25000000000001
 30
0
 40
4
 50
90
 51
180
  0
ARC
  8
1
 62
7
 10
172.5
 20
11.75000000000001
 30
0
 40
2.5
 50
0
 51
90
  0
ARC
  8
1
 62
7
 10
117.5
 20
22.25000000000001
 30
0
 40
2.5
 50
90
 51
180
  0
ARC
  8
1
 62
7
 10
120.75
 20
31.25000000000001
 30
0
 40
6.5
 50
270
 51
0
  0
ARC
  8
1
 62
7
 10
171
 20
43.25000000000001
 30
0
 40
4
 50
0
 51
90
  0
ARC
  8
1
 62
7
 10
171
 20
-43.25000000000001
 30
0
 40
4
 50
270
 51
0
  0
ARC
  8
1
 62
7
 10
119
 20
-43.25000000000001
 30
0
 40
4
 50
180
 51
270
  0
ARC
  8
1
 62
7
 10
119
 20
43.25000000000001
 30
0
 40
4
 50
90
 51
180
  0
ARC
  8
1
 62
7
 10
-35.5
 20
-30.286984430369
 30
0
 40
0.5
 50
180
 51
265.6012946449962
  0
ARC
  8
1
 62
7
 10
-35.5
 20
-16.21301556963091
 30
0
 40
0.4999999999999175
 50
94.39870535500478
 51
180
  0
ARC
  8
1
 62
7
 10
-30.5
 20
26.61729540169507
 30
0
 40
1
 50
180
 51
261.8698976458458
  0
ARC
  8
1
 62
7
 10
-29
 20
38.11729540169507
 30
0
 40
1.00000000000001
 50
278.1301023541549
 51
0
  0
ARC
  8
1
 62
7
 10
-30.5
 20
35.88270459830501
 30
0
 40
0.9999999999999026
 50
98.1301023541551
 51
180
  0
ARC
  8
1
 62
7
 10
-27
 20
-46.25000000000001
 30
0
 40
1
 50
180
 51
270
  0
ARC
  8
1
 62
7
 10
-27
 20
46.25000000000001
 30
0
 40
1
 50
90
 51
180
  0
ARC
  8
1
 62
7
 10
-93.45623643489205
 20
-41.4181829468336
 30
0
 40
1.000000000000046
 50
280.4914770123303
 51
0
  0
ARC
  8
1
 62
7
 10
-93.45623643489205
 20
41.41818294683357
 30
0
 40
1
 50
0
 51
79.50852298766964
  0
ARC
  8
1
 62
7
 10
-145.4562364348919
 20
41.41818294683357
 30
0
 40
1.000000000000062
 50
100.4914770123352
 51
180
  0
ARC
  8
1
 62
7
 10
-145.4562364348919
 20
-41.4181829468336
 30
0
 40
1
 50
180
 51
259.5085229876648
  0
ARC
  8
1
 62
7
 10
-93.45623643489205
 20
43.25000000000001
 30
0
 40
4
 50
0
 51
90
  0
ARC
  8
1
 62
7
 10
-93.45623643489205
 20
-43.25000000000001
 30
0
 40
4
 50
270
 51
0
  0
ARC
  8
1
 62
7
 10
-145.4562364348919
 20
-43.25000000000001
 30
0
 40
4
 50
180
 51
270
  0
ARC
  8
1
 62
7
 10
-145.4562364348919
 20
43.25000000000001
 30
0
 40
4
 50
90
 51
180
  0
ARC
  8
1
 62
7
 10
1.199999999999818
 20
28.49999999999999
 30
0
 40
0.3000000000000078
 50
270
 51
0
  0
ARC
  8
1
 62
7
 10
-0.3000000000001819
 20
35.96016652147836
 30
0
 40
0.3000000000001819
 50
0
 51
88.02506598909802
  0
ARC
  8
1
 62
7
 10
-0.3000000000001819
 20
26.53983347852169
 30
0
 40
0.300000000000038
 50
271.9749340109013
 51
0
  0
ARC
  8
1
 62
7
 10
-10.79999999999995
 20
40.39999999999999
 30
0
 40
0.5
 50
270
 51
0
  0
ARC
  8
1
 62
7
 10
152.8265280137696
 20
-13.12155198218029
 30
0
 40
1.999999999999954
 50
142.3057595333113
 51
322.30575953331
  0
ARC
  8
1
 62
7
 10
165.6084199913939
 20
3.419719988862695
 30
0
 40
1.999999999999933
 50
322.3057595333067
 51
142.3057595333093
  0
ARC
  8
1
 62
7
 10
127.3519405481149
 20
-19.7895961859049
 30
0
 40
1.999999999999993
 50
78.90627698843964
 51
258.9062769884429
  0
ARC
  8
1
 62
7
 10
132.7305198235738
 20
-20.84421957324982
 30
0
 40
1.999999999999977
 50
258.9062769884404
 51
78.9062769884422
  0
ARC
  8
1
 62
7
 10
125.8617996138378
 20
-37.88509441294759
 30
0
 40
1.999999999999999
 50
127.4053566314087
 51
307.4053566314084
  0
ARC
  8
1
 62
7
 10
134.8574677499453
 20
-31.00605407357129
 30
0
 40
2.00000000000003
 50
307.405356631408
 51
127.4053566314087
  0
ARC
  8
1
 62
7
 10
157.0420833698049
 20
-29.29208336980501
 30
0
 40
1.999999999999991
 50
45.00000000000043
 51
224.9999999999995
  0
ARC
  8
1
 62
7
 10
164.8431457505076
 20
-37.09314575050762
 30
0
 40
1.999999999999991
 50
224.9999999999993
 51
45
  0
ARC
  8
1
 62
7
 10
-36
 20
-18.7229932327033
 30
0
 40
0.4999999999999941
 50
93.17983011984771
 51
180
  0
ARC
  8
1
 62
7
 10
-36
 20
-27.77700676729661
 30
0
 40
0.5
 50
180
 51
266.8201698801522
  0
ARC
  8
1
 62
7
 10
-30.5
 20
3.282704598304903
 30
0
 40
0.9999999999999311
 50
98.13010235415487
 51
180
  0
ARC
  8
1
 62
7
 10
-30.5
 20
-4.982704598305091
 30
0
 40
1
 50
180
 51
261.8698976458451
  0
ARC
  8
1
 62
7
 10
-30.5
 20
11.28270459830487
 30
0
 40
0.9999999999999711
 50
170.0399662975989
 51
180
  0
ARC
  8
1
 62
7
 10
-30.5
 20
5.025785323693881
 30
0
 40
1
 50
180
 51
240.6381359591541
  0
ARC
  8
1
 62
7
 10
1.199999999999818
 20
33.99999999999999
 30
0
 40
0.3000000000001819
 50
0
 51
90
  0
ARC
  8
1
 62
7
 10
34.47348641006629
 20
33.40999999999998
 30
0
 40
0.5000000000000185
 50
202.2174691218185
 51
270
  0
ARC
  8
1
 62
7
 10
34.47348641006641
 20
29.08999999999999
 30
0
 40
0.5
 50
90
 51
157.7825308781699
  0
ARC
  8
1
 62
7
 10
28.63705499478139
 20
23.61149532105811
 30
0
 40
1.5
 50
270
 51
337.7825308781746
  0
ARC
  8
1
 62
7
 10
28.63705499478139
 20
38.88850467894191
 30
0
 40
1.499999999999994
 50
22.21746912182559
 51
90
  0
ARC
  8
1
 62
7
 10
28.22910264642501
 20
38.02850467894179
 30
0
 40
0.6999999999999811
 50
45.63354565636229
 51
90
  0
ARC
  8
1
 62
7
 10
28.22910264642501
 20
24.47149532105807
 30
0
 40
0.6999999999999922
 50
270
 51
314.3664543436402
  0
ARC
  8
1
 62
7
 10
33.71277377532311
 20
32.25000000000001
 30
0
 40
1.000000000000161
 50
225.6335456563506
 51
270
  0
ARC
  8
1
 62
7
 10
33.71277377532311
 20
30.25000000000001
 30
0
 40
1
 50
90
 51
134.3664543436561
  0
ARC
  8
1
 62
7
 10
38.18543400338425
 20
33.10999999999997
 30
0
 40
0.1999999999999886
 50
270
 51
3.645191185442258
  0
ARC
  8
1
 62
7
 10
34.73349888748913
 20
35.81000000000007
 30
0
 40
0.5
 50
90
 51
177.2795508940747
  0
ARC
  8
1
 62
7
 10
37.75677487487705
 20
35.81000000000007
 30
0
 40
0.4999999999999897
 50
2.720449105925392
 51
90
  0
ARC
  8
1
 62
7
 10
34.30483975898181
 20
33.10999999999997
 30
0
 40
0.2000000000000165
 50
176.3548088145576
 51
192.3470653506702
  0
ARC
  8
1
 62
7
 10
-8.799999999999912
 20
15.75000000000001
 30
0
 40
1.499999999999998
 50
180
 51
270
  0
ARC
  8
1
 62
7
 10
-8.799999999999912
 20
46.75000000000001
 30
0
 40
1.5
 50
90
 51
180
  0
ARC
  8
1
 62
7
 10
25.29953971201319
 20
34.49556603773591
 30
0
 40
1
 50
0
 51
75.81123928935085
  0
ARC
  8
1
 62
7
 10
25.29953971201319
 20
28.00443396226412
 30
0
 40
1.000000000000036
 50
284.1887607106467
 51
0
  0
LINE
  8
1
 62
2
 10
20.37366365821905
 20
-0.2500000000000142
 30
0
 11
-6.336304954546975
 21
-0.2500000000000142
 31
0
  0
LINE
  8
1
 62
2
 10
-6.336304954546975
 20
-0.2500000000000142
 30
0
 11
5.563695045453004
 21
18.14999999999999
 31
0
  0
SOLID
  8
1
 62
2
 10
4.049894576266261
 20
14.96084183584879
 30
0
 11
3.276061205690499
 21
15.46131015703638
 31
0
 12
5.563695045453004
 22
18.14999999999999
 32
0
 13
5.563695045453004
 23
18.14999999999999
 33
0
  0
LINE
  8
1
 62
2
 10
44.60924009025204
 20
66.25000000000001
 30
0
 11
112.4935472661471
 21
66.25000000000001
 31
0
  0
LINE
  8
1
 62
2
 10
112.4935472661471
 20
66.25000000000001
 30
0
 11
72.76879569264104
 21
32.90999999999998
 31
0
  0
SOLID
  8
1
 62
2
 10
75.15349697409771
 20
35.51298318371461
 30
0
 11
75.74594187041161
 21
34.80708257402471
 31
0
 12
72.76879569264104
 22
32.90999999999998
 32
0
 13
72.76879569264104
 23
32.90999999999998
 33
0
  0
TEXT
  8
1
 62
2
 10
-126.512236434892
 20
65.05306639442912
 30
0
 40
3.2
  1
(2.362)
 41
0.6300000000000001
 72
1
 73
2
 11
-119.456236434892
 21
66.65306639442913
 31
0
  0
TEXT
  8
1
 62
2
 10
-32.64026536898798
 20
53.03677402711256
 30
0
 40
3.2
  1
(0.866)
 41
0.6300000000000001
 72
1
 73
2
 11
-25.58426536898798
 21
54.63677402711256
 31
0
  0
TEXT
  8
1
 62
2
 10
-14.14026536898798
 20
53.03677402711256
 30
0
 40
3.2
  1
(0.571)
 41
0.6300000000000001
 72
1
 73
2
 11
-7.084265368987978
 21
54.63677402711256
 31
0
  0
TEXT
  8
1
 62
2
 10
114.702
 20
53.03677402711256
 30
0
 40
3.2
  1
(0.433)
 41
0.54
 72
1
 73
2
 11
120.75
 21
54.63677402711256
 31
0
  0
TEXT
  8
1
 62
2
 10
163.202
 20
53.03677402711256
 30
0
 40
3.2
  1
(0.433)
 41
0.54
 72
1
 73
2
 11
169.25
 21
54.63677402711256
 31
0
  0
TEXT
  8
1
 62
2
 10
-130.544236434892
 20
53.03677402711256
 30
0
 40
3.2
  1
(1.575    )
 41
0.6300000000000001
 72
1
 73
2
 11
-119.456236434892
 21
54.63677402711256
 31
0
  0
TEXT
  8
1
 62
2
 10
-167.2587466798172
 20
-6.06597680894201
 30
0
 40
3.2
  1
(3.72)
 50
90
 41
0.6300000000000001
 72
1
 73
2
 11
-168.8587466798172
 21
-0.01797680894200937
 31
0
  0
TEXT
  8
1
 62
2
 10
-155.2587466798172
 20
-14.33799999999999
 30
0
 40
3.2
  1
(1.575    )
 50
90
 41
0.6300000000000001
 72
1
 73
2
 11
-156.8587466798172
 21
-3.249999999999986
 31
0
  0
TEXT
  8
1
 62
2
 10
-155.2587466798172
 20
33.20147840257302
 30
0
 40
3.2
  1
(0.63)
 50
90
 41
0.6300000000000001
 72
1
 73
2
 11
-156.8587466798172
 21
39.24947840257302
 31
0
  0
TEXT
  8
1
 62
2
 10
-69.99999999999999
 20
-22.15397680894201
 30
0
 40
3.2
  1
(0.315DIA.      )
 50
90
 41
0.6300000000000001
 72
1
 73
2
 11
-71.59999999999999
 21
-5.017976808942009
 31
0
  0
TEXT
  8
1
 62
2
 10
-58.80032579457815
 20
-19.07397680894201
 30
0
 40
3.2
  1
(0.276)
 50
90
 41
0.6300000000000001
 72
1
 73
2
 11
-60.40032579457815
 21
-12.01797680894201
 31
0
  0
TEXT
  8
1
 62
2
 10
-53.14826536898798
 20
5.402793055844065
 30
0
 40
3.2
  1
(0.0197)
 41
0.6300000000000001
 72
1
 73
2
 11
-45.08426536898798
 21
7.002793055844066
 31
0
  0
TEXT
  8
1
 62
2
 10
-52.14026536898798
 20
-4.597206944155963
 30
0
 40
3.2
  1
(0.669)
 41
0.6300000000000001
 72
1
 73
2
 11
-45.08426536898798
 21
-2.997206944155963
 31
0
  0
TEXT
  8
1
 62
2
 10
-53.14026536898798
 20
-14.59720694415599
 30
0
 40
3.2
  1
(0.551)
 41
0.6300000000000001
 72
1
 73
2
 11
-46.08426536898798
 21
-12.99720694415599
 31
0
  0
TEXT
  8
1
 62
2
 10
109.1974897550748
 20
29.44400000000001
 30
0
 40
3.2
  1
(0.846)
 50
90
 41
0.6300000000000001
 72
1
 73
2
 11
107.5974897550748
 21
36.50000000000001
 31
0
  0
TEXT
  8
1
 62
2
 10
189.2008521839611
 20
25.20200000000001
 30
0
 40
3.2
  1
(1.26)
 50
90
 41
0.6300000000000001
 72
1
 73
2
 11
187.6008521839611
 21
31.25000000000001
 31
0
  0
TEXT
  8
1
 62
2
 10
-155.2587466798172
 20
-42.07397680894201
 30
0
 40
3.2
  1
(0.945)
 50
90
 41
0.6300000000000001
 72
1
 73
2
 11
-156.8587466798172
 21
-35.01797680894201
 31
0
  0
TEXT
  8
1
 62
2
 10
-120.9857726137482
 20
53.63677402711256
 30
0
 40
2
  1
%%p0.0118
 41
0.63
 72
1
 73
2
 11
-115.3157726137482
 21
54.63677402711256
 31
0
  0
TEXT
  8
1
 62
2
 10
-155.8587466798174
 20
-4.779536178856089
 30
0
 40
2
  1
%%p0.0118
 50
90
 41
0.63
 72
1
 73
2
 11
-156.8587466798174
 21
0.8904638211439111
 31
0
  0
TEXT
  8
1
 62
2
 10
-71.8
 20
-3.420011650184021
 30
0
 40
2
  1
 0
 50
90
 41
0.63
  0
TEXT
  8
1
 62
2
 10
-69.39999999999999
 20
-3.420011650184021
 30
0
 40
2
  1
-0.000787
 50
90
 41
0.63
  0
TEXT
  8
1
 62
2
 10
-68.91775428359279
 20
-63.734769879772
 30
0
 40
3.5
  1
(4-M4 DEPTH 0.236MAX)
 41
0.666
 73
2
 11
-68.91775428359279
 21
-61.984769879772
 31
0
  0
TEXT
  8
1
 62
2
 10
-1.285896526410646
 20
0.4994616689140088
 30
0
 40
3
  1
NAME PLATE
 41
0.6300000000000001
 72
1
 73
2
 11
8.164103473589355
 21
1.999461668914009
 31
0
  0
TEXT
  8
1
 62
2
 10
-142.5
 20
93.5
 30
0
 40
5
  1
DME34B5C
 41
0.9
 72
1
 73
2
 11
-124.5
 21
96
 31
0
  0
TEXT
  8
1
 62
2
 10
45.1805023315134
 20
60.25308797483892
 30
0
 40
3.5
  1
UL1007 AWG22
 41
0.9
 73
2
 11
45.1805023315134
 21
62.00308797483892
 31
0
  0
TEXT
  8
1
 62
2
 10
45.1805023315134
 20
67.25854775958395
 30
0
 40
3.5
  1
LEAD WIRES (RED,BLACK)
 41
0.9
 73
2
 11
45.1805023315134
 21
69.00854775958395
 31
0
  0
TEXT
  8
1
 62
2
 10
-12.64026536898794
 20
65.05306639442912
 30
0
 40
3.2
  1
(2.409)
 41
0.6300000000000001
 72
1
 73
2
 11
-5.584265368987943
 21
66.65306639442913
 31
0
  0
TEXT
  8
1
 62
2
 10
28.35927434302512
 20
53.03677402711256
 30
0
 40
3.2
  1
(0.063)
 41
0.6300000000000001
 72
1
 73
2
 11
35.41527434302512
 21
54.63677402711256
 31
0
  0
TEXT
  8
1
 62
2
 10
45.40589139933697
 20
-7.74999999999999
 30
0
 40
3.2
  1
(11.811   )
 41
0.6300000000000001
 72
1
 73
2
 11
56.49389139933697
 21
-6.14999999999999
 31
0
  0
TEXT
  8
1
 62
2
 10
69.69581625709006
 20
5.05609143528432
 30
0
 40
3.2
  1
(0.118)
 41
0.6300000000000001
 72
1
 73
2
 11
76.75181625709006
 21
6.656091435284321
 31
0
  0
TEXT
  8
1
 62
2
 10
50.89565462394346
 20
20.16200000000001
 30
0
 40
3.2
  1
(1.339DIA.)
 50
90
 41
0.6300000000000001
 72
1
 73
2
 11
49.29565462394346
 21
31.25000000000001
 31
0
  0
TEXT
  8
1
 62
2
 10
57.06895881219079
 20
-5.950000000000161
 30
0
 40
2
  1
+1.181
 41
0.63
  0
TEXT
  8
1
 62
2
 10
57.06895881219079
 20
-8.350000000000161
 30
0
 40
2
  1
 0
 41
0.63
  0
DIMENSION
  8
1
  6
CONTINUOUS
 62
2
  2
*D0
  3
DMST_1
 10
24.69953971201316
 20
69.25287468379881
 30
0
 11
-5.900230143993401
 21
71.8528746837988
 31
0
 12
0
 22
0
 32
0
 70
0
 13
-36.49999999999996
 23
21.27700676729667
 33
0
 14
24.69953971201316
 24
48.25000000000001
 34
0
 53
0
  0
DIMENSION
  8
1
  6
CONTINUOUS
 62
2
  2
*D1
  3
DMST_1
 10
-14.49999999999999
 20
57.3159105113614
 30
0
 11
-25.49999999999999
 21
59.9159105113614
 31
0
 12
0
 22
0
 32
0
 70
0
 13
-36.49999999999996
 23
21.27700676729667
 33
0
 14
-14.49999999999999
 24
47.25000000000001
 34
0
 53
0
  0
DIMENSION
  8
1
  6
CONTINUOUS
 62
2
  2
*D2
  3
DMST_2
 10
163.5
 20
57.3159105113614
 30
0
 11
169.25
 21
59.9159105113614
 31
0
 12
0
 22
0
 32
0
 70
0
  1
11
 13
175
 23
43.25000000000004
 33
0
 14
163.5
 24
43.25000000000001
 34
0
 53
0
  0
DIMENSION
  8
1
  6
CONTINUOUS
 62
2
  2
*D3
  3
DMST_2
 10
115
 20
57.3159105113614
 30
0
 11
120.75
 21
59.9159105113614
 31
0
 12
0
 22
0
 32
0
 70
0
  1
11
 13
126.5
 23
43.25000000000001
 33
0
 14
115
 24
43.25000000000001
 34
0
 53
0
  0
DIMENSION
  8
1
  6
CONTINUOUS
 62
2
  2
*D4
  3
DMST_1
 10
-53.5
 20
-10.24999999999999
 30
0
 11
-46.5
 21
-7.649999999999991
 31
0
 12
0
 22
0
 32
0
 70
0
 13
-39.5
 23
-19.25000000000001
 33
0
 14
-53.5
 24
-20.25000000000001
 34
0
 53
0
  0
DIMENSION
  8
1
  6
CONTINUOUS
 62
2
  2
*D5
  3
DMST_3
 10
-74.96524210975855
 20
-19.25000000000001
 30
0
 11
-78.36524210975856
 21
-4.88956352935861
 31
0
 12
0
 22
0
 32
0
 70
0
  1
ƒÓ<>
 13
-53.5
 23
-27.25000000000001
 33
0
 14
-39.5
 24
-19.25000000000001
 34
0
 50
90
 53
0
  0
DIMENSION
  8
1
  6
CONTINUOUS
 62
2
  2
*D6
  3
DMST_1
 10
-62.92692826673143
 20
-20.25000000000001
 30
0
 11
-65.52692826673143
 21
-11.5654867277327
 31
0
 12
0
 22
0
 32
0
 70
1
 13
-53.5
 23
-27.25000000000001
 33
0
 14
-53.5
 24
-20.25000000000001
 34
0
 53
0
  0
DIMENSION
  8
1
  6
CONTINUOUS
 62
2
  2
*D7
  3
DMST_1
 10
-149.4562364348919
 20
69.30722910344591
 30
0
 11
-119.456236434892
 21
71.9072291034459
 31
0
 12
0
 22
0
 32
0
 70
1
 13
-89.45623643489205
 23
43.25000000000001
 33
0
 14
-149.4562364348919
 24
43.25000000000001
 34
0
 53
0
  0
DIMENSION
  8
1
  6
CONTINUOUS
 62
2
  2
*D8
  3
DMST_1
 10
-171.4915159331527
 20
47.25000000000001
 30
0
 11
-174.0915159331527
 21
1.4210854715202e-014
 31
0
 12
0
 22
0
 32
0
 70
0
 13
-145.4562364348919
 23
-47.25000000000001
 33
0
 14
-145.4562364348919
 24
47.25000000000001
 34
0
 50
90
 53
0
  0
DIMENSION
  8
1
  6
CONTINUOUS
 62
2
  2
*D9
  3
DMST_1
 10
-159.456236434892
 20
-47.25000000000001
 30
0
 11
-162.056236434892
 21
-35.25000000000001
 31
0
 12
0
 22
0
 32
0
 70
0
 13
-149.4562364348919
 23
-23.25000000000001
 33
0
 14
-145.4562364348919
 24
-47.25000000000001
 34
0
 50
90
 53
0
  0
DIMENSION
  8
1
  6
CONTINUOUS
 62
2
  2
*D10
  3
DMST_4
 10
-159.456236434892
 20
-23.25000000000001
 30
0
 11
-162.056236434892
 21
-3.250000000000014
 31
0
 12
0
 22
0
 32
0
 70
0
 13
-149.4562364348919
 23
16.75000000000001
 33
0
 14
-149.4562364348919
 24
-23.25000000000001
 34
0
 50
90
 53
0
  0
DIMENSION
  8
1
  6
CONTINUOUS
 62
2
  2
*D11
  3
DMST_1
 10
-159.456236434892
 20
31.25000000000001
 30
0
 11
-162.056236434892
 21
39.25000000000001
 31
0
 12
0
 22
0
 32
0
 70
0
 13
-145.4562364348919
 23
47.25000000000001
 33
0
 14
-125.456236434892
 24
31.25000000000001
 34
0
 50
90
 53
0
  0
DIMENSION
  8
1
  6
CONTINUOUS
 62
2
  2
*D12
  3
DMST_4
 10
-139.4562364348919
 20
57.3159105113614
 30
0
 11
-119.456236434892
 21
59.9159105113614
 31
0
 12
0
 22
0
 32
0
 70
0
 13
-99.45623643489205
 23
47.3593059936909
 33
0
 14
-139.4562364348919
 24
47.25000000000001
 34
0
 53
0
  0
DIMENSION
  8
1
  6
CONTINUOUS
 62
2
  2
*D13
  3
DMST_2
 10
-14.49999999999999
 20
57.3159105113614
 30
0
 11
-7.249999999999995
 21
59.9159105113614
 31
0
 12
0
 22
0
 32
0
 70
0
  1
(<>
 13
0
 23
35.96016652147836
 33
0
 14
-14.49999999999999
 24
47.25000000000001
 34
0
 53
0
  0
DIMENSION
  8
1
  6
CONTINUOUS
 62
2
  2
*D14
  3
DMST_5
 10
-36.5
 20
-0.2499999999999889
 30
0
 11
-44.99999999999999
 21
2.350000000000011
 31
0
 12
0
 22
0
 32
0
 70
0
 13
-53.5
 23
-20.25000000000001
 33
0
 14
-36.5
 24
-18.7229932327033
 34
0
 53
0
  0
DIMENSION
  8
1
  6
CONTINUOUS
 62
2
  2
*D15
  3
DMST_5
 10
-36.49999999999999
 20
9.749999999999981
 30
0
 11
-44.57173007942997
 21
12.34999999999998
 31
0
 12
0
 22
0
 32
0
 70
0
 13
-36
 23
-16.21301556963091
 33
0
 14
-36.5
 24
-18.7229932327033
 34
0
 53
0
  0
DIMENSION
  8
1
  6
CONTINUOUS
 62
2
  2
*D16
  3
DMST_2
 10
185
 20
15.25000000000001
 30
0
 11
182.4
 21
31.25000000000001
 31
0
 12
0
 22
0
 32
0
 70
0
  1
(<>
 13
171
 23
47.25000000000001
 33
0
 14
169.25
 24
15.25000000000001
 34
0
 50
90
 53
0
  0
DIMENSION
  8
1
  6
CONTINUOUS
 62
2
  2
*D17
  3
DMST_2
 10
105
 20
25.75000000000001
 30
0
 11
102.4
 21
36.50000000000001
 31
0
 12
0
 22
0
 32
0
 70
0
  1
(<>
 13
119
 23
47.25000000000001
 33
0
 14
120.75
 24
25.75000000000001
 34
0
 50
90
 53
0
  0
DIMENSION
  8
1
  6
CONTINUOUS
 62
2
  2
*D18
  3
DMST_1
 10
46.81342684150343
 20
14.25000000000001
 30
0
 11
44.21342684150343
 21
31.25000000000001
 31
0
 12
0
 22
0
 32
0
 70
1
  1
ƒÓ<>
 13
24.69953971201316
 23
48.25000000000001
 33
0
 14
24.69953971201316
 24
14.25000000000001
 34
0
 53
0
  0
DIMENSION
  8
1
  6
CONTINUOUS
 62
2
  2
*D19
  3
DMST_2
 10
84.2969945487469
 20
9.2508277434888
 30
0
 11
76.31952946095203
 21
11.8508277434888
 31
0
 12
0
 22
0
 32
0
 70
0
  1
(<>
 13
87.2969945487469
 23
30.14999999999999
 33
0
 14
84.2969945487469
 24
29.58999999999999
 34
0
 53
0
  0
DIMENSION
  8
1
  6
CONTINUOUS
 62
2
  2
*D20
  3
DMST_6
 10
24.69953971201315
 20
-2.75643022744908
 30
0
 11
55.99826713038002
 21
0.64356977255092
 31
0
 12
0
 22
0
 32
0
 70
0
  1
300
 13
87.2969945487469
 23
30.14999999999999
 33
0
 14
24.69953971201316
 24
14.25000000000001
 34
0
 53
0
  0
DIMENSION
  8
1
  6
CONTINUOUS
 62
2
  2
*D21
  3
DMST_7
 10
26.29953971201319
 20
57.3023755994684
 30
0
 11
35.1846384938318
 21
59.9023755994684
 31
0
 12
0
 22
0
 32
0
 70
0
  1
(<>
 13
24.69953971201316
 23
48.25000000000001
 33
0
 14
26.29953971201319
 24
34.49556603773591
 34
0
 53
0
  0
INSERT
  8
0
  2
___R___O_______R
 10
0.5000000000000568
 20
-3.75
 30
0
  0
INSERT
  8
1
  2
*D22
 10
0
 20
0
 30
0
  0
ENDSEC
  0
EOF
