  0
SECTION
  2
HEADER
  9
$ACADVER
  1
AC1009
  9
$INSBASE
 10
0
 20
0
  9
$EXTMIN
 10
-194.5
 20
-146
  9
$EXTMAX
 10
194.5
 20
146
  9
$LIMMIN
 10
-194.5
 20
-146
  9
$LIMMAX
 10
194.5
 20
146
  9
$VIEWCTR
 10
10
 20
10
  9
$VIEWSIZE
 40
10
  9
$SNAPMODE
 70
0
  9
$SNAPUNIT
 10
1
 20
1
  9
$SNAPBASE
 10
0
 20
0
  9
$SNAPANG
 50
0
  9
$SNAPSTYLE
 70
0
  9
$SNAPISOPAIR
 70
0
  9
$GRIDMODE
 70
0
  9
$GRIDUNIT
 10
0
 20
0
  9
$ORTHOMODE
 70
0
  9
$REGENMODE
 70
1
  9
$FILLMODE
 70
1
  9
$QTEXTMODE
 70
0
  9
$DRAGMODE
 70
2
  9
$LTSCALE
 40
1
  9
$OSMODE
 70
0
  9
$ATTMODE
 70
1
  9
$TEXTSIZE
 40
3.5
  9
$TRACEWID
 40
0.5
  9
$TEXTSTYLE
  7
STANDARD
  9
$CLAYER
  8
0
  9
$CELTYPE
  6
BYLAYER
  9
$CECOLOR
 62
256
  9
$DIMSCALE
 40
1
  9
$DIMASZ
 40
0.18
  9
$DIMEXO
 40
0.0625
  9
$DIMDLI
 40
0.38
  9
$DIMRND
 40
0
  9
$DIMDLE
 40
0
  9
$DIMEXE
 40
0.18
  9
$DIMTP
 40
0
  9
$DIMTM
 40
0
  9
$DIMTXT
 40
0.18
  9
$DIMCEN
 40
0.09
  9
$DIMTSZ
 40
0
  9
$DIMTOL
 70
0
  9
$DIMLIM
 70
0
  9
$DIMTIH
 70
1
  9
$DIMTOH
 70
1
  9
$DIMSE1
 70
0
  9
$DIMSE2
 70
0
  9
$DIMTAD
 70
0
  9
$DIMZIN
 70
0
  9
$DIMBLK
  1

  9
$DIMASO
 70
1
  9
$DIMSHO
 70
1
  9
$DIMPOST
  1

  9
$DIMAPOST
  1

  9
$DIMALT
 70
0
  9
$DIMALTD
 70
2
  9
$DIMALTF
 40
25.4
  9
$DIMLFAC
 40
1
  9
$DIMTOFL
 70
0
  9
$DIMTVP
 40
0
  9
$DIMTIX
 70
0
  9
$DIMSOXD
 70
0
  9
$DIMSAH
 70
0
  9
$DIMBLK1
  1

  9
$DIMBLK2
  1

  9
$DIMSTYLE
  2
*UNNAMED
  9
$DIMCLRD
 70
0
  9
$DIMCLRE
 70
0
  9
$DIMCLRT
 70
0
  9
$DIMTFAC
 40
1
  9
$DIMGAP
 40
0.09
  9
$LUNITS
 70
2
  9
$LUPREC
 70
4
  9
$AXISMODE
 70
0
  9
$AXISUNIT
 10
0
 20
0
  9
$SKETCHINC
 40
0.1
  9
$FILLETRAD
 40
2
  9
$AUNITS
 70
0
  9
$AUPREC
 70
0
  9
$MENU
  1
ACAD
  9
$ELEVATION
 40
0
  9
$THICKNESS
 40
0
  9
$VIEWDIR
 10
0
 20
0
 30
1
  9
$LIMCHECK
 70
0
  9
$BLIPMODE
 70
1
  9
$CHAMFERA
 40
0
  9
$CHAMFERB
 40
0
  9
$FASTZOOM
 70
1
  9
$SKPOLY
 70
0
  9
$ANGBASE
 50
0
  9
$ANGDIR
 70
0
  9
$PDMODE
 70
0
  9
$PDSIZE
 40
0
  9
$PLINEWID
 40
0
  9
$COORDS
 70
2
  0
ENDSEC
  0
SECTION
  2
TABLES
  0
TABLE
  2
DIMSTYLE
 70
6
  0
DIMSTYLE
  2
DMST_1
 70
0
  3
)
  4

  5

  6

  7

 40
1
 41
3.2
 42
1
 43
7
 44
1
 45
0
 46
0
 47
0
 48
0
140
3.2
141
0
142
0
143
25.4
144
1
145
0
146
1
147
0.09
 71
0
 72
0
 73
0
 74
0
 75
0
 76
0
 77
1
 78
9
170
0
171
2
172
0
173
0
174
0
175
0
176
2
177
2
178
2
  0
DIMSTYLE
  2
DMST_2
 70
0
  3

  4

  5

  6

  7

 40
1
 41
3.2
 42
1
 43
7
 44
1
 45
0
 46
0
 47
0
 48
0
140
3.2
141
0
142
0
143
25.4
144
1
145
0
146
1
147
0.09
 71
0
 72
0
 73
0
 74
0
 75
0
 76
0
 77
1
 78
9
170
0
171
2
172
0
173
0
174
0
175
0
176
2
177
2
178
2
  0
DIMSTYLE
  2
DMST_3
 70
0
  3

  4

  5

  6

  7

 40
1
 41
3.2
 42
1
 43
7
 44
1
 45
0
 46
0
 47
0
 48
0.02
140
3.2
141
0
142
0
143
25.4
144
1
145
0
146
0.6
147
0.09
 71
1
 72
0
 73
0
 74
0
 75
0
 76
0
 77
1
 78
9
170
0
171
2
172
0
173
0
174
0
175
0
176
2
177
2
178
2
  0
DIMSTYLE
  2
DMST_4
 70
0
  3

  4

  5

  6

  7

 40
1
 41
3.2
 42
1
 43
7
 44
1
 45
0
 46
0
 47
0.3
 48
0.3
140
3.2
141
0
142
0
143
25.4
144
1
145
0
146
0.6
147
0.09
 71
1
 72
0
 73
0
 74
0
 75
0
 76
0
 77
1
 78
9
170
0
171
2
172
0
173
0
174
0
175
0
176
2
177
2
178
2
  0
DIMSTYLE
  2
DMST_5
 70
0
  3

  4

  5

  6

  7

 40
1
 41
3.2
 42
1
 43
7
 44
1
 45
0
 46
0
 47
0
 48
0
140
3.2
141
0
142
0
143
25.4
144
1
145
0
146
1
147
0.09
 71
0
 72
0
 73
1
 74
1
 75
0
 76
0
 77
1
 78
9
170
0
171
2
172
0
173
0
174
0
175
0
176
2
177
2
178
2
  0
DIMSTYLE
  2
DMST_6
 70
0
  3

  4

  5

  6

  7

 40
1
 41
3.2
 42
1
 43
7
 44
1
 45
0
 46
0
 47
0
 48
0
140
3.2
141
0
142
0
143
25.4
144
1
145
0
146
0.6
147
0.09
 71
1
 72
0
 73
0
 74
0
 75
0
 76
0
 77
1
 78
9
170
0
171
2
172
0
173
0
174
0
175
0
176
2
177
2
178
2
  0
ENDTAB
  0
TABLE
  2
LTYPE
 70
9
  0
LTYPE
  2
CONTINUOUS
 70
64
  3
Solid line
 72
65
 73
0
 40
0
  0
LTYPE
  2
BORDER
 70
64
  3
__ __ . __ __ .
 72
65
 73
6
 40
17.91447368421053
 49
5.118421052631579
 49
-2.559210526315789
 49
5.118421052631579
 49
-2.559210526315789
 49
0
 49
-2.559210526315789
  0
LTYPE
  2
CENTER
 70
64
  3
____ _ ____ _
 72
65
 73
4
 40
20.47368421052632
 49
12.79605263157895
 49
-2.559210526315789
 49
2.559210526315789
 49
-2.559210526315789
  0
LTYPE
  2
DASHDOT
 70
64
  3
__ . __ . __ .
 72
65
 73
4
 40
10.23684210526316
 49
5.118421052631579
 49
-2.559210526315789
 49
0
 49
-2.559210526315789
  0
LTYPE
  2
DASHED
 70
64
  3
__ __ __ __ __
 72
65
 73
2
 40
7.677631578947368
 49
5.118421052631579
 49
-2.559210526315789
  0
LTYPE
  2
DIVIDE
 70
64
  3
__ . . __ . . 
 72
65
 73
6
 40
12.79605263157895
 49
5.118421052631579
 49
-2.559210526315789
 49
0
 49
-2.559210526315789
 49
0
 49
-2.559210526315789
  0
LTYPE
  2
DOT
 70
64
  3
..............
 72
65
 73
4
 40
5.118421052631579
 49
0
 49
-2.559210526315789
 49
0
 49
-2.559210526315789
  0
LTYPE
  2
HIDDEN
 70
64
  3
_ _ _ _ _ _ _
 72
65
 73
2
 40
3.838815789473684
 49
2.559210526315789
 49
-1.279605263157895
  0
LTYPE
  2
PHANTOM
 70
64
  3
_____ _ _ _____ _ _ 
 72
65
 73
6
 40
25.59210526315789
 49
12.79605263157895
 49
-2.559210526315789
 49
2.559210526315789
 49
-2.559210526315789
 49
2.559210526315789
 49
-2.559210526315789
  0
ENDTAB
  0
TABLE
  2
LAYER
 70
3
  0
LAYER
  2
1
 70
0
 62
7
  6
CONTINUOUS
  0
LAYER
  2
0
 70
0
 62
7
  6
CONTINUOUS
  0
ENDTAB
  0
TABLE
  2
STYLE
 70
4
  0
STYLE
  2
STANDARD
 70
0
 40
0
 41
1
 50
0
 71
0
 42
3.5
  3
txt
  4

  0
STYLE
  2
SIMPLEX
 70
0
 40
0
 41
1
 50
0
 71
0
 42
3.5
  3
simplex
  4

  0
STYLE
  2
COMPLEX
 70
0
 40
0
 41
1
 50
0
 71
0
 42
3.5
  3
complex
  4

  0
STYLE
  2
ITALIC
 70
0
 40
0
 41
1
 50
0
 71
0
 42
3.5
  3
italic
  4

  0
ENDTAB
  0
TABLE
  2
VIEW
 70
0
  0
ENDTAB
  0
ENDSEC
  0
SECTION
  2
BLOCKS
  0
BLOCK
  8
0
  2
___R___O_______R
 70
0
 10
0.5
 20
-3.75
 30
0
  0
LINE
  8
1
 62
4
  6
PHANTOM
 10
-194.5
 20
-146
 30
0
 11
194.5
 21
-146
 31
0
  0
LINE
  8
1
 62
4
  6
PHANTOM
 10
194.5
 20
146
 30
0
 11
-194.5
 21
146
 31
0
  0
LINE
  8
1
 62
4
  6
PHANTOM
 10
194.5
 20
146
 30
0
 11
194.5
 21
129
 31
0
  0
LINE
  8
1
 62
4
  6
PHANTOM
 10
-194.5
 20
-146
 30
0
 11
-194.5
 21
146
 31
0
  0
LINE
  8
1
 62
4
  6
PHANTOM
 10
194.5
 20
-136.5
 30
0
 11
194.5
 21
-146
 31
0
  0
TEXT
  8
1
 62
4
 10
178.746911898274
 20
-142.6071298819256
 30
0
 40
5
  1
A3
 41
0.9
 72
1
 73
2
 11
183.246911898274
 21
-140.1071298819256
 31
0
  0
ENDBLK
  8
0
  0
BLOCK
  8
1
  2
*D0
 70
1
 10
0
 20
0
 30
0
  0
LINE
  8
1
 62
2
 10
180
 20
15.25000000000001
 30
0
 11
180
 21
47.25000000000001
 31
0
  0
LINE
  8
1
 62
2
 10
167
 20
47.25000000000001
 30
0
 11
181
 21
47.25000000000001
 31
0
  0
LINE
  8
1
 62
2
 10
165.25
 20
15.25000000000001
 30
0
 11
181
 21
15.25000000000001
 31
0
  0
SOLID
  8
1
 62
2
 10
180
 20
47.25000000000001
 30
0
 11
180.416
 21
44.05000000000001
 31
0
 12
179.584
 22
44.05000000000001
 32
0
 13
179.584
 23
44.05000000000001
 33
0
  0
SOLID
  8
1
 62
2
 10
180
 20
15.25000000000001
 30
0
 11
179.584
 21
18.45000000000001
 31
0
 12
180.416
 22
18.45000000000001
 32
0
 13
180.416
 23
18.45000000000001
 33
0
  0
TEXT
  8
1
 62
2
 10
179
 20
28.85000000000001
 30
0
 40
3.2
  1
32
 50
90
 41
0.9
  0
TEXT
  8
1
 62
2
 10
179
 20
26.77000000000001
 30
0
 40
3.2
  1
(
 50
90
 41
0.9
  0
TEXT
  8
1
 62
2
 10
179
 20
35.25000000000001
 30
0
 40
3.2
  1
)
 50
90
 41
0.9
  0
ENDBLK
  8
0
  0
BLOCK
  8
1
  2
*D1
 70
1
 10
0
 20
0
 30
0
  0
LINE
  8
1
 62
2
 10
110
 20
57.2011993435173
 30
0
 11
121.5
 21
57.2011993435173
 31
0
  0
LINE
  8
1
 62
2
 10
121.5
 20
44.25000000000001
 30
0
 11
121.5
 21
58.2011993435173
 31
0
  0
LINE
  8
1
 62
2
 10
110
 20
44.25000000000001
 30
0
 11
110
 21
58.2011993435173
 31
0
  0
SOLID
  8
1
 62
2
 10
110
 20
57.2011993435173
 30
0
 11
113.2
 21
57.61719934351729
 31
0
 12
113.2
 22
56.7851993435173
 32
0
 13
113.2
 23
56.7851993435173
 33
0
  0
SOLID
  8
1
 62
2
 10
121.5
 20
57.2011993435173
 30
0
 11
118.3
 21
56.7851993435173
 31
0
 12
118.3
 22
57.61719934351729
 32
0
 13
118.3
 23
57.61719934351729
 33
0
  0
TEXT
  8
1
 62
2
 10
114.31
 20
58.2011993435173
 30
0
 40
3.2
  1
11
 41
0.9
  0
TEXT
  8
1
 62
2
 10
112.23
 20
58.2011993435173
 30
0
 40
3.2
  1
(
 41
0.9
  0
TEXT
  8
1
 62
2
 10
118.79
 20
58.2011993435173
 30
0
 40
3.2
  1
)
 41
0.9
  0
ENDBLK
  8
0
  0
BLOCK
  8
1
  2
*D2
 70
1
 10
0
 20
0
 30
0
  0
LINE
  8
1
 62
2
 10
158.5
 20
57.2011993435173
 30
0
 11
170
 21
57.2011993435173
 31
0
  0
LINE
  8
1
 62
2
 10
170
 20
44.25000000000004
 30
0
 11
170
 21
58.2011993435173
 31
0
  0
LINE
  8
1
 62
2
 10
158.5
 20
44.25000000000001
 30
0
 11
158.5
 21
58.2011993435173
 31
0
  0
SOLID
  8
1
 62
2
 10
158.5
 20
57.2011993435173
 30
0
 11
161.7
 21
57.61719934351729
 31
0
 12
161.7
 22
56.7851993435173
 32
0
 13
161.7
 23
56.7851993435173
 33
0
  0
SOLID
  8
1
 62
2
 10
170
 20
57.2011993435173
 30
0
 11
166.8
 21
56.7851993435173
 31
0
 12
166.8
 22
57.61719934351729
 32
0
 13
166.8
 23
57.61719934351729
 33
0
  0
TEXT
  8
1
 62
2
 10
162.81
 20
58.2011993435173
 30
0
 40
3.2
  1
11
 41
0.9
  0
TEXT
  8
1
 62
2
 10
160.73
 20
58.2011993435173
 30
0
 40
3.2
  1
(
 41
0.9
  0
TEXT
  8
1
 62
2
 10
167.29
 20
58.2011993435173
 30
0
 40
3.2
  1
)
 41
0.9
  0
ENDBLK
  8
0
  0
BLOCK
  8
1
  2
*D3
 70
1
 10
0
 20
0
 30
0
  0
LINE
  8
1
 62
2
 10
-32.04376356510796
 20
57.2402144790922
 30
0
 11
-10.04376356510796
 21
57.2402144790922
 31
0
  0
LINE
  8
1
 62
2
 10
-10.04376356510795
 20
48.25000000000001
 30
0
 11
-10.04376356510796
 21
58.2402144790922
 31
0
  0
LINE
  8
1
 62
2
 10
-32.04376356510796
 20
22.27700676729667
 30
0
 11
-32.04376356510796
 21
58.2402144790922
 31
0
  0
SOLID
  8
1
 62
2
 10
-32.04376356510796
 20
57.2402144790922
 30
0
 11
-28.84376356510796
 21
57.65621447909219
 31
0
 12
-28.84376356510796
 22
56.8242144790922
 32
0
 13
-28.84376356510796
 23
56.8242144790922
 33
0
  0
SOLID
  8
1
 62
2
 10
-10.04376356510796
 20
57.2402144790922
 30
0
 11
-13.24376356510796
 21
56.8242144790922
 31
0
 12
-13.24376356510796
 22
57.65621447909219
 32
0
 13
-13.24376356510796
 23
57.65621447909219
 33
0
  0
TEXT
  8
1
 62
2
 10
-23.44376356510796
 20
58.2402144790922
 30
0
 40
3.2
  1
22
 41
0.9
  0
ENDBLK
  8
0
  0
BLOCK
  8
1
  2
*D4
 70
1
 10
0
 20
0
 30
0
  0
LINE
  8
1
 62
2
 10
-49.04376356510796
 20
-10.24999999999999
 30
0
 11
-35.04376356510795
 21
-10.24999999999999
 31
0
  0
LINE
  8
1
 62
2
 10
-49.04376356510796
 20
-19.25000000000001
 30
0
 11
-49.04376356510796
 21
-9.249999999999991
 31
0
  0
LINE
  8
1
 62
2
 10
-35.04376356510795
 20
-18.25000000000001
 30
0
 11
-35.04376356510795
 21
-9.249999999999991
 31
0
  0
SOLID
  8
1
 62
2
 10
-49.04376356510796
 20
-10.24999999999999
 30
0
 11
-45.84376356510796
 21
-9.833999999999991
 31
0
 12
-45.84376356510796
 22
-10.66599999999999
 32
0
 13
-45.84376356510796
 23
-10.66599999999999
 33
0
  0
SOLID
  8
1
 62
2
 10
-35.04376356510795
 20
-10.24999999999999
 30
0
 11
-38.24376356510796
 21
-10.66599999999999
 31
0
 12
-38.24376356510796
 22
-9.833999999999991
 32
0
 13
-38.24376356510796
 23
-9.833999999999991
 33
0
  0
TEXT
  8
1
 62
2
 10
-43.96376356510796
 20
-9.249999999999991
 30
0
 40
3.2
  1
14
 41
0.9
  0
ENDBLK
  8
0
  0
BLOCK
  8
1
  2
*D5
 70
1
 10
0
 20
0
 30
0
  0
LINE
  8
1
 62
2
 10
-70.5090056748665
 20
-19.25000000000001
 30
0
 11
-70.5090056748665
 21
2.07665869286361
 31
0
  0
LINE
  8
1
 62
2
 10
-70.5090056748665
 20
-27.25000000000001
 30
0
 11
-70.5090056748665
 21
-19.25000000000001
 31
0
  0
LINE
  8
1
 62
2
 10
-70.5090056748665
 20
-33.65000000000001
 30
0
 11
-70.5090056748665
 21
-27.25000000000001
 31
0
  0
LINE
  8
1
 62
2
 10
-36.04376356510796
 20
-19.25000000000001
 30
0
 11
-71.5090056748665
 21
-19.25000000000001
 31
0
  0
LINE
  8
1
 62
2
 10
-50.04376356510795
 20
-27.25000000000001
 30
0
 11
-71.5090056748665
 21
-27.25000000000001
 31
0
  0
SOLID
  8
1
 62
2
 10
-70.5090056748665
 20
-19.25000000000001
 30
0
 11
-70.9250056748665
 21
-16.05000000000001
 31
0
 12
-70.0930056748665
 22
-16.05000000000001
 32
0
 13
-70.0930056748665
 23
-16.05000000000001
 33
0
  0
SOLID
  8
1
 62
2
 10
-70.5090056748665
 20
-27.25000000000001
 30
0
 11
-70.0930056748665
 21
-30.45000000000001
 31
0
 12
-70.9250056748665
 22
-30.45000000000001
 32
0
 13
-70.9250056748665
 23
-30.45000000000001
 33
0
  0
TEXT
  8
1
 62
2
 10
-72.30900567486651
 20
-8.211341307136388
 30
0
 40
3.2
  1
8
 50
90
 41
0.9
  0
TEXT
  8
1
 62
2
 10
-74.38900567486651
 20
-4.691341307136388
 30
0
 40
1.92
  1
 0
 50
90
 41
0.9
  0
TEXT
  8
1
 62
2
 10
-71.5090056748665
 20
-4.691341307136388
 30
0
 40
1.92
  1
-0.02
 50
90
 41
0.9
  0
TEXT
  8
1
 62
2
 10
-72.30900567486651
 20
-11.85578575158083
 30
0
 40
3.2
  1
ƒÓ
 50
90
 41
0.9
  0
ENDBLK
  8
0
  0
BLOCK
  8
1
  2
*D6
 70
1
 10
0
 20
0
 30
0
  0
LINE
  8
1
 62
2
 10
-58.4706918318394
 20
-20.25000000000001
 30
0
 11
-58.4706918318394
 21
-10.6054867277327
 31
0
  0
LINE
  8
1
 62
2
 10
-58.4706918318394
 20
-27.25000000000001
 30
0
 11
-58.4706918318394
 21
-20.25000000000001
 31
0
  0
LINE
  8
1
 62
2
 10
-58.4706918318394
 20
-33.65000000000001
 30
0
 11
-58.4706918318394
 21
-27.25000000000001
 31
0
  0
LINE
  8
1
 62
2
 10
-50.04376356510796
 20
-20.25000000000001
 30
0
 11
-59.4706918318394
 21
-20.25000000000001
 31
0
  0
LINE
  8
1
 62
2
 10
-50.04376356510796
 20
-27.25000000000001
 30
0
 11
-59.4706918318394
 21
-27.25000000000001
 31
0
  0
SOLID
  8
1
 62
2
 10
-58.4706918318394
 20
-20.25000000000001
 30
0
 11
-58.8866918318394
 21
-17.05000000000001
 31
0
 12
-58.0546918318394
 22
-17.05000000000001
 32
0
 13
-58.0546918318394
 23
-17.05000000000001
 33
0
  0
SOLID
  8
1
 62
2
 10
-58.4706918318394
 20
-27.25000000000001
 30
0
 11
-58.0546918318394
 21
-30.45000000000001
 31
0
 12
-58.8866918318394
 22
-30.45000000000001
 32
0
 13
-58.8866918318394
 23
-30.45000000000001
 33
0
  0
TEXT
  8
1
 62
2
 10
-59.4706918318394
 20
-12.5254867277327
 30
0
 40
3.2
  1
7
 50
90
 41
0.9
  0
ENDBLK
  8
0
  0
BLOCK
  8
1
  2
*D7
 70
1
 10
0
 20
0
 30
0
  0
LINE
  8
1
 62
2
 10
-144.9999999999998
 20
69.17584480074061
 30
0
 11
-84.99999999999996
 21
69.17584480074061
 31
0
  0
LINE
  8
1
 62
2
 10
-84.99999999999996
 20
44.25000000000001
 30
0
 11
-84.99999999999996
 21
70.17584480074061
 31
0
  0
LINE
  8
1
 62
2
 10
-144.9999999999998
 20
44.25000000000001
 30
0
 11
-144.9999999999998
 21
70.17584480074061
 31
0
  0
SOLID
  8
1
 62
2
 10
-144.9999999999998
 20
69.17584480074061
 30
0
 11
-141.7999999999998
 21
69.5918448007406
 31
0
 12
-141.7999999999998
 22
68.75984480074061
 32
0
 13
-141.7999999999998
 23
68.75984480074061
 33
0
  0
SOLID
  8
1
 62
2
 10
-84.99999999999996
 20
69.17584480074061
 30
0
 11
-88.19999999999996
 21
68.75984480074061
 31
0
 12
-88.19999999999996
 22
69.5918448007406
 32
0
 13
-88.19999999999996
 23
69.5918448007406
 33
0
  0
TEXT
  8
1
 62
2
 10
-117.3999999999999
 20
70.17584480074061
 30
0
 40
3.2
  1
60
 41
0.9
  0
ENDBLK
  8
0
  0
BLOCK
  8
1
  2
*D8
 70
1
 10
0
 20
0
 30
0
  0
LINE
  8
1
 62
2
 10
-167.0352794982607
 20
-47.25000000000001
 30
0
 11
-167.0352794982607
 21
47.25000000000001
 31
0
  0
LINE
  8
1
 62
2
 10
-142
 20
-47.25000000000001
 30
0
 11
-168.0352794982607
 21
-47.25000000000001
 31
0
  0
LINE
  8
1
 62
2
 10
-142
 20
47.25000000000001
 30
0
 11
-168.0352794982607
 21
47.25000000000001
 31
0
  0
SOLID
  8
1
 62
2
 10
-167.0352794982607
 20
-47.25000000000001
 30
0
 11
-167.4512794982607
 21
-44.05
 31
0
 12
-166.6192794982607
 22
-44.05
 32
0
 13
-166.6192794982607
 23
-44.05
 33
0
  0
SOLID
  8
1
 62
2
 10
-167.0352794982607
 20
47.25000000000001
 30
0
 11
-166.6192794982607
 21
44.05
 31
0
 12
-167.4512794982607
 22
44.05
 32
0
 13
-167.4512794982607
 23
44.05
 33
0
  0
TEXT
  8
1
 62
2
 10
-168.0352794982607
 20
-4.359999999999986
 30
0
 40
3.2
  1
94.5
 50
90
 41
0.9
  0
ENDBLK
  8
0
  0
BLOCK
  8
1
  2
*D9
 70
1
 10
0
 20
0
 30
0
  0
LINE
  8
1
 62
2
 10
-155
 20
-47.25000000000001
 30
0
 11
-155
 21
-23.25000000000001
 31
0
  0
LINE
  8
1
 62
2
 10
-141.9999999999999
 20
-47.25000000000001
 30
0
 11
-156
 21
-47.25000000000001
 31
0
  0
LINE
  8
1
 62
2
 10
-145.9999999999999
 20
-23.25000000000001
 30
0
 11
-156
 21
-23.25000000000001
 31
0
  0
SOLID
  8
1
 62
2
 10
-155
 20
-23.25000000000001
 30
0
 11
-154.584
 21
-26.45000000000001
 31
0
 12
-155.416
 22
-26.45000000000001
 32
0
 13
-155.416
 23
-26.45000000000001
 33
0
  0
SOLID
  8
1
 62
2
 10
-155
 20
-47.25000000000001
 30
0
 11
-155.416
 21
-44.05
 31
0
 12
-154.584
 22
-44.05
 32
0
 13
-154.584
 23
-44.05
 33
0
  0
TEXT
  8
1
 62
2
 10
-156
 20
-37.65000000000001
 30
0
 40
3.2
  1
24
 50
90
 41
0.9
  0
ENDBLK
  8
0
  0
BLOCK
  8
1
  2
*D10
 70
1
 10
0
 20
0
 30
0
  0
LINE
  8
1
 62
2
 10
-155
 20
-23.25000000000001
 30
0
 11
-155
 21
16.75000000000001
 31
0
  0
LINE
  8
1
 62
2
 10
-145.9999999999999
 20
-23.25000000000001
 30
0
 11
-156
 21
-23.25000000000001
 31
0
  0
LINE
  8
1
 62
2
 10
-145.9999999999999
 20
16.75000000000001
 30
0
 11
-156
 21
16.75000000000001
 31
0
  0
SOLID
  8
1
 62
2
 10
-155
 20
16.75000000000001
 30
0
 11
-154.584
 21
13.55000000000001
 31
0
 12
-155.416
 22
13.55000000000001
 32
0
 13
-155.416
 23
13.55000000000001
 33
0
  0
SOLID
  8
1
 62
2
 10
-155
 20
-23.25000000000001
 30
0
 11
-155.416
 21
-20.05000000000002
 31
0
 12
-154.584
 22
-20.05000000000002
 32
0
 13
-154.584
 23
-20.05000000000002
 33
0
  0
TEXT
  8
1
 62
2
 10
-156
 20
-8.874000000000017
 30
0
 40
3.2
  1
40
 50
90
 41
0.9
  0
TEXT
  8
1
 62
2
 10
-156.64
 20
-2.474000000000014
 30
0
 40
1.92
  1
%%p0.3
 50
90
 41
0.9
  0
ENDBLK
  8
0
  0
BLOCK
  8
1
  2
*D11
 70
1
 10
0
 20
0
 30
0
  0
LINE
  8
1
 62
2
 10
-155
 20
31.25000000000001
 30
0
 11
-155
 21
47.25000000000001
 31
0
  0
LINE
  8
1
 62
2
 10
-122
 20
31.25000000000001
 30
0
 11
-156
 21
31.25000000000001
 31
0
  0
LINE
  8
1
 62
2
 10
-142
 20
47.25000000000001
 30
0
 11
-156
 21
47.25000000000001
 31
0
  0
SOLID
  8
1
 62
2
 10
-155
 20
31.25000000000001
 30
0
 11
-155.416
 21
34.45000000000001
 31
0
 12
-154.584
 22
34.45000000000001
 32
0
 13
-154.584
 23
34.45000000000001
 33
0
  0
SOLID
  8
1
 62
2
 10
-155
 20
47.25000000000001
 30
0
 11
-154.584
 21
44.05
 31
0
 12
-155.416
 22
44.05
 32
0
 13
-155.416
 23
44.05
 33
0
  0
TEXT
  8
1
 62
2
 10
-156
 20
37.33000000000001
 30
0
 40
3.2
  1
16
 50
90
 41
0.9
  0
ENDBLK
  8
0
  0
BLOCK
  8
1
  2
*D12
 70
1
 10
0
 20
0
 30
0
  0
LINE
  8
1
 62
2
 10
-134.9999999999998
 20
57.2470510888472
 30
0
 11
-94.99999999999996
 21
57.2470510888472
 31
0
  0
LINE
  8
1
 62
2
 10
-94.99999999999996
 20
48.3593059936909
 30
0
 11
-94.99999999999996
 21
58.2470510888472
 31
0
  0
LINE
  8
1
 62
2
 10
-134.9999999999998
 20
48.25000000000001
 30
0
 11
-134.9999999999998
 21
58.2470510888472
 31
0
  0
SOLID
  8
1
 62
2
 10
-134.9999999999998
 20
57.2470510888472
 30
0
 11
-131.7999999999998
 21
57.6630510888472
 31
0
 12
-131.7999999999998
 22
56.8310510888472
 32
0
 13
-131.7999999999998
 23
56.8310510888472
 33
0
  0
SOLID
  8
1
 62
2
 10
-94.99999999999996
 20
57.2470510888472
 30
0
 11
-98.19999999999996
 21
56.8310510888472
 31
0
 12
-98.19999999999996
 22
57.6630510888472
 32
0
 13
-98.19999999999996
 23
57.6630510888472
 33
0
  0
TEXT
  8
1
 62
2
 10
-120.6239999999999
 20
58.2470510888472
 30
0
 40
3.2
  1
40
 41
0.9
  0
TEXT
  8
1
 62
2
 10
-114.2239999999999
 20
58.8870510888472
 30
0
 40
1.92
  1
%%p0.3
 41
0.9
  0
ENDBLK
  8
0
  0
BLOCK
  8
1
  2
*D13
 70
1
 10
0
 20
0
 30
0
  0
LINE
  8
1
 62
2
 10
-49.04376356510796
 20
-0.2499999999999889
 30
0
 11
-32.04376356510795
 21
-0.2499999999999889
 31
0
  0
LINE
  8
1
 62
2
 10
-49.04376356510796
 20
-19.25000000000001
 30
0
 11
-49.04376356510796
 21
0.7500000000000111
 31
0
  0
LINE
  8
1
 62
2
 10
-32.04376356510795
 20
-17.7229932327033
 30
0
 11
-32.04376356510795
 21
0.7500000000000111
 31
0
  0
SOLID
  8
1
 62
2
 10
-49.04376356510796
 20
-0.2499999999999889
 30
0
 11
-45.84376356510796
 21
0.1660000000000112
 31
0
 12
-45.84376356510796
 22
-0.6659999999999891
 32
0
 13
-45.84376356510796
 23
-0.6659999999999891
 33
0
  0
SOLID
  8
1
 62
2
 10
-32.04376356510795
 20
-0.2499999999999889
 30
0
 11
-35.24376356510796
 21
-0.6659999999999883
 31
0
 12
-35.24376356510796
 22
0.1660000000000113
 32
0
 13
-35.24376356510796
 23
0.1660000000000113
 33
0
  0
TEXT
  8
1
 62
2
 10
-42.46376356510795
 20
0.7500000000000111
 30
0
 40
3.2
  1
17
 41
0.9
  0
ENDBLK
  8
0
  0
BLOCK
  8
1
  2
*D14
 70
1
 10
0
 20
0
 30
0
  0
LINE
  8
1
 62
2
 10
-25.14376356510795
 20
9.749999999999981
 30
0
 11
-31.54376356510795
 21
9.749999999999981
 31
0
  0
LINE
  8
1
 62
2
 10
-32.04376356510795
 20
9.749999999999981
 30
0
 11
-31.54376356510795
 21
9.749999999999981
 31
0
  0
LINE
  8
1
 62
2
 10
-32.04376356510795
 20
9.749999999999981
 30
0
 11
-43.03549364453793
 21
9.749999999999981
 31
0
  0
LINE
  8
1
 62
2
 10
-32.04376356510795
 20
-17.7229932327033
 30
0
 11
-32.04376356510795
 21
10.74999999999998
 31
0
  0
LINE
  8
1
 62
2
 10
-31.54376356510795
 20
-15.21301556963091
 30
0
 11
-31.54376356510795
 21
10.74999999999998
 31
0
  0
SOLID
  8
1
 62
2
 10
-32.04376356510795
 20
9.749999999999981
 30
0
 11
-35.24376356510796
 21
9.333999999999982
 31
0
 12
-35.24376356510796
 22
10.16599999999998
 32
0
 13
-35.24376356510796
 23
10.16599999999998
 33
0
  0
SOLID
  8
1
 62
2
 10
-31.54376356510795
 20
9.749999999999981
 30
0
 11
-28.34376356510795
 21
10.16599999999998
 31
0
 12
-28.34376356510795
 22
9.33399999999998
 32
0
 13
-28.34376356510795
 23
9.33399999999998
 33
0
  0
TEXT
  8
1
 62
2
 10
-43.03549364453793
 20
10.74999999999998
 30
0
 40
3.2
  1
0.5
 41
0.9
  0
ENDBLK
  8
0
  0
BLOCK
  8
1
  2
*D15
 70
1
 10
0
 20
0
 30
0
  0
LINE
  8
1
 62
2
 10
78.07714823924687
 20
12.86693942041256
 30
0
 11
66.18341822268675
 21
12.86693942041256
 31
0
  0
LINE
  8
1
 62
2
 10
78.07714823924687
 20
12.86693942041256
 30
0
 11
81.07714823924687
 21
12.86693942041256
 31
0
  0
LINE
  8
1
 62
2
 10
87.47714823924687
 20
12.86693942041256
 30
0
 11
81.07714823924687
 21
12.86693942041256
 31
0
  0
LINE
  8
1
 62
2
 10
81.07714823924687
 20
42.8989822888847
 30
0
 11
81.07714823924687
 21
11.86693942041256
 31
0
  0
LINE
  8
1
 62
2
 10
78.07714823924687
 20
42.5039822888846
 30
0
 11
78.07714823924687
 21
11.86693942041256
 31
0
  0
SOLID
  8
1
 62
2
 10
81.07714823924687
 20
12.86693942041256
 30
0
 11
84.27714823924687
 21
13.28293942041256
 31
0
 12
84.27714823924687
 22
12.45093942041256
 32
0
 13
84.27714823924687
 23
12.45093942041256
 33
0
  0
SOLID
  8
1
 62
2
 10
78.07714823924687
 20
12.86693942041256
 30
0
 11
74.87714823924686
 21
12.45093942041256
 31
0
 12
74.87714823924686
 22
13.28293942041256
 32
0
 13
74.87714823924686
 23
13.28293942041256
 33
0
  0
TEXT
  8
1
 62
2
 10
68.26341822268675
 20
13.86693942041256
 30
0
 40
3.2
  1
3
 41
0.9
  0
TEXT
  8
1
 62
2
 10
66.18341822268674
 20
13.86693942041256
 30
0
 40
3.2
  1
(
 41
0.9
  0
TEXT
  8
1
 62
2
 10
71.78341822268675
 20
13.86693942041256
 30
0
 40
3.2
  1
)
 41
0.9
  0
ENDBLK
  8
0
  0
BLOCK
  8
1
  2
*D16
 70
1
 10
0
 20
0
 30
0
  0
LINE
  8
1
 62
2
 10
25.35623643489076
 20
-4.750000000000007
 30
0
 11
81.07714823924687
 21
-4.750000000000007
 31
0
  0
LINE
  8
1
 62
2
 10
25.35623643489076
 20
15.25
 30
0
 11
25.35623643489076
 21
-5.750000000000007
 31
0
  0
LINE
  8
1
 62
2
 10
81.07714823924687
 20
42.8989822888847
 30
0
 11
81.07714823924687
 21
-5.750000000000007
 31
0
  0
SOLID
  8
1
 62
2
 10
25.35623643489076
 20
-4.750000000000007
 30
0
 11
28.55623643489076
 21
-4.334000000000007
 31
0
 12
28.55623643489076
 22
-5.166000000000008
 32
0
 13
28.55623643489076
 23
-5.166000000000008
 33
0
  0
SOLID
  8
1
 62
2
 10
81.07714823924687
 20
-4.750000000000007
 30
0
 11
77.87714823924686
 21
-5.166000000000007
 31
0
 12
77.87714823924686
 22
-4.334000000000007
 32
0
 13
77.87714823924686
 23
-4.334000000000007
 33
0
  0
TEXT
  8
1
 62
2
 10
50.47619973516744
 20
-2.950000000000007
 30
0
 40
3.2
  1
300
 41
0.9
  0
TEXT
  8
1
 62
2
 10
59.75619973516744
 20
-0.870000000000007
 30
0
 40
1.92
  1
+30
 41
0.9
  0
TEXT
  8
1
 62
2
 10
61.48419973516744
 20
-3.750000000000007
 30
0
 40
1.92
  1
 0
 41
0.9
  0
ENDBLK
  8
0
  0
BLOCK
  8
1
  2
*D17
 70
1
 10
0
 20
0
 30
0
  0
LINE
  8
1
 62
2
 10
18.95623643489076
 20
57.1985923413702
 30
0
 11
25.35623643489076
 21
57.1985923413702
 31
0
  0
LINE
  8
1
 62
2
 10
25.35623643489076
 20
57.1985923413702
 30
0
 11
26.55623643489081
 21
57.1985923413702
 31
0
  0
LINE
  8
1
 62
2
 10
26.55623643489081
 20
57.1985923413702
 30
0
 11
39.9330780504782
 21
57.1985923413702
 31
0
  0
LINE
  8
1
 62
2
 10
25.35623643489076
 20
47.24999999999999
 30
0
 11
25.35623643489076
 21
58.1985923413702
 31
0
  0
LINE
  8
1
 62
2
 10
26.55623643489081
 20
36.84999999999987
 30
0
 11
26.55623643489081
 21
58.1985923413702
 31
0
  0
SOLID
  8
1
 62
2
 10
25.35623643489076
 20
57.1985923413702
 30
0
 11
22.15623643489076
 21
56.7825923413702
 31
0
 12
22.15623643489076
 22
57.6145923413702
 32
0
 13
22.15623643489076
 23
57.6145923413702
 33
0
  0
SOLID
  8
1
 62
2
 10
26.55623643489081
 20
57.1985923413702
 30
0
 11
29.75623643489081
 21
57.6145923413702
 31
0
 12
29.75623643489081
 22
56.7825923413702
 32
0
 13
29.75623643489081
 23
56.7825923413702
 33
0
  0
TEXT
  8
1
 62
2
 10
32.9730780504782
 20
58.1985923413702
 30
0
 40
3.2
  1
1.2
 41
0.9
  0
TEXT
  8
1
 62
2
 10
30.8930780504782
 20
58.1985923413702
 30
0
 40
3.2
  1
(
 41
0.9
  0
TEXT
  8
1
 62
2
 10
39.4530780504782
 20
58.1985923413702
 30
0
 40
3.2
  1
)
 41
0.9
  0
ENDBLK
  8
0
  0
BLOCK
  8
1
  2
*D18
 70
1
 10
0
 20
0
 30
0
  0
LINE
  8
1
 62
2
 10
45.35623643489087
 20
15.25
 30
0
 11
45.35623643489087
 21
47.24999999999999
 31
0
  0
LINE
  8
1
 62
2
 10
25.35623643489076
 20
47.24999999999999
 30
0
 11
46.35623643489087
 21
47.24999999999999
 31
0
  0
LINE
  8
1
 62
2
 10
25.35623643489076
 20
15.25
 30
0
 11
46.35623643489087
 21
15.25
 31
0
  0
SOLID
  8
1
 62
2
 10
45.35623643489087
 20
47.24999999999999
 30
0
 11
45.77223643489087
 21
44.04999999999998
 31
0
 12
44.94023643489088
 22
44.04999999999998
 32
0
 13
44.94023643489088
 23
44.04999999999998
 33
0
  0
SOLID
  8
1
 62
2
 10
45.35623643489087
 20
15.25
 30
0
 11
44.94023643489087
 21
18.45
 31
0
 12
45.77223643489087
 22
18.45
 32
0
 13
45.77223643489087
 23
18.45
 33
0
  0
TEXT
  8
1
 62
2
 10
44.35623643489087
 20
30.67222222222221
 30
0
 40
3.2
  1
32
 50
90
 41
0.9
  0
TEXT
  8
1
 62
2
 10
44.35623643489087
 20
27.02777777777777
 30
0
 40
3.2
  1
ƒÓ
 50
90
 41
0.9
  0
ENDBLK
  8
0
  0
BLOCK
  8
1
  2
*D19
 70
1
 10
0
 20
0
 30
0
  0
LINE
  8
1
 62
2
 10
-32.04376356510796
 20
69.28288632654871
 30
0
 11
25.35623643489076
 21
69.28288632654871
 31
0
  0
LINE
  8
1
 62
2
 10
-32.04376356510796
 20
22.27700676729667
 30
0
 11
-32.04376356510796
 21
70.28288632654871
 31
0
  0
LINE
  8
1
 62
2
 10
25.35623643489076
 20
46.9939822888846
 30
0
 11
25.35623643489076
 21
70.28288632654871
 31
0
  0
SOLID
  8
1
 62
2
 10
-32.04376356510796
 20
69.28288632654871
 30
0
 11
-28.84376356510796
 21
69.6988863265487
 31
0
 12
-28.84376356510796
 22
68.86688632654871
 32
0
 13
-28.84376356510796
 23
68.86688632654871
 33
0
  0
SOLID
  8
1
 62
2
 10
25.35623643489076
 20
69.28288632654871
 30
0
 11
22.15623643489076
 21
68.86688632654871
 31
0
 12
22.15623643489076
 22
69.6988863265487
 32
0
 13
22.15623643489076
 23
69.6988863265487
 33
0
  0
TEXT
  8
1
 62
2
 10
-7.7037635651086
 20
70.28288632654871
 30
0
 40
3.2
  1
57.4
 41
0.9
  0
ENDBLK
  8
0
  0
BLOCK
  8
1
  2
*D20
 70
1
 10
0
 20
0
 30
0
  0
LINE
  8
1
 62
2
 10
-93.77481856960273
 20
-24.8308005764832
 30
0
 11
-68.60821488298319
 21
-57.3022212403035
 31
0
  0
LINE
  8
1
 62
2
 10
-68.60821488298319
 20
-57.3022212403035
 30
0
 11
-17.64821488298319
 21
-57.3022212403035
 31
0
  0
SOLID
  8
1
 62
2
 10
-93.77481856960273
 20
-24.8308005764832
 30
0
 11
-91.48572176105853
 21
-27.10524376133367
 31
0
 12
-92.14333480087554
 22
-27.61491923637895
 32
0
 13
-92.14333480087554
 23
-27.61491923637895
 33
0
  0
TEXT
  8
1
 62
2
 10
-54.12821488298319
 20
-56.3022212403035
 30
0
 40
3.2
  1
4
 41
0.9
  0
TEXT
  8
1
 62
2
 10
-63.40821488298319
 20
-56.3022212403035
 30
0
 40
3.2
  1
4-M
 41
0.9
  0
TEXT
  8
1
 62
2
 10
-50.60821488298319
 20
-56.3022212403035
 30
0
 40
3.2
  1
 DEPTH 6MAX
 41
0.9
  0
ENDBLK
  8
0
  0
ENDSEC
  0
SECTION
  2
ENTITIES
  0
LINE
  8
1
 62
3
 10
157.75
 20
31.25000000000001
 30
0
 11
172.6938493032267
 21
31.25000000000001
 31
0
  0
LINE
  8
1
 62
7
 10
159.2867489613315
 20
18.64490568738788
 30
0
 11
157.75
 21
31.25000000000001
 31
0
  0
LINE
  8
1
 62
3
 10
110
 20
-18.25000000000001
 30
0
 11
119
 21
-18.25000000000001
 31
0
  0
LINE
  8
1
 62
3
 10
114.5
 20
-13.75000000000001
 30
0
 11
114.5
 21
-22.75000000000001
 31
0
  0
LINE
  8
1
 62
3
 10
165.5
 20
-38.25000000000001
 30
0
 11
165.5
 21
-47.25000000000001
 31
0
  0
LINE
  8
1
 62
3
 10
161
 20
-42.75000000000001
 30
0
 11
170
 21
-42.75000000000001
 31
0
  0
LINE
  8
1
 62
3
 10
165.5
 20
14.25000000000001
 30
0
 11
165.5
 21
5.250000000000014
 31
0
  0
LINE
  8
1
 62
3
 10
161
 20
9.750000000000014
 30
0
 11
170
 21
9.750000000000014
 31
0
  0
LINE
  8
1
 62
7
 10
152.9903810567709
 20
23.74999999999726
 30
0
 11
152.99038105677
 21
23.74999999999613
 31
0
  0
LINE
  8
1
 62
7
 10
152.9903810567709
 20
23.74999999999726
 30
0
 11
152.200899669262
 21
24.06364854319251
 31
0
  0
LINE
  8
1
 62
7
 10
153.8564064605549
 20
23.24999999999743
 30
0
 11
152.9903810567709
 21
23.74999999999726
 31
0
  0
LINE
  8
1
 62
7
 10
152.99038105677
 20
23.74999999999613
 30
0
 11
152.9903810567709
 21
23.74999999999726
 31
0
  0
LINE
  8
1
 62
7
 10
153.8564064605549
 20
23.24999999999613
 30
0
 11
153.8564064605549
 21
23.24999999999743
 31
0
  0
LINE
  8
1
 62
7
 10
150.866841246586
 20
21.73231967960714
 30
0
 11
151.2797247722189
 21
22.69001115286124
 31
0
  0
LINE
  8
1
 62
7
 10
147.500000000004
 20
18.25961894322955
 30
0
 11
148.000000000004
 21
17.39359353944512
 31
0
  0
LINE
  8
1
 62
7
 10
147.186351456808
 20
19.04910033073865
 30
0
 11
147.500000000004
 21
18.25961894322955
 31
0
  0
LINE
  8
1
 62
7
 10
149.57152551963
 20
20.34247540815532
 30
0
 11
148.538237379962
 21
19.95380141624786
 31
0
  0
LINE
  8
1
 62
7
 10
127.0096189432331
 20
38.74999999999886
 30
0
 11
127.009618943234
 21
38.74999999999999
 31
0
  0
LINE
  8
1
 62
7
 10
127.0096189432331
 20
38.74999999999886
 30
0
 11
127.799100330742
 21
38.43635145680361
 31
0
  0
LINE
  8
1
 62
7
 10
126.1435935394491
 20
39.24999999999869
 30
0
 11
127.0096189432331
 21
38.74999999999886
 31
0
  0
LINE
  8
1
 62
7
 10
132.5
 20
44.24038105676657
 30
0
 11
132
 21
45.106406460551
 31
0
  0
LINE
  8
1
 62
7
 10
127.009618943234
 20
38.74999999999999
 30
0
 11
127.0096189432331
 21
38.74999999999886
 31
0
  0
LINE
  8
1
 62
7
 10
126.1435935394491
 20
39.24999999999999
 30
0
 11
126.1435935394491
 21
39.24999999999869
 31
0
  0
LINE
  8
1
 62
7
 10
143
 20
46.96623364550169
 30
0
 11
143
 21
41.04999999999995
 31
0
  0
LINE
  8
1
 62
7
 10
137
 20
46.96623364550169
 30
0
 11
137
 21
41.04999999999995
 31
0
  0
LINE
  8
1
 62
7
 10
137
 20
41.04999999999995
 30
0
 11
143
 21
41.04999999999995
 31
0
  0
LINE
  8
1
 62
3
 10
133.2
 20
20.13244816332798
 30
0
 11
133.2
 21
13.73311985232897
 31
0
  0
LINE
  8
1
 62
3
 10
153.3
 20
46.233079364373
 30
0
 11
153.3
 21
38.970920269867
 31
0
  0
LINE
  8
1
 62
3
 10
126.7
 20
47.24999999999999
 30
0
 11
126.7
 21
38.68331000869898
 31
0
  0
LINE
  8
1
 62
3
 10
130.4171798959201
 20
16.75
 30
0
 11
136.450390084465
 21
16.75
 31
0
  0
LINE
  8
1
 62
3
 10
150.1129386781931
 20
42.74999999999999
 30
0
 11
156.310901044885
 21
42.74999999999999
 31
0
  0
LINE
  8
1
 62
3
 10
122.976988059924
 20
42.74999999999999
 30
0
 11
130.28740521038
 21
42.74999999999999
 31
0
  0
LINE
  8
1
 62
7
 10
132.813648543196
 20
43.45089966925747
 30
0
 11
132.5
 21
44.24038105676657
 31
0
  0
LINE
  8
1
 62
7
 10
130.428474480374
 20
42.1575245918408
 30
0
 11
131.461762620042
 21
42.54619858374826
 31
0
  0
LINE
  8
1
 62
7
 10
129.133158753418
 20
40.76768032038898
 30
0
 11
128.7202752277851
 21
39.80998884713488
 31
0
  0
LINE
  8
1
 62
2
 10
-68.23444370544375
 20
-64.25000000000001
 30
0
 11
-17.73444370544374
 21
-64.25000000000001
 31
0
  0
LINE
  8
1
 62
3
 10
169
 20
-42.75000000000001
 30
0
 11
169.4160916152368
 21
-42.75000000000001
 31
0
  0
LINE
  8
1
 62
3
 10
111.25
 20
16.75000000000001
 30
0
 11
120.25
 21
16.75000000000001
 31
0
  0
LINE
  8
1
 62
7
 10
161.2573593128807
 20
-35.67893218813451
 30
0
 11
153.456296932178
 21
-27.87786980743191
 31
0
  0
LINE
  8
1
 62
7
 10
150.6278698074318
 20
-30.70629693217809
 30
0
 11
158.4289321881345
 21
-38.50735931288069
 31
0
  0
LINE
  8
1
 62
7
 10
131.0723679650869
 20
-32.59476973952572
 30
0
 11
122.0766998289794
 21
-39.47381007890199
 31
0
  0
LINE
  8
1
 62
7
 10
119.6468993986962
 20
-36.2963787469932
 30
0
 11
128.6425675348037
 21
-29.4173384076169
 31
0
  0
LINE
  8
1
 62
7
 10
122.736769469557
 20
-17.82696868655061
 30
0
 11
128.1153487450158
 21
-18.8815920738955
 31
0
  0
LINE
  8
1
 62
7
 10
121.9671116266729
 20
-21.75222368525921
 30
0
 11
127.3456909021317
 21
-22.8068470726041
 31
0
  0
LINE
  8
1
 62
7
 10
122.5
 20
-10.75000000000001
 30
0
 11
122.5
 21
9.250000000000014
 31
0
  0
LINE
  8
1
 62
7
 10
120
 20
9.250000000000014
 30
0
 11
120
 21
-10.755811097706
 31
0
  0
LINE
  8
1
 62
7
 10
162.1909899941781
 20
2.196824986711093
 30
0
 11
149.409098016554
 21
-14.3444469843319
 31
0
  0
LINE
  8
1
 62
7
 10
146.2439580109853
 20
-11.8986569800288
 30
0
 11
159.0258499886097
 21
4.642614991014185
 31
0
  0
LINE
  8
1
 62
7
 10
155
 20
16.75000000000001
 30
0
 11
155
 21
6.750000000000014
 31
0
  0
LINE
  8
1
 62
7
 10
152.5
 20
16.75000000000001
 30
0
 11
152.5
 21
6.750000000000014
 31
0
  0
LINE
  8
1
 62
3
 10
140
 20
-51.25000000000001
 30
0
 11
140
 21
51.24999999999999
 31
0
  0
LINE
  8
1
 62
7
 10
114
 20
-47.25000000000001
 30
0
 11
166
 21
-47.25000000000001
 31
0
  0
LINE
  8
1
 62
7
 10
110
 20
-43.25000000000001
 30
0
 11
110
 21
43.25000000000001
 31
0
  0
LINE
  8
1
 62
7
 10
157.75
 20
43.25000000000001
 30
0
 11
157.75
 21
31.25000000000001
 31
0
  0
LINE
  8
1
 62
7
 10
114
 20
47.25000000000001
 30
0
 11
166
 21
47.25000000000001
 31
0
  0
LINE
  8
1
 62
7
 10
164.25
 20
14.25000000000001
 30
0
 11
167.5
 21
14.25000000000001
 31
0
  0
LINE
  8
1
 62
3
 10
129.2000000000001
 20
-23.25000000000001
 30
0
 11
150.8
 21
-23.25000000000001
 31
0
  0
LINE
  8
1
 62
7
 10
122.25
 20
31.25000000000001
 30
0
 11
122.25
 21
43.25000000000001
 31
0
  0
LINE
  8
1
 62
7
 10
115.75
 20
24.75000000000001
 30
0
 11
112.5
 21
24.75000000000001
 31
0
  0
LINE
  8
1
 62
7
 10
170
 20
-43.25000000000001
 30
0
 11
170
 21
43.25000000000004
 31
0
  0
LINE
  8
1
 62
3
 10
142.8820198137628
 20
8.149999999999992
 30
0
 11
149.5982349293129
 21
8.149999999999992
 31
0
  0
LINE
  8
1
 62
3
 10
130.0756774324168
 20
0.2199999999999847
 30
0
 11
136.1658046982129
 21
0.2199999999999847
 31
0
  0
LINE
  8
1
 62
3
 10
125.977647870387
 20
-1.850000000000009
 30
0
 11
131.6124385181788
 21
-1.850000000000009
 31
0
  0
LINE
  8
1
 62
3
 10
111.033409923285
 20
-42.75000000000001
 30
0
 11
117.8376020048918
 21
-42.75000000000001
 31
0
  0
LINE
  8
1
 62
3
 10
115.75
 20
21.25000000000001
 30
0
 11
115.75
 21
12.25000000000001
 31
0
  0
LINE
  8
1
 62
3
 10
146.2999999999997
 20
11.64794545885702
 30
0
 11
146.2999999999997
 21
4.745299190811991
 31
0
  0
LINE
  8
1
 62
3
 10
133.1999999999998
 20
3.666760711430001
 30
0
 11
133.1999999999998
 21
-2.804470164861996
 31
0
  0
LINE
  8
1
 62
3
 10
128.7999999999997
 20
1.150170926205007
 30
0
 11
128.7999999999997
 21
-4.889644558334012
 31
0
  0
LINE
  8
1
 62
3
 10
114.5
 20
-39.32394952935
 30
0
 11
114.5
 21
-46.066949151842
 31
0
  0
LINE
  8
1
 62
7
 10
135.0028307636121
 20
-19.0932825904447
 30
0
 11
139.4327985208074
 21
-16.77479479228641
 31
0
  0
LINE
  8
1
 62
7
 10
140.5672014791921
 20
-29.72520520771361
 30
0
 11
144.9971692363874
 21
-27.40671740955541
 31
0
  0
LINE
  8
1
 62
7
 10
134.1805400027026
 20
-18.05636106955289
 30
0
 11
139.0494756266748
 21
-15.5081330794366
 31
0
  0
LINE
  8
1
 62
7
 10
140.9505243733251
 20
-30.9918669205634
 30
0
 11
145.8194599972971
 21
-28.44363893044719
 31
0
  0
LINE
  8
1
 62
7
 10
114
 20
36.75000000000001
 30
0
 11
119
 21
36.75000000000001
 31
0
  0
LINE
  8
1
 62
7
 10
121.5
 20
39.25000000000001
 30
0
 11
121.5
 21
43.25000000000001
 31
0
  0
LINE
  8
1
 62
7
 10
119
 20
45.75000000000001
 30
0
 11
114
 21
45.75000000000001
 31
0
  0
LINE
  8
1
 62
7
 10
111.5
 20
43.25000000000001
 30
0
 11
111.5
 21
39.25000000000001
 31
0
  0
LINE
  8
1
 62
7
 10
158.5
 20
43.25000000000001
 30
0
 11
158.5
 21
39.25000000000001
 31
0
  0
LINE
  8
1
 62
7
 10
161
 20
36.75000000000001
 30
0
 11
166
 21
36.75000000000001
 31
0
  0
LINE
  8
1
 62
7
 10
168.5
 20
39.25000000000001
 30
0
 11
168.5
 21
43.25000000000001
 31
0
  0
LINE
  8
1
 62
7
 10
166
 20
45.75000000000001
 30
0
 11
161
 21
45.75000000000001
 31
0
  0
LINE
  8
1
 62
3
 10
106.5465326903838
 20
31.25000000000001
 30
0
 11
157.75
 21
31.25000000000001
 31
0
  0
LINE
  8
1
 62
3
 10
158.4442108240314
 20
19.25000000000001
 30
0
 11
170
 21
19.25000000000001
 31
0
  0
LINE
  8
1
 62
3
 10
164.25
 20
13.25000000000001
 30
0
 11
164.25
 21
25.25000000000001
 31
0
  0
LINE
  8
1
 62
7
 10
115.35
 20
18.34999999999998
 30
0
 11
115.35
 21
18.95
 31
0
  0
LINE
  8
1
 62
7
 10
115.45
 20
19.04999999999997
 30
0
 11
116.0499999999999
 21
19.04999999999997
 31
0
  0
LINE
  8
1
 62
7
 10
116.15
 20
18.95
 30
0
 11
116.15
 21
18.34999999999998
 31
0
  0
LINE
  8
1
 62
7
 10
117.35
 20
17.14999999999999
 30
0
 11
117.9499999999999
 21
17.14999999999999
 31
0
  0
LINE
  8
1
 62
7
 10
118.0499999999999
 20
17.04999999999997
 30
0
 11
118.0499999999999
 21
16.45
 31
0
  0
LINE
  8
1
 62
7
 10
117.9499999999999
 20
16.34999999999998
 30
0
 11
117.35
 21
16.34999999999998
 31
0
  0
LINE
  8
1
 62
7
 10
116.15
 20
15.14999999999999
 30
0
 11
116.15
 21
14.54999999999997
 31
0
  0
LINE
  8
1
 62
7
 10
116.0499999999999
 20
14.45
 30
0
 11
115.45
 21
14.45
 31
0
  0
LINE
  8
1
 62
7
 10
115.35
 20
14.54999999999997
 30
0
 11
115.35
 21
15.14999999999999
 31
0
  0
LINE
  8
1
 62
7
 10
114.15
 20
16.34999999999998
 30
0
 11
113.5500000000001
 21
16.34999999999998
 31
0
  0
LINE
  8
1
 62
7
 10
113.45
 20
16.45
 30
0
 11
113.45
 21
17.04999999999997
 31
0
  0
LINE
  8
1
 62
7
 10
113.5500000000001
 20
17.14999999999999
 30
0
 11
114.15
 21
17.14999999999999
 31
0
  0
LINE
  8
1
 62
7
 10
165.1
 20
11.34999999999998
 30
0
 11
165.1
 21
11.95
 31
0
  0
LINE
  8
1
 62
7
 10
165.2
 20
12.04999999999997
 30
0
 11
165.7999999999999
 21
12.04999999999997
 31
0
  0
LINE
  8
1
 62
7
 10
165.9
 20
11.95
 30
0
 11
165.9
 21
11.34999999999998
 31
0
  0
LINE
  8
1
 62
7
 10
167.1
 20
10.14999999999999
 30
0
 11
167.6999999999999
 21
10.14999999999999
 31
0
  0
LINE
  8
1
 62
7
 10
167.7999999999999
 20
10.04999999999997
 30
0
 11
167.7999999999999
 21
9.450000000000003
 31
0
  0
LINE
  8
1
 62
7
 10
167.6999999999999
 20
9.34999999999998
 30
0
 11
167.1
 21
9.34999999999998
 31
0
  0
LINE
  8
1
 62
7
 10
165.9
 20
8.149999999999992
 30
0
 11
165.9
 21
7.549999999999969
 31
0
  0
LINE
  8
1
 62
7
 10
165.7999999999999
 20
7.450000000000003
 30
0
 11
165.2
 21
7.450000000000003
 31
0
  0
LINE
  8
1
 62
7
 10
165.1
 20
7.549999999999969
 30
0
 11
165.1
 21
8.149999999999992
 31
0
  0
LINE
  8
1
 62
7
 10
163.9
 20
9.34999999999998
 30
0
 11
163.3000000000001
 21
9.34999999999998
 31
0
  0
LINE
  8
1
 62
7
 10
163.2
 20
9.450000000000003
 30
0
 11
163.2
 21
10.04999999999997
 31
0
  0
LINE
  8
1
 62
7
 10
163.3000000000001
 20
10.14999999999999
 30
0
 11
163.9
 21
10.14999999999999
 31
0
  0
LINE
  8
1
 62
7
 10
114.1
 20
-16.64999999999999
 30
0
 11
114.1
 21
-16.05
 31
0
  0
LINE
  8
1
 62
7
 10
114.2
 20
-15.95
 30
0
 11
114.7999999999999
 21
-15.95
 31
0
  0
LINE
  8
1
 62
7
 10
114.9
 20
-16.05
 30
0
 11
114.9
 21
-16.64999999999999
 31
0
  0
LINE
  8
1
 62
7
 10
116.1
 20
-17.85000000000001
 30
0
 11
116.6999999999999
 21
-17.85000000000001
 31
0
  0
LINE
  8
1
 62
7
 10
116.7999999999999
 20
-17.95
 30
0
 11
116.7999999999999
 21
-18.55
 31
0
  0
LINE
  8
1
 62
7
 10
116.6999999999999
 20
-18.64999999999999
 30
0
 11
116.1
 21
-18.64999999999999
 31
0
  0
LINE
  8
1
 62
7
 10
114.9
 20
-19.85000000000001
 30
0
 11
114.9
 21
-20.45
 31
0
  0
LINE
  8
1
 62
7
 10
114.7999999999999
 20
-20.55
 30
0
 11
114.2
 21
-20.55
 31
0
  0
LINE
  8
1
 62
7
 10
114.1
 20
-20.45
 30
0
 11
114.1
 21
-19.85000000000001
 31
0
  0
LINE
  8
1
 62
7
 10
112.9
 20
-18.64999999999999
 30
0
 11
112.3000000000001
 21
-18.64999999999999
 31
0
  0
LINE
  8
1
 62
7
 10
112.2
 20
-18.55
 30
0
 11
112.2
 21
-17.95
 31
0
  0
LINE
  8
1
 62
7
 10
112.3000000000001
 20
-17.85000000000001
 30
0
 11
112.9
 21
-17.85000000000001
 31
0
  0
LINE
  8
1
 62
7
 10
165.1
 20
-41.14999999999999
 30
0
 11
165.1
 21
-40.55
 31
0
  0
LINE
  8
1
 62
7
 10
165.2
 20
-40.45
 30
0
 11
165.7999999999999
 21
-40.45
 31
0
  0
LINE
  8
1
 62
7
 10
165.9
 20
-40.55
 30
0
 11
165.9
 21
-41.14999999999999
 31
0
  0
LINE
  8
1
 62
7
 10
167.1
 20
-42.35000000000001
 30
0
 11
167.6999999999999
 21
-42.35000000000001
 31
0
  0
LINE
  8
1
 62
7
 10
167.7999999999999
 20
-42.45
 30
0
 11
167.7999999999999
 21
-43.05
 31
0
  0
LINE
  8
1
 62
7
 10
167.6999999999999
 20
-43.14999999999999
 30
0
 11
167.1
 21
-43.14999999999999
 31
0
  0
LINE
  8
1
 62
7
 10
165.9
 20
-44.35000000000001
 30
0
 11
165.9
 21
-44.95
 31
0
  0
LINE
  8
1
 62
7
 10
165.7999999999999
 20
-45.05
 30
0
 11
165.2
 21
-45.05
 31
0
  0
LINE
  8
1
 62
7
 10
165.1
 20
-44.95
 30
0
 11
165.1
 21
-44.35000000000001
 31
0
  0
LINE
  8
1
 62
7
 10
163.9
 20
-43.14999999999999
 30
0
 11
163.3000000000001
 21
-43.14999999999999
 31
0
  0
LINE
  8
1
 62
7
 10
163.2
 20
-43.05
 30
0
 11
163.2
 21
-42.45
 31
0
  0
LINE
  8
1
 62
7
 10
163.3000000000001
 20
-42.35000000000001
 30
0
 11
163.9
 21
-42.35000000000001
 31
0
  0
LINE
  8
1
 62
7
 10
-102.9652930824272
 20
45.02135057081991
 30
0
 11
-115
 21
47.25000000000001
 31
0
  0
LINE
  8
1
 62
3
 10
-101.7000000000001
 20
45.89793268284798
 30
0
 11
-101.7000000000001
 21
39.23958352937179
 31
0
  0
LINE
  8
1
 62
3
 10
-98.64266094480486
 20
42.75000000000007
 30
0
 11
-104.8444375849
 21
42.75000000000007
 31
0
  0
LINE
  8
1
 62
7
 10
-25.54376356510796
 20
4.364285714285714
 30
0
 11
-26.18518492134524
 21
4.272654091966004
 31
0
  0
LINE
  8
1
 62
7
 10
-26.18518492134524
 20
-5.972654091966191
 30
0
 11
-25.54376356510796
 21
-6.064285714285901
 31
0
  0
LINE
  8
1
 62
7
 10
-27.04376356510796
 20
3.282704598304903
 30
0
 11
-27.04376356510796
 21
-4.982704598305091
 31
0
  0
LINE
  8
1
 62
7
 10
-32.04376356510796
 20
21.27700676729667
 30
0
 11
-32.04376356510796
 21
12.22299323270342
 31
0
  0
LINE
  8
1
 62
7
 10
-31.57149857491919
 20
11.72376305610079
 30
0
 11
-23.54376356510796
 21
11.25000000000001
 31
0
  0
LINE
  8
1
 62
7
 10
-23.54376356510796
 20
22.25000000000001
 30
0
 11
-31.57149857491919
 21
21.77623694389941
 31
0
  0
LINE
  8
1
 62
7
 10
-26.18518492134524
 20
22.57265409196602
 30
0
 11
-25.54376356510796
 21
22.66428571428561
 31
0
  0
LINE
  8
1
 62
7
 10
-23.54376356510796
 20
17.7499999999999
 30
0
 11
-25.54376356510796
 21
17.75000000000001
 31
0
  0
LINE
  8
1
 62
7
 10
-25.54376356510796
 20
17.75000000000001
 30
0
 11
-25.54376356510796
 21
15.75000000000001
 31
0
  0
LINE
  8
1
 62
7
 10
-25.54376356510796
 20
15.75000000000001
 30
0
 11
-23.54376356510796
 21
15.75000000000001
 31
0
  0
LINE
  8
1
 62
7
 10
-7.110155084171311
 20
-46.20403352100782
 30
0
 11
-8.335047990833346
 21
-46.24961946980922
 31
0
  0
LINE
  8
1
 62
3
 10
-11.04376356510795
 20
-42.75000000000001
 30
0
 11
-4.443763565108043
 21
-42.75000000000001
 31
0
  0
LINE
  8
1
 62
7
 10
-7.110155084171311
 20
-39.29596647899221
 30
0
 11
-8.335047990833346
 21
-39.25038053019081
 31
0
  0
LINE
  8
1
 62
7
 10
-7.110155084171311
 20
-21.70403352100782
 30
0
 11
-8.335047990833346
 21
-21.74961946980922
 31
0
  0
LINE
  8
1
 62
3
 10
-11.04376356510795
 20
-18.25000000000001
 30
0
 11
-4.443763565108044
 21
-18.25000000000001
 31
0
  0
LINE
  8
1
 62
7
 10
-7.110155084171311
 20
-14.79596647899221
 30
0
 11
-8.335047990833346
 21
-14.75038053019081
 31
0
  0
LINE
  8
1
 62
7
 10
-7.110155084171311
 20
6.295966478992185
 30
0
 11
-8.335047990833346
 21
6.25038053019081
 31
0
  0
LINE
  8
1
 62
3
 10
-11.04376356510795
 20
9.750000000000014
 30
0
 11
-4.443763565108044
 21
9.750000000000014
 31
0
  0
LINE
  8
1
 62
7
 10
-7.110155084171311
 20
13.20403352100779
 30
0
 11
-8.335047990833346
 21
13.24961946980922
 31
0
  0
LINE
  8
1
 62
7
 10
-7.110155084171311
 20
13.29596647899218
 30
0
 11
-8.335047990833346
 21
13.25038053019081
 31
0
  0
LINE
  8
1
 62
3
 10
-11.04376356510795
 20
16.75000000000001
 30
0
 11
-4.443763565108044
 21
16.75000000000001
 31
0
  0
LINE
  8
1
 62
7
 10
-7.110155084171311
 20
20.20403352100779
 30
0
 11
-8.335047990833346
 21
20.24961946980922
 31
0
  0
LINE
  8
1
 62
7
 10
-6.943763565108043
 20
-30.9918669205634
 30
0
 11
-8.443763565108043
 21
-30.9918669205634
 31
0
  0
LINE
  8
1
 62
7
 10
-8.443763565108043
 20
47.25000000000001
 30
0
 11
-8.443763565108043
 21
-47.25000000000001
 31
0
  0
LINE
  8
1
 62
7
 10
-103.7547778458214
 20
17.75000000000001
 30
0
 11
-99.89897948556647
 21
17.75000000000001
 31
0
  0
LINE
  8
1
 62
7
 10
-104.6
 20
15.75000000000001
 30
0
 11
-99.89897948556647
 21
15.75000000000001
 31
0
  0
LINE
  8
1
 62
3
 10
-52.41280113826144
 20
-23.25000000000001
 30
0
 11
-3.550362669116453
 21
-23.25000000000001
 31
0
  0
LINE
  8
1
 62
7
 10
-35.04376356510796
 20
-19.25000000000001
 30
0
 11
-32.04376356510796
 21
-19.25000000000001
 31
0
  0
LINE
  8
1
 62
7
 10
-35.04376356510796
 20
-20.25000000000001
 30
0
 11
-35.04376356510796
 21
-19.25000000000001
 31
0
  0
LINE
  8
1
 62
7
 10
-49.04376356510796
 20
-20.25000000000001
 30
0
 11
-35.04376356510796
 21
-20.25000000000001
 31
0
  0
LINE
  8
1
 62
7
 10
-49.04376356510796
 20
-27.25000000000001
 30
0
 11
-49.04376356510796
 21
-20.25000000000001
 31
0
  0
LINE
  8
1
 62
7
 10
-32.04376356510796
 20
-27.25000000000001
 30
0
 11
-49.04376356510796
 21
-27.25000000000001
 31
0
  0
LINE
  8
1
 62
7
 10
-25.54376356510796
 20
-33.25000000000001
 30
0
 11
-25.54376356510796
 21
-28.63196843679519
 31
0
  0
LINE
  8
1
 62
7
 10
-31.08211181455039
 20
-30.78551167311981
 30
0
 11
-25.54376356510796
 21
-31.25000000000001
 31
0
  0
LINE
  8
1
 62
7
 10
-25.54376356510796
 20
-15.25000000000001
 30
0
 11
-31.08211181455039
 21
-15.71448832688021
 31
0
  0
LINE
  8
1
 62
7
 10
-23.54376356510796
 20
46.25000000000001
 30
0
 11
-23.54376356510796
 21
-46.25000000000001
 31
0
  0
LINE
  8
1
 62
7
 10
-25.54376356510796
 20
-33.25000000000001
 30
0
 11
-23.54376356510796
 21
-33.25000000000001
 31
0
  0
LINE
  8
1
 62
7
 10
-25.54376356510796
 20
26.75000000000001
 30
0
 11
-25.54376356510796
 21
22.13196843679528
 31
0
  0
LINE
  8
1
 62
7
 10
-23.54376356510796
 20
26.75000000000003
 30
0
 11
-25.54376356510796
 21
26.75000000000001
 31
0
  0
LINE
  8
1
 62
7
 10
-26.18518492134524
 20
25.62734590803389
 30
0
 11
-25.54376356510796
 21
25.53571428571429
 31
0
  0
LINE
  8
1
 62
7
 10
-27.04376356510796
 20
35.88270459830501
 30
0
 11
-27.04376356510796
 21
26.61729540169507
 31
0
  0
LINE
  8
1
 62
7
 10
-24.40234220887067
 20
37.12734590803389
 30
0
 11
-26.18518492134524
 21
36.87265409196608
 31
0
  0
LINE
  8
1
 62
7
 10
-10.04376356510795
 20
-47.25000000000001
 30
0
 11
-10.04376356510795
 21
47.25000000000001
 31
0
  0
LINE
  8
1
 62
7
 10
-22.54376356510796
 20
-47.25000000000001
 30
0
 11
-8.443763565108043
 21
-47.25000000000001
 31
0
  0
LINE
  8
1
 62
7
 10
-10.04376356510795
 20
47.25000000000001
 30
0
 11
-22.54376356510796
 21
47.25000000000001
 31
0
  0
LINE
  8
1
 62
7
 10
-88
 20
-41.4181829468336
 30
0
 11
-88
 21
41.41818294683357
 31
0
  0
LINE
  8
1
 62
7
 10
-90.10102051443363
 20
-24.25000000000001
 30
0
 11
-88
 21
-24.25000000000001
 31
0
  0
LINE
  8
1
 62
7
 10
-90.10102051443363
 20
-22.25000000000001
 30
0
 11
-88
 21
-22.25000000000001
 31
0
  0
LINE
  8
1
 62
7
 10
-107.0627460668063
 20
-24.25000000000001
 30
0
 11
-99.89897948556647
 21
-24.25000000000001
 31
0
  0
LINE
  8
1
 62
7
 10
-107.0627460668063
 20
-22.25000000000001
 30
0
 11
-99.89897948556647
 21
-22.25000000000001
 31
0
  0
LINE
  8
1
 62
7
 10
-130.1010205144336
 20
-24.25000000000001
 30
0
 11
-122.9372539331938
 21
-24.25000000000001
 31
0
  0
LINE
  8
1
 62
7
 10
-130.1010205144336
 20
-22.25000000000001
 30
0
 11
-122.9372539331938
 21
-22.25000000000001
 31
0
  0
LINE
  8
1
 62
7
 10
-141.9999999999999
 20
-41.4181829468336
 30
0
 11
-141.9999999999999
 21
41.41818294683357
 31
0
  0
LINE
  8
1
 62
7
 10
-141.9999999999999
 20
-24.25000000000001
 30
0
 11
-139.8989794855664
 21
-24.25000000000001
 31
0
  0
LINE
  8
1
 62
7
 10
-141.9999999999999
 20
-22.25000000000001
 30
0
 11
-139.8989794855664
 21
-22.25000000000001
 31
0
  0
LINE
  8
1
 62
7
 10
-94
 20
-33.25000000000001
 30
0
 11
-94
 21
-28.14897948556641
 31
0
  0
LINE
  8
1
 62
7
 10
-96
 20
-33.25000000000001
 30
0
 11
-94
 21
-33.25000000000001
 31
0
  0
LINE
  8
1
 62
7
 10
-96
 20
-28.14897948556641
 30
0
 11
-96
 21
-33.25000000000001
 31
0
  0
LINE
  8
1
 62
7
 10
-94
 20
11.85102051443359
 30
0
 11
-94
 21
-18.35102051443361
 31
0
  0
LINE
  8
1
 62
7
 10
-96
 20
11.85102051443359
 30
0
 11
-96
 21
-18.35102051443361
 31
0
  0
LINE
  8
1
 62
7
 10
-94
 20
26.75000000000001
 30
0
 11
-94
 21
21.64897948556639
 31
0
  0
LINE
  8
1
 62
7
 10
-96
 20
26.75000000000001
 30
0
 11
-94
 21
26.75000000000001
 31
0
  0
LINE
  8
1
 62
7
 10
-96
 20
21.64897948556639
 30
0
 11
-96
 21
26.75000000000001
 31
0
  0
LINE
  8
1
 62
7
 10
-90.10102051443363
 20
15.75000000000001
 30
0
 11
-88
 21
15.75000000000001
 31
0
  0
LINE
  8
1
 62
7
 10
-90.10102051443363
 20
17.75000000000001
 30
0
 11
-88
 21
17.75000000000001
 31
0
  0
LINE
  8
1
 62
7
 10
-130.1010205144336
 20
15.75000000000001
 30
0
 11
-111.7999999999999
 21
15.75000000000001
 31
0
  0
LINE
  8
1
 62
7
 10
-130.1010205144336
 20
17.75000000000001
 30
0
 11
-112.6452221541785
 21
17.75000000000001
 31
0
  0
LINE
  8
1
 62
7
 10
-141.9999999999999
 20
15.75000000000001
 30
0
 11
-139.8989794855664
 21
15.75000000000001
 31
0
  0
LINE
  8
1
 62
7
 10
-141.9999999999999
 20
17.75000000000001
 30
0
 11
-139.8989794855664
 21
17.75000000000001
 31
0
  0
LINE
  8
1
 62
7
 10
-133.9999999999999
 20
-33.25000000000001
 30
0
 11
-133.9999999999999
 21
-28.14897948556641
 31
0
  0
LINE
  8
1
 62
7
 10
-135.9999999999999
 20
-33.25000000000001
 30
0
 11
-133.9999999999999
 21
-33.25000000000001
 31
0
  0
LINE
  8
1
 62
7
 10
-135.9999999999999
 20
-28.14897948556641
 30
0
 11
-135.9999999999999
 21
-33.25000000000001
 31
0
  0
LINE
  8
1
 62
7
 10
-133.9999999999999
 20
11.85102051443359
 30
0
 11
-133.9999999999999
 21
-18.35102051443361
 31
0
  0
LINE
  8
1
 62
7
 10
-135.9999999999999
 20
11.85102051443359
 30
0
 11
-135.9999999999999
 21
-18.35102051443361
 31
0
  0
LINE
  8
1
 62
7
 10
-133.9999999999999
 20
26.75000000000001
 30
0
 11
-133.9999999999999
 21
21.64897948556639
 31
0
  0
LINE
  8
1
 62
7
 10
-135.9999999999999
 20
26.75000000000001
 30
0
 11
-133.9999999999999
 21
26.75000000000001
 31
0
  0
LINE
  8
1
 62
7
 10
-135.9999999999999
 20
26.75000000000001
 30
0
 11
-135.9999999999999
 21
21.64897948556639
 31
0
  0
LINE
  8
1
 62
3
 10
-114.5696310643305
 20
2.138752246048384
 30
0
 11
-98.46308696859816
 21
-3.826634456074814
 31
0
  0
LINE
  8
1
 62
7
 10
-105.3629146012063
 20
-6.069869423256691
 30
0
 11
-110.7629146012062
 21
-4.069869423256691
 31
0
  0
LINE
  8
1
 62
7
 10
-107.6370853987939
 20
4.369869423256674
 30
0
 11
-102.2370853987939
 21
2.369869423256702
 31
0
  0
LINE
  8
1
 62
3
 10
-95
 20
47.3593059936909
 30
0
 11
-95
 21
-50.25000000000001
 31
0
  0
LINE
  8
1
 62
3
 10
-134.9999999999999
 20
47.25000000000001
 30
0
 11
-134.9999999999999
 21
-50.25
 31
0
  0
LINE
  8
1
 62
3
 10
-144.9999999999999
 20
16.75000000000001
 30
0
 11
-82.00000000000001
 21
16.75000000000001
 31
0
  0
LINE
  8
1
 62
3
 10
-144.9999999999999
 20
-23.25000000000001
 30
0
 11
-82.00000000000001
 21
-23.25000000000001
 31
0
  0
LINE
  8
1
 62
3
 10
-115
 20
51.25000000000001
 30
0
 11
-115
 21
-51.25000000000001
 31
0
  0
LINE
  8
1
 62
3
 10
-121
 20
31.25000000000001
 30
0
 11
-106
 21
31.25000000000001
 31
0
  0
LINE
  8
1
 62
3
 10
-127.8
 20
8.149999999999992
 30
0
 11
-114.8
 21
8.149999999999992
 31
0
  0
LINE
  8
1
 62
3
 10
-121.3
 20
14.64999999999999
 30
0
 11
-121.3
 21
1.649999999999991
 31
0
  0
LINE
  8
1
 62
3
 10
-108.2
 20
24.95
 30
0
 11
-108.2
 21
11.95
 31
0
  0
LINE
  8
1
 62
3
 10
-114.7
 20
18.45
 30
0
 11
-101.7
 21
18.45
 31
0
  0
LINE
  8
1
 62
7
 10
-115
 20
47.25000000000001
 30
0
 11
-141.1820892601822
 21
42.40146495181808
 31
0
  0
LINE
  8
1
 62
7
 10
-88.81791073981771
 20
42.40146495181808
 30
0
 11
-99.70526394675076
 21
44.41764147162048
 31
0
  0
LINE
  8
1
 62
7
 10
-115
 20
-47.25000000000001
 30
0
 11
-88.81791073981771
 21
-42.40146495181811
 31
0
  0
LINE
  8
1
 62
7
 10
-141.1820892601822
 20
-42.40146495181811
 30
0
 11
-115
 21
-47.25000000000001
 31
0
  0
LINE
  8
1
 62
7
 10
-85
 20
-43.25000000000001
 30
0
 11
-85
 21
43.25000000000001
 31
0
  0
LINE
  8
1
 62
7
 10
-140.9999999999999
 20
-47.25000000000001
 30
0
 11
-89
 21
-47.25000000000001
 31
0
  0
LINE
  8
1
 62
7
 10
-20.54376356510796
 20
47.25000000000001
 30
0
 11
-20.54376356510796
 21
-47.25000000000001
 31
0
  0
LINE
  8
1
 62
7
 10
-23.54376356510796
 20
42.25000000000001
 30
0
 11
-20.54376356510796
 21
42.25000000000001
 31
0
  0
LINE
  8
1
 62
7
 10
-23.54376356510796
 20
-42.25000000000001
 30
0
 11
-20.54376356510796
 21
-42.25000000000001
 31
0
  0
LINE
  8
1
 62
7
 10
-10.04376356510795
 20
47.25000000000001
 30
0
 11
-5.843763565107906
 21
47.25000000000004
 31
0
  0
LINE
  8
1
 62
7
 10
-8.443763565108043
 20
39.89999999999999
 30
0
 11
-6.343763565107907
 21
39.89999999999999
 31
0
  0
LINE
  8
1
 62
7
 10
-8.443763565108043
 20
20.39999999999999
 30
0
 11
-6.343763565107907
 21
20.39999999999999
 31
0
  0
LINE
  8
1
 62
7
 10
-31.54376356510796
 20
-28.27783407997201
 30
0
 11
-31.54376356510796
 21
-30.286984430369
 31
0
  0
LINE
  8
1
 62
7
 10
-31.54376356510796
 20
-18.2220717301165
 30
0
 11
-31.54376356510796
 21
-16.21301556963091
 31
0
  0
LINE
  8
1
 62
7
 10
-25.54376356510796
 20
-17.8680315632047
 30
0
 11
-25.54376356510796
 21
11.36803156320481
 31
0
  0
LINE
  8
1
 62
3
 10
-34.69257541486047
 20
16.75000000000001
 30
0
 11
-18.81395757276545
 21
16.75000000000001
 31
0
  0
LINE
  8
1
 62
7
 10
-117.6457513110646
 20
-20.25000000000001
 30
0
 11
-112.3542486889354
 21
-20.25000000000001
 31
0
  0
LINE
  8
1
 62
7
 10
-6.943763565108043
 20
-21.6801690413139
 30
0
 11
-6.943763565108043
 21
-30.9918669205634
 31
0
  0
LINE
  8
1
 62
7
 10
-25.54376356510796
 20
15.75000000000001
 30
0
 11
-25.54376356510796
 21
17.75000000000001
 31
0
  0
LINE
  8
1
 62
7
 10
-25.54376356510796
 20
-22.25000000000001
 30
0
 11
-25.54376356510796
 21
-24.25000000000001
 31
0
  0
LINE
  8
1
 62
7
 10
-23.54376356510796
 20
-17.75000000000001
 30
0
 11
-31.57149857491908
 21
-18.22376305610059
 31
0
  0
LINE
  8
1
 62
7
 10
-31.57149857491908
 20
-28.27623694389929
 30
0
 11
-23.54376356510796
 21
-28.7499999999999
 31
0
  0
LINE
  8
1
 62
7
 10
-32.04376356510796
 20
-18.7229932327033
 30
0
 11
-32.04376356510796
 21
-27.77700676729661
 31
0
  0
LINE
  8
1
 62
7
 10
-23.54376356510796
 20
-22.25000000000001
 30
0
 11
-25.54376356510796
 21
-22.25000000000001
 31
0
  0
LINE
  8
1
 62
7
 10
-23.54376356510796
 20
-24.25000000000001
 30
0
 11
-25.54376356510796
 21
-24.25000000000001
 31
0
  0
LINE
  8
1
 62
7
 10
-27.04376356510796
 20
11.28270459830487
 30
0
 11
-27.04376356510796
 21
5.025785323693881
 31
0
  0
LINE
  8
1
 62
2
 10
-10.04376356510795
 20
24.75000000000001
 30
0
 11
-8.443763565108043
 21
24.75000000000001
 31
0
  0
LINE
  8
1
 62
3
 10
-144.9999999999999
 20
16.75000000000001
 30
0
 11
-148.9999999999999
 21
16.75000000000001
 31
0
  0
LINE
  8
1
 62
7
 10
-144.9999999999999
 20
43.25000000000001
 30
0
 11
-144.9999999999999
 21
-43.25000000000001
 31
0
  0
LINE
  8
1
 62
3
 10
-144.9999999999999
 20
-23.25000000000001
 30
0
 11
-148.9999999999999
 21
-23.25000000000001
 31
0
  0
LINE
  8
1
 62
3
 10
-95
 20
47.3593059936909
 30
0
 11
-95
 21
50.25000000000001
 31
0
  0
LINE
  8
1
 62
3
 10
-134.9999999999999
 20
47.25000000000001
 30
0
 11
-134.9999999999999
 21
50.25000000000001
 31
0
  0
LINE
  8
1
 62
7
 10
-140.9999999999999
 20
47.25000000000001
 30
0
 11
-89
 21
47.25000000000001
 31
0
  0
LINE
  8
1
 62
3
 10
-121
 20
31.25000000000001
 30
0
 11
-124
 21
31.25000000000001
 31
0
  0
LINE
  8
1
 62
7
 10
25.35623643489076
 20
45.9939822888846
 30
0
 11
42.02672232183987
 21
45.9939822888846
 31
0
  0
LINE
  8
1
 62
7
 10
49.14925315296783
 20
43.50398228888459
 30
0
 11
78.07714823924687
 21
43.50398228888459
 31
0
  0
LINE
  8
1
 62
7
 10
25.35623643489076
 20
41.99398228888457
 30
0
 11
27.09623643489077
 21
41.99398228888457
 31
0
  0
LINE
  8
1
 62
7
 10
27.98612893567575
 20
46.2066978245858
 30
0
 11
27.85731092801085
 21
48.91771376674539
 31
0
  0
LINE
  8
1
 62
7
 10
27.35787442858588
 20
49.39398228888469
 30
0
 11
24.33459844119681
 21
49.39398228888469
 31
0
  0
LINE
  8
1
 62
7
 10
23.83516194177183
 20
48.91771376674539
 30
0
 11
23.75591800910286
 21
47.24999999999999
 31
0
  0
LINE
  8
1
 62
7
 10
27.09623643489077
 20
41.99398228888457
 30
0
 11
27.09623643489077
 21
45.9939822888846
 31
0
  0
LINE
  8
1
 62
7
 10
81.07714823924687
 20
43.8989822888847
 30
0
 11
78.07714823924687
 21
43.8989822888847
 31
0
  0
LINE
  8
1
 62
7
 10
78.07714823924687
 20
44.94898228888459
 30
0
 11
81.07714823924687
 21
44.94898228888459
 31
0
  0
LINE
  8
1
 62
7
 10
81.07714823924687
 20
44.5689822888846
 30
0
 11
78.07714823924687
 21
44.5689822888846
 31
0
  0
LINE
  8
1
 62
7
 10
78.07714823924687
 20
45.6189822888846
 30
0
 11
81.07714823924687
 21
45.6189822888846
 31
0
  0
LINE
  8
1
 62
7
 10
78.07714823924687
 20
45.9939822888846
 30
0
 11
78.07714823924687
 21
43.50398228888459
 31
0
  0
LINE
  8
1
 62
7
 10
27.09623643489077
 20
45.16398228888468
 30
0
 11
42.12510848544081
 21
45.16398228888468
 31
0
  0
LINE
  8
1
 62
7
 10
27.09623643489077
 20
43.50398228888459
 30
0
 11
42.25668512829985
 21
43.50398228888459
 31
0
  0
LINE
  8
1
 62
7
 10
48.9192903465099
 20
45.9939822888846
 30
0
 11
78.07714823924687
 21
45.9939822888846
 31
0
  0
LINE
  8
1
 62
7
 10
49.01767651010994
 20
45.16398228888468
 30
0
 11
78.07714823924687
 21
45.16398228888468
 31
0
  0
LINE
  8
1
 62
7
 10
24.35623643489076
 20
47.24999999999999
 30
0
 11
25.35623643489076
 21
46.24999999999999
 31
0
  0
LINE
  8
1
 62
7
 10
26.55623643489081
 20
35.84999999999987
 30
0
 11
25.35623643489076
 21
37.24999999999999
 31
0
  0
LINE
  8
1
 62
7
 10
26.55623643489081
 20
26.64999999999997
 30
0
 11
26.55623643489081
 21
35.84999999999987
 31
0
  0
LINE
  8
1
 62
7
 10
25.35623643489076
 20
25.24999999999999
 30
0
 11
26.55623643489081
 21
26.64999999999997
 31
0
  0
LINE
  8
1
 62
7
 10
24.35623643489076
 20
39.02480938694529
 30
0
 11
25.35623643489076
 21
38.44745911775569
 31
0
  0
LINE
  8
1
 62
7
 10
24.35623643489076
 20
45.23400296755769
 30
0
 11
25.35623643489076
 21
43.69144631178298
 31
0
  0
LINE
  8
1
 62
7
 10
25.35623643489076
 20
43.69144631178298
 30
0
 11
21.15623643489187
 21
43.69144631178298
 31
0
  0
LINE
  8
1
 62
7
 10
21.15623643489187
 20
45.23400296755769
 30
0
 11
24.35623643489076
 21
45.23400296755769
 31
0
  0
LINE
  8
1
 62
7
 10
24.35623643489076
 20
39.02480938694529
 30
0
 11
24.35623643489076
 21
15.25
 31
0
  0
LINE
  8
1
 62
7
 10
21.15623643489187
 20
39.02480938694529
 30
0
 11
24.35623643489076
 21
39.02480938694529
 31
0
  0
LINE
  8
1
 62
7
 10
24.35623643489076
 20
47.24999999999999
 30
0
 11
24.35623643489076
 21
45.23400296755769
 31
0
  0
LINE
  8
1
 62
7
 10
24.35623643489076
 20
15.25
 30
0
 11
25.35623643489076
 21
16.25
 31
0
  0
LINE
  8
1
 62
7
 10
24.35623643489076
 20
15.25
 30
0
 11
-4.343763565108141
 21
15.25000000000011
 31
0
  0
LINE
  8
1
 62
7
 10
25.35623643489076
 20
46.24999999999999
 30
0
 11
25.35623643489076
 21
16.25
 31
0
  0
LINE
  8
1
 62
7
 10
24.35623643489076
 20
47.24999999999999
 30
0
 11
-4.343763565108141
 21
47.24999999999999
 31
0
  0
LINE
  8
1
 62
7
 10
20.05623643489081
 20
41.8137084989846
 30
0
 11
21.15623643489187
 21
41.8137084989846
 31
0
  0
LINE
  8
1
 62
7
 10
18.65623643489186
 20
39.3137084989846
 30
0
 11
20.05623643489081
 21
39.3137084989846
 31
0
  0
LINE
  8
1
 62
7
 10
18.65623643489186
 20
45.8137084989846
 30
0
 11
18.65623643489186
 21
39.3137084989846
 31
0
  0
LINE
  8
1
 62
7
 10
20.05623643489081
 20
45.8137084989846
 30
0
 11
18.65623643489186
 21
45.8137084989846
 31
0
  0
LINE
  8
1
 62
7
 10
20.05623643489081
 20
45.8137084989846
 30
0
 11
20.05623643489081
 21
39.3137084989846
 31
0
  0
LINE
  8
1
 62
7
 10
21.15623643489187
 20
43.3137084989846
 30
0
 11
21.15623643489187
 21
47.24999999999999
 31
0
  0
LINE
  8
1
 62
7
 10
21.15623643489187
 20
43.3137084989846
 30
0
 11
20.05623643489081
 21
43.3137084989846
 31
0
  0
LINE
  8
1
 62
7
 10
21.15623643489187
 20
15.25
 30
0
 11
21.15623643489187
 21
41.8137084989846
 31
0
  0
LINE
  8
1
 62
7
 10
-5.843763565107906
 20
47.25000000000004
 30
0
 11
-5.843763565108141
 21
16.75000000000011
 31
0
  0
LINE
  8
1
 62
3
 10
-28.98558687194612
 20
31.24999999999999
 30
0
 11
31.02623431977678
 21
31.24999999999999
 31
0
  0
LINE
  8
1
 62
7
 10
16.15623643489187
 20
21.77699999999997
 30
0
 11
-0.8437635651081319
 21
21.77699999999997
 31
0
  0
LINE
  8
1
 62
7
 10
16.15623643489187
 20
15.25
 30
0
 11
16.15623643489187
 21
21.77699999999997
 31
0
  0
LINE
  8
1
 62
7
 10
-0.8437635651081319
 20
21.77699999999997
 30
0
 11
-0.8437635651081319
 21
15.25
 31
0
  0
LINE
  8
1
 62
2
 10
62.14022191142101
 20
63.89861998126087
 30
0
 11
133.364942054396
 21
63.89861998126087
 31
0
  0
LINE
  8
1
 62
7
 10
115
 20
36.74999999999996
 30
0
 11
115
 21
40.24999999999996
 31
0
  0
LINE
  8
1
 62
7
 10
165
 20
36.74999999999996
 30
0
 11
165
 21
40.24999999999996
 31
0
  0
LINE
  8
1
 62
7
 10
115
 20
40.24999999999996
 30
0
 11
121.5
 21
41.69444444444447
 31
0
  0
LINE
  8
1
 62
7
 10
158.5
 20
41.69444444444447
 30
0
 11
165
 21
40.24999999999996
 31
0
  0
ARC
  8
1
 62
7
 10
140.000000000004
 20
31.24999999999613
 30
0
 40
15.00000000000025
 50
309.7981674027769
 51
320.5156350565264
  0
ARC
  8
1
 62
7
 10
140.000000000002
 20
31.24999999999806
 30
0
 40
14.16000000000256
 50
300.4981602534866
 51
329.5018397465162
  0
ARC
  8
1
 62
7
 10
151.321134366866
 20
24.53354286729471
 30
0
 40
1.843996729023902
 50
268.7132328242221
 51
334.8546824632821
  0
ARC
  8
1
 62
7
 10
151.3036040627809
 20
24.57527407633812
 30
0
 40
2.876308651640586
 50
261.2659417540867
 51
332.5641521374777
  0
ARC
  8
1
 62
7
 10
146.845918941278
 20
19.90182090562325
 30
0
 40
2.760997575253375
 50
294.7080195370951
 51
9.18366462644668
  0
ARC
  8
1
 62
7
 10
146.6377489214289
 20
19.95324811298921
 30
0
 40
1.900488539077444
 50
296.9813017566031
 51
0.01668094350868335
  0
ARC
  8
1
 62
7
 10
128.678865633138
 20
37.96645713270141
 30
0
 40
1.843996729023906
 50
88.71323282422213
 51
154.8546824632821
  0
ARC
  8
1
 62
7
 10
128.6963959372231
 20
37.924725923658
 30
0
 40
2.876308651640594
 50
81.26594175408614
 51
152.5641521374775
  0
ARC
  8
1
 62
7
 10
140
 20
31.24999999999999
 30
0
 40
14.9999999999995
 50
149.9999999999989
 51
299.9999999999999
  0
ARC
  8
1
 62
7
 10
140
 20
31.24999999999999
 30
0
 40
15
 50
101.5369590328155
 51
120
  0
ARC
  8
1
 62
7
 10
140
 20
31.24999999999999
 30
0
 40
15.00000000000044
 50
330.000000000001
 51
78.46304096718453
  0
ARC
  8
1
 62
7
 10
133.2
 20
16.75
 30
0
 40
1.499999999999634
 50
151.6057599767136
 51
338.1443243927288
  0
ARC
  8
1
 62
7
 10
126.7
 20
42.74999999999999
 30
0
 40
2.300000000000417
 50
2.895168147868355
 51
275.4074023849657
  0
ARC
  8
1
 62
7
 10
140
 20
31.24999999999999
 30
0
 40
15.00000000000027
 50
129.798167402777
 51
140.5156350565265
  0
ARC
  8
1
 62
7
 10
133.154081058726
 20
42.59817909437287
 30
0
 40
2.760997575253378
 50
114.7080195370951
 51
189.1836646264467
  0
ARC
  8
1
 62
7
 10
140.000000000002
 20
31.24999999999806
 30
0
 40
14.16000000000254
 50
120.4981602534866
 51
149.5018397465162
  0
ARC
  8
1
 62
7
 10
133.3622510785751
 20
42.54675188700691
 30
0
 40
1.900488539077444
 50
116.9813017566031
 51
180.0166809435089
  0
ARC
  8
1
 62
7
 10
121.25
 20
8.97289613913479
 30
0
 40
1.280346261644253
 50
12.49936792538156
 51
167.5006320746185
  0
ARC
  8
1
 62
7
 10
121.2493376133996
 20
-10.46793933682791
 30
0
 40
1.282074343774989
 50
192.9755909515071
 51
347.2907696670898
  0
ARC
  8
1
 62
7
 10
153.75
 20
16.46875000000001
 30
0
 40
1.28125
 50
12.68038349181982
 51
167.3196165081802
  0
ARC
  8
1
 62
7
 10
153.75
 20
7.031250000000014
 30
0
 40
1.28125
 50
192.6803834918198
 51
347.3196165081802
  0
ARC
  8
1
 62
7
 10
164.25
 20
19.25000000000001
 30
0
 40
4.999999999999939
 50
186.9509076652039
 51
270
  0
ARC
  8
1
 62
7
 10
140
 20
-23.25000000000001
 30
0
 40
6.499999999999819
 50
320.2458278153803
 51
95.00609791930431
  0
ARC
  8
1
 62
7
 10
140
 20
-23.25000000000001
 30
0
 40
6.500000000000133
 50
140.2458278153837
 51
275.0060979193
  0
ARC
  8
1
 62
7
 10
140
 20
-23.25000000000001
 30
0
 40
7.799999999999843
 50
318.2523439171416
 51
96.99958181754271
  0
ARC
  8
1
 62
7
 10
140
 20
-23.25000000000001
 30
0
 40
7.800000000000038
 50
138.2523439171434
 51
276.9995818175419
  0
ARC
  8
1
 62
7
 10
-4.96876356510802
 20
-42.75000000000001
 30
0
 40
0.925000000000109
 50
161.0753555839508
 51
198.9246444160484
  0
ARC
  8
1
 62
7
 10
-13.83869314257288
 20
-42.76521753674309
 30
0
 40
8.000000000000034
 50
338.4952052003295
 51
357.9599648354466
  0
ARC
  8
1
 62
7
 10
-13.83869314257288
 20
-42.73478246325699
 30
0
 40
7.99999999999996
 50
2.040035164553978
 51
21.50479479967101
  0
ARC
  8
1
 62
7
 10
-4.96876356510802
 20
-18.25000000000001
 30
0
 40
0.9250000000001113
 50
161.0753555839504
 51
198.9246444160484
  0
ARC
  8
1
 62
7
 10
-13.83869314257288
 20
-18.26521753674309
 30
0
 40
8.000000000000034
 50
338.4952052003295
 51
357.9599648354466
  0
ARC
  8
1
 62
7
 10
-13.83869314257288
 20
-18.23478246325699
 30
0
 40
7.99999999999996
 50
2.040035164554003
 51
21.50479479967101
  0
ARC
  8
1
 62
7
 10
-4.96876356510802
 20
9.750000000000014
 30
0
 40
0.9249999999999858
 50
161.0753555839513
 51
198.9246444160519
  0
ARC
  8
1
 62
7
 10
-13.83869314257288
 20
9.734782463256877
 30
0
 40
8.000000000000021
 50
338.4952052003297
 51
357.9599648354469
  0
ARC
  8
1
 62
7
 10
-13.83869314257288
 20
9.765217536742981
 30
0
 40
8.000000000000073
 50
2.040035164553961
 51
21.50479479967101
  0
ARC
  8
1
 62
7
 10
-4.96876356510802
 20
16.75000000000001
 30
0
 40
0.925000000000094
 50
161.0753555839535
 51
198.9246444160496
  0
ARC
  8
1
 62
7
 10
-13.83869314257288
 20
16.73478246325688
 30
0
 40
8.000000000000023
 50
338.4952052003297
 51
357.9599648354467
  0
ARC
  8
1
 62
7
 10
-13.83869314257288
 20
16.76521753674298
 30
0
 40
7.99999999999996
 50
2.040035164553978
 51
21.50479479967101
  0
ARC
  8
1
 62
7
 10
-103.8
 20
-1.850000000000009
 30
0
 40
4.50000000000006
 50
249.6768631703356
 51
69.6768631703381
  0
ARC
  8
1
 62
7
 10
-109.2
 20
0.1499999999999915
 30
0
 40
4.499999999999991
 50
69.67686317033797
 51
249.6768631703368
  0
ARC
  8
1
 62
7
 10
-115
 20
31.24999999999999
 30
0
 40
15.99999999999948
 50
33.79686662852333
 51
47.90056283863495
  0
CIRCLE
  8
1
 62
7
 10
138.75
 20
43.54999999999995
 30
0
 40
0.600000000000108
  0
CIRCLE
  8
1
 62
7
 10
141.25
 20
43.54999999999995
 30
0
 40
0.600000000000108
  0
CIRCLE
  8
1
 62
7
 10
138.75
 20
43.54999999999995
 30
0
 40
0.8299999999998988
  0
CIRCLE
  8
1
 62
7
 10
141.25
 20
43.54999999999995
 30
0
 40
0.8299999999998988
  0
CIRCLE
  8
1
 62
7
 10
140
 20
31.24999999999999
 30
0
 40
6
  0
CIRCLE
  8
1
 62
7
 10
140
 20
31.24999999999999
 30
0
 40
4.600000000000108
  0
CIRCLE
  8
1
 62
7
 10
140
 20
31.24999999999999
 30
0
 40
1.25
  0
CIRCLE
  8
1
 62
7
 10
153.3
 20
42.74999999999999
 30
0
 40
1.5
  0
CIRCLE
  8
1
 62
7
 10
164.25
 20
19.25000000000001
 30
0
 40
4
  0
CIRCLE
  8
1
 62
7
 10
165.5
 20
-42.75000000000001
 30
0
 40
3.5
  0
CIRCLE
  8
1
 62
7
 10
114.5
 20
-18.25000000000001
 30
0
 40
3.5
  0
CIRCLE
  8
1
 62
7
 10
165.5
 20
9.750000000000014
 30
0
 40
3.5
  0
CIRCLE
  8
1
 62
7
 10
115.75
 20
16.75000000000001
 30
0
 40
3.5
  0
CIRCLE
  8
1
 62
2
 10
-95
 20
-23.25000000000001
 30
0
 40
2
  0
CIRCLE
  8
1
 62
7
 10
-95
 20
-23.25000000000001
 30
0
 40
1.399999999999977
  0
CIRCLE
  8
1
 62
7
 10
140
 20
-23.25000000000001
 30
0
 40
4
  0
CIRCLE
  8
1
 62
7
 10
114.5
 20
-42.75000000000001
 30
0
 40
1.5
  0
CIRCLE
  8
1
 62
7
 10
146.2999999999997
 20
8.149999999999992
 30
0
 40
1.5
  0
CIRCLE
  8
1
 62
7
 10
133.1999999999998
 20
0.2199999999999847
 30
0
 40
1.5
  0
CIRCLE
  8
1
 62
7
 10
128.7999999999997
 20
-1.850000000000009
 30
0
 40
1.5
  0
CIRCLE
  8
1
 62
7
 10
164.25
 20
19.25000000000001
 30
0
 40
1.899999999999807
  0
CIRCLE
  8
1
 62
7
 10
164.25
 20
19.25000000000001
 30
0
 40
3.5
  0
CIRCLE
  8
1
 62
7
 10
140
 20
31.24999999999999
 30
0
 40
15.99999999999999
  0
CIRCLE
  8
1
 62
2
 10
-134.9999999999999
 20
-23.25000000000001
 30
0
 40
2
  0
CIRCLE
  8
1
 62
7
 10
-101.7000000000001
 20
42.75000000000007
 30
0
 40
2.600000000000037
  0
CIRCLE
  8
1
 62
7
 10
-121.3
 20
8.149999999999992
 30
0
 40
4.5
  0
CIRCLE
  8
1
 62
7
 10
-108.2
 20
18.45
 30
0
 40
4.5
  0
CIRCLE
  8
1
 62
7
 10
-95
 20
16.75000000000001
 30
0
 40
1.399999999999977
  0
CIRCLE
  8
1
 62
2
 10
-95
 20
16.75000000000001
 30
0
 40
2
  0
CIRCLE
  8
1
 62
7
 10
-95
 20
-23.25000000000001
 30
0
 40
1.399999999999977
  0
CIRCLE
  8
1
 62
7
 10
-134.9999999999999
 20
-23.25000000000001
 30
0
 40
1.400000000000119
  0
CIRCLE
  8
1
 62
7
 10
-134.9999999999999
 20
16.75000000000001
 30
0
 40
1.400000000000119
  0
CIRCLE
  8
1
 62
2
 10
-134.9999999999999
 20
16.75000000000001
 30
0
 40
2
  0
CIRCLE
  8
1
 62
7
 10
-115
 20
-23.25000000000001
 30
0
 40
5.5
  0
CIRCLE
  8
1
 62
7
 10
-115
 20
31.24999999999999
 30
0
 40
6
  0
CIRCLE
  8
1
 62
7
 10
-95
 20
-23.25000000000001
 30
0
 40
5.000000000000114
  0
CIRCLE
  8
1
 62
7
 10
-115
 20
-23.25000000000001
 30
0
 40
8
  0
CIRCLE
  8
1
 62
7
 10
-115
 20
-23.25000000000001
 30
0
 40
4
  0
CIRCLE
  8
1
 62
7
 10
-134.9999999999999
 20
-23.25000000000001
 30
0
 40
5
  0
CIRCLE
  8
1
 62
7
 10
-95
 20
16.75000000000001
 30
0
 40
5.000000000000114
  0
CIRCLE
  8
1
 62
7
 10
-134.9999999999999
 20
16.75000000000001
 30
0
 40
5
  0
POLYLINE
  8
1
 62
2
 66
1
  0
VERTEX
  8
1
 10
42.02672232183987
 20
45.9939822888846
 30
0
 42
-0.004186897804087534
  0
VERTEX
  8
1
 10
42.0746611401962
 20
45.86068084811242
 30
0
 42
-0.0129024815726017
  0
VERTEX
  8
1
 10
42.11746902297513
 20
45.72762559113131
 30
0
 42
-0.02254802247767774
  0
VERTEX
  8
1
 10
42.1500150345993
 20
45.59506270173235
 30
0
 42
-0.03328225659865319
  0
VERTEX
  8
1
 10
42.16716823949132
 20
45.46323836370657
 30
0
 42
-0.04414267360482586
  0
VERTEX
  8
1
 10
42.16379770207379
 20
45.33239876084507
 30
0
 42
-0.0474693297304573
  0
VERTEX
  8
1
 10
42.12783929819658
 20
45.17248470576791
 30
0
 42
-0.02328907139359321
  0
VERTEX
  8
1
 10
42.06791281216712
 20
45.01400957252388
 30
0
 42
-0.002187931268942097
  0
VERTEX
  8
1
 10
41.99913138272228
 20
44.85653715452691
 30
0
 42
0.01880544693319397
  0
VERTEX
  8
1
 10
41.9366081485989
 20
44.69963124519099
 30
0
 42
0.04246910544649788
  0
VERTEX
  8
1
 10
41.89545624853383
 20
44.54285563793007
 30
0
 42
0.07659463129745241
  0
VERTEX
  8
1
 10
41.89153671160825
 20
44.3357195771239
 30
0
 42
0.04405793155085045
  0
VERTEX
  8
1
 10
41.93839404993519
 20
44.12815777698246
 30
0
 42
0.03892408209548462
  0
VERTEX
  8
1
 10
42.02333404470153
 20
43.92027667233954
 30
0
 42
0.01089913513619607
  0
VERTEX
  8
1
 10
42.13366247709412
 20
43.71218269802898
 30
0
 42
0.01219559973386751
  0
VERTEX
  8
1
 10
42.25668512829985
 20
43.50398228888459
 30
0
  0
SEQEND
  8
1
  0
POLYLINE
  8
1
 62
2
 66
1
  0
VERTEX
  8
1
 10
48.9192903465099
 20
45.9939822888846
 30
0
 42
-0.004186897804188011
  0
VERTEX
  8
1
 10
48.96722916486594
 20
45.86068084811242
 30
0
 42
-0.01290248157260026
  0
VERTEX
  8
1
 10
49.01003704764463
 20
45.72762559113132
 30
0
 42
-0.02254802247743226
  0
VERTEX
  8
1
 10
49.04258305926859
 20
45.59506270173235
 30
0
 42
-0.03328225659840023
  0
VERTEX
  8
1
 10
49.05973626416046
 20
45.46323836370657
 30
0
 42
-0.04414267360471428
  0
VERTEX
  8
1
 10
49.0563657267429
 20
45.33239876084507
 30
0
 42
-0.04746932973019014
  0
VERTEX
  8
1
 10
49.02040732286577
 20
45.17248470576792
 30
0
 42
-0.02328907139353311
  0
VERTEX
  8
1
 10
48.96048083683652
 20
45.01400957252389
 30
0
 42
-0.002187931268888695
  0
VERTEX
  8
1
 10
48.89169940739193
 20
44.85653715452693
 30
0
 42
0.01880544693322795
  0
VERTEX
  8
1
 10
48.82917617326879
 20
44.699631245191
 30
0
 42
0.0424691054461849
  0
VERTEX
  8
1
 10
48.78802427320385
 20
44.54285563793007
 30
0
 42
0.07659463129728467
  0
VERTEX
  8
1
 10
48.78410473627824
 20
44.33571957712393
 30
0
 42
0.04405793155045473
  0
VERTEX
  8
1
 10
48.83096207460489
 20
44.12815777698249
 30
0
 42
0.0389240820955542
  0
VERTEX
  8
1
 10
48.91590206937076
 20
43.92027667233957
 30
0
 42
0.0108991351359784
  0
VERTEX
  8
1
 10
49.02623050176276
 20
43.71218269802899
 30
0
 42
0.01219559973401405
  0
VERTEX
  8
1
 10
49.14925315296783
 20
43.50398228888459
 30
0
  0
SEQEND
  8
1
  0
ARC
  8
1
 62
7
 10
159.8431457505076
 20
-37.09314575050762
 30
0
 40
1.999999999999991
 50
224.9999999999993
 51
45
  0
ARC
  8
1
 62
7
 10
152.0420833698049
 20
-29.29208336980501
 30
0
 40
1.999999999999991
 50
45.00000000000043
 51
224.9999999999995
  0
ARC
  8
1
 62
7
 10
129.8574677499453
 20
-31.00605407357129
 30
0
 40
2.00000000000003
 50
307.405356631408
 51
127.4053566314087
  0
ARC
  8
1
 62
7
 10
120.8617996138378
 20
-37.88509441294759
 30
0
 40
1.999999999999999
 50
127.4053566314087
 51
307.4053566314084
  0
ARC
  8
1
 62
7
 10
127.7305198235738
 20
-20.84421957324982
 30
0
 40
1.999999999999983
 50
258.9062769884396
 51
78.9062769884426
  0
ARC
  8
1
 62
7
 10
122.3519405481149
 20
-19.7895961859049
 30
0
 40
1.999999999999993
 50
78.90627698843964
 51
258.9062769884429
  0
ARC
  8
1
 62
7
 10
160.6084199913939
 20
3.419719988862695
 30
0
 40
1.999999999999933
 50
322.3057595333067
 51
142.3057595333093
  0
ARC
  8
1
 62
7
 10
147.8265280137696
 20
-13.12155198218029
 30
0
 40
1.999999999999954
 50
142.3057595333113
 51
322.30575953331
  0
ARC
  8
1
 62
7
 10
114
 20
43.25000000000001
 30
0
 40
4
 50
90
 51
180
  0
ARC
  8
1
 62
7
 10
114
 20
-43.25000000000001
 30
0
 40
4
 50
180
 51
270
  0
ARC
  8
1
 62
7
 10
166
 20
-43.25000000000001
 30
0
 40
4
 50
270
 51
0
  0
ARC
  8
1
 62
7
 10
166
 20
43.25000000000001
 30
0
 40
4
 50
0
 51
90
  0
ARC
  8
1
 62
7
 10
115.75
 20
31.25000000000001
 30
0
 40
6.5
 50
270
 51
0
  0
ARC
  8
1
 62
7
 10
112.5
 20
22.25000000000001
 30
0
 40
2.5
 50
90
 51
180
  0
ARC
  8
1
 62
7
 10
167.5
 20
11.75000000000001
 30
0
 40
2.5
 50
0
 51
90
  0
ARC
  8
1
 62
7
 10
126.25
 20
43.25000000000001
 30
0
 40
4
 50
90
 51
180
  0
ARC
  8
1
 62
7
 10
153.75
 20
43.25000000000001
 30
0
 40
4
 50
0
 51
90
  0
ARC
  8
1
 62
7
 10
114
 20
43.25000000000001
 30
0
 40
2.5
 50
90
 51
180
  0
ARC
  8
1
 62
7
 10
114
 20
39.25000000000001
 30
0
 40
2.5
 50
180
 51
270
  0
ARC
  8
1
 62
7
 10
119
 20
39.25000000000001
 30
0
 40
2.5
 50
270
 51
0
  0
ARC
  8
1
 62
7
 10
119
 20
43.25000000000001
 30
0
 40
2.5
 50
0
 51
90
  0
ARC
  8
1
 62
7
 10
161
 20
39.25000000000001
 30
0
 40
2.5
 50
180
 51
270
  0
ARC
  8
1
 62
7
 10
166
 20
39.25000000000001
 30
0
 40
2.5
 50
270
 51
0
  0
ARC
  8
1
 62
7
 10
161
 20
43.25000000000001
 30
0
 40
2.5
 50
90
 51
180
  0
ARC
  8
1
 62
7
 10
166
 20
43.25000000000001
 30
0
 40
2.5
 50
0
 51
90
  0
ARC
  8
1
 62
7
 10
114.15
 20
18.34999999999998
 30
0
 40
1.199999999999989
 50
270
 51
0
  0
ARC
  8
1
 62
7
 10
117.35
 20
18.34999999999998
 30
0
 40
1.199999999999989
 50
180
 51
270
  0
ARC
  8
1
 62
7
 10
114.15
 20
15.14999999999999
 30
0
 40
1.199999999999989
 50
0
 51
90
  0
ARC
  8
1
 62
7
 10
117.35
 20
15.14999999999999
 30
0
 40
1.19999999999999
 50
90
 51
180
  0
ARC
  8
1
 62
7
 10
115.45
 20
18.95
 30
0
 40
0.09999999999996945
 50
90
 51
180
  0
ARC
  8
1
 62
7
 10
116.0499999999999
 20
18.95
 30
0
 40
0.100000000000108
 50
0
 51
90
  0
ARC
  8
1
 62
7
 10
113.5500000000001
 20
17.04999999999997
 30
0
 40
0.1000000000000227
 50
90
 51
180
  0
ARC
  8
1
 62
7
 10
113.5500000000001
 20
16.45
 30
0
 40
0.1000000000000938
 50
180
 51
270
  0
ARC
  8
1
 62
7
 10
115.45
 20
14.54999999999997
 30
0
 40
0.1000000000000085
 50
180
 51
270
  0
ARC
  8
1
 62
7
 10
116.0499999999999
 20
14.54999999999997
 30
0
 40
0.09999999999997122
 50
270
 51
0
  0
ARC
  8
1
 62
7
 10
117.9499999999999
 20
16.45
 30
0
 40
0.1000000000000192
 50
270
 51
0
  0
ARC
  8
1
 62
7
 10
117.9499999999999
 20
17.04999999999997
 30
0
 40
0.09999999999999432
 50
0
 51
90
  0
ARC
  8
1
 62
7
 10
163.9
 20
11.34999999999998
 30
0
 40
1.19999999999999
 50
270
 51
0
  0
ARC
  8
1
 62
7
 10
167.1
 20
11.34999999999998
 30
0
 40
1.199999999999989
 50
180
 51
270
  0
ARC
  8
1
 62
7
 10
163.9
 20
8.149999999999992
 30
0
 40
1.199999999999989
 50
0
 51
90
  0
ARC
  8
1
 62
7
 10
167.1
 20
8.149999999999992
 30
0
 40
1.199999999999989
 50
90
 51
180
  0
ARC
  8
1
 62
7
 10
165.2
 20
11.95
 30
0
 40
0.09999999999997122
 50
90
 51
180
  0
ARC
  8
1
 62
7
 10
165.7999999999999
 20
11.95
 30
0
 40
0.100000000000108
 50
0
 51
90
  0
ARC
  8
1
 62
7
 10
163.3000000000001
 20
10.04999999999997
 30
0
 40
0.1000000000000192
 50
90
 51
180
  0
ARC
  8
1
 62
7
 10
163.3000000000001
 20
9.450000000000003
 30
0
 40
0.100000000000108
 50
180
 51
270
  0
ARC
  8
1
 62
7
 10
165.2
 20
7.549999999999969
 30
0
 40
0.09999999999999432
 50
180
 51
270
  0
ARC
  8
1
 62
7
 10
165.7999999999999
 20
7.549999999999969
 30
0
 40
0.09999999999996589
 50
270
 51
0
  0
ARC
  8
1
 62
7
 10
167.6999999999999
 20
9.450000000000003
 30
0
 40
0.1000000000000227
 50
270
 51
0
  0
ARC
  8
1
 62
7
 10
167.6999999999999
 20
10.04999999999997
 30
0
 40
0.09999999999999432
 50
0
 51
90
  0
ARC
  8
1
 62
7
 10
112.9
 20
-16.64999999999999
 30
0
 40
1.200000000000017
 50
270
 51
0
  0
ARC
  8
1
 62
7
 10
116.1
 20
-16.64999999999999
 30
0
 40
1.199999999999989
 50
180
 51
270
  0
ARC
  8
1
 62
7
 10
112.9
 20
-19.85000000000001
 30
0
 40
1.199999999999989
 50
0
 51
90
  0
ARC
  8
1
 62
7
 10
116.1
 20
-19.85000000000001
 30
0
 40
1.200000000000017
 50
90
 51
180
  0
ARC
  8
1
 62
7
 10
114.2
 20
-16.05
 30
0
 40
0.1000000000000014
 50
90
 51
180
  0
ARC
  8
1
 62
7
 10
114.7999999999999
 20
-16.05
 30
0
 40
0.100000000000108
 50
0
 51
90
  0
ARC
  8
1
 62
7
 10
112.3000000000001
 20
-17.95
 30
0
 40
0.09999999999999076
 50
90
 51
180
  0
ARC
  8
1
 62
7
 10
112.3000000000001
 20
-18.55
 30
0
 40
0.1000000000000938
 50
180
 51
270
  0
ARC
  8
1
 62
7
 10
114.2
 20
-20.45
 30
0
 40
0.1000000000000085
 50
180
 51
270
  0
ARC
  8
1
 62
7
 10
114.7999999999999
 20
-20.45
 30
0
 40
0.1000000000000014
 50
270
 51
0
  0
ARC
  8
1
 62
7
 10
116.6999999999999
 20
-18.55
 30
0
 40
0.09999999999999076
 50
270
 51
0
  0
ARC
  8
1
 62
7
 10
116.6999999999999
 20
-17.95
 30
0
 40
0.09999999999999432
 50
0
 51
90
  0
ARC
  8
1
 62
7
 10
163.9
 20
-41.14999999999999
 30
0
 40
1.200000000000017
 50
270
 51
0
  0
ARC
  8
1
 62
7
 10
167.1
 20
-41.14999999999999
 30
0
 40
1.199999999999989
 50
180
 51
270
  0
ARC
  8
1
 62
7
 10
163.9
 20
-44.35000000000001
 30
0
 40
1.199999999999989
 50
0
 51
90
  0
ARC
  8
1
 62
7
 10
167.1
 20
-44.35000000000001
 30
0
 40
1.200000000000017
 50
90
 51
180
  0
ARC
  8
1
 62
7
 10
165.2
 20
-40.55
 30
0
 40
0.09999999999999432
 50
90
 51
180
  0
ARC
  8
1
 62
7
 10
165.7999999999999
 20
-40.55
 30
0
 40
0.100000000000108
 50
0
 51
90
  0
ARC
  8
1
 62
7
 10
163.3000000000001
 20
-42.45
 30
0
 40
0.09999999999999432
 50
90
 51
180
  0
ARC
  8
1
 62
7
 10
163.3000000000001
 20
-43.05
 30
0
 40
0.100000000000108
 50
180
 51
270
  0
ARC
  8
1
 62
7
 10
165.2
 20
-44.95
 30
0
 40
0.09999999999999432
 50
180
 51
270
  0
ARC
  8
1
 62
7
 10
165.7999999999999
 20
-44.95
 30
0
 40
0.09999999999999432
 50
270
 51
0
  0
ARC
  8
1
 62
7
 10
167.6999999999999
 20
-43.05
 30
0
 40
0.09999999999999432
 50
270
 51
0
  0
ARC
  8
1
 62
7
 10
167.6999999999999
 20
-42.45
 30
0
 40
0.09999999999999432
 50
0
 51
90
  0
ARC
  8
1
 62
7
 10
-6.343763565108134
 20
20.89999999999998
 30
0
 40
0.4999999999999893
 50
270.0000000000259
 51
0
  0
ARC
  8
1
 62
7
 10
-31.54376356510796
 20
21.27700676729661
 30
0
 40
0.5000000000000926
 50
93.17983011986011
 51
180
  0
ARC
  8
1
 62
7
 10
-31.54376356510796
 20
12.22299323270342
 30
0
 40
0.5
 50
180
 51
266.8201698801388
  0
ARC
  8
1
 62
7
 10
-26.04376356510796
 20
21.58270459830489
 30
0
 40
0.9999999999999589
 50
98.13010235415466
 51
152.122080924214
  0
ARC
  8
1
 62
7
 10
-8.343763565108134
 20
-39.35000000000001
 30
0
 40
0.1000000000000256
 50
84.99999999998842
 51
180
  0
ARC
  8
1
 62
7
 10
-8.343763565108134
 20
-46.14999999999999
 30
0
 40
0.09999999999990905
 50
180
 51
275.0000000000102
  0
ARC
  8
1
 62
7
 10
-7.139907505385167
 20
-45.40458696655161
 30
0
 40
0.7999999999999958
 50
272.1313517246144
 51
338.4952052003326
  0
ARC
  8
1
 62
7
 10
-7.139907505385167
 20
-40.09541303344839
 30
0
 40
0.8000000000000211
 50
21.50479479966742
 51
87.86864827538547
  0
ARC
  8
1
 62
7
 10
-8.343763565108134
 20
-14.85000000000001
 30
0
 40
0.1000000000000274
 50
84.99999999998852
 51
180
  0
ARC
  8
1
 62
7
 10
-8.343763565108134
 20
-21.64999999999999
 30
0
 40
0.09999999999990905
 50
180
 51
275.0000000000102
  0
ARC
  8
1
 62
7
 10
-7.139907505385167
 20
-20.90458696655161
 30
0
 40
0.7999999999999958
 50
272.1313517246144
 51
338.4952052003324
  0
ARC
  8
1
 62
7
 10
-7.139907505385167
 20
-15.59541303344839
 30
0
 40
0.8000000000000218
 50
21.50479479966754
 51
87.86864827538548
  0
ARC
  8
1
 62
7
 10
-8.343763565108134
 20
13.14999999999999
 30
0
 40
0.1000000000000575
 50
84.99999999999001
 51
180
  0
ARC
  8
1
 62
7
 10
-8.343763565108134
 20
6.34999999999998
 30
0
 40
0.09999999999990905
 50
180
 51
275.000000000013
  0
ARC
  8
1
 62
7
 10
-7.139907505385054
 20
7.095413033448395
 30
0
 40
0.7999999999999907
 50
272.1313517246064
 51
338.4952052003292
  0
ARC
  8
1
 62
7
 10
-7.139907505385054
 20
12.40458696655158
 30
0
 40
0.7999999999999169
 50
21.5047947996705
 51
87.86864827539364
  0
ARC
  8
1
 62
7
 10
-8.343763565108134
 20
20.14999999999999
 30
0
 40
0.100000000000054
 50
84.99999999998984
 51
180
  0
ARC
  8
1
 62
7
 10
-8.343763565108134
 20
13.34999999999998
 30
0
 40
0.09999999999990905
 50
180
 51
275.000000000013
  0
ARC
  8
1
 62
7
 10
-7.139907505385167
 20
14.09541303344839
 30
0
 40
0.7999999999999958
 50
272.1313517246144
 51
338.4952052003325
  0
ARC
  8
1
 62
7
 10
-7.139907505385167
 20
19.40458696655158
 30
0
 40
0.8000000000000225
 50
21.50479479966766
 51
87.86864827538555
  0
ARC
  8
1
 62
7
 10
-31.04376356510796
 20
-30.286984430369
 30
0
 40
0.5
 50
180
 51
265.6012946449974
  0
ARC
  8
1
 62
7
 10
-31.04376356510796
 20
-16.21301556963091
 30
0
 40
0.4999999999999167
 50
94.39870535500357
 51
180
  0
ARC
  8
1
 62
7
 10
-26.04376356510796
 20
26.61729540169507
 30
0
 40
1
 50
180
 51
261.8698976458458
  0
ARC
  8
1
 62
7
 10
-24.54376356510796
 20
38.11729540169507
 30
0
 40
1.000000000000009
 50
278.1301023541547
 51
0
  0
ARC
  8
1
 62
7
 10
-26.04376356510796
 20
35.88270459830501
 30
0
 40
0.9999999999999026
 50
98.1301023541551
 51
180
  0
ARC
  8
1
 62
7
 10
-22.54376356510796
 20
-46.25000000000001
 30
0
 40
1
 50
180
 51
270
  0
ARC
  8
1
 62
7
 10
-22.54376356510796
 20
46.25000000000001
 30
0
 40
1
 50
90
 51
180
  0
ARC
  8
1
 62
7
 10
-89
 20
-41.4181829468336
 30
0
 40
1.000000000000046
 50
280.4914770123303
 51
0
  0
ARC
  8
1
 62
7
 10
-89
 20
41.41818294683357
 30
0
 40
1
 50
0
 51
79.50852298766964
  0
ARC
  8
1
 62
7
 10
-140.9999999999999
 20
41.41818294683357
 30
0
 40
1.000000000000052
 50
100.491477012332
 51
180
  0
ARC
  8
1
 62
7
 10
-140.9999999999999
 20
-41.4181829468336
 30
0
 40
1
 50
180
 51
259.508522987668
  0
ARC
  8
1
 62
7
 10
-89
 20
43.25000000000001
 30
0
 40
4
 50
0
 51
90
  0
ARC
  8
1
 62
7
 10
-89
 20
-43.25000000000001
 30
0
 40
4
 50
270
 51
0
  0
ARC
  8
1
 62
7
 10
-140.9999999999999
 20
-43.25000000000001
 30
0
 40
4
 50
180
 51
270
  0
ARC
  8
1
 62
7
 10
-140.9999999999999
 20
43.25000000000001
 30
0
 40
4
 50
90
 51
180
  0
ARC
  8
1
 62
7
 10
-6.343763565107907
 20
40.39999999999999
 30
0
 40
0.5
 50
270
 51
0
  0
ARC
  8
1
 62
7
 10
-31.54376356510796
 20
-18.7229932327033
 30
0
 40
0.4999999999999943
 50
93.17983011984811
 51
180
  0
ARC
  8
1
 62
7
 10
-31.54376356510796
 20
-27.77700676729661
 30
0
 40
0.5
 50
180
 51
266.8201698801518
  0
ARC
  8
1
 62
7
 10
-26.04376356510796
 20
3.282704598304903
 30
0
 40
0.9999999999999311
 50
98.13010235415487
 51
180
  0
ARC
  8
1
 62
7
 10
-26.04376356510796
 20
-4.982704598305091
 30
0
 40
1
 50
180
 51
261.8698976458451
  0
ARC
  8
1
 62
7
 10
-26.04376356510796
 20
11.28270459830487
 30
0
 40
0.9999999999999747
 50
170.0399662975989
 51
180
  0
ARC
  8
1
 62
7
 10
-26.04376356510796
 20
5.025785323693881
 30
0
 40
1
 50
180
 51
240.6381359591541
  0
ARC
  8
1
 62
7
 10
27.78653355709287
 20
46.1939822888846
 30
0
 40
0.1999999999999957
 50
270
 51
3.645191185385988
  0
ARC
  8
1
 62
7
 10
24.33459844119681
 20
48.89398228888469
 30
0
 40
0.5
 50
90
 51
177.279550894049
  0
ARC
  8
1
 62
7
 10
27.35787442858588
 20
48.89398228888469
 30
0
 40
0.499999999999321
 50
2.720449105951042
 51
90
  0
ARC
  8
1
 62
7
 10
-4.343763565108141
 20
16.75000000000011
 30
0
 40
1.5
 50
180
 51
270
  0
ARC
  8
1
 62
7
 10
-4.343763565108141
 20
45.74999999999999
 30
0
 40
1.5
 50
90
 51
180
  0
LINE
  8
1
 62
2
 10
23.96046444699675
 20
5.25
 30
0
 11
-1.721283207394102
 21
5.25
 31
0
  0
LINE
  8
1
 62
2
 10
-1.721283207394102
 20
5.25
 30
0
 11
4.00623643489094
 21
15.25000000000007
 31
0
  0
SOLID
  8
1
 62
2
 10
2.666565262597558
 20
11.98387036285945
 30
0
 11
1.866876896972034
 21
12.44189344504215
 31
0
 12
4.00623643489094
 22
15.25000000000007
 32
0
 13
4.00623643489094
 23
15.25000000000007
 33
0
  0
LINE
  8
1
 62
2
 10
133.364942054396
 20
70.89861998126088
 30
0
 11
64.83662075008408
 21
70.89861998126088
 31
0
  0
LINE
  8
1
 62
2
 10
64.83662075008408
 20
70.89861998126088
 30
0
 11
55.14497392485907
 21
45.99398228888457
 31
0
  0
SOLID
  8
1
 62
2
 10
55.98486173016799
 20
49.42281738713231
 30
0
 11
56.84369107313469
 21
49.08860370460517
 31
0
 12
55.14497392485907
 22
45.99398228888457
 32
0
 13
55.14497392485907
 23
45.99398228888457
 33
0
  0
TEXT
  8
1
 62
2
 10
-64.46151784870078
 20
-63.734769879772
 30
0
 40
3.5
  1
(4-M4 DEPTH 0.236MAX)
 41
0.666
 73
2
 11
-64.46151784870078
 21
-61.984769879772
 31
0
  0
TEXT
  8
1
 62
2
 10
184.2008521839611
 20
25.20200000000001
 30
0
 40
3.2
  1
(1.26)
 50
90
 41
0.6300000000000001
 72
1
 73
2
 11
182.6008521839611
 21
31.25000000000001
 31
0
  0
TEXT
  8
1
 62
2
 10
158.202
 20
53.03677402711256
 30
0
 40
3.2
  1
(0.433)
 41
0.54
 72
1
 73
2
 11
164.25
 21
54.63677402711256
 31
0
  0
TEXT
  8
1
 62
2
 10
109.702
 20
53.03677402711256
 30
0
 40
3.2
  1
(0.433)
 41
0.54
 72
1
 73
2
 11
115.75
 21
54.63677402711256
 31
0
  0
TEXT
  8
1
 62
2
 10
-122.056
 20
65.05306639442912
 30
0
 40
3.2
  1
(2.362)
 41
0.6300000000000001
 72
1
 73
2
 11
-115
 21
66.65306639442913
 31
0
  0
TEXT
  8
1
 62
2
 10
-9.176028934095939
 20
65.05306639442912
 30
0
 40
3.2
  1
(2.26)
 41
0.6300000000000001
 72
1
 73
2
 11
-3.128028934095937
 21
66.65306639442913
 31
0
  0
TEXT
  8
1
 62
2
 10
-28.18402893409594
 20
53.03677402711256
 30
0
 40
3.2
  1
(0.866)
 41
0.6300000000000001
 72
1
 73
2
 11
-21.12802893409594
 21
54.63677402711256
 31
0
  0
TEXT
  8
1
 62
2
 10
-126.088
 20
53.03677402711256
 30
0
 40
3.2
  1
(1.575    )
 41
0.6300000000000001
 72
1
 73
2
 11
-115
 21
54.63677402711256
 31
0
  0
TEXT
  8
1
 62
2
 10
-162.8025102449252
 20
-6.06597680894201
 30
0
 40
3.2
  1
(3.72)
 50
90
 41
0.6300000000000001
 72
1
 73
2
 11
-164.4025102449252
 21
-0.01797680894200937
 31
0
  0
TEXT
  8
1
 62
2
 10
-150.8025102449252
 20
-14.33799999999999
 30
0
 40
3.2
  1
(1.575    )
 50
90
 41
0.6300000000000001
 72
1
 73
2
 11
-152.4025102449252
 21
-3.249999999999986
 31
0
  0
TEXT
  8
1
 62
2
 10
-150.8025102449252
 20
33.20147840257302
 30
0
 40
3.2
  1
(0.63)
 50
90
 41
0.6300000000000001
 72
1
 73
2
 11
-152.4025102449252
 21
39.24947840257302
 31
0
  0
TEXT
  8
1
 62
2
 10
-65.54376356510794
 20
-22.15397680894201
 30
0
 40
3.2
  1
(0.315DIA.      )
 50
90
 41
0.6300000000000001
 72
1
 73
2
 11
-67.14376356510795
 21
-5.017976808942009
 31
0
  0
TEXT
  8
1
 62
2
 10
-54.34408935968611
 20
-19.07397680894201
 30
0
 40
3.2
  1
(0.276)
 50
90
 41
0.6300000000000001
 72
1
 73
2
 11
-55.94408935968611
 21
-12.01797680894201
 31
0
  0
TEXT
  8
1
 62
2
 10
-48.69202893409594
 20
5.402793055844065
 30
0
 40
3.2
  1
(0.0197)
 41
0.6300000000000001
 72
1
 73
2
 11
-40.62802893409594
 21
7.002793055844066
 31
0
  0
TEXT
  8
1
 62
2
 10
-47.68402893409593
 20
-4.597206944155963
 30
0
 40
3.2
  1
(0.669)
 41
0.6300000000000001
 72
1
 73
2
 11
-40.62802893409594
 21
-2.997206944155963
 31
0
  0
TEXT
  8
1
 62
2
 10
-48.68402893409593
 20
-14.59720694415599
 30
0
 40
3.2
  1
(0.551)
 41
0.6300000000000001
 72
1
 73
2
 11
-41.62802893409594
 21
-12.99720694415599
 31
0
  0
TEXT
  8
1
 62
2
 10
-150.8025102449252
 20
-42.07397680894201
 30
0
 40
3.2
  1
(0.945)
 50
90
 41
0.6300000000000001
 72
1
 73
2
 11
-152.4025102449252
 21
-35.01797680894201
 31
0
  0
TEXT
  8
1
 62
2
 10
-116.5295361788561
 20
53.63677402711256
 30
0
 40
2
  1
%%p0.0118
 41
0.63
 72
1
 73
2
 11
-110.8595361788561
 21
54.63677402711256
 31
0
  0
TEXT
  8
1
 62
2
 10
-151.4025102449253
 20
-4.779536178856089
 30
0
 40
2
  1
%%p0.0118
 50
90
 41
0.63
 72
1
 73
2
 11
-152.4025102449253
 21
0.8904638211439111
 31
0
  0
TEXT
  8
1
 62
2
 10
-67.34376356510795
 20
-3.420011650184021
 30
0
 40
2
  1
 0
 50
90
 41
0.63
  0
TEXT
  8
1
 62
2
 10
-64.94376356510794
 20
-3.420011650184021
 30
0
 40
2
  1
-0.000787
 50
90
 41
0.63
  0
TEXT
  8
1
 62
2
 10
58.32407873714882
 20
-8.041067714109538
 30
0
 40
2
  1
+1.181
 41
0.63
  0
TEXT
  8
1
 62
2
 10
58.32407873714882
 20
-10.44106771410954
 30
0
 40
2
  1
 0
 41
0.63
  0
TEXT
  8
1
 62
2
 10
45.76973496400672
 20
-9.727537746039314
 30
0
 40
3.2
  1
(11.811    )
 41
0.6300000000000001
 72
1
 73
2
 11
57.86573496400672
 21
-8.127537746039312
 31
0
  0
TEXT
  8
1
 62
2
 10
62.30023643489191
 20
8.132151295558689
 30
0
 40
3.2
  1
(0.118)
 41
0.6300000000000001
 72
1
 73
2
 11
69.35623643489191
 21
9.73215129555869
 31
0
  0
TEXT
  8
1
 62
2
 10
2.903246034606729
 20
6.36493706720249
 30
0
 40
3
  1
NAME PLATE
 41
0.6300000000000001
 72
1
 73
2
 11
12.35324603460673
 21
7.86493706720249
 31
0
  0
TEXT
  8
1
 62
2
 10
26.7922364348919
 20
53.05306639442913
 30
0
 40
3.2
  1
(0.0472)
 41
0.6300000000000001
 72
1
 73
2
 11
34.8562364348919
 21
54.65306639442913
 31
0
  0
TEXT
  8
1
 62
2
 10
49.56799674194431
 20
21.16999999999999
 30
0
 40
3.2
  1
(1.26DIA.)
 50
90
 41
0.6300000000000001
 72
1
 73
2
 11
47.96799674194431
 21
31.24999999999999
 31
0
  0
TEXT
  8
1
 62
2
 10
66.2529348275408
 20
72.18369681053309
 30
0
 40
3.5
  1
LEAD WIRES (RED,BLACK)
 41
0.9
 73
2
 11
66.2529348275408
 21
73.93369681053309
 31
0
  0
TEXT
  8
1
 62
2
 10
66.25293482754074
 20
65.08707482147131
 30
0
 40
3.5
  1
UL1007 AWG22
 41
0.9
 73
2
 11
66.25293482754074
 21
66.83707482147131
 31
0
  0
TEXT
  8
1
 62
2
 10
-142.5
 20
93.50000000000001
 30
0
 40
5
  1
DME33S5C
 41
0.9
 72
1
 73
2
 11
-124.5
 21
96.00000000000001
 31
0
  0
DIMENSION
  8
1
  6
CONTINUOUS
 62
2
  2
*D0
  3
DMST_1
 10
180
 20
47.25000000000001
 30
0
 11
177.4
 21
31.25000000000001
 31
0
 12
0
 22
0
 32
0
 70
0
  1
(<>
 13
164.25
 23
15.25000000000001
 33
0
 14
166
 24
47.25000000000001
 34
0
 50
90
 53
0
  0
DIMENSION
  8
1
  6
CONTINUOUS
 62
2
  2
*D1
  3
DMST_1
 10
121.5
 20
57.2011993435173
 30
0
 11
115.75
 21
59.8011993435173
 31
0
 12
0
 22
0
 32
0
 70
0
  1
11
 13
110
 23
43.25000000000001
 33
0
 14
121.5
 24
43.25000000000001
 34
0
 53
0
  0
DIMENSION
  8
1
  6
CONTINUOUS
 62
2
  2
*D2
  3
DMST_1
 10
170
 20
57.2011993435173
 30
0
 11
164.25
 21
59.8011993435173
 31
0
 12
0
 22
0
 32
0
 70
0
  1
11
 13
158.5
 23
43.25000000000001
 33
0
 14
170
 24
43.25000000000004
 34
0
 53
0
  0
DIMENSION
  8
1
  6
CONTINUOUS
 62
2
  2
*D3
  3
DMST_2
 10
-32.04376356510796
 20
57.2402144790922
 30
0
 11
-21.04376356510796
 21
59.8402144790922
 31
0
 12
0
 22
0
 32
0
 70
0
 13
-10.04376356510795
 23
47.25000000000001
 33
0
 14
-32.04376356510796
 24
21.27700676729667
 34
0
 53
0
  0
DIMENSION
  8
1
  6
CONTINUOUS
 62
2
  2
*D4
  3
DMST_2
 10
-49.04376356510796
 20
-10.24999999999999
 30
0
 11
-42.04376356510796
 21
-7.649999999999991
 31
0
 12
0
 22
0
 32
0
 70
0
 13
-35.04376356510796
 23
-19.25000000000001
 33
0
 14
-49.04376356510796
 24
-20.25000000000001
 34
0
 53
0
  0
DIMENSION
  8
1
  6
CONTINUOUS
 62
2
  2
*D5
  3
DMST_3
 10
-70.5090056748665
 20
-19.25000000000001
 30
0
 11
-73.90900567486651
 21
-4.88956352935861
 31
0
 12
0
 22
0
 32
0
 70
0
  1
ƒÓ<>
 13
-49.04376356510796
 23
-27.25000000000001
 33
0
 14
-35.04376356510796
 24
-19.25000000000001
 34
0
 50
90
 53
0
  0
DIMENSION
  8
1
  6
CONTINUOUS
 62
2
  2
*D6
  3
DMST_2
 10
-58.4706918318394
 20
-20.25000000000001
 30
0
 11
-61.0706918318394
 21
-11.5654867277327
 31
0
 12
0
 22
0
 32
0
 70
1
 13
-49.04376356510796
 23
-27.25000000000001
 33
0
 14
-49.04376356510796
 24
-20.25000000000001
 34
0
 53
0
  0
DIMENSION
  8
1
  6
CONTINUOUS
 62
2
  2
*D7
  3
DMST_2
 10
-84.99999999999996
 20
69.17584480074061
 30
0
 11
-114.9999999999999
 21
71.7758448007406
 31
0
 12
0
 22
0
 32
0
 70
1
 13
-144.9999999999999
 23
43.25000000000001
 33
0
 14
-85
 24
43.25000000000001
 34
0
 53
0
  0
DIMENSION
  8
1
  6
CONTINUOUS
 62
2
  2
*D8
  3
DMST_2
 10
-167.0352794982607
 20
47.25000000000001
 30
0
 11
-169.6352794982607
 21
1.4210854715202e-014
 31
0
 12
0
 22
0
 32
0
 70
0
 13
-140.9999999999999
 23
-47.25000000000001
 33
0
 14
-140.9999999999999
 24
47.25000000000001
 34
0
 50
90
 53
0
  0
DIMENSION
  8
1
  6
CONTINUOUS
 62
2
  2
*D9
  3
DMST_2
 10
-155
 20
-47.25000000000001
 30
0
 11
-157.6
 21
-35.25000000000001
 31
0
 12
0
 22
0
 32
0
 70
0
 13
-144.9999999999999
 23
-23.25000000000001
 33
0
 14
-140.9999999999999
 24
-47.25000000000001
 34
0
 50
90
 53
0
  0
DIMENSION
  8
1
  6
CONTINUOUS
 62
2
  2
*D10
  3
DMST_4
 10
-155
 20
-23.25000000000001
 30
0
 11
-157.6
 21
-3.250000000000014
 31
0
 12
0
 22
0
 32
0
 70
0
 13
-144.9999999999999
 23
16.75000000000001
 33
0
 14
-144.9999999999999
 24
-23.25000000000001
 34
0
 50
90
 53
0
  0
DIMENSION
  8
1
  6
CONTINUOUS
 62
2
  2
*D11
  3
DMST_2
 10
-155
 20
31.25000000000001
 30
0
 11
-157.6
 21
39.25000000000001
 31
0
 12
0
 22
0
 32
0
 70
0
 13
-140.9999999999999
 23
47.25000000000001
 33
0
 14
-121
 24
31.25000000000001
 34
0
 50
90
 53
0
  0
DIMENSION
  8
1
  6
CONTINUOUS
 62
2
  2
*D12
  3
DMST_4
 10
-94.99999999999996
 20
57.2470510888472
 30
0
 11
-114.9999999999999
 21
59.8470510888472
 31
0
 12
0
 22
0
 32
0
 70
0
 13
-134.9999999999999
 23
47.25000000000001
 33
0
 14
-95
 24
47.3593059936909
 34
0
 53
0
  0
DIMENSION
  8
1
  6
CONTINUOUS
 62
2
  2
*D13
  3
DMST_5
 10
-32.04376356510795
 20
-0.2499999999999889
 30
0
 11
-40.54376356510795
 21
2.350000000000011
 31
0
 12
0
 22
0
 32
0
 70
0
 13
-49.04376356510796
 23
-20.25000000000001
 33
0
 14
-32.04376356510796
 24
-18.7229932327033
 34
0
 53
0
  0
DIMENSION
  8
1
  6
CONTINUOUS
 62
2
  2
*D14
  3
DMST_5
 10
-32.04376356510795
 20
9.749999999999981
 30
0
 11
-40.11549364453793
 21
12.34999999999998
 31
0
 12
0
 22
0
 32
0
 70
0
 13
-31.54376356510796
 23
-16.21301556963091
 33
0
 14
-32.04376356510796
 24
-18.7229932327033
 34
0
 53
0
  0
DIMENSION
  8
1
  6
CONTINUOUS
 62
2
  2
*D15
  3
DMST_1
 10
78.07714823924687
 20
12.86693942041256
 30
0
 11
69.22341822268675
 21
15.46693942041256
 31
0
 12
0
 22
0
 32
0
 70
0
  1
(<>
 13
81.07714823924687
 23
43.8989822888847
 33
0
 14
78.07714823924687
 24
43.50398228888459
 34
0
 53
0
  0
DIMENSION
  8
1
  6
CONTINUOUS
 62
2
  2
*D16
  3
DMST_6
 10
81.07714823924687
 20
-4.750000000000007
 30
0
 11
57.32419973516744
 21
-1.350000000000007
 31
0
 12
0
 22
0
 32
0
 70
0
  1
300
 13
25.35623643489076
 23
16.25
 33
0
 14
81.07714823924687
 24
43.8989822888847
 34
0
 53
0
  0
DIMENSION
  8
1
  6
CONTINUOUS
 62
2
  2
*D17
  3
DMST_1
 10
26.55623643489081
 20
57.1985923413702
 30
0
 11
35.4130780504782
 21
59.7985923413702
 31
0
 12
0
 22
0
 32
0
 70
0
  1
(<>
 13
25.35623643489076
 23
46.24999999999999
 33
0
 14
26.55623643489081
 24
35.84999999999987
 34
0
 53
0
  0
DIMENSION
  8
1
  6
CONTINUOUS
 62
2
  2
*D18
  3
DMST_2
 10
45.35623643489087
 20
15.25
 30
0
 11
42.75623643489087
 21
31.24999999999999
 31
0
 12
0
 22
0
 32
0
 70
0
  1
ƒÓ<>
 13
24.35623643489076
 23
47.24999999999999
 33
0
 14
24.35623643489076
 24
15.25
 34
0
 50
90
 53
0
  0
DIMENSION
  8
1
  6
CONTINUOUS
 62
2
  2
*D19
  3
DMST_2
 10
-32.04376356510796
 20
69.28288632654871
 30
0
 11
-3.3437635651086
 21
71.8828863265487
 31
0
 12
0
 22
0
 32
0
 70
0
 13
25.35623643489076
 23
45.9939822888846
 33
0
 14
-32.04376356510796
 24
21.27700676729667
 34
0
 53
0
  0
INSERT
  8
0
  2
___R___O_______R
 10
0.5
 20
-3.75
 30
0
  0
INSERT
  8
1
  2
*D20
 10
0
 20
0
 30
0
  0
ENDSEC
  0
EOF
