  0
SECTION
  2
HEADER
  9
$ACADVER
  1
AC1009
  9
$INSBASE
 10
0
 20
0
  9
$EXTMIN
 10
-194.5
 20
-146
  9
$EXTMAX
 10
194.5
 20
146
  9
$LIMMIN
 10
-194.5
 20
-146
  9
$LIMMAX
 10
194.5
 20
146
  9
$VIEWCTR
 10
10
 20
10
  9
$VIEWSIZE
 40
10
  9
$SNAPMODE
 70
0
  9
$SNAPUNIT
 10
1
 20
1
  9
$SNAPBASE
 10
0
 20
0
  9
$SNAPANG
 50
0
  9
$SNAPSTYLE
 70
0
  9
$SNAPISOPAIR
 70
0
  9
$GRIDMODE
 70
0
  9
$GRIDUNIT
 10
0
 20
0
  9
$ORTHOMODE
 70
0
  9
$REGENMODE
 70
1
  9
$FILLMODE
 70
1
  9
$QTEXTMODE
 70
0
  9
$DRAGMODE
 70
2
  9
$LTSCALE
 40
1
  9
$OSMODE
 70
0
  9
$ATTMODE
 70
1
  9
$TEXTSIZE
 40
3.5
  9
$TRACEWID
 40
0.5
  9
$TEXTSTYLE
  7
STANDARD
  9
$CLAYER
  8
0
  9
$CELTYPE
  6
BYLAYER
  9
$CECOLOR
 62
256
  9
$DIMSCALE
 40
1
  9
$DIMASZ
 40
0.18
  9
$DIMEXO
 40
0.0625
  9
$DIMDLI
 40
0.38
  9
$DIMRND
 40
0
  9
$DIMDLE
 40
0
  9
$DIMEXE
 40
0.18
  9
$DIMTP
 40
0
  9
$DIMTM
 40
0
  9
$DIMTXT
 40
0.18
  9
$DIMCEN
 40
0.09
  9
$DIMTSZ
 40
0
  9
$DIMTOL
 70
0
  9
$DIMLIM
 70
0
  9
$DIMTIH
 70
1
  9
$DIMTOH
 70
1
  9
$DIMSE1
 70
0
  9
$DIMSE2
 70
0
  9
$DIMTAD
 70
0
  9
$DIMZIN
 70
0
  9
$DIMBLK
  1

  9
$DIMASO
 70
1
  9
$DIMSHO
 70
1
  9
$DIMPOST
  1

  9
$DIMAPOST
  1

  9
$DIMALT
 70
0
  9
$DIMALTD
 70
2
  9
$DIMALTF
 40
25.4
  9
$DIMLFAC
 40
1
  9
$DIMTOFL
 70
0
  9
$DIMTVP
 40
0
  9
$DIMTIX
 70
0
  9
$DIMSOXD
 70
0
  9
$DIMSAH
 70
0
  9
$DIMBLK1
  1

  9
$DIMBLK2
  1

  9
$DIMSTYLE
  2
*UNNAMED
  9
$DIMCLRD
 70
0
  9
$DIMCLRE
 70
0
  9
$DIMCLRT
 70
0
  9
$DIMTFAC
 40
1
  9
$DIMGAP
 40
0.09
  9
$LUNITS
 70
2
  9
$LUPREC
 70
4
  9
$AXISMODE
 70
0
  9
$AXISUNIT
 10
0
 20
0
  9
$SKETCHINC
 40
0.1
  9
$FILLETRAD
 40
2
  9
$AUNITS
 70
0
  9
$AUPREC
 70
0
  9
$MENU
  1
ACAD
  9
$ELEVATION
 40
0
  9
$THICKNESS
 40
0
  9
$VIEWDIR
 10
0
 20
0
 30
1
  9
$LIMCHECK
 70
0
  9
$BLIPMODE
 70
1
  9
$CHAMFERA
 40
0
  9
$CHAMFERB
 40
0
  9
$FASTZOOM
 70
1
  9
$SKPOLY
 70
0
  9
$ANGBASE
 50
0
  9
$ANGDIR
 70
0
  9
$PDMODE
 70
0
  9
$PDSIZE
 40
0
  9
$PLINEWID
 40
0
  9
$COORDS
 70
2
  0
ENDSEC
  0
SECTION
  2
TABLES
  0
TABLE
  2
DIMSTYLE
 70
8
  0
DIMSTYLE
  2
DMST_1
 70
0
  3

  4

  5

  6

  7

 40
1
 41
3.2
 42
1
 43
7
 44
1
 45
0
 46
0
 47
0
 48
0
140
3.2
141
0
142
0
143
25.4
144
1
145
0
146
1
147
0.09
 71
0
 72
0
 73
0
 74
0
 75
0
 76
0
 77
1
 78
9
170
0
171
2
172
0
173
0
174
0
175
0
176
2
177
2
178
2
  0
DIMSTYLE
  2
DMST_2
 70
0
  3
)
  4

  5

  6

  7

 40
1
 41
3.2
 42
1
 43
7
 44
1
 45
0
 46
0
 47
0
 48
0
140
3.2
141
0
142
0
143
25.4
144
1
145
0
146
1
147
0.09
 71
0
 72
0
 73
0
 74
0
 75
0
 76
0
 77
1
 78
9
170
0
171
2
172
0
173
0
174
0
175
0
176
2
177
2
178
2
  0
DIMSTYLE
  2
DMST_3
 70
0
  3

  4

  5

  6

  7

 40
1
 41
3.2
 42
1
 43
7
 44
1
 45
0
 46
0
 47
0
 48
0
140
3.2
141
0
142
0
143
25.4
144
1
145
0
146
0.6
147
0.09
 71
1
 72
0
 73
0
 74
0
 75
0
 76
0
 77
1
 78
9
170
0
171
2
172
0
173
0
174
0
175
0
176
2
177
2
178
2
  0
DIMSTYLE
  2
DMST_4
 70
0
  3
)
  4

  5

  6

  7

 40
1
 41
3.2
 42
1
 43
7
 44
1
 45
0
 46
0
 47
0
 48
0
140
3.2
141
0
142
0
143
25.4
144
1
145
0
146
1
147
0.09
 71
0
 72
0
 73
1
 74
1
 75
0
 76
0
 77
1
 78
9
170
0
171
2
172
0
173
0
174
0
175
0
176
2
177
2
178
2
  0
DIMSTYLE
  2
DMST_5
 70
0
  3

  4

  5

  6

  7

 40
1
 41
3.2
 42
1
 43
7
 44
1
 45
0
 46
0
 47
0.15
 48
0.15
140
3.2
141
0
142
0
143
25.4
144
1
145
0
146
0.6
147
0.09
 71
1
 72
0
 73
0
 74
0
 75
0
 76
0
 77
1
 78
9
170
0
171
2
172
0
173
0
174
0
175
0
176
2
177
2
178
2
  0
DIMSTYLE
  2
DMST_6
 70
0
  3

  4

  5

  6

  7

 40
1
 41
3.2
 42
1
 43
7
 44
1
 45
0
 46
0
 47
0.1
 48
0.1
140
3.2
141
0
142
0
143
25.4
144
1
145
0
146
0.6
147
0.09
 71
1
 72
0
 73
0
 74
0
 75
0
 76
0
 77
1
 78
9
170
0
171
2
172
0
173
0
174
0
175
0
176
2
177
2
178
2
  0
DIMSTYLE
  2
DMST_7
 70
0
  3

  4

  5

  6

  7

 40
1
 41
3.2
 42
1
 43
7
 44
1
 45
0
 46
0
 47
0.2
 48
0.2
140
3.2
141
0
142
0
143
25.4
144
1
145
0
146
0.6
147
0.09
 71
1
 72
0
 73
0
 74
0
 75
0
 76
0
 77
1
 78
9
170
0
171
2
172
0
173
0
174
0
175
0
176
2
177
2
178
2
  0
DIMSTYLE
  2
DMST_8
 70
0
  3

  4

  5

  6

  7

 40
1
 41
3.2
 42
1
 43
7
 44
1
 45
0
 46
0
 47
0.5
 48
0.5
140
3.2
141
0
142
0
143
25.4
144
1
145
0
146
0.6
147
0.09
 71
1
 72
0
 73
0
 74
0
 75
0
 76
0
 77
1
 78
9
170
0
171
2
172
0
173
0
174
0
175
0
176
2
177
2
178
2
  0
ENDTAB
  0
TABLE
  2
LTYPE
 70
9
  0
LTYPE
  2
CONTINUOUS
 70
64
  3
Solid line
 72
65
 73
0
 40
0
  0
LTYPE
  2
BORDER
 70
64
  3
__ __ . __ __ .
 72
65
 73
6
 40
17.91447368421053
 49
5.118421052631579
 49
-2.559210526315789
 49
5.118421052631579
 49
-2.559210526315789
 49
0
 49
-2.559210526315789
  0
LTYPE
  2
CENTER
 70
64
  3
____ _ ____ _
 72
65
 73
4
 40
20.47368421052632
 49
12.79605263157895
 49
-2.559210526315789
 49
2.559210526315789
 49
-2.559210526315789
  0
LTYPE
  2
DASHDOT
 70
64
  3
__ . __ . __ .
 72
65
 73
4
 40
10.23684210526316
 49
5.118421052631579
 49
-2.559210526315789
 49
0
 49
-2.559210526315789
  0
LTYPE
  2
DASHED
 70
64
  3
__ __ __ __ __
 72
65
 73
2
 40
7.677631578947368
 49
5.118421052631579
 49
-2.559210526315789
  0
LTYPE
  2
DIVIDE
 70
64
  3
__ . . __ . . 
 72
65
 73
6
 40
12.79605263157895
 49
5.118421052631579
 49
-2.559210526315789
 49
0
 49
-2.559210526315789
 49
0
 49
-2.559210526315789
  0
LTYPE
  2
DOT
 70
64
  3
..............
 72
65
 73
4
 40
5.118421052631579
 49
0
 49
-2.559210526315789
 49
0
 49
-2.559210526315789
  0
LTYPE
  2
HIDDEN
 70
64
  3
_ _ _ _ _ _ _
 72
65
 73
2
 40
3.838815789473684
 49
2.559210526315789
 49
-1.279605263157895
  0
LTYPE
  2
PHANTOM
 70
64
  3
_____ _ _ _____ _ _ 
 72
65
 73
6
 40
25.59210526315789
 49
12.79605263157895
 49
-2.559210526315789
 49
2.559210526315789
 49
-2.559210526315789
 49
2.559210526315789
 49
-2.559210526315789
  0
ENDTAB
  0
TABLE
  2
LAYER
 70
3
  0
LAYER
  2
1
 70
0
 62
7
  6
CONTINUOUS
  0
LAYER
  2
0
 70
0
 62
7
  6
CONTINUOUS
  0
ENDTAB
  0
TABLE
  2
STYLE
 70
4
  0
STYLE
  2
STANDARD
 70
0
 40
0
 41
1
 50
0
 71
0
 42
3.5
  3
txt
  4

  0
STYLE
  2
SIMPLEX
 70
0
 40
0
 41
1
 50
0
 71
0
 42
3.5
  3
simplex
  4

  0
STYLE
  2
COMPLEX
 70
0
 40
0
 41
1
 50
0
 71
0
 42
3.5
  3
complex
  4

  0
STYLE
  2
ITALIC
 70
0
 40
0
 41
1
 50
0
 71
0
 42
3.5
  3
italic
  4

  0
ENDTAB
  0
TABLE
  2
VIEW
 70
0
  0
ENDTAB
  0
ENDSEC
  0
SECTION
  2
BLOCKS
  0
BLOCK
  8
0
  2
___R___O_______R
 70
0
 10
0.5000000000000267
 20
-3.75
 30
0
  0
LINE
  8
1
 62
4
  6
PHANTOM
 10
-194.5
 20
-146
 30
0
 11
194.5
 21
-146
 31
0
  0
LINE
  8
1
 62
4
  6
PHANTOM
 10
194.5
 20
146
 30
0
 11
-194.5
 21
146
 31
0
  0
LINE
  8
1
 62
4
  6
PHANTOM
 10
194.5
 20
146
 30
0
 11
194.5
 21
129
 31
0
  0
LINE
  8
1
 62
4
  6
PHANTOM
 10
-194.5
 20
-146
 30
0
 11
-194.5
 21
146
 31
0
  0
LINE
  8
1
 62
4
  6
PHANTOM
 10
194.5
 20
-136.5
 30
0
 11
194.5
 21
-146
 31
0
  0
TEXT
  8
1
 62
4
 10
178.746911898274
 20
-142.6071298819256
 30
0
 40
5
  1
A3
 41
0.9
 72
1
 73
2
 11
183.246911898274
 21
-140.1071298819256
 31
0
  0
ENDBLK
  8
0
  0
BLOCK
  8
0
  2
TOP
 70
0
 10
-196.1221264909976
 20
-445.688301522763
 30
0
  0
LINE
  8
1
 62
7
 10
-54.5
 20
-53
 30
0
 11
-139.5
 21
-53
 31
0
  0
LINE
  8
1
 62
7
 10
-54.5
 20
-53
 30
0
 11
-54.5
 21
-86
 31
0
  0
LINE
  8
1
 62
7
 10
-139.5
 20
-66
 30
0
 11
-54.5
 21
-66
 31
0
  0
LINE
  8
1
 62
7
 10
-139.5
 20
-86
 30
0
 11
-54.5
 21
-86
 31
0
  0
LINE
  8
1
 62
7
 10
-114.5
 20
-53
 30
0
 11
-114.5
 21
-86
 31
0
  0
LINE
  8
1
 62
7
 10
-139.5
 20
-53
 30
0
 11
-139.5
 21
-86
 31
0
  0
LINE
  8
1
 62
4
  6
PHANTOM
 10
-194.5
 20
-146
 30
0
 11
-194.5
 21
-136
 31
0
  0
LINE
  8
1
 62
4
  6
PHANTOM
 10
-194.5
 20
-146
 30
0
 11
-184.5
 21
-146
 31
0
  0
LINE
  8
1
 62
7
 10
-114.5
 20
-57
 30
0
 11
-54.5
 21
-57
 31
0
  0
LINE
  8
1
 62
2
  6
DOT
 10
-99.5
 20
-57
 30
0
 11
-99.5
 21
-86
 31
0
  0
LINE
  8
1
 62
7
 10
-139.5
 20
-61
 30
0
 11
-54.5
 21
-61
 31
0
  0
LINE
  8
1
 62
7
 10
-139.5
 20
-71
 30
0
 11
-54.5
 21
-71
 31
0
  0
LINE
  8
1
 62
7
 10
-139.5
 20
-76
 30
0
 11
-54.5
 21
-76
 31
0
  0
LINE
  8
1
 62
7
 10
-139.5
 20
-81
 30
0
 11
-54.5
 21
-81
 31
0
  0
LINE
  8
1
 62
7
 10
-84.5
 20
-53
 30
0
 11
-84.5
 21
-86
 31
0
  0
LINE
  8
1
 62
2
  6
DOT
 10
-69.5
 20
-57
 30
0
 11
-69.5
 21
-86
 31
0
  0
TEXT
  8
1
 62
7
 10
-116
 20
-69.75
 30
0
 40
2.5
  1
５３．５
 41
0.9
 72
1
 73
2
 11
-107
 21
-68.5
 31
0
  0
TEXT
  8
1
 62
7
 10
-116
 20
-64.75
 30
0
 40
2.5
  1
５２．０
 41
0.9
 72
1
 73
2
 11
-107
 21
-63.5
 31
0
  0
TEXT
  8
1
 62
2
 10
-101.8814
 20
-56.26000000000001
 30
0
 40
2.520000000000007
  1
Ｌ1
 41
0.63
 72
1
 73
2
 11
-99.5
 21
-55
 31
0
  0
TEXT
  8
1
 62
7
 10
-138
 20
-69.75
 30
0
 40
2.5
  1
１／２０　 ～ １／３０
 41
0.63
 73
2
 11
-138
 21
-68.5
 31
0
  0
TEXT
  8
1
 62
7
 10
-138
 20
-64.75
 30
0
 40
2.5
  1
１／１０
 41
0.63
 73
2
 11
-138
 21
-63.5
 31
0
  0
TEXT
  8
1
 62
2
 10
-147.4120000000004
 20
-58.26000000000001
 30
0
 40
2.520000000000007
  1
ＤＥＣＯＬＥＲＡＴＩＯＮ　ＲＡＴＩＯ
 41
0.4499999999999998
 72
1
 73
2
 11
-127
 21
-57
 31
0
  0
TEXT
  8
1
 62
2
 10
-111.7628000000001
 20
-60.26000000000001
 30
0
 40
2.520000000000007
  1
(ｍｍ)
 41
0.63
 72
1
 73
2
 11
-107
 21
-59
 31
0
  0
TEXT
  8
1
 62
2
 10
-99.93800000000016
 20
-60.26000000000001
 30
0
 40
2.520000000000007
  1
(ｉｎｃｈ)
 41
0.63
 72
1
 73
2
 11
-92
 21
-59
 31
0
  0
TEXT
  8
1
 62
7
 10
-103.25
 20
-64.75
 30
0
 40
2.5
  1
２．０４７
 41
0.9
 72
1
 73
2
 11
-92
 21
-63.5
 31
0
  0
TEXT
  8
1
 62
7
 10
-103.25
 20
-69.75
 30
0
 40
2.5
  1
２．１０６
 41
0.9
 72
1
 73
2
 11
-92
 21
-68.5
 31
0
  0
TEXT
  8
1
 62
7
 10
-116
 20
-74.75
 30
0
 40
2.5
  1
５６．０
 41
0.9
 72
1
 73
2
 11
-107
 21
-73.5
 31
0
  0
TEXT
  8
1
 62
7
 10
-138
 20
-74.75
 30
0
 40
2.5
  1
１／５０　 ～ １／１００
 41
0.63
 73
2
 11
-138
 21
-73.5
 31
0
  0
TEXT
  8
1
 62
7
 10
-103.25
 20
-74.75
 30
0
 40
2.5
  1
２．２０４
 41
0.9
 72
1
 73
2
 11
-92
 21
-73.5
 31
0
  0
TEXT
  8
1
 62
7
 10
-116
 20
-79.75
 30
0
 40
2.5
  1
５８．５
 41
0.9
 72
1
 73
2
 11
-107
 21
-78.5
 31
0
  0
TEXT
  8
1
 62
7
 10
-138
 20
-79.75
 30
0
 40
2.5
  1
１／１２０ ～ １／３００
 41
0.63
 73
2
 11
-138
 21
-78.5
 31
0
  0
TEXT
  8
1
 62
7
 10
-103.25
 20
-79.75
 30
0
 40
2.5
  1
２．３０３
 41
0.9
 72
1
 73
2
 11
-92
 21
-78.5
 31
0
  0
TEXT
  8
1
 62
7
 10
-116
 20
-84.75
 30
0
 40
2.5
  1
６１．０
 41
0.9
 72
1
 73
2
 11
-107
 21
-83.5
 31
0
  0
TEXT
  8
1
 62
7
 10
-138
 20
-84.75
 30
0
 40
2.5
  1
１／４００ ～ １／６００
 41
0.63
 73
2
 11
-138
 21
-83.5
 31
0
  0
TEXT
  8
1
 62
7
 10
-103.25
 20
-84.75
 30
0
 40
2.5
  1
２．４０２
 41
0.9
 72
1
 73
2
 11
-92
 21
-83.5
 31
0
  0
TEXT
  8
1
 62
7
 10
-86
 20
-69.75
 30
0
 40
2.5
  1
２２．３
 41
0.9
 72
1
 73
2
 11
-77
 21
-68.5
 31
0
  0
TEXT
  8
1
 62
7
 10
-86
 20
-64.75
 30
0
 40
2.5
  1
１９．８
 41
0.9
 72
1
 73
2
 11
-77
 21
-63.5
 31
0
  0
TEXT
  8
1
 62
2
 10
-71.88140000000004
 20
-56.26000000000001
 30
0
 40
2.520000000000007
  1
Ｌ2
 41
0.63
 72
1
 73
2
 11
-69.5
 21
-55
 31
0
  0
TEXT
  8
1
 62
2
 10
-81.7628000000001
 20
-60.26000000000001
 30
0
 40
2.520000000000007
  1
(ｍｍ)
 41
0.63
 72
1
 73
2
 11
-77
 21
-59
 31
0
  0
TEXT
  8
1
 62
2
 10
-69.93800000000016
 20
-60.26000000000001
 30
0
 40
2.520000000000007
  1
(ｉｎｃｈ)
 41
0.63
 72
1
 73
2
 11
-62
 21
-59
 31
0
  0
TEXT
  8
1
 62
7
 10
-71
 20
-64.75
 30
0
 40
2.5
  1
０．７８
 41
0.9
 72
1
 73
2
 11
-62
 21
-63.5
 31
0
  0
TEXT
  8
1
 62
7
 10
-73.25
 20
-69.75
 30
0
 40
2.5
  1
０．８７８
 41
0.9
 72
1
 73
2
 11
-62
 21
-68.5
 31
0
  0
TEXT
  8
1
 62
7
 10
-86
 20
-74.75
 30
0
 40
2.5
  1
２４．８
 41
0.9
 72
1
 73
2
 11
-77
 21
-73.5
 31
0
  0
TEXT
  8
1
 62
7
 10
-73.25
 20
-74.75
 30
0
 40
2.5
  1
０．９７６
 41
0.9
 72
1
 73
2
 11
-62
 21
-73.5
 31
0
  0
TEXT
  8
1
 62
7
 10
-86
 20
-79.75
 30
0
 40
2.5
  1
２７．３
 41
0.9
 72
1
 73
2
 11
-77
 21
-78.5
 31
0
  0
TEXT
  8
1
 62
7
 10
-73.25
 20
-79.75
 30
0
 40
2.5
  1
１．０７５
 41
0.9
 72
1
 73
2
 11
-62
 21
-78.5
 31
0
  0
TEXT
  8
1
 62
7
 10
-86
 20
-84.75
 30
0
 40
2.5
  1
２９．８
 41
0.9
 72
1
 73
2
 11
-77
 21
-83.5
 31
0
  0
TEXT
  8
1
 62
7
 10
-73.25
 20
-84.75
 30
0
 40
2.5
  1
１．１７３
 41
0.9
 72
1
 73
2
 11
-62
 21
-83.5
 31
0
  0
ENDBLK
  8
0
  0
BLOCK
  8
0
  2
DME34B36G-04
 70
0
 10
-1.393200981718991
 20
-303.0502600399581
 30
0
  0
INSERT
  8
0
  2
TOP
 10
-196.1221264909976
 20
-445.688301522763
 30
0
  0
ENDBLK
  8
0
  0
BLOCK
  8
0
  2
DME34B36G
 70
0
 10
437.6912236417212
 20
475.007598067909
 30
0
  0
INSERT
  8
0
  2
DME34B36G-04
 10
-1.393200981718991
 20
-303.0502600399581
 30
0
  0
ENDBLK
  8
0
  0
BLOCK
  8
1
  2
*D0
 70
1
 10
0
 20
0
 30
0
  0
LINE
  8
1
 62
2
 10
6.000000000000028
 20
52.4770132888162
 30
0
 11
56.99999999999887
 21
52.4770132888162
 31
0
  0
LINE
  8
1
 62
2
 10
56.99999999999887
 20
16.00000000000006
 30
0
 11
56.99999999999887
 21
53.4770132888162
 31
0
  0
LINE
  8
1
 62
2
 10
6.000000000000028
 20
19
 30
0
 11
6.000000000000028
 21
53.4770132888162
 31
0
  0
SOLID
  8
1
 62
2
 10
6.000000000000028
 20
52.4770132888162
 30
0
 11
9.20000000000003
 21
52.89301328881619
 31
0
 12
9.20000000000003
 22
52.0610132888162
 32
0
 13
9.20000000000003
 23
52.0610132888162
 33
0
  0
SOLID
  8
1
 62
2
 10
56.99999999999887
 20
52.4770132888162
 30
0
 11
53.79999999999887
 21
52.0610132888162
 31
0
 12
53.79999999999887
 22
52.89301328881619
 32
0
 13
53.79999999999887
 23
52.89301328881619
 33
0
  0
TEXT
  8
1
 62
2
 10
29.57999999999945
 20
53.4770132888162
 30
0
 40
3.2
  1
L1
 41
0.9
  0
ENDBLK
  8
0
  0
BLOCK
  8
1
  2
*D1
 70
1
 10
0
 20
0
 30
0
  0
LINE
  8
1
 62
2
 10
120.7209118043569
 20
-26.0029687639177
 30
0
 11
114.3209118043569
 21
-26.0029687639177
 31
0
  0
LINE
  8
1
 62
2
 10
111.3209118043569
 20
-26.0029687639177
 30
0
 11
114.3209118043569
 21
-26.0029687639177
 31
0
  0
LINE
  8
1
 62
2
 10
111.3209118043569
 20
-26.0029687639177
 30
0
 11
97.79662539160871
 21
-26.0029687639177
 31
0
  0
LINE
  8
1
 62
2
 10
111.3209118043569
 20
11.25398228888463
 30
0
 11
111.3209118043569
 21
-27.0029687639177
 31
0
  0
LINE
  8
1
 62
2
 10
114.3209118043569
 20
11.64898228888478
 30
0
 11
114.3209118043569
 21
-27.0029687639177
 31
0
  0
SOLID
  8
1
 62
2
 10
114.3209118043569
 20
-26.0029687639177
 30
0
 11
117.5209118043569
 21
-25.5869687639177
 31
0
 12
117.5209118043569
 22
-26.4189687639177
 32
0
 13
117.5209118043569
 23
-26.4189687639177
 33
0
  0
SOLID
  8
1
 62
2
 10
111.3209118043569
 20
-26.0029687639177
 30
0
 11
108.1209118043569
 21
-26.4189687639177
 31
0
 12
108.1209118043569
 22
-25.5869687639177
 32
0
 13
108.1209118043569
 23
-25.5869687639177
 33
0
  0
TEXT
  8
1
 62
2
 10
99.87662539160871
 20
-25.0029687639177
 30
0
 40
3.2
  1
3
 41
0.9
  0
TEXT
  8
1
 62
2
 10
97.7966253916087
 20
-25.0029687639177
 30
0
 40
3.2
  1
(
 41
0.9
  0
TEXT
  8
1
 62
2
 10
103.3966253916087
 20
-25.0029687639177
 30
0
 40
3.2
  1
)
 41
0.9
  0
ENDBLK
  8
0
  0
BLOCK
  8
1
  2
*D2
 70
1
 10
0
 20
0
 30
0
  0
LINE
  8
1
 62
2
 10
56.99999999999889
 20
-37.95127984587171
 30
0
 11
114.3209118043569
 21
-37.95127984587171
 31
0
  0
LINE
  8
1
 62
2
 10
56.99999999999889
 20
-15.99999999999988
 30
0
 11
56.99999999999889
 21
-38.95127984587171
 31
0
  0
LINE
  8
1
 62
2
 10
114.3209118043569
 20
11.64898228888478
 30
0
 11
114.3209118043569
 21
-38.95127984587171
 31
0
  0
SOLID
  8
1
 62
2
 10
56.99999999999889
 20
-37.95127984587171
 30
0
 11
60.19999999999889
 21
-37.53527984587171
 31
0
 12
60.19999999999889
 22
-38.36727984587171
 32
0
 13
60.19999999999889
 23
-38.36727984587171
 33
0
  0
SOLID
  8
1
 62
2
 10
114.3209118043569
 20
-37.95127984587171
 30
0
 11
111.1209118043569
 21
-38.36727984587171
 31
0
 12
111.1209118043569
 22
-37.53527984587171
 32
0
 13
111.1209118043569
 23
-37.53527984587171
 33
0
  0
TEXT
  8
1
 62
2
 10
78.81245590217793
 20
-36.15127984587171
 30
0
 40
3.2
  1
300
 41
0.9
  0
TEXT
  8
1
 62
2
 10
88.09245590217793
 20
-34.07127984587172
 30
0
 40
1.92
  1
+30
 41
0.9
  0
TEXT
  8
1
 62
2
 10
89.82045590217793
 20
-36.95127984587171
 30
0
 40
1.92
  1
 0
 41
0.9
  0
ENDBLK
  8
0
  0
BLOCK
  8
1
  2
*D3
 70
1
 10
0
 20
0
 30
0
  0
LINE
  8
1
 62
2
 10
76.99999999999898
 20
-16
 30
0
 11
76.99999999999898
 21
16
 31
0
  0
LINE
  8
1
 62
2
 10
56.99999999999866
 20
-16
 30
0
 11
77.99999999999898
 21
-16
 31
0
  0
LINE
  8
1
 62
2
 10
56.99999999999889
 20
16
 30
0
 11
77.99999999999898
 21
16
 31
0
  0
SOLID
  8
1
 62
2
 10
76.99999999999898
 20
16
 30
0
 11
77.41599999999897
 21
12.8
 31
0
 12
76.58399999999898
 22
12.8
 32
0
 13
76.58399999999898
 23
12.8
 33
0
  0
SOLID
  8
1
 62
2
 10
76.99999999999898
 20
-16
 30
0
 11
76.58399999999898
 21
-12.8
 31
0
 12
77.41599999999897
 22
-12.8
 32
0
 13
77.41599999999897
 23
-12.8
 33
0
  0
TEXT
  8
1
 62
2
 10
75.99999999999898
 20
-0.5777777777778383
 30
0
 40
3.2
  1
32
 50
90
 41
0.9
  0
TEXT
  8
1
 62
2
 10
75.99999999999898
 20
-4.222222222222283
 30
0
 40
3.2
  1
φ
 50
90
 41
0.9
  0
ENDBLK
  8
0
  0
BLOCK
  8
1
  2
*D4
 70
1
 10
0
 20
0
 30
0
  0
LINE
  8
1
 62
2
 10
50.5999999999989
 20
39.06277775943445
 30
0
 11
56.99999999999889
 21
39.06277775943445
 31
0
  0
LINE
  8
1
 62
2
 10
56.99999999999889
 20
39.06277775943445
 30
0
 11
58.19999999999894
 21
39.06277775943445
 31
0
  0
LINE
  8
1
 62
2
 10
58.19999999999894
 20
39.06277775943445
 30
0
 11
71.71060870604293
 21
39.06277775943445
 31
0
  0
LINE
  8
1
 62
2
 10
56.99999999999889
 20
16.00000000000006
 30
0
 11
56.99999999999889
 21
40.06277775943445
 31
0
  0
LINE
  8
1
 62
2
 10
58.19999999999894
 20
5.599999999999909
 30
0
 11
58.19999999999894
 21
40.06277775943445
 31
0
  0
SOLID
  8
1
 62
2
 10
56.99999999999889
 20
39.06277775943445
 30
0
 11
53.79999999999889
 21
38.64677775943445
 31
0
 12
53.79999999999889
 22
39.47877775943444
 32
0
 13
53.79999999999889
 23
39.47877775943444
 33
0
  0
SOLID
  8
1
 62
2
 10
58.19999999999894
 20
39.06277775943445
 30
0
 11
61.39999999999894
 21
39.47877775943444
 31
0
 12
61.39999999999894
 22
38.64677775943445
 32
0
 13
61.39999999999894
 23
38.64677775943445
 33
0
  0
TEXT
  8
1
 62
2
 10
64.75060870604294
 20
40.06277775943445
 30
0
 40
3.2
  1
1.2
 41
0.9
  0
TEXT
  8
1
 62
2
 10
62.67060870604294
 20
40.06277775943445
 30
0
 40
3.2
  1
(
 41
0.9
  0
TEXT
  8
1
 62
2
 10
71.23060870604294
 20
40.06277775943445
 30
0
 40
3.2
  1
)
 41
0.9
  0
ENDBLK
  8
0
  0
BLOCK
  8
1
  2
*D5
 70
1
 10
0
 20
0
 30
0
  0
LINE
  8
1
 62
2
 10
12.40000000000003
 20
40.4711188450011
 30
0
 11
6.000000000000026
 21
40.4711188450011
 31
0
  0
LINE
  8
1
 62
2
 10
-2.664535259100376e-015
 20
40.4711188450011
 30
0
 11
6.000000000000026
 21
40.4711188450011
 31
0
  0
LINE
  8
1
 62
2
 10
-2.664535259100376e-015
 20
40.4711188450011
 30
0
 11
-7.571576128121794
 21
40.4711188450011
 31
0
  0
LINE
  8
1
 62
2
 10
-2.664535259100376e-015
 20
14
 30
0
 11
-2.664535259100376e-015
 21
41.4711188450011
 31
0
  0
LINE
  8
1
 62
2
 10
6.000000000000026
 20
19
 30
0
 11
6.000000000000026
 21
41.4711188450011
 31
0
  0
SOLID
  8
1
 62
2
 10
-2.664535259100376e-015
 20
40.4711188450011
 30
0
 11
-3.200000000000003
 21
40.0551188450011
 31
0
 12
-3.200000000000003
 22
40.8871188450011
 32
0
 13
-3.200000000000003
 23
40.8871188450011
 33
0
  0
SOLID
  8
1
 62
2
 10
6.000000000000026
 20
40.4711188450011
 30
0
 11
9.200000000000026
 21
40.8871188450011
 31
0
 12
9.200000000000026
 22
40.0551188450011
 32
0
 13
9.200000000000026
 23
40.0551188450011
 33
0
  0
TEXT
  8
1
 62
2
 10
-7.571576128121794
 20
41.4711188450011
 30
0
 40
3.2
  1
6
 41
0.9
  0
ENDBLK
  8
0
  0
BLOCK
  8
1
  2
*D6
 70
1
 10
0
 20
0
 30
0
  0
LINE
  8
1
 62
2
 10
-14.99999999999997
 20
52.4645067881646
 30
0
 11
6.000000000000027
 21
52.4645067881646
 31
0
  0
LINE
  8
1
 62
2
 10
-14.99999999999997
 20
10.5
 30
0
 11
-14.99999999999997
 21
53.4645067881646
 31
0
  0
LINE
  8
1
 62
2
 10
6.000000000000027
 20
19
 30
0
 11
6.000000000000027
 21
53.4645067881646
 31
0
  0
SOLID
  8
1
 62
2
 10
6.000000000000027
 20
52.4645067881646
 30
0
 11
2.800000000000026
 21
52.0485067881646
 31
0
 12
2.800000000000026
 22
52.8805067881646
 32
0
 13
2.800000000000026
 23
52.8805067881646
 33
0
  0
SOLID
  8
1
 62
2
 10
-14.99999999999997
 20
52.4645067881646
 30
0
 11
-11.79999999999997
 21
52.8805067881646
 31
0
 12
-11.79999999999997
 22
52.0485067881646
 32
0
 13
-11.79999999999997
 23
52.0485067881646
 33
0
  0
TEXT
  8
1
 62
2
 10
-6.419999999999973
 20
53.4645067881646
 30
0
 40
3.2
  1
21
 41
0.9
  0
ENDBLK
  8
0
  0
BLOCK
  8
1
  2
*D7
 70
1
 10
0
 20
0
 30
0
  0
LINE
  8
1
 62
2
 10
-14.99999999999998
 20
28.4777309018375
 30
0
 11
-2.999999999999971
 21
28.4777309018375
 31
0
  0
LINE
  8
1
 62
2
 10
-14.99999999999998
 20
10.5
 30
0
 11
-14.99999999999998
 21
29.4777309018375
 31
0
  0
LINE
  8
1
 62
2
 10
-2.999999999999971
 20
11
 30
0
 11
-2.999999999999971
 21
29.4777309018375
 31
0
  0
SOLID
  8
1
 62
2
 10
-14.99999999999998
 20
28.4777309018375
 30
0
 11
-11.79999999999997
 21
28.8937309018375
 31
0
 12
-11.79999999999997
 22
28.0617309018375
 32
0
 13
-11.79999999999997
 23
28.0617309018375
 33
0
  0
SOLID
  8
1
 62
2
 10
-2.999999999999971
 20
28.4777309018375
 30
0
 11
-6.199999999999971
 21
28.0617309018375
 31
0
 12
-6.199999999999971
 22
28.8937309018375
 32
0
 13
-6.199999999999971
 23
28.8937309018375
 33
0
  0
TEXT
  8
1
 62
2
 10
-10.91999999999997
 20
29.4777309018375
 30
0
 40
3.2
  1
12
 41
0.9
  0
ENDBLK
  8
0
  0
BLOCK
  8
1
  2
*D8
 70
1
 10
0
 20
0
 30
0
  0
LINE
  8
1
 62
2
 10
-24.93352917155653
 20
-2.399999999999999
 30
0
 11
-24.93352917155653
 21
4
 31
0
  0
LINE
  8
1
 62
2
 10
-24.93352917155653
 20
4
 30
0
 11
-24.93352917155653
 21
9.5
 31
0
  0
LINE
  8
1
 62
2
 10
-24.93352917155653
 20
9.5
 30
0
 11
-24.93352917155653
 21
31.4249173863507
 31
0
  0
LINE
  8
1
 62
2
 10
-15.99999999999998
 20
4
 30
0
 11
-25.93352917155653
 21
4
 31
0
  0
LINE
  8
1
 62
2
 10
-15.99999999999998
 20
9.5
 30
0
 11
-25.93352917155653
 21
9.5
 31
0
  0
SOLID
  8
1
 62
2
 10
-24.93352917155653
 20
4
 30
0
 11
-24.51752917155653
 21
0.7999999999999994
 31
0
 12
-25.34952917155653
 22
0.7999999999999994
 32
0
 13
-25.34952917155653
 23
0.7999999999999994
 33
0
  0
SOLID
  8
1
 62
2
 10
-24.93352917155653
 20
9.5
 30
0
 11
-25.34952917155653
 21
12.7
 31
0
 12
-24.51752917155653
 22
12.7
 32
0
 13
-24.51752917155653
 23
12.7
 33
0
  0
TEXT
  8
1
 62
2
 10
-25.93352917155653
 20
17.9849173863507
 30
0
 40
3.2
  1
5.5
 50
90
 41
0.9
  0
TEXT
  8
1
 62
2
 10
-26.57352917155653
 20
25.4249173863507
 30
0
 40
1.92
  1
%%p0.15
 50
90
 41
0.9
  0
ENDBLK
  8
0
  0
BLOCK
  8
1
  2
*D9
 70
1
 10
0
 20
0
 30
0
  0
LINE
  8
1
 62
2
 10
-36.95403367309879
 20
-2.399999999999999
 30
0
 11
-36.95403367309879
 21
4
 31
0
  0
LINE
  8
1
 62
2
 10
-36.95403367309879
 20
4
 30
0
 11
-36.95403367309879
 21
10
 31
0
  0
LINE
  8
1
 62
2
 10
-36.95403367309879
 20
10
 30
0
 11
-36.95403367309879
 21
31.16374732728852
 31
0
  0
LINE
  8
1
 62
2
 10
-15.99999999999998
 20
4
 30
0
 11
-37.95403367309879
 21
4
 31
0
  0
LINE
  8
1
 62
2
 10
-3.999999999999986
 20
10
 30
0
 11
-37.95403367309879
 21
10
 31
0
  0
SOLID
  8
1
 62
2
 10
-36.95403367309879
 20
4
 30
0
 11
-36.53803367309879
 21
0.7999999999999994
 31
0
 12
-37.37003367309879
 22
0.7999999999999994
 32
0
 13
-37.37003367309879
 23
0.7999999999999994
 33
0
  0
SOLID
  8
1
 62
2
 10
-36.95403367309879
 20
10
 30
0
 11
-37.37003367309879
 21
13.2
 31
0
 12
-36.53803367309879
 22
13.2
 32
0
 13
-36.53803367309879
 23
13.2
 33
0
  0
TEXT
  8
1
 62
2
 10
-38.75403367309878
 20
20.87574732728852
 30
0
 40
3.2
  1
6
 50
90
 41
0.9
  0
TEXT
  8
1
 62
2
 10
-40.83403367309878
 20
24.39574732728853
 30
0
 40
1.92
  1
 0
 50
90
 41
0.9
  0
TEXT
  8
1
 62
2
 10
-37.95403367309879
 20
24.39574732728853
 30
0
 40
1.92
  1
-0.02
 50
90
 41
0.9
  0
TEXT
  8
1
 62
2
 10
-38.75403367309878
 20
17.23130288284408
 30
0
 40
3.2
  1
φ
 50
90
 41
0.9
  0
ENDBLK
  8
0
  0
BLOCK
  8
1
  2
*D10
 70
1
 10
0
 20
0
 30
0
  0
LINE
  8
1
 62
2
 10
6.000000000000028
 20
40.4377812577139
 30
0
 11
25.80000000000003
 21
40.4377812577139
 31
0
  0
LINE
  8
1
 62
2
 10
6.000000000000028
 20
19
 30
0
 11
6.000000000000028
 21
41.4377812577139
 31
0
  0
LINE
  8
1
 62
2
 10
25.80000000000003
 20
18.25
 30
0
 11
25.80000000000003
 21
41.4377812577139
 31
0
  0
SOLID
  8
1
 62
2
 10
6.000000000000028
 20
40.4377812577139
 30
0
 11
9.20000000000003
 21
40.8537812577139
 31
0
 12
9.20000000000003
 22
40.0217812577139
 32
0
 13
9.20000000000003
 23
40.0217812577139
 33
0
  0
SOLID
  8
1
 62
2
 10
25.80000000000003
 20
40.4377812577139
 30
0
 11
22.60000000000003
 21
40.0217812577139
 31
0
 12
22.60000000000003
 22
40.8537812577139
 32
0
 13
22.60000000000003
 23
40.8537812577139
 33
0
  0
TEXT
  8
1
 62
2
 10
13.50000000000003
 20
41.4377812577139
 30
0
 40
3.2
  1
L2
 41
0.9
  0
ENDBLK
  8
0
  0
BLOCK
  8
1
  2
*D11
 70
1
 10
0
 20
0
 30
0
  0
LINE
  8
1
 62
2
 10
-106
 20
28.5106797698132
 30
0
 11
-94
 21
28.5106797698132
 31
0
  0
LINE
  8
1
 62
2
 10
-106
 20
28.5106797698132
 30
0
 11
-138.6774391658672
 21
28.5106797698132
 31
0
  0
LINE
  8
1
 62
2
 10
-106
 20
8
 30
0
 11
-106
 21
29.5106797698132
 31
0
  0
LINE
  8
1
 62
2
 10
-94
 20
8
 30
0
 11
-94
 21
29.5106797698132
 31
0
  0
SOLID
  8
1
 62
2
 10
-106
 20
28.5106797698132
 30
0
 11
-102.8
 21
28.9266797698132
 31
0
 12
-102.8
 22
28.0946797698132
 32
0
 13
-102.8
 23
28.0946797698132
 33
0
  0
SOLID
  8
1
 62
2
 10
-94
 20
28.5106797698132
 30
0
 11
-97.2
 21
28.0946797698132
 31
0
 12
-97.2
 22
28.9266797698132
 32
0
 13
-97.2
 23
28.9266797698132
 33
0
  0
TEXT
  8
1
 62
2
 10
-135.0329947214228
 20
29.5106797698132
 30
0
 40
3.2
  1
12
 41
0.9
  0
TEXT
  8
1
 62
2
 10
-129.5929947214228
 20
30.1506797698132
 30
0
 40
1.92
  1
%%p0.1
 41
0.9
  0
TEXT
  8
1
 62
2
 10
-138.6774391658672
 20
29.5106797698132
 30
0
 40
3.2
  1
φ
 41
0.9
  0
ENDBLK
  8
0
  0
BLOCK
  8
1
  2
*D12
 70
1
 10
0
 20
0
 30
0
  0
LINE
  8
1
 62
2
 10
-115.5
 20
40.4410838224926
 30
0
 11
-84.5
 21
40.4410838224926
 31
0
  0
LINE
  8
1
 62
2
 10
-115.5
 20
1
 30
0
 11
-115.5
 21
41.4410838224926
 31
0
  0
LINE
  8
1
 62
2
 10
-84.5
 20
1
 30
0
 11
-84.5
 21
41.4410838224926
 31
0
  0
SOLID
  8
1
 62
2
 10
-115.5
 20
40.4410838224926
 30
0
 11
-112.3
 21
40.8570838224926
 31
0
 12
-112.3
 22
40.0250838224926
 32
0
 13
-112.3
 23
40.0250838224926
 33
0
  0
SOLID
  8
1
 62
2
 10
-84.5
 20
40.4410838224926
 30
0
 11
-87.7
 21
40.0250838224926
 31
0
 12
-87.7
 22
40.8570838224926
 32
0
 13
-87.7
 23
40.8570838224926
 33
0
  0
TEXT
  8
1
 62
2
 10
-103.3217777777778
 20
41.4410838224926
 30
0
 40
3.2
  1
31
 41
0.9
  0
TEXT
  8
1
 62
2
 10
-97.88177777777779
 20
42.0810838224926
 30
0
 40
1.92
  1
%%p0.2
 41
0.9
  0
TEXT
  8
1
 62
2
 10
-106.9662222222222
 20
41.4410838224926
 30
0
 40
3.2
  1
φ
 41
0.9
  0
ENDBLK
  8
0
  0
BLOCK
  8
1
  2
*D13
 70
1
 10
0
 20
0
 30
0
  0
LINE
  8
1
 62
2
 10
-118.5
 20
52.5850951621166
 30
0
 11
-81.5
 21
52.5850951621166
 31
0
  0
LINE
  8
1
 62
2
 10
-118.5
 20
1
 30
0
 11
-118.5
 21
53.5850951621166
 31
0
  0
LINE
  8
1
 62
2
 10
-81.5
 20
1
 30
0
 11
-81.5
 21
53.5850951621166
 31
0
  0
SOLID
  8
1
 62
2
 10
-118.5
 20
52.5850951621166
 30
0
 11
-115.3
 21
53.0010951621166
 31
0
 12
-115.3
 22
52.16909516211661
 32
0
 13
-115.3
 23
52.16909516211661
 33
0
  0
SOLID
  8
1
 62
2
 10
-81.5
 20
52.5850951621166
 30
0
 11
-84.7
 21
52.16909516211661
 31
0
 12
-84.7
 22
53.0010951621166
 32
0
 13
-84.7
 23
53.0010951621166
 33
0
  0
TEXT
  8
1
 62
2
 10
-100.5777777777778
 20
53.5850951621166
 30
0
 40
3.2
  1
37
 41
0.9
  0
TEXT
  8
1
 62
2
 10
-104.2222222222222
 20
53.5850951621166
 30
0
 40
3.2
  1
φ
 41
0.9
  0
ENDBLK
  8
0
  0
BLOCK
  8
1
  2
*D14
 70
1
 10
0
 20
0
 30
0
  0
LINE
  8
1
 62
2
 10
-71.4316235022719
 20
-6.399999999999999
 30
0
 11
-71.4316235022719
 21
0
 31
0
  0
LINE
  8
1
 62
2
 10
-71.4316235022719
 20
0
 30
0
 11
-71.4316235022719
 21
7.000000000000002
 31
0
  0
LINE
  8
1
 62
2
 10
-71.4316235022719
 20
7.000000000000002
 30
0
 11
-71.4316235022719
 21
23.0090107120894
 31
0
  0
LINE
  8
1
 62
2
 10
-80.5
 20
0
 30
0
 11
-70.4316235022719
 21
0
 31
0
  0
LINE
  8
1
 62
2
 10
-93
 20
7.000000000000002
 30
0
 11
-70.4316235022719
 21
7.000000000000002
 31
0
  0
SOLID
  8
1
 62
2
 10
-71.4316235022719
 20
7.000000000000002
 30
0
 11
-71.8476235022719
 21
10.2
 31
0
 12
-71.01562350227191
 22
10.2
 32
0
 13
-71.01562350227191
 23
10.2
 33
0
  0
SOLID
  8
1
 62
2
 10
-71.4316235022719
 20
0
 30
0
 11
-71.01562350227191
 21
-3.200000000000001
 31
0
 12
-71.8476235022719
 22
-3.200000000000001
 32
0
 13
-71.8476235022719
 23
-3.200000000000001
 33
0
  0
TEXT
  8
1
 62
2
 10
-72.4316235022719
 20
14.6410107120894
 30
0
 40
3.2
  1
7
 50
90
 41
0.9
  0
TEXT
  8
1
 62
2
 10
-73.07162350227191
 20
18.1610107120894
 30
0
 40
1.92
  1
%%p0.5
 50
90
 41
0.9
  0
ENDBLK
  8
0
  0
BLOCK
  8
1
  2
*D15
 70
1
 10
0
 20
0
 30
0
  0
LINE
  8
1
 62
2
 10
-90.95830177209062
 20
-14.18596551791544
 30
0
 11
-78.57787750755851
 21
-21.4949187298652
 31
0
  0
LINE
  8
1
 62
2
 10
-78.57787750755851
 20
-21.4949187298652
 30
0
 11
-27.6178775075585
 21
-21.4949187298652
 31
0
  0
SOLID
  8
1
 62
2
 10
-90.95830177209062
 20
-14.18596551791544
 30
0
 11
-87.99119231798345
 21
-15.45455429578943
 31
0
 12
-88.41416545378446
 22
-16.17101624620317
 32
0
 13
-88.41416545378446
 23
-16.17101624620317
 33
0
  0
TEXT
  8
1
 62
2
 10
-64.09787750755849
 20
-20.4949187298652
 30
0
 40
3.2
  1
3
 41
0.9
  0
TEXT
  8
1
 62
2
 10
-73.3778775075585
 20
-20.4949187298652
 30
0
 40
3.2
  1
3-M
 41
0.9
  0
TEXT
  8
1
 62
2
 10
-60.5778775075585
 20
-20.4949187298652
 30
0
 40
3.2
  1
 DEPTH 4MAX
 41
0.9
  0
ENDBLK
  8
0
  0
ENDSEC
  0
SECTION
  2
ENTITIES
  0
LINE
  8
1
 62
7
 10
30.79999999999998
 20
16.00000000000006
 30
0
 11
30.79999999999998
 21
9.473000000000067
 31
0
  0
LINE
  8
1
 62
7
 10
47.79999999999998
 20
9.473000000000067
 30
0
 11
47.79999999999998
 21
16.00000000000006
 31
0
  0
LINE
  8
1
 62
7
 10
30.79999999999998
 20
9.473000000000067
 30
0
 11
47.79999999999998
 21
9.473000000000067
 31
0
  0
LINE
  8
1
 62
3
 10
0.5165218783610235
 20
0
 30
0
 11
62.69458842742565
 21
0
 31
0
  0
LINE
  8
1
 62
7
 10
82.39301671807792
 20
12.25398228888463
 30
0
 11
111.3209118043569
 21
12.25398228888463
 31
0
  0
LINE
  8
1
 62
7
 10
56.99999999999887
 20
10.74398228888464
 30
0
 11
58.73999999999867
 21
10.74398228888458
 31
0
  0
LINE
  8
1
 62
7
 10
59.62989250078387
 20
14.95669782458583
 30
0
 11
59.50107449311896
 21
17.66771376674547
 31
0
  0
LINE
  8
1
 62
7
 10
59.00163799369403
 20
18.14398228888473
 30
0
 11
55.97836200630493
 21
18.14398228888473
 31
0
  0
LINE
  8
1
 62
7
 10
55.47892550687994
 20
17.66771376674547
 30
0
 11
55.39968157421097
 21
16.00000000000006
 31
0
  0
LINE
  8
1
 62
7
 10
58.73999999999867
 20
10.74398228888458
 30
0
 11
58.7399999999989
 21
14.74398228888464
 31
0
  0
LINE
  8
1
 62
7
 10
73.670485886948
 20
14.74398228888464
 30
0
 11
56.99999999999887
 21
14.74398228888464
 31
0
  0
LINE
  8
1
 62
7
 10
114.3209118043569
 20
12.64898228888478
 30
0
 11
111.3209118043569
 21
12.64898228888478
 31
0
  0
LINE
  8
1
 62
7
 10
111.3209118043569
 20
13.69898228888463
 30
0
 11
114.3209118043569
 21
13.69898228888463
 31
0
  0
LINE
  8
1
 62
7
 10
114.3209118043569
 20
13.31898228888463
 30
0
 11
111.3209118043569
 21
13.31898228888463
 31
0
  0
LINE
  8
1
 62
7
 10
111.3209118043569
 20
14.36898228888464
 30
0
 11
114.3209118043569
 21
14.36898228888464
 31
0
  0
LINE
  8
1
 62
7
 10
111.3209118043569
 20
14.74398228888464
 30
0
 11
111.3209118043569
 21
12.25398228888463
 31
0
  0
LINE
  8
1
 62
7
 10
58.7399999999989
 20
13.91398228888477
 30
0
 11
73.76887205054894
 21
13.91398228888477
 31
0
  0
LINE
  8
1
 62
7
 10
58.73999999999867
 20
12.25398228888458
 30
0
 11
73.90044869340798
 21
12.25398228888463
 31
0
  0
LINE
  8
1
 62
7
 10
82.16305391161998
 20
14.74398228888464
 30
0
 11
111.3209118043569
 21
14.74398228888464
 31
0
  0
LINE
  8
1
 62
7
 10
82.26144007522001
 20
13.91398228888477
 30
0
 11
111.3209118043569
 21
13.91398228888477
 31
0
  0
LINE
  8
1
 62
2
 10
95.78398547652893
 20
32.64861998126094
 30
0
 11
167.0087056195039
 21
32.64861998126094
 31
0
  0
LINE
  8
1
 62
7
 10
55.99999999999888
 20
16
 30
0
 11
56.99999999999887
 21
15.00000000000006
 31
0
  0
LINE
  8
1
 62
7
 10
58.19999999999892
 20
4.599999999999909
 30
0
 11
56.99999999999887
 21
6.000000000000058
 31
0
  0
LINE
  8
1
 62
7
 10
56.99999999999888
 20
-6
 30
0
 11
58.19999999999893
 21
-4.600000000000023
 31
0
  0
LINE
  8
1
 62
7
 10
55.99999999999888
 20
7.774809386945378
 30
0
 11
56.99999999999887
 21
7.197459117755727
 31
0
  0
LINE
  8
1
 62
7
 10
55.99999999999888
 20
13.98400296755773
 30
0
 11
56.99999999999887
 21
12.44144631178307
 31
0
  0
LINE
  8
1
 62
7
 10
56.99999999999887
 20
12.44144631178307
 30
0
 11
52.79999999999998
 21
12.44144631178307
 31
0
  0
LINE
  8
1
 62
7
 10
52.79999999999998
 20
13.98400296755773
 30
0
 11
55.99999999999888
 21
13.98400296755773
 31
0
  0
LINE
  8
1
 62
7
 10
55.99999999999888
 20
7.774809386945378
 30
0
 11
55.99999999999866
 21
-16
 31
0
  0
LINE
  8
1
 62
7
 10
52.79999999999998
 20
7.774809386945321
 30
0
 11
55.99999999999888
 21
7.774809386945378
 31
0
  0
LINE
  8
1
 62
7
 10
55.99999999999888
 20
16
 30
0
 11
55.99999999999888
 21
13.98400296755773
 31
0
  0
LINE
  8
1
 62
7
 10
55.99999999999866
 20
-16
 30
0
 11
56.99999999999888
 21
-14.99999999999988
 31
0
  0
LINE
  8
1
 62
7
 10
55.99999999999866
 20
-16
 30
0
 11
27.30000000000002
 21
-16
 31
0
  0
LINE
  8
1
 62
7
 10
55.99999999999888
 20
16
 30
0
 11
27.30000000000002
 21
16
 31
0
  0
LINE
  8
1
 62
7
 10
51.69999999999872
 20
10.56370849898463
 30
0
 11
52.79999999999998
 21
10.56370849898463
 31
0
  0
LINE
  8
1
 62
7
 10
50.29999999999998
 20
8.063708498984624
 30
0
 11
51.69999999999872
 21
8.063708498984624
 31
0
  0
LINE
  8
1
 62
7
 10
50.29999999999998
 20
14.56370849898463
 30
0
 11
50.29999999999998
 21
8.063708498984624
 31
0
  0
LINE
  8
1
 62
7
 10
51.69999999999892
 20
14.56370849898463
 30
0
 11
50.29999999999998
 21
14.56370849898463
 31
0
  0
LINE
  8
1
 62
7
 10
51.69999999999892
 20
14.56370849898463
 30
0
 11
51.69999999999872
 21
8.063708498984624
 31
0
  0
LINE
  8
1
 62
7
 10
52.79999999999998
 20
12.06370849898463
 30
0
 11
52.79999999999998
 21
16.00000000000006
 31
0
  0
LINE
  8
1
 62
7
 10
52.79999999999998
 20
12.06370849898463
 30
0
 11
51.69999999999871
 21
12.06370849898463
 31
0
  0
LINE
  8
1
 62
7
 10
52.79999999999998
 20
-15.99999999999988
 30
0
 11
52.79999999999998
 21
10.56370849898463
 31
0
  0
LINE
  8
1
 62
7
 10
56.99999999999887
 20
15.00000000000006
 30
0
 11
56.99999999999888
 21
-14.99999999999988
 31
0
  0
LINE
  8
1
 62
7
 10
58.19999999999893
 20
-4.600000000000023
 30
0
 11
58.19999999999892
 21
4.599999999999909
 31
0
  0
LINE
  8
1
 62
2
 10
-78.5
 20
-28.5
 30
0
 11
-27.26879150363793
 21
-28.5
 31
0
  0
LINE
  8
1
 62
7
 10
25.80000000000003
 20
17.25
 30
0
 11
25.80000000000003
 21
-17.25
 31
0
  0
LINE
  8
1
 62
7
 10
6.000000000000027
 20
18
 30
0
 11
6.00000000000003
 21
-18
 31
0
  0
LINE
  8
1
 62
7
 10
-14.99999999999998
 20
4
 30
0
 11
2.97539770599542e-014
 21
4
 31
0
  0
LINE
  8
1
 62
7
 10
-14.99999999999998
 20
9.5
 30
0
 11
-14.99999999999998
 21
4
 31
0
  0
LINE
  8
1
 62
7
 10
2.97539770599542e-014
 20
10
 30
0
 11
-2.99999999999997
 21
10
 31
0
  0
LINE
  8
1
 62
7
 10
-2.99999999999997
 20
9.5
 30
0
 11
-14.99999999999998
 21
9.5
 31
0
  0
LINE
  8
1
 62
7
 10
-2.99999999999997
 20
10
 30
0
 11
-2.99999999999997
 21
9.5
 31
0
  0
LINE
  8
1
 62
7
 10
1.332267629550188e-015
 20
1
 30
0
 11
6.000000000000087
 21
1
 31
0
  0
LINE
  8
1
 62
7
 10
-1.77635683940025e-015
 20
13
 30
0
 11
1.332267629550188e-015
 21
1
 31
0
  0
LINE
  8
1
 62
7
 10
6.00000000000003
 20
13
 30
0
 11
-1.77635683940025e-015
 21
13
 31
0
  0
LINE
  8
1
 62
7
 10
-86.06500370096271
 20
7.06387840678309
 30
0
 11
-86.23820878171951
 21
6.963878406783124
 31
0
  0
LINE
  8
1
 62
7
 10
-86.1967024307735
 20
7.391987298107722
 30
0
 11
-86.04670243077351
 21
7.132179676972271
 31
0
  0
LINE
  8
1
 62
7
 10
-85.8087859183135
 20
8.020096189432309
 30
0
 11
-86.068593539449
 21
7.870096189432275
 31
0
  0
LINE
  8
1
 62
7
 10
-85.8904846481243
 20
8.261602540378419
 30
0
 11
-85.79048464812441
 21
8.08839745962149
 31
0
  0
LINE
  8
1
 62
7
 10
-86.218593539449
 20
8.129903810567612
 30
0
 11
-85.95878591831351
 21
8.279903810567589
 31
0
  0
LINE
  8
1
 62
7
 10
-86.8467024307736
 20
8.517820323027479
 30
0
 11
-86.6967024307735
 21
8.258012701892085
 31
0
  0
LINE
  8
1
 62
7
 10
-87.0882087817196
 20
8.436121593216683
 30
0
 11
-86.9150037009627
 21
8.536121593216706
 31
0
  0
LINE
  8
1
 62
7
 10
-86.95651005190881
 20
8.108012701892221
 30
0
 11
-87.1065100519088
 21
8.367820323027502
 31
0
  0
LINE
  8
1
 62
7
 10
-87.3444265643687
 20
7.479903810567521
 30
0
 11
-87.08461894323341
 21
7.629903810567612
 31
0
  0
LINE
  8
1
 62
7
 10
-87.26272783455791
 20
7.238397459621524
 30
0
 11
-87.362727834558
 21
7.411602540378283
 31
0
  0
LINE
  8
1
 62
7
 10
-86.9346189432334
 20
7.370096189432275
 30
0
 11
-87.1944265643687
 21
7.220096189432297
 31
0
  0
LINE
  8
1
 62
7
 10
-86.3065100519088
 20
6.982179676972407
 30
0
 11
-86.45651005190881
 21
7.241987298107688
 31
0
  0
LINE
  8
1
 62
7
 10
-112.6372721654421
 20
7.411602540378283
 30
0
 11
-112.737272165442
 21
7.238397459621524
 31
0
  0
LINE
  8
1
 62
7
 10
-112.9153810567667
 20
7.629903810567498
 30
0
 11
-112.6555734356313
 21
7.479903810567521
 31
0
  0
LINE
  8
1
 62
7
 10
-112.8934899480912
 20
8.367820323027388
 30
0
 11
-113.0434899480912
 21
8.108012701892108
 31
0
  0
LINE
  8
1
 62
7
 10
-113.0849962990372
 20
8.536121593216706
 30
0
 11
-112.9117912182804
 21
8.436121593216683
 31
0
  0
LINE
  8
1
 62
7
 10
-113.3032975692265
 20
8.258012701892085
 30
0
 11
-113.1532975692265
 21
8.517820323027422
 31
0
  0
LINE
  8
1
 62
7
 10
-114.0412140816864
 20
8.279903810567475
 30
0
 11
-113.7814064605511
 21
8.129903810567498
 31
0
  0
LINE
  8
1
 62
7
 10
-114.2095153518756
 20
8.08839745962149
 30
0
 11
-114.1095153518757
 21
8.261602540378419
 31
0
  0
LINE
  8
1
 62
7
 10
-113.9314064605511
 20
7.870096189432275
 30
0
 11
-114.1912140816864
 21
8.020096189432309
 31
0
  0
LINE
  8
1
 62
7
 10
-113.9532975692265
 20
7.132179676972271
 30
0
 11
-113.8032975692265
 21
7.391987298107722
 31
0
  0
LINE
  8
1
 62
7
 10
-113.7617912182804
 20
6.963878406783124
 30
0
 11
-113.9349962990372
 21
7.06387840678309
 31
0
  0
LINE
  8
1
 62
7
 10
-113.5434899480912
 20
7.241987298107688
 30
0
 11
-113.6934899480912
 21
6.982179676972407
 31
0
  0
LINE
  8
1
 62
7
 10
-112.8055734356313
 20
7.220096189432184
 30
0
 11
-113.0653810567667
 21
7.370096189432275
 31
0
  0
LINE
  8
1
 62
7
 10
-100.53033008589
 20
-16.17175144212717
 30
0
 11
-100.6717514421272
 21
-16.03033008588989
 31
0
  0
LINE
  8
1
 62
7
 10
-100.2474873734153
 20
-15.9596194077713
 30
0
 11
-100.4596194077712
 21
-16.17175144212717
 31
0
  0
LINE
  8
1
 62
7
 10
-99.5403805922287
 20
-16.17175144212717
 30
0
 11
-99.7525126265847
 21
-15.9596194077713
 31
0
  0
LINE
  8
1
 62
7
 10
-99.3282485578728
 20
-16.03033008588989
 30
0
 11
-99.4696699141101
 21
-16.17175144212717
 31
0
  0
LINE
  8
1
 62
7
 10
-99.5403805922287
 20
-15.74748737341542
 30
0
 11
-99.3282485578728
 21
-15.9596194077713
 31
0
  0
LINE
  8
1
 62
7
 10
-99.3282485578727
 20
-15.0403805922287
 30
0
 11
-99.5403805922287
 21
-15.25251262658469
 31
0
  0
LINE
  8
1
 62
7
 10
-99.46966991411
 20
-14.82824855787283
 30
0
 11
-99.3282485578728
 21
-14.96966991411011
 31
0
  0
LINE
  8
1
 62
7
 10
-99.7525126265847
 20
-15.04038059222881
 30
0
 11
-99.5403805922287
 21
-14.82824855787288
 31
0
  0
LINE
  8
1
 62
7
 10
-100.4596194077712
 20
-14.82824855787283
 30
0
 11
-100.2474873734153
 21
-15.04038059222881
 31
0
  0
LINE
  8
1
 62
7
 10
-100.6717514421272
 20
-14.96966991411011
 30
0
 11
-100.5303300858899
 21
-14.82824855787283
 31
0
  0
LINE
  8
1
 62
7
 10
-100.4596194077712
 20
-15.25251262658469
 30
0
 11
-100.6717514421272
 21
-15.0403805922287
 31
0
  0
LINE
  8
1
 62
7
 10
-100.6717514421272
 20
-15.9596194077713
 30
0
 11
-100.4596194077712
 21
-15.74748737341542
 31
0
  0
LINE
  8
1
 62
3
 10
-81.5
 20
0
 30
0
 11
-122.2330704521557
 21
0
 31
0
  0
LINE
  8
1
 62
3
 10
-109.2370311952331
 20
7
 30
0
 11
-94
 21
7
 31
0
  0
LINE
  8
1
 62
7
 10
-101.5139022425508
 20
9.589999999999975
 30
0
 11
-98.4860977574494
 21
9.589999999999975
 31
0
  0
LINE
  8
1
 62
7
 10
-98
 20
-1.930285549745918
 30
0
 11
-98
 21
-8.930285549745918
 31
0
  0
LINE
  8
1
 62
7
 10
-102
 20
-8.930285549745918
 30
0
 11
-102
 21
-1.930285549745918
 31
0
  0
LINE
  8
1
 62
3
 10
-100
 20
21.43419207851377
 30
0
 11
-100
 21
-21.7195057833859
 31
0
  0
LINE
  8
1
 62
3
 10
-89.13927622745601
 20
6.270441793672489
 30
0
 11
-83.97853002998791
 21
9.25
 31
0
  0
LINE
  8
1
 62
3
 10
-116.0214699700121
 20
9.25
 30
0
 11
-110.4470875108881
 21
6.0316287866587
 31
0
  0
LINE
  8
1
 62
3
 10
-93.7734983288898
 20
-10.78461724777543
 30
0
 11
-90.75
 21
-16.02146997001211
 31
0
  0
LINE
  8
1
 62
3
 10
-90.75
 20
16.02146997001211
 30
0
 11
-93.9457610082363
 21
10.48624953489951
 31
0
  0
LINE
  8
1
 62
3
 10
-109.25
 20
-16.02146997001211
 30
0
 11
-106.3899763259442
 21
-11.06776365569772
 31
0
  0
LINE
  8
1
 62
3
 10
-109.25
 20
16.02146997001211
 30
0
 11
-106.3101159327435
 21
10.92944139716138
 31
0
  0
LINE
  8
1
 62
7
 10
6.50000000000003
 20
18.5
 30
0
 11
25.00000000000002
 21
18.5
 31
0
  0
LINE
  8
1
 62
7
 10
25.00000000000002
 20
18.5
 30
0
 11
25.00000000000002
 21
-18.5
 31
0
  0
LINE
  8
1
 62
7
 10
25.00000000000002
 20
-18.5
 30
0
 11
6.50000000000003
 21
-18.5
 31
0
  0
LINE
  8
1
 62
7
 10
25.80000000000003
 20
-17.25
 30
0
 11
25.00000000000002
 21
-17.25
 31
0
  0
LINE
  8
1
 62
7
 10
25.00000000000002
 20
17.25
 30
0
 11
25.80000000000003
 21
17.25
 31
0
  0
LINE
  8
1
 62
2
 10
-78.5
 20
-35.5
 30
0
 11
-27.26879150363793
 21
-35.5
 31
0
  0
LINE
  8
1
 62
3
 10
-94
 20
7
 30
0
 11
-92
 21
7
 31
0
  0
LINE
  8
1
 62
3
 10
-81.5
 20
0
 30
0
 11
-78.5
 21
0
 31
0
  0
LINE
  8
1
 62
3
 10
-17.99999999999998
 20
7
 30
0
 11
9.00000000000002
 21
7
 31
0
  0
ARC
  8
1
 62
7
 10
-100
 20
0
 30
0
 40
18.5
 50
180
 51
0
  0
ARC
  8
1
 62
7
 10
-100
 20
7
 30
0
 40
6
 50
0
 51
180
  0
ARC
  8
1
 62
3
  6
CENTER
 10
-100
 20
0
 30
0
 40
15.5
 50
0
 51
180
  0
ARC
  8
1
 62
7
 10
-100
 20
0
 30
0
 40
18.5
 50
0
 51
180
  0
ARC
  8
1
 62
3
  6
CENTER
 10
-100
 20
0
 30
0
 40
15.5
 50
180
 51
0
  0
ARC
  8
1
 62
7
 10
-100
 20
7
 30
0
 40
6
 50
180
 51
0
  0
ARC
  8
1
 62
7
 10
-100
 20
0
 30
0
 40
12.49999999999997
 50
296.7436839504031
 51
58.36739030356571
  0
ARC
  8
1
 62
7
 10
-100
 20
7
 30
0
 40
7.500000000000003
 50
296.743683950403
 51
29.05928106804014
  0
ARC
  8
1
 62
7
 10
-100
 20
7
 30
0
 40
7.500000000000024
 50
150.9407189319599
 51
243.256316049597
  0
ARC
  8
1
 62
7
 10
-100
 20
0
 30
0
 40
12.5
 50
121.6326096964343
 51
243.2563160495969
  0
CIRCLE
  8
1
 62
7
 10
-86.57660624134121
 20
7.75
 30
0
 40
2
  0
CIRCLE
  8
1
 62
7
 10
-86.57660624134121
 20
7.75
 30
0
 40
1.5
  0
CIRCLE
  8
1
 62
7
 10
-84.5
 20
0
 30
0
 40
1.799999999999997
  0
CIRCLE
  8
1
 62
7
 10
-100
 20
-15.5
 30
0
 40
1.5
  0
CIRCLE
  8
1
 62
7
 10
-113.4233937586588
 20
7.75
 30
0
 40
1.5
  0
CIRCLE
  8
1
 62
7
 10
-113.4233937586588
 20
7.75
 30
0
 40
2
  0
CIRCLE
  8
1
 62
7
 10
-100
 20
-15.5
 30
0
 40
2
  0
CIRCLE
  8
1
 62
2
 10
-92.25
 20
-13.42339375865879
 30
0
 40
1.5
  0
CIRCLE
  8
1
 62
2
 10
-115.5
 20
0
 30
0
 40
1.5
  0
CIRCLE
  8
1
 62
2
 10
-92.25
 20
13.42339375865879
 30
0
 40
1.5
  0
CIRCLE
  8
1
 62
7
 10
-92.25
 20
-13.42339375865879
 30
0
 40
1
  0
CIRCLE
  8
1
 62
7
 10
-115.5
 20
0
 30
0
 40
1
  0
CIRCLE
  8
1
 62
7
 10
-92.25
 20
13.42339375865879
 30
0
 40
1
  0
CIRCLE
  8
1
 62
7
 10
-107.75
 20
-13.42339375865879
 30
0
 40
1.800000000000196
  0
CIRCLE
  8
1
 62
7
 10
-107.75
 20
13.42339375865879
 30
0
 40
1.800000000000196
  0
CIRCLE
  8
1
 62
7
 10
-100
 20
7
 30
0
 40
3
  0
POLYLINE
  8
1
 62
2
 66
1
  0
VERTEX
  8
1
 10
73.670485886948
 20
14.74398228888464
 30
0
 42
-0.004186897804071769
  0
VERTEX
  8
1
 10
73.71842470530432
 20
14.61068084811247
 30
0
 42
-0.01290248157269365
  0
VERTEX
  8
1
 10
73.76123258808326
 20
14.47762559113137
 30
0
 42
-0.02254802247762598
  0
VERTEX
  8
1
 10
73.79377859970742
 20
14.3450627017324
 30
0
 42
-0.03328225659881935
  0
VERTEX
  8
1
 10
73.81093180459943
 20
14.21323836370664
 30
0
 42
-0.04414267360482675
  0
VERTEX
  8
1
 10
73.80756126718191
 20
14.08239876084514
 30
0
 42
-0.04746932973044862
  0
VERTEX
  8
1
 10
73.77160286330469
 20
13.92248470576798
 30
0
 42
-0.02328907139357665
  0
VERTEX
  8
1
 10
73.71167637727524
 20
13.76400957252394
 30
0
 42
-0.002187931268909234
  0
VERTEX
  8
1
 10
73.6428949478304
 20
13.60653715452698
 30
0
 42
0.01880544693317353
  0
VERTEX
  8
1
 10
73.58037171370704
 20
13.44963124519106
 30
0
 42
0.04246910544640846
  0
VERTEX
  8
1
 10
73.53921981364195
 20
13.29285563793013
 30
0
 42
0.07659463129760048
  0
VERTEX
  8
1
 10
73.53530027671637
 20
13.08571957712397
 30
0
 42
0.04405793155071368
  0
VERTEX
  8
1
 10
73.58215761504332
 20
12.87815777698251
 30
0
 42
0.03892408209558717
  0
VERTEX
  8
1
 10
73.66709760980965
 20
12.67027667233959
 30
0
 42
0.01089913513613844
  0
VERTEX
  8
1
 10
73.77742604220225
 20
12.46218269802902
 30
0
 42
0.0121955997338928
  0
VERTEX
  8
1
 10
73.90044869340798
 20
12.25398228888463
 30
0
  0
SEQEND
  8
1
  0
POLYLINE
  8
1
 62
2
 66
1
  0
VERTEX
  8
1
 10
82.16305391161998
 20
14.74398228888464
 30
0
 42
-0.004186897804171801
  0
VERTEX
  8
1
 10
82.21099272997603
 20
14.61068084811247
 30
0
 42
-0.01290248157261014
  0
VERTEX
  8
1
 10
82.2538006127547
 20
14.47762559113137
 30
0
 42
-0.02254802247754722
  0
VERTEX
  8
1
 10
82.28634662437868
 20
14.3450627017324
 30
0
 42
-0.03328225659851804
  0
VERTEX
  8
1
 10
82.30349982927054
 20
14.21323836370664
 30
0
 42
-0.04414267360482675
  0
VERTEX
  8
1
 10
82.30012929185298
 20
14.08239876084514
 30
0
 42
-0.04746932973012359
  0
VERTEX
  8
1
 10
82.26417088797585
 20
13.92248470576799
 30
0
 42
-0.02328907139359187
  0
VERTEX
  8
1
 10
82.2042444019466
 20
13.76400957252396
 30
0
 42
-0.002187931269061668
  0
VERTEX
  8
1
 10
82.13546297250201
 20
13.606537154527
 30
0
 42
0.01880544693310534
  0
VERTEX
  8
1
 10
82.07293973837886
 20
13.44963124519107
 30
0
 42
0.04246910544635374
  0
VERTEX
  8
1
 10
82.03178783831393
 20
13.29285563793013
 30
0
 42
0.07659463129707339
  0
VERTEX
  8
1
 10
82.02786830138831
 20
13.08571957712399
 30
0
 42
0.04405793155069256
  0
VERTEX
  8
1
 10
82.07472563971497
 20
12.87815777698254
 30
0
 42
0.03892408209528821
  0
VERTEX
  8
1
 10
82.15966563448083
 20
12.67027667233961
 30
0
 42
0.0108991351362726
  0
VERTEX
  8
1
 10
82.26999406687284
 20
12.46218269802903
 30
0
 42
0.0121955997337122
  0
VERTEX
  8
1
 10
82.39301671807792
 20
12.25398228888463
 30
0
  0
SEQEND
  8
1
  0
ARC
  8
1
 62
7
 10
59.43029712220098
 20
14.94398228888463
 30
0
 40
0.1999999999999904
 50
270
 51
3.645191185384907
  0
ARC
  8
1
 62
7
 10
55.97836200630493
 20
17.64398228888473
 30
0
 40
0.5
 50
90
 51
177.2795508940442
  0
ARC
  8
1
 62
7
 10
59.00163799369403
 20
17.64398228888473
 30
0
 40
0.499999999999284
 50
2.720449105956134
 51
90
  0
ARC
  8
1
 62
7
 10
27.30000000000007
 20
-14.5
 30
0
 40
1.500000000000053
 50
180
 51
270
  0
ARC
  8
1
 62
7
 10
27.30000000000007
 20
14.5
 30
0
 40
1.5
 50
90
 51
180
  0
ARC
  8
1
 62
7
 10
-87.06320878171961
 20
8.392820323027479
 30
0
 40
0.04999999999998014
 50
120.0000000000019
 51
209.9999999999959
  0
ARC
  8
1
 62
7
 10
-86.89000370096281
 20
8.492820323027388
 30
0
 40
0.05000000000002988
 50
30.00000000010057
 51
119.999999999838
  0
ARC
  8
1
 62
7
 10
-85.9337859183135
 20
8.236602540378385
 30
0
 40
0.05000000000000146
 50
30.00000000004416
 51
120.0000000000159
  0
ARC
  8
1
 62
7
 10
-85.83378591831361
 20
8.063397459621513
 30
0
 40
0.050000000000037
 50
300.0000000001147
 51
29.99999999998775
  0
ARC
  8
1
 62
7
 10
-86.09000370096281
 20
7.107179676972407
 30
0
 40
0.05000000000013545
 50
300.0000000000495
 51
29.99999999981793
  0
ARC
  8
1
 62
7
 10
-86.2632087817196
 20
7.007179676972271
 30
0
 40
0.0499999999999162
 50
209.9999999998749
 51
300.0000000001331
  0
ARC
  8
1
 62
7
 10
-87.3194265643687
 20
7.436602540378317
 30
0
 40
0.04999999999998725
 50
120.0000000000159
 51
209.9999999999872
  0
ARC
  8
1
 62
7
 10
-87.2194265643687
 20
7.263397459621501
 30
0
 40
0.04999999999997304
 50
209.9999999999878
 51
300.000000000016
  0
ARC
  8
1
 62
7
 10
-86.3935935394489
 20
8.43301270189221
 30
0
 40
0.3500000000001011
 50
210.0000000000141
 51
299.9999999999819
  0
ARC
  8
1
 62
7
 10
-85.8935935394489
 20
7.566987298107676
 30
0
 40
0.3500000000000884
 50
120.0000000000099
 51
209.9999999999898
  0
ARC
  8
1
 62
7
 10
-86.75961894323331
 20
7.066987298107676
 30
0
 40
0.3499999999999586
 50
30.00000000000624
 51
120.0000000000099
  0
ARC
  8
1
 62
7
 10
-87.25961894323331
 20
7.93301270189221
 30
0
 40
0.3499999999999874
 50
299.9999999999819
 51
30.00000000000611
  0
ARC
  8
1
 62
7
 10
-114.1662140816864
 20
8.063397459621513
 30
0
 40
0.04999999999996074
 50
150.0000000000041
 51
239.9999999999981
  0
ARC
  8
1
 62
7
 10
-114.0662140816864
 20
8.236602540378271
 30
0
 40
0.04999999999998014
 50
59.99999999999815
 51
149.9999999999
  0
ARC
  8
1
 62
7
 10
-113.1099962990373
 20
8.492820323027388
 30
0
 40
0.05000000000013545
 50
59.99999999995048
 51
149.9999999999477
  0
ARC
  8
1
 62
7
 10
-112.9367912182805
 20
8.392820323027479
 30
0
 40
0.05000000000011604
 50
329.9999999999564
 51
59.99999999988533
  0
ARC
  8
1
 62
7
 10
-112.6805734356313
 20
7.436602540378317
 30
0
 40
0.05000000000000146
 50
329.9999999999559
 51
59.99999999998405
  0
ARC
  8
1
 62
7
 10
-112.7805734356312
 20
7.263397459621501
 30
0
 40
0.05000000000013545
 50
239.9999999999505
 51
330.0000000000123
  0
ARC
  8
1
 62
7
 10
-113.9099962990373
 20
7.107179676972407
 30
0
 40
0.0499999999999162
 50
150.0000000001251
 51
240.000000000162
  0
ARC
  8
1
 62
7
 10
-113.7367912182805
 20
7.007179676972385
 30
0
 40
0.04999999999997963
 50
240.0000000001295
 51
330.0000000000692
  0
ARC
  8
1
 62
7
 10
-113.606406460551
 20
8.43301270189221
 30
0
 40
0.3500000000001854
 50
239.9999999999993
 51
329.9999999999778
  0
ARC
  8
1
 62
7
 10
-112.7403810567666
 20
7.93301270189221
 30
0
 40
0.3499999999999997
 50
150.0000000000193
 51
239.9999999999972
  0
ARC
  8
1
 62
7
 10
-113.2403810567666
 20
7.066987298107676
 30
0
 40
0.3499999999999889
 50
60.0000000000183
 51
150.0000000000031
  0
ARC
  8
1
 62
7
 10
-114.106406460551
 20
7.566987298107676
 30
0
 40
0.3499999999999292
 50
330.0000000000021
 51
60.0000000000183
  0
ARC
  8
1
 62
7
 10
-99.50502525316941
 20
-14.86360389693209
 30
0
 40
0.05000000000000995
 50
44.99999999988197
 51
135.0000000000677
  0
ARC
  8
1
 62
7
 10
-99.36360389693211
 20
-15.00502525316932
 30
0
 40
0.05000000000009411
 50
315.0000000000216
 51
44.99999999992083
  0
ARC
  8
1
 62
7
 10
-99.36360389693211
 20
-15.99497474683062
 30
0
 40
0.04999999999994589
 50
315.0000000000302
 51
45.00000000001008
  0
ARC
  8
1
 62
7
 10
-99.50502525316941
 20
-16.1363961030678
 30
0
 40
0.05000000000000744
 50
225.0000000000633
 51
314.9999999999482
  0
ARC
  8
1
 62
7
 10
-100.4949747468306
 20
-16.1363961030678
 30
0
 40
0.05000000000008783
 50
224.9999999999712
 51
315.0000000000172
  0
ARC
  8
1
 62
7
 10
-100.6363961030678
 20
-15.99497474683062
 30
0
 40
0.05000000000005141
 50
135.0000000000705
 51
224.9999999998892
  0
ARC
  8
1
 62
7
 10
-100.4949747468306
 20
-14.86360389693209
 30
0
 40
0.0499999999999999
 50
44.99999999989349
 51
135.0000000000374
  0
ARC
  8
1
 62
7
 10
-100.6363961030679
 20
-15.00502525316938
 30
0
 40
0.04999999999994589
 50
135.0000000000302
 51
225.0000000000101
  0
ARC
  8
1
 62
7
 10
-99.2928932188134
 20
-15.50000000000011
 30
0
 40
0.3500000000000948
 50
134.9999999999856
 51
225.0000000000017
  0
ARC
  8
1
 62
7
 10
-100
 20
-16.20710678118661
 30
0
 40
0.3500000000000169
 50
45.00000000000165
 51
134.9999999999984
  0
ARC
  8
1
 62
7
 10
-100.7071067811865
 20
-15.50000000000011
 30
0
 40
0.3500000000000169
 50
314.9999999999984
 51
45.0000000000144
  0
ARC
  8
1
 62
7
 10
-100
 20
-14.7928932188135
 30
0
 40
0.3500000000000169
 50
225.0000000000017
 51
314.9999999999984
  0
ARC
  8
1
 62
7
 10
-104.5
 20
-8.930285549745918
 30
0
 40
2.499999999999932
 50
243.2563160495962
 51
0
  0
ARC
  8
1
 62
7
 10
-95.5
 20
-8.930285549745918
 30
0
 40
2.5
 50
180
 51
296.7436839504038
  0
ARC
  8
1
 62
7
 10
-95.5
 20
-1.930285549745918
 30
0
 40
2.500000000000035
 50
116.7436839504026
 51
180
  0
ARC
  8
1
 62
7
 10
-104.5
 20
-1.930285549745918
 30
0
 40
2.5
 50
0
 51
63.2563160495974
  0
ARC
  8
1
 62
7
 10
6.50000000000003
 20
18
 30
0
 40
0.5
 50
90
 51
180
  0
ARC
  8
1
 62
7
 10
6.50000000000003
 20
-18
 30
0
 40
0.5
 50
180
 51
270
  0
LINE
  8
1
 62
2
 10
51.00422801210495
 20
24.25800189109146
 30
0
 11
30.82248035771502
 21
24.25800189109146
 31
0
  0
LINE
  8
1
 62
2
 10
30.82248035771502
 20
24.25800189109146
 30
0
 11
35.59023997250485
 21
16.00000000000006
 31
0
  0
SOLID
  8
1
 62
2
 10
33.44118954666666
 20
18.8006970424677
 30
0
 11
34.23929039834316
 21
19.26148078402357
 31
0
 12
35.59023997250485
 22
16.00000000000006
 32
0
 13
35.59023997250485
 23
16.00000000000006
 33
0
  0
LINE
  8
1
 62
2
 10
167.0087056195039
 20
39.64861998126094
 30
0
 11
98.48038431519193
 21
39.64861998126094
 31
0
  0
LINE
  8
1
 62
2
 10
98.48038431519193
 20
39.64861998126094
 30
0
 11
88.78873748996693
 21
14.74398228888464
 31
0
  0
SOLID
  8
1
 62
2
 10
89.62862529527585
 20
18.17281738713238
 30
0
 11
90.48745463824255
 21
17.83860370460524
 31
0
 12
88.78873748996693
 22
14.74398228888464
 32
0
 13
88.78873748996693
 23
14.74398228888464
 33
0
  0
TEXT
  8
1
 62
2
 10
-144.75
 20
93.5
 30
0
 40
5
  1
DME33S36G
 41
0.9
 72
1
 73
2
 11
-124.5
 21
96
 31
0
  0
TEXT
  8
1
 62
2
 10
33.15700959971503
 20
25.27293895829396
 30
0
 40
3.2
  1
NAME PLATE
 41
0.54
 72
1
 73
2
 11
41.79700959971503
 21
26.87293895829396
 31
0
  0
TEXT
  8
1
 62
2
 10
86.46437449282463
 20
-40.79106771410947
 30
0
 40
2
  1
+1.181
 41
0.63
  0
TEXT
  8
1
 62
2
 10
86.46437449282463
 20
-43.19106771410947
 30
0
 40
2
  1
 0
 41
0.63
  0
TEXT
  8
1
 62
2
 10
75.11803071968242
 20
-42.47753774603925
 30
0
 40
3.2
  1
(11.811   )
 41
0.6300000000000001
 72
1
 73
2
 11
86.20603071968243
 21
-40.87753774603925
 31
0
  0
TEXT
  8
1
 62
2
 10
94.14400000000001
 20
-29.94803992964192
 30
0
 40
3.2
  1
(0.118)
 41
0.6300000000000001
 72
1
 73
2
 11
101.2
 21
-28.34803992964192
 31
0
  0
TEXT
  8
1
 62
2
 10
81.193103685916
 20
-10.08
 30
0
 40
3.2
  1
(1.26DIA.)
 50
90
 41
0.6300000000000001
 72
1
 73
2
 11
79.59310368591599
 21
0
 31
0
  0
TEXT
  8
1
 62
2
 10
99.89669839264892
 20
40.93369681053315
 30
0
 40
3.5
  1
LEAD WIRES (RED,BLACK)
 41
0.9
 73
2
 11
99.89669839264892
 21
42.68369681053315
 31
0
  0
TEXT
  8
1
 62
2
 10
99.89669839264894
 20
33.83707482147133
 30
0
 40
3.5
  1
UL1007 AWG22
 41
0.9
 73
2
 11
99.89669839264894
 21
35.58707482147133
 31
0
  0
TEXT
  8
1
 62
2
 10
59.43600000000009
 20
34.80209936729099
 30
0
 40
3.2
  1
(0.0472)
 41
0.6300000000000001
 72
1
 73
2
 11
67.50000000000009
 21
36.40209936729099
 31
0
  0
TEXT
  8
1
 62
2
 10
-13.85599999999987
 20
36.30182510987542
 30
0
 40
3.2
  1
(0.236)
 41
0.6300000000000001
 72
1
 73
2
 11
-6.799999999999869
 21
37.90182510987542
 31
0
  0
TEXT
  8
1
 62
2
 10
-67.89928158107747
 20
17.99989302341045
 30
0
 40
2
  1
%%p0.0197
 50
90
 41
0.63
 72
1
 73
2
 11
-68.89928158107747
 21
23.66989302341045
 31
0
  0
TEXT
  8
1
 62
2
 10
-100.068455178037
 20
36.90182510987539
 30
0
 40
2
  1
%%p0.00787
 41
0.63
 72
1
 73
2
 11
-93.76845517803702
 21
37.90182510987539
 31
0
  0
TEXT
  8
1
 62
2
 10
-67.29928158107747
 20
7.02646225396086
 30
0
 40
3.2
  1
(0.276  　 )
 50
90
 41
0.6300000000000001
 72
1
 73
2
 11
-68.89928158107747
 21
19.12246225396086
 31
0
  0
TEXT
  8
1
 62
2
 10
-115.12
 20
36.30182510987539
 30
0
 40
3.2
  1
(1.22DIA.     )
 41
0.6300000000000001
 72
1
 73
2
 11
-100
 21
37.90182510987539
 31
0
  0
TEXT
  8
1
 62
2
 10
-111.088
 20
48.30182510987539
 30
0
 40
3.2
  1
(1.457DIA.)
 41
0.6300000000000001
 72
1
 73
2
 11
-100
 21
49.90182510987539
 31
0
  0
TEXT
  8
1
 62
2
 10
-10.85599999999987
 20
48.30182510987539
 30
0
 40
3.2
  1
(0.827)
 41
0.6300000000000001
 72
1
 73
2
 11
-3.799999999999868
 21
49.90182510987539
 31
0
  0
TEXT
  8
1
 62
2
 10
-73.7974932522028
 20
-27.48481685313686
 30
0
 40
3.5
  1
(3-M3 DEPTH 0.157MAX)
 41
0.675
 73
2
 11
-73.7974932522028
 21
-25.73481685313686
 31
0
  0
TEXT
  8
1
 62
2
 10
-31.79999999999992
 20
7.499864855547536
 30
0
 40
3.2
  1
(0.236DIA.      )
 50
90
 41
0.6300000000000001
 72
1
 73
2
 11
-33.39999999999992
 21
24.63586485554754
 31
0
  0
TEXT
  8
1
 62
2
 10
-33.59999999999992
 20
26.30420862868933
 30
0
 40
2
  1
 0
 50
90
 41
0.63
  0
TEXT
  8
1
 62
2
 10
-31.19999999999993
 20
26.30420862868933
 30
0
 40
2
  1
-0.000787
 50
90
 41
0.63
  0
TEXT
  8
1
 62
2
 10
-20.5957280140297
 20
13.54786485554754
 30
0
 40
3.2
  1
(0.217    )
 50
90
 41
0.6300000000000001
 72
1
 73
2
 11
-22.1957280140297
 21
24.63586485554754
 31
0
  0
TEXT
  8
1
 62
2
 10
-21.1957280140297
 20
22.50420862868931
 30
0
 40
2
  1
%%p0.0591
 50
90
 41
0.63
 72
1
 73
2
 11
-22.1957280140297
 21
28.17420862868931
 31
0
  0
TEXT
  8
1
 62
2
 10
-15.85599999999998
 20
24.30182510987542
 30
0
 40
3.2
  1
(0.472)
 41
0.6300000000000001
 72
1
 73
2
 11
-8.799999999999979
 21
25.90182510987542
 31
0
  0
TEXT
  8
1
 62
2
 10
-147.9006292804644
 20
24.26321680235099
 30
0
 40
3.2
  1
(0.472DIA.     )
 41
0.6300000000000001
 72
1
 73
2
 11
-131.7726292804644
 21
25.86321680235099
 31
0
  0
TEXT
  8
1
 62
2
 10
-130.5342855073226
 20
24.86321680235099
 30
0
 40
2
  1
%%p0.00394
 41
0.63
 72
1
 73
2
 11
-124.2342855073226
 21
25.86321680235099
 31
0
  0
TEXT
  8
1
 62
2
 10
-77.56790206166305
 20
-34.39970405969791
 30
0
 40
3.5
  1
P=120%%d
 41
0.9
 72
1
 73
2
 11
-64.96790206166305
 21
-32.64970405969791
 31
0
  0
DIMENSION
  8
1
  6
CONTINUOUS
 62
2
  2
*D0
  3
DMST_1
 10
56.99999999999887
 20
52.4770132888162
 30
0
 11
31.49999999999945
 21
55.0770132888162
 31
0
 12
0
 22
0
 32
0
 70
0
  1
L1
 13
6.000000000000027
 23
18
 33
0
 14
56.99999999999887
 24
15.00000000000006
 34
0
 53
0
  0
DIMENSION
  8
1
  6
CONTINUOUS
 62
2
  2
*D1
  3
DMST_2
 10
111.3209118043569
 20
-26.0029687639177
 30
0
 11
100.8366253916087
 21
-23.4029687639177
 31
0
 12
0
 22
0
 32
0
 70
0
  1
(<>
 13
114.3209118043569
 23
12.64898228888478
 33
0
 14
111.3209118043569
 24
12.25398228888463
 34
0
 53
0
  0
DIMENSION
  8
1
  6
CONTINUOUS
 62
2
  2
*D2
  3
DMST_3
 10
114.3209118043569
 20
-37.95127984587171
 30
0
 11
85.66045590217793
 21
-34.55127984587171
 31
0
 12
0
 22
0
 32
0
 70
0
  1
300
 13
56.99999999999888
 23
-14.99999999999988
 33
0
 14
114.3209118043569
 24
12.64898228888478
 34
0
 53
0
  0
DIMENSION
  8
1
  6
CONTINUOUS
 62
2
  2
*D3
  3
DMST_1
 10
76.99999999999898
 20
-16
 30
0
 11
74.39999999999898
 21
-6.039613253960852e-014
 31
0
 12
0
 22
0
 32
0
 70
0
  1
φ<>
 13
55.99999999999888
 23
16
 33
0
 14
55.99999999999866
 24
-16
 34
0
 50
90
 53
0
  0
DIMENSION
  8
1
  6
CONTINUOUS
 62
2
  2
*D4
  3
DMST_4
 10
58.19999999999894
 20
39.06277775943445
 30
0
 11
67.19060870604294
 21
41.66277775943445
 31
0
 12
0
 22
0
 32
0
 70
0
  1
(<>
 13
56.99999999999887
 23
15.00000000000006
 33
0
 14
58.19999999999892
 24
4.599999999999909
 34
0
 53
0
  0
DIMENSION
  8
1
  6
CONTINUOUS
 62
2
  2
*D5
  3
DMST_1
 10
-2.664535259100376e-015
 20
40.4711188450011
 30
0
 11
-6.611576128121794
 21
43.0711188450011
 31
0
 12
0
 22
0
 32
0
 70
0
 13
6.000000000000027
 23
18
 33
0
 14
-1.77635683940025e-015
 24
13
 34
0
 53
0
  0
DIMENSION
  8
1
  6
CONTINUOUS
 62
2
  2
*D6
  3
DMST_1
 10
-14.99999999999997
 20
52.4645067881646
 30
0
 11
-4.499999999999973
 21
55.0645067881646
 31
0
 12
0
 22
0
 32
0
 70
0
 13
6.000000000000027
 23
18
 33
0
 14
-14.99999999999998
 24
9.5
 34
0
 53
0
  0
DIMENSION
  8
1
  6
CONTINUOUS
 62
2
  2
*D7
  3
DMST_1
 10
-14.99999999999998
 20
28.4777309018375
 30
0
 11
-8.999999999999973
 21
31.0777309018375
 31
0
 12
0
 22
0
 32
0
 70
0
 13
-2.99999999999997
 23
10
 33
0
 14
-14.99999999999998
 24
9.5
 34
0
 53
0
  0
DIMENSION
  8
1
  6
CONTINUOUS
 62
2
  2
*D8
  3
DMST_5
 10
-24.93352917155653
 20
9.5
 30
0
 11
-27.53352917155653
 21
24.7049173863507
 31
0
 12
0
 22
0
 32
0
 70
0
 13
-14.99999999999998
 23
4
 33
0
 14
-14.99999999999998
 24
9.5
 34
0
 50
90
 53
0
  0
DIMENSION
  8
1
  6
CONTINUOUS
 62
2
  2
*D9
  3
DMST_3
 10
-36.95403367309879
 20
10
 30
0
 11
-40.35403367309878
 21
24.1975251050663
 31
0
 12
0
 22
0
 32
0
 70
0
  1
φ<>
 13
-14.99999999999998
 23
4
 33
0
 14
-2.99999999999997
 24
10
 34
0
 50
90
 53
0
  0
DIMENSION
  8
1
  6
CONTINUOUS
 62
2
  2
*D10
  3
DMST_1
 10
6.000000000000028
 20
40.4377812577139
 30
0
 11
15.90000000000003
 21
43.0377812577139
 31
0
 12
0
 22
0
 32
0
 70
0
  1
L2
 13
25.80000000000003
 23
17.25
 33
0
 14
6.000000000000027
 24
18
 34
0
 53
0
  0
DIMENSION
  8
1
  6
CONTINUOUS
 62
2
  2
*D11
  3
DMST_6
 10
-106
 20
28.5106797698132
 30
0
 11
-131.999216943645
 21
31.1106797698132
 31
0
 12
0
 22
0
 32
0
 70
0
  1
φ<>
 13
-94
 23
7
 33
0
 14
-106
 24
7
 34
0
 53
0
  0
DIMENSION
  8
1
  6
CONTINUOUS
 62
2
  2
*D12
  3
DMST_7
 10
-84.5
 20
40.4410838224926
 30
0
 11
-100
 21
43.0410838224926
 31
0
 12
0
 22
0
 32
0
 70
0
  1
φ<>
 13
-115.5
 23
0
 33
0
 14
-84.5
 24
0
 34
0
 53
0
  0
DIMENSION
  8
1
  6
CONTINUOUS
 62
2
  2
*D13
  3
DMST_1
 10
-81.5
 20
52.5850951621166
 30
0
 11
-100
 21
55.1850951621166
 31
0
 12
0
 22
0
 32
0
 70
0
  1
φ<>
 13
-118.5
 23
0
 33
0
 14
-81.5
 24
0
 34
0
 53
0
  0
DIMENSION
  8
1
  6
CONTINUOUS
 62
2
  2
*D14
  3
DMST_8
 10
-71.4316235022719
 20
7.000000000000004
 30
0
 11
-74.0316235022719
 21
18.8250107120894
 31
0
 12
0
 22
0
 32
0
 70
0
 13
-81.5
 23
0
 33
0
 14
-94
 24
7
 34
0
 50
90
 53
0
  0
INSERT
  8
0
  2
___R___O_______R
 10
0.5000000000000267
 20
-3.75
 30
0
  0
INSERT
  8
0
  2
DME34B36G
 10
437.6912236417212
 20
475.007598067909
 30
0
  0
INSERT
  8
1
  2
*D15
 10
0
 20
0
 30
0
  0
ENDSEC
  0
EOF
