  0
SECTION
  2
HEADER
  9
$ACADVER
  1
AC1009
  9
$INSBASE
 10
0
 20
0
  9
$EXTMIN
 10
-194.5
 20
-146
  9
$EXTMAX
 10
194.5
 20
146
  9
$LIMMIN
 10
-194.5
 20
-146
  9
$LIMMAX
 10
194.5
 20
146
  9
$VIEWCTR
 10
10
 20
10
  9
$VIEWSIZE
 40
10
  9
$SNAPMODE
 70
0
  9
$SNAPUNIT
 10
1
 20
1
  9
$SNAPBASE
 10
0
 20
0
  9
$SNAPANG
 50
0
  9
$SNAPSTYLE
 70
0
  9
$SNAPISOPAIR
 70
0
  9
$GRIDMODE
 70
0
  9
$GRIDUNIT
 10
0
 20
0
  9
$ORTHOMODE
 70
0
  9
$REGENMODE
 70
1
  9
$FILLMODE
 70
1
  9
$QTEXTMODE
 70
0
  9
$DRAGMODE
 70
2
  9
$LTSCALE
 40
1
  9
$OSMODE
 70
0
  9
$ATTMODE
 70
1
  9
$TEXTSIZE
 40
3.5
  9
$TRACEWID
 40
0.5
  9
$TEXTSTYLE
  7
STANDARD
  9
$CLAYER
  8
0
  9
$CELTYPE
  6
BYLAYER
  9
$CECOLOR
 62
256
  9
$DIMSCALE
 40
1
  9
$DIMASZ
 40
0.18
  9
$DIMEXO
 40
0.0625
  9
$DIMDLI
 40
0.38
  9
$DIMRND
 40
0
  9
$DIMDLE
 40
0
  9
$DIMEXE
 40
0.18
  9
$DIMTP
 40
0
  9
$DIMTM
 40
0
  9
$DIMTXT
 40
0.18
  9
$DIMCEN
 40
0.09
  9
$DIMTSZ
 40
0
  9
$DIMTOL
 70
0
  9
$DIMLIM
 70
0
  9
$DIMTIH
 70
1
  9
$DIMTOH
 70
1
  9
$DIMSE1
 70
0
  9
$DIMSE2
 70
0
  9
$DIMTAD
 70
0
  9
$DIMZIN
 70
0
  9
$DIMBLK
  1

  9
$DIMASO
 70
1
  9
$DIMSHO
 70
1
  9
$DIMPOST
  1

  9
$DIMAPOST
  1

  9
$DIMALT
 70
0
  9
$DIMALTD
 70
2
  9
$DIMALTF
 40
25.4
  9
$DIMLFAC
 40
1
  9
$DIMTOFL
 70
0
  9
$DIMTVP
 40
0
  9
$DIMTIX
 70
0
  9
$DIMSOXD
 70
0
  9
$DIMSAH
 70
0
  9
$DIMBLK1
  1

  9
$DIMBLK2
  1

  9
$DIMSTYLE
  2
*UNNAMED
  9
$DIMCLRD
 70
0
  9
$DIMCLRE
 70
0
  9
$DIMCLRT
 70
0
  9
$DIMTFAC
 40
1
  9
$DIMGAP
 40
0.09
  9
$LUNITS
 70
2
  9
$LUPREC
 70
4
  9
$AXISMODE
 70
0
  9
$AXISUNIT
 10
0
 20
0
  9
$SKETCHINC
 40
0.1
  9
$FILLETRAD
 40
2
  9
$AUNITS
 70
0
  9
$AUPREC
 70
0
  9
$MENU
  1
ACAD
  9
$ELEVATION
 40
0
  9
$THICKNESS
 40
0
  9
$VIEWDIR
 10
0
 20
0
 30
1
  9
$LIMCHECK
 70
0
  9
$BLIPMODE
 70
1
  9
$CHAMFERA
 40
0
  9
$CHAMFERB
 40
0
  9
$FASTZOOM
 70
1
  9
$SKPOLY
 70
0
  9
$ANGBASE
 50
0
  9
$ANGDIR
 70
0
  9
$PDMODE
 70
0
  9
$PDSIZE
 40
0
  9
$PLINEWID
 40
0
  9
$COORDS
 70
2
  0
ENDSEC
  0
SECTION
  2
TABLES
  0
TABLE
  2
DIMSTYLE
 70
5
  0
DIMSTYLE
  2
DMST_1
 70
0
  3

  4

  5

  6

  7

 40
1
 41
3.2
 42
1
 43
7
 44
1
 45
0
 46
0
 47
0
 48
0
140
3.2
141
0
142
0
143
25.4
144
1
145
0
146
1
147
0.09
 71
0
 72
0
 73
0
 74
0
 75
0
 76
0
 77
1
 78
9
170
0
171
2
172
0
173
0
174
0
175
0
176
2
177
2
178
2
  0
DIMSTYLE
  2
DMST_2
 70
0
  3
)
  4

  5

  6

  7

 40
1
 41
3.2
 42
1
 43
7
 44
1
 45
0
 46
0
 47
0
 48
0
140
3.2
141
0
142
0
143
25.4
144
1
145
0
146
1
147
0.09
 71
0
 72
0
 73
0
 74
0
 75
0
 76
0
 77
1
 78
9
170
0
171
2
172
0
173
0
174
0
175
0
176
2
177
2
178
2
  0
DIMSTYLE
  2
DMST_3
 70
0
  3

  4

  5

  6

  7

 40
1
 41
3.2
 42
1
 43
7
 44
1
 45
0
 46
0
 47
0
 48
0
140
3.2
141
0
142
0
143
25.4
144
1
145
0
146
0.6
147
0.09
 71
1
 72
0
 73
0
 74
0
 75
0
 76
0
 77
1
 78
9
170
0
171
2
172
0
173
0
174
0
175
0
176
2
177
2
178
2
  0
DIMSTYLE
  2
DMST_4
 70
0
  3

  4

  5

  6

  7

 40
1
 41
3.2
 42
1
 43
7
 44
1
 45
0
 46
0
 47
0
 48
0.014
140
3.2
141
0
142
0
143
25.4
144
1
145
0
146
0.6
147
0.09
 71
1
 72
0
 73
0
 74
0
 75
0
 76
0
 77
1
 78
9
170
0
171
2
172
0
173
0
174
0
175
0
176
2
177
2
178
2
  0
DIMSTYLE
  2
DMST_5
 70
0
  3

  4

  5

  6

  7

 40
1
 41
3.2
 42
1
 43
7
 44
1
 45
0
 46
0
 47
0.2
 48
0.2
140
3.2
141
0
142
0
143
25.4
144
1
145
0
146
0.6
147
0.09
 71
1
 72
0
 73
0
 74
0
 75
0
 76
0
 77
1
 78
9
170
0
171
2
172
0
173
0
174
0
175
0
176
2
177
2
178
2
  0
ENDTAB
  0
TABLE
  2
LTYPE
 70
9
  0
LTYPE
  2
CONTINUOUS
 70
64
  3
Solid line
 72
65
 73
0
 40
0
  0
LTYPE
  2
BORDER
 70
64
  3
__ __ . __ __ .
 72
65
 73
6
 40
17.91447368421053
 49
5.118421052631579
 49
-2.559210526315789
 49
5.118421052631579
 49
-2.559210526315789
 49
0
 49
-2.559210526315789
  0
LTYPE
  2
CENTER
 70
64
  3
____ _ ____ _
 72
65
 73
4
 40
20.47368421052632
 49
12.79605263157895
 49
-2.559210526315789
 49
2.559210526315789
 49
-2.559210526315789
  0
LTYPE
  2
DASHDOT
 70
64
  3
__ . __ . __ .
 72
65
 73
4
 40
10.23684210526316
 49
5.118421052631579
 49
-2.559210526315789
 49
0
 49
-2.559210526315789
  0
LTYPE
  2
DASHED
 70
64
  3
__ __ __ __ __
 72
65
 73
2
 40
7.677631578947368
 49
5.118421052631579
 49
-2.559210526315789
  0
LTYPE
  2
DIVIDE
 70
64
  3
__ . . __ . . 
 72
65
 73
6
 40
12.79605263157895
 49
5.118421052631579
 49
-2.559210526315789
 49
0
 49
-2.559210526315789
 49
0
 49
-2.559210526315789
  0
LTYPE
  2
DOT
 70
64
  3
..............
 72
65
 73
4
 40
5.118421052631579
 49
0
 49
-2.559210526315789
 49
0
 49
-2.559210526315789
  0
LTYPE
  2
HIDDEN
 70
64
  3
_ _ _ _ _ _ _
 72
65
 73
2
 40
3.838815789473684
 49
2.559210526315789
 49
-1.279605263157895
  0
LTYPE
  2
PHANTOM
 70
64
  3
_____ _ _ _____ _ _ 
 72
65
 73
6
 40
25.59210526315789
 49
12.79605263157895
 49
-2.559210526315789
 49
2.559210526315789
 49
-2.559210526315789
 49
2.559210526315789
 49
-2.559210526315789
  0
ENDTAB
  0
TABLE
  2
LAYER
 70
3
  0
LAYER
  2
1
 70
0
 62
7
  6
CONTINUOUS
  0
LAYER
  2
0
 70
0
 62
7
  6
CONTINUOUS
  0
ENDTAB
  0
TABLE
  2
STYLE
 70
4
  0
STYLE
  2
STANDARD
 70
0
 40
0
 41
1
 50
0
 71
0
 42
3.5
  3
txt
  4

  0
STYLE
  2
SIMPLEX
 70
0
 40
0
 41
1
 50
0
 71
0
 42
3.5
  3
simplex
  4

  0
STYLE
  2
COMPLEX
 70
0
 40
0
 41
1
 50
0
 71
0
 42
3.5
  3
complex
  4

  0
STYLE
  2
ITALIC
 70
0
 40
0
 41
1
 50
0
 71
0
 42
3.5
  3
italic
  4

  0
ENDTAB
  0
TABLE
  2
VIEW
 70
0
  0
ENDTAB
  0
ENDSEC
  0
SECTION
  2
BLOCKS
  0
BLOCK
  8
0
  2
___R___O_______R
 70
0
 10
0.5
 20
-3.75
 30
0
  0
LINE
  8
1
 62
4
  6
PHANTOM
 10
194.5
 20
-136.5
 30
0
 11
194.5
 21
-146
 31
0
  0
LINE
  8
1
 62
4
  6
PHANTOM
 10
-194.5
 20
-146
 30
0
 11
-194.5
 21
146
 31
0
  0
LINE
  8
1
 62
4
  6
PHANTOM
 10
194.5
 20
146
 30
0
 11
194.5
 21
129
 31
0
  0
LINE
  8
1
 62
4
  6
PHANTOM
 10
194.5
 20
146
 30
0
 11
-194.5
 21
146
 31
0
  0
LINE
  8
1
 62
4
  6
PHANTOM
 10
-194.5
 20
-146
 30
0
 11
194.5
 21
-146
 31
0
  0
TEXT
  8
1
 62
4
 10
178.746911898274
 20
-142.6071298819256
 30
0
 40
5
  1
A3
 41
0.9
 72
1
 73
2
 11
183.246911898274
 21
-140.1071298819256
 31
0
  0
ENDBLK
  8
0
  0
BLOCK
  8
1
  2
*D0
 70
1
 10
0
 20
0
 30
0
  0
LINE
  8
1
 62
2
 10
0
 20
49.9140390211362
 30
0
 11
31.1999999999989
 21
49.9140390211362
 31
0
  0
LINE
  8
1
 62
2
 10
31.1999999999989
 20
16.00000000000005
 30
0
 11
31.1999999999989
 21
50.9140390211362
 31
0
  0
LINE
  8
1
 62
2
 10
0
 20
15.50000000000005
 30
0
 11
0
 21
50.9140390211362
 31
0
  0
SOLID
  8
1
 62
2
 10
0
 20
49.9140390211362
 30
0
 11
3.200000000000001
 21
50.33003902113619
 31
0
 12
3.200000000000001
 22
49.4980390211362
 32
0
 13
3.200000000000001
 23
49.4980390211362
 33
0
  0
SOLID
  8
1
 62
2
 10
31.1999999999989
 20
49.9140390211362
 30
0
 11
27.9999999999989
 21
49.4980390211362
 31
0
 12
27.9999999999989
 22
50.33003902113619
 32
0
 13
27.9999999999989
 23
50.33003902113619
 33
0
  0
TEXT
  8
1
 62
2
 10
11.71999999999945
 20
50.9140390211362
 30
0
 40
3.2
  1
31.2
 41
0.9
  0
ENDBLK
  8
0
  0
BLOCK
  8
1
  2
*D1
 70
1
 10
0
 20
0
 30
0
  0
LINE
  8
1
 62
2
 10
94.92091180435696
 20
-20.9998704243389
 30
0
 11
88.52091180435696
 21
-20.9998704243389
 31
0
  0
LINE
  8
1
 62
2
 10
85.52091180435696
 20
-20.9998704243389
 30
0
 11
88.52091180435696
 21
-20.9998704243389
 31
0
  0
LINE
  8
1
 62
2
 10
85.52091180435696
 20
-20.9998704243389
 30
0
 11
73.29947275584425
 21
-20.9998704243389
 31
0
  0
LINE
  8
1
 62
2
 10
85.52091180435696
 20
11.25398228888466
 30
0
 11
85.52091180435696
 21
-21.9998704243389
 31
0
  0
LINE
  8
1
 62
2
 10
88.52091180435696
 20
11.64898228888475
 30
0
 11
88.52091180435696
 21
-21.9998704243389
 31
0
  0
SOLID
  8
1
 62
2
 10
88.52091180435696
 20
-20.9998704243389
 30
0
 11
91.72091180435696
 21
-20.5838704243389
 31
0
 12
91.72091180435696
 22
-21.4158704243389
 32
0
 13
91.72091180435696
 23
-21.4158704243389
 33
0
  0
SOLID
  8
1
 62
2
 10
85.52091180435696
 20
-20.9998704243389
 30
0
 11
82.32091180435695
 21
-21.4158704243389
 31
0
 12
82.32091180435695
 22
-20.5838704243389
 32
0
 13
82.32091180435695
 23
-20.5838704243389
 33
0
  0
TEXT
  8
1
 62
2
 10
75.37947275584426
 20
-19.9998704243389
 30
0
 40
3.2
  1
3
 41
0.9
  0
TEXT
  8
1
 62
2
 10
73.29947275584425
 20
-19.9998704243389
 30
0
 40
3.2
  1
(
 41
0.9
  0
TEXT
  8
1
 62
2
 10
78.89947275584426
 20
-19.9998704243389
 30
0
 40
3.2
  1
)
 41
0.9
  0
ENDBLK
  8
0
  0
BLOCK
  8
1
  2
*D2
 70
1
 10
0
 20
0
 30
0
  0
LINE
  8
1
 62
2
 10
31.19999999999891
 20
-33.0201457348626
 30
0
 11
88.52091180435696
 21
-33.0201457348626
 31
0
  0
LINE
  8
1
 62
2
 10
31.19999999999891
 20
-15.99999999999994
 30
0
 11
31.19999999999891
 21
-34.0201457348626
 31
0
  0
LINE
  8
1
 62
2
 10
88.52091180435696
 20
11.64898228888476
 30
0
 11
88.52091180435696
 21
-34.0201457348626
 31
0
  0
SOLID
  8
1
 62
2
 10
31.19999999999891
 20
-33.0201457348626
 30
0
 11
34.39999999999891
 21
-32.60414573486261
 31
0
 12
34.39999999999891
 22
-33.4361457348626
 32
0
 13
34.39999999999891
 23
-33.4361457348626
 33
0
  0
SOLID
  8
1
 62
2
 10
88.52091180435696
 20
-33.0201457348626
 30
0
 11
85.32091180435695
 21
-33.4361457348626
 31
0
 12
85.32091180435695
 22
-32.60414573486261
 32
0
 13
85.32091180435695
 23
-32.60414573486261
 33
0
  0
TEXT
  8
1
 62
2
 10
53.01245590217793
 20
-31.2201457348626
 30
0
 40
3.2
  1
300
 41
0.9
  0
TEXT
  8
1
 62
2
 10
62.29245590217793
 20
-29.1401457348626
 30
0
 40
1.92
  1
+30
 41
0.9
  0
TEXT
  8
1
 62
2
 10
64.02045590217793
 20
-32.0201457348626
 30
0
 40
1.92
  1
 0
 41
0.9
  0
ENDBLK
  8
0
  0
BLOCK
  8
1
  2
*D3
 70
1
 10
0
 20
0
 30
0
  0
LINE
  8
1
 62
2
 10
-25.0600408197618
 20
1.00000000000006
 30
0
 11
-25.0600408197618
 21
27.84509854255212
 31
0
  0
LINE
  8
1
 62
2
 10
-25.0600408197618
 20
-0.9999999999999503
 30
0
 11
-25.0600408197618
 21
1.00000000000006
 31
0
  0
LINE
  8
1
 62
2
 10
-25.0600408197618
 20
-7.399999999999949
 30
0
 11
-25.0600408197618
 21
-0.9999999999999503
 31
0
  0
LINE
  8
1
 62
2
 10
-12.8000000000011
 20
1.00000000000006
 30
0
 11
-26.0600408197618
 21
1.00000000000006
 31
0
  0
LINE
  8
1
 62
2
 10
-12.8000000000011
 20
-0.9999999999999503
 30
0
 11
-26.0600408197618
 21
-0.9999999999999503
 31
0
  0
SOLID
  8
1
 62
2
 10
-25.0600408197618
 20
1.00000000000006
 30
0
 11
-25.4760408197618
 21
4.200000000000062
 31
0
 12
-24.64404081976181
 22
4.200000000000062
 32
0
 13
-24.64404081976181
 23
4.200000000000062
 33
0
  0
SOLID
  8
1
 62
2
 10
-25.0600408197618
 20
-0.9999999999999503
 30
0
 11
-24.6440408197618
 21
-4.199999999999951
 31
0
 12
-25.4760408197618
 22
-4.199999999999951
 32
0
 13
-25.4760408197618
 23
-4.199999999999951
 33
0
  0
TEXT
  8
1
 62
2
 10
-26.8600408197618
 20
16.40509854255213
 30
0
 40
3.2
  1
2
 50
90
 41
0.9
  0
TEXT
  8
1
 62
2
 10
-28.9400408197618
 20
19.92509854255212
 30
0
 40
1.92
  1
 0
 50
90
 41
0.9
  0
TEXT
  8
1
 62
2
 10
-26.0600408197618
 20
19.92509854255212
 30
0
 40
1.92
  1
-0.014
 50
90
 41
0.9
  0
TEXT
  8
1
 62
2
 10
-26.8600408197618
 20
12.76065409810768
 30
0
 40
3.2
  1
ƒÓ
 50
90
 41
0.9
  0
ENDBLK
  8
0
  0
BLOCK
  8
1
  2
*D4
 70
1
 10
0
 20
0
 30
0
  0
LINE
  8
1
 62
2
 10
-37.0843952082369
 20
3.75000000000011
 30
0
 11
-37.0843952082369
 21
27.60884240205363
 31
0
  0
LINE
  8
1
 62
2
 10
-37.0843952082369
 20
-3.74999999999995
 30
0
 11
-37.0843952082369
 21
3.75000000000011
 31
0
  0
LINE
  8
1
 62
2
 10
-37.0843952082369
 20
-10.14999999999995
 30
0
 11
-37.0843952082369
 21
-3.74999999999995
 31
0
  0
LINE
  8
1
 62
2
 10
-2.800000000001099
 20
3.75000000000011
 30
0
 11
-38.0843952082369
 21
3.75000000000011
 31
0
  0
LINE
  8
1
 62
2
 10
-2.800000000001099
 20
-3.74999999999995
 30
0
 11
-38.0843952082369
 21
-3.74999999999995
 31
0
  0
SOLID
  8
1
 62
2
 10
-37.0843952082369
 20
3.75000000000011
 30
0
 11
-37.5003952082369
 21
6.950000000000111
 31
0
 12
-36.6683952082369
 22
6.950000000000111
 32
0
 13
-36.6683952082369
 23
6.950000000000111
 33
0
  0
SOLID
  8
1
 62
2
 10
-37.0843952082369
 20
-3.74999999999995
 30
0
 11
-36.6683952082369
 21
-6.949999999999951
 31
0
 12
-37.5003952082369
 22
-6.949999999999951
 32
0
 13
-37.5003952082369
 23
-6.949999999999951
 33
0
  0
TEXT
  8
1
 62
2
 10
-38.0843952082369
 20
15.32084240205362
 30
0
 40
3.2
  1
7.5
 50
90
 41
0.9
  0
TEXT
  8
1
 62
2
 10
-38.7243952082369
 20
22.76084240205362
 30
0
 40
1.92
  1
%%p0.2
 50
90
 41
0.9
  0
TEXT
  8
1
 62
2
 10
-38.0843952082369
 20
11.67639795760918
 30
0
 40
3.2
  1
ƒÓ
 50
90
 41
0.9
  0
ENDBLK
  8
0
  0
BLOCK
  8
1
  2
*D5
 70
1
 10
0
 20
0
 30
0
  0
LINE
  8
1
 62
2
 10
24.7999999999989
 20
37.970934668364
 30
0
 11
31.1999999999989
 21
37.970934668364
 31
0
  0
LINE
  8
1
 62
2
 10
31.1999999999989
 20
37.970934668364
 30
0
 11
32.39999999999895
 21
37.970934668364
 31
0
  0
LINE
  8
1
 62
2
 10
32.39999999999895
 20
37.970934668364
 30
0
 11
45.45840794707515
 21
37.970934668364
 31
0
  0
LINE
  8
1
 62
2
 10
31.1999999999989
 20
16.00000000000005
 30
0
 11
31.1999999999989
 21
38.970934668364
 31
0
  0
LINE
  8
1
 62
2
 10
32.39999999999895
 20
5.59999999999993
 30
0
 11
32.39999999999895
 21
38.970934668364
 31
0
  0
SOLID
  8
1
 62
2
 10
31.1999999999989
 20
37.970934668364
 30
0
 11
27.9999999999989
 21
37.55493466836401
 31
0
 12
27.9999999999989
 22
38.386934668364
 32
0
 13
27.9999999999989
 23
38.386934668364
 33
0
  0
SOLID
  8
1
 62
2
 10
32.39999999999895
 20
37.970934668364
 30
0
 11
35.59999999999895
 21
38.386934668364
 31
0
 12
35.59999999999895
 22
37.55493466836401
 32
0
 13
35.59999999999895
 23
37.55493466836401
 33
0
  0
TEXT
  8
1
 62
2
 10
38.49840794707515
 20
38.970934668364
 30
0
 40
3.2
  1
1.2
 41
0.9
  0
TEXT
  8
1
 62
2
 10
36.41840794707515
 20
38.970934668364
 30
0
 40
3.2
  1
(
 41
0.9
  0
TEXT
  8
1
 62
2
 10
44.97840794707515
 20
38.970934668364
 30
0
 40
3.2
  1
)
 41
0.9
  0
ENDBLK
  8
0
  0
BLOCK
  8
1
  2
*D6
 70
1
 10
0
 20
0
 30
0
  0
LINE
  8
1
 62
2
 10
51.199999999999
 20
-15.99999999999993
 30
0
 11
51.199999999999
 21
16.00000000000004
 31
0
  0
LINE
  8
1
 62
2
 10
31.1999999999989
 20
16.00000000000004
 30
0
 11
52.199999999999
 21
16.00000000000004
 31
0
  0
LINE
  8
1
 62
2
 10
31.1999999999989
 20
-15.99999999999993
 30
0
 11
52.199999999999
 21
-15.99999999999993
 31
0
  0
SOLID
  8
1
 62
2
 10
51.199999999999
 20
16.00000000000004
 30
0
 11
51.615999999999
 21
12.80000000000004
 31
0
 12
50.783999999999
 22
12.80000000000004
 32
0
 13
50.783999999999
 23
12.80000000000004
 33
0
  0
SOLID
  8
1
 62
2
 10
51.199999999999
 20
-15.99999999999993
 30
0
 11
50.783999999999
 21
-12.79999999999993
 31
0
 12
51.615999999999
 22
-12.79999999999993
 32
0
 13
51.615999999999
 23
-12.79999999999993
 33
0
  0
TEXT
  8
1
 62
2
 10
50.199999999999
 20
-0.5777777777777232
 30
0
 40
3.2
  1
32
 50
90
 41
0.9
  0
TEXT
  8
1
 62
2
 10
50.199999999999
 20
-4.222222222222167
 30
0
 40
3.2
  1
ƒÓ
 50
90
 41
0.9
  0
ENDBLK
  8
0
  0
BLOCK
  8
1
  2
*D7
 70
1
 10
0
 20
0
 30
0
  0
LINE
  8
1
 62
2
 10
-12
 20
49.9942441159741
 30
0
 11
0
 21
49.9942441159741
 31
0
  0
LINE
  8
1
 62
2
 10
-12
 20
1.800000000000047
 30
0
 11
-12
 21
50.9942441159741
 31
0
  0
LINE
  8
1
 62
2
 10
0
 20
15.50000000000005
 30
0
 11
0
 21
50.9942441159741
 31
0
  0
SOLID
  8
1
 62
2
 10
-12
 20
49.9942441159741
 30
0
 11
-8.799999999999999
 21
50.4102441159741
 31
0
 12
-8.799999999999999
 22
49.5782441159741
 32
0
 13
-8.799999999999999
 23
49.5782441159741
 33
0
  0
SOLID
  8
1
 62
2
 10
0
 20
49.9942441159741
 30
0
 11
-3.200000000000001
 21
49.5782441159741
 31
0
 12
-3.200000000000001
 22
50.4102441159741
 32
0
 13
-3.200000000000001
 23
50.4102441159741
 33
0
  0
TEXT
  8
1
 62
2
 10
-7.92
 20
50.9942441159741
 30
0
 40
3.2
  1
12
 41
0.9
  0
ENDBLK
  8
0
  0
BLOCK
  8
1
  2
*D8
 70
1
 10
0
 20
0
 30
0
  0
LINE
  8
1
 62
2
 10
-8.400000000000009
 20
38.0090541363917
 30
0
 11
-2.000000000000004
 21
38.0090541363917
 31
0
  0
LINE
  8
1
 62
2
 10
-2.000000000000004
 20
38.0090541363917
 30
0
 11
-4.440892098500626e-015
 21
38.0090541363917
 31
0
  0
LINE
  8
1
 62
2
 10
-4.440892098500626e-015
 20
38.0090541363917
 30
0
 11
7.161837257348211
 21
38.0090541363917
 31
0
  0
LINE
  8
1
 62
2
 10
-2.000000000000004
 20
4.000000000000057
 30
0
 11
-2.000000000000004
 21
39.0090541363917
 31
0
  0
LINE
  8
1
 62
2
 10
-4.440892098500626e-015
 20
15.50000000000005
 30
0
 11
-4.440892098500626e-015
 21
39.0090541363917
 31
0
  0
SOLID
  8
1
 62
2
 10
-2.000000000000004
 20
38.0090541363917
 30
0
 11
-5.200000000000006
 21
37.5930541363917
 31
0
 12
-5.200000000000006
 22
38.42505413639169
 32
0
 13
-5.200000000000006
 23
38.42505413639169
 33
0
  0
SOLID
  8
1
 62
2
 10
-4.440892098500626e-015
 20
38.0090541363917
 30
0
 11
3.199999999999997
 21
38.42505413639169
 31
0
 12
3.199999999999997
 22
37.5930541363917
 32
0
 13
3.199999999999997
 23
37.5930541363917
 33
0
  0
TEXT
  8
1
 62
2
 10
5.241837257348211
 20
39.0090541363917
 30
0
 40
3.200000000000001
  1
2
 41
0.9
  0
ENDBLK
  8
0
  0
BLOCK
  8
1
  2
*D9
 70
1
 10
0
 20
0
 30
0
  0
LINE
  8
1
 62
2
 10
-125.294700165262
 20
-27.06363008393602
 30
0
 11
-56.49470016526196
 21
-27.06363008393602
 31
0
  0
LINE
  8
1
 62
2
 10
-107.1414600680523
 20
-7.453982034972341
 30
0
 11
-125.294700165262
 21
-27.06363008393602
 31
0
  0
SOLID
  8
1
 62
2
 10
-107.1414600680523
 20
-7.453982034972341
 30
0
 11
-109.0100438325027
 21
-10.0848470477072
 31
0
 12
-109.6205923348851
 22
-9.519643963640394
 32
0
 13
-109.6205923348851
 23
-9.519643963640394
 33
0
  0
TEXT
  8
1
 62
2
 10
-110.814700165262
 20
-26.06363008393602
 30
0
 40
3.2
  1
2.6X0.45
 41
0.9
  0
TEXT
  8
1
 62
2
 10
-120.094700165262
 20
-26.06363008393602
 30
0
 40
3.2
  1
3-M
 41
0.9
  0
TEXT
  8
1
 62
2
 10
-90.49470016526196
 20
-26.06363008393602
 30
0
 40
3.2
  1
 DEPTH 3MAX.
 41
0.9
  0
ENDBLK
  8
0
  0
ENDSEC
  0
SECTION
  2
ENTITIES
  0
LINE
  8
1
 62
7
 10
31.1999999999989
 20
14.74398228888465
 30
0
 11
47.87048588694802
 21
14.74398228888465
 31
0
  0
LINE
  8
1
 62
7
 10
56.59301671807793
 20
12.25398228888466
 30
0
 11
85.52091180435696
 21
12.25398228888466
 31
0
  0
LINE
  8
1
 62
7
 10
31.1999999999989
 20
10.74398228888464
 30
0
 11
32.93999999999891
 21
10.74398228888464
 31
0
  0
LINE
  8
1
 62
7
 10
33.82989250078389
 20
14.95669782458587
 30
0
 11
33.70107449311899
 21
17.66771376674545
 31
0
  0
LINE
  8
1
 62
7
 10
33.20163799369402
 20
18.14398228888475
 30
0
 11
30.17836200630495
 21
18.14398228888475
 31
0
  0
LINE
  8
1
 62
7
 10
29.67892550687997
 20
17.66771376674545
 30
0
 11
29.59968157421099
 21
16.00000000000005
 31
0
  0
LINE
  8
1
 62
7
 10
32.93999999999891
 20
10.74398228888464
 30
0
 11
32.93999999999891
 21
14.74398228888465
 31
0
  0
LINE
  8
1
 62
7
 10
88.52091180435696
 20
12.64898228888475
 30
0
 11
85.52091180435696
 21
12.64898228888475
 31
0
  0
LINE
  8
1
 62
7
 10
85.52091180435696
 20
13.69898228888465
 30
0
 11
88.52091180435696
 21
13.69898228888465
 31
0
  0
LINE
  8
1
 62
7
 10
88.52091180435696
 20
13.31898228888466
 30
0
 11
85.52091180435696
 21
13.31898228888466
 31
0
  0
LINE
  8
1
 62
7
 10
85.52091180435696
 20
14.36898228888465
 30
0
 11
88.52091180435696
 21
14.36898228888465
 31
0
  0
LINE
  8
1
 62
7
 10
85.52091180435696
 20
14.74398228888465
 30
0
 11
85.52091180435696
 21
12.25398228888466
 31
0
  0
LINE
  8
1
 62
7
 10
32.93999999999891
 20
13.91398228888475
 30
0
 11
47.96887205054895
 21
13.91398228888475
 31
0
  0
LINE
  8
1
 62
7
 10
32.93999999999891
 20
12.25398228888466
 30
0
 11
48.100448693408
 21
12.25398228888466
 31
0
  0
LINE
  8
1
 62
7
 10
56.36305391162
 20
14.74398228888465
 30
0
 11
85.52091180435696
 21
14.74398228888465
 31
0
  0
LINE
  8
1
 62
7
 10
56.46144007522003
 20
13.91398228888475
 30
0
 11
85.52091180435696
 21
13.91398228888475
 31
0
  0
LINE
  8
1
 62
7
 10
-2
 20
-0.9999999999999453
 30
0
 11
-11.8000000000011
 21
-0.9999999999999453
 31
0
  0
LINE
  8
1
 62
7
 10
-1.800000000001098
 20
-2.99999999999989
 30
0
 11
-2
 21
-2.999999999999945
 31
0
  0
LINE
  8
1
 62
7
 10
-2
 20
3.000000000000055
 30
0
 11
-1.800000000001098
 21
3.000000000000055
 31
0
  0
LINE
  8
1
 62
7
 10
-2
 20
3.000000000000055
 30
0
 11
-2
 21
-2.999999999999945
 31
0
  0
LINE
  8
1
 62
2
 10
-125.3903014490321
 20
-33.99999999999994
 30
0
 11
-56.56760229488439
 21
-33.99999999999994
 31
0
  0
LINE
  8
1
 62
7
 10
5
 20
16.00000000000005
 30
0
 11
5
 21
9.473000000000043
 31
0
  0
LINE
  8
1
 62
7
 10
22
 20
9.473000000000043
 30
0
 11
22
 21
16.00000000000005
 31
0
  0
LINE
  8
1
 62
7
 10
5
 20
9.473000000000043
 30
0
 11
22
 21
9.473000000000043
 31
0
  0
LINE
  8
1
 62
7
 10
-1.800000000001098
 20
-3.749999999999945
 30
0
 11
0
 21
-3.749999999999945
 31
0
  0
LINE
  8
1
 62
7
 10
-1.800000000001098
 20
3.75000000000011
 30
0
 11
-1.800000000001098
 21
-3.749999999999945
 31
0
  0
LINE
  8
1
 62
3
 10
-15.89669669799901
 20
5.473399511402022e-014
 30
0
 11
36.75049725620102
 21
5.473399511402022e-014
 31
0
  0
LINE
  8
1
 62
7
 10
30.1999999999989
 20
16.00000000000005
 30
0
 11
31.1999999999989
 21
15.00000000000005
 31
0
  0
LINE
  8
1
 62
7
 10
-12
 20
0.8000000000000448
 30
0
 11
-12
 21
-0.8000000000000668
 31
0
  0
LINE
  8
1
 62
7
 10
-11.8000000000011
 20
1.000000000000055
 30
0
 11
-2
 21
1.000000000000055
 31
0
  0
LINE
  8
1
 62
7
 10
32.39999999999895
 20
4.599999999999936
 30
0
 11
31.1999999999989
 21
6.000000000000055
 31
0
  0
LINE
  8
1
 62
7
 10
32.39999999999895
 20
-4.599999999999966
 30
0
 11
32.39999999999895
 21
4.599999999999936
 31
0
  0
LINE
  8
1
 62
7
 10
31.1999999999989
 20
-5.999999999999945
 30
0
 11
32.39999999999895
 21
-4.599999999999966
 31
0
  0
LINE
  8
1
 62
7
 10
30.1999999999989
 20
7.774809386945355
 30
0
 11
31.1999999999989
 21
7.197459117755754
 31
0
  0
LINE
  8
1
 62
7
 10
30.1999999999989
 20
13.98400296755775
 30
0
 11
31.1999999999989
 21
12.44144631178304
 31
0
  0
LINE
  8
1
 62
7
 10
31.1999999999989
 20
12.44144631178304
 30
0
 11
27
 21
12.44144631178304
 31
0
  0
LINE
  8
1
 62
7
 10
27
 20
13.98400296755775
 30
0
 11
30.1999999999989
 21
13.98400296755775
 31
0
  0
LINE
  8
1
 62
7
 10
30.1999999999989
 20
7.774809386945355
 30
0
 11
30.1999999999989
 21
-15.99999999999994
 31
0
  0
LINE
  8
1
 62
7
 10
27
 20
7.774809386945355
 30
0
 11
30.1999999999989
 21
7.774809386945355
 31
0
  0
LINE
  8
1
 62
7
 10
30.1999999999989
 20
16.00000000000005
 30
0
 11
30.1999999999989
 21
13.98400296755775
 31
0
  0
LINE
  8
1
 62
7
 10
30.1999999999989
 20
-15.99999999999994
 30
0
 11
31.1999999999989
 21
-14.99999999999994
 31
0
  0
LINE
  8
1
 62
7
 10
30.1999999999989
 20
-15.99999999999994
 30
0
 11
1.5
 21
-15.99999999999994
 31
0
  0
LINE
  8
1
 62
7
 10
31.1999999999989
 20
15.00000000000005
 30
0
 11
31.1999999999989
 21
-14.99999999999994
 31
0
  0
LINE
  8
1
 62
7
 10
30.1999999999989
 20
16.00000000000005
 30
0
 11
1.5
 21
16.00000000000005
 31
0
  0
LINE
  8
1
 62
7
 10
25.89999999999895
 20
10.56370849898465
 30
0
 11
27
 21
10.56370849898465
 31
0
  0
LINE
  8
1
 62
7
 10
24.5
 20
8.063708498984655
 30
0
 11
25.89999999999895
 21
8.063708498984655
 31
0
  0
LINE
  8
1
 62
7
 10
24.5
 20
14.56370849898465
 30
0
 11
24.5
 21
8.063708498984655
 31
0
  0
LINE
  8
1
 62
7
 10
25.89999999999895
 20
14.56370849898465
 30
0
 11
24.5
 21
14.56370849898465
 31
0
  0
LINE
  8
1
 62
7
 10
25.89999999999895
 20
14.56370849898465
 30
0
 11
25.89999999999895
 21
8.063708498984655
 31
0
  0
LINE
  8
1
 62
7
 10
27
 20
12.06370849898465
 30
0
 11
27
 21
16.00000000000005
 31
0
  0
LINE
  8
1
 62
7
 10
27
 20
12.06370849898465
 30
0
 11
25.89999999999895
 21
12.06370849898465
 31
0
  0
LINE
  8
1
 62
7
 10
27
 20
-15.99999999999994
 30
0
 11
27
 21
10.56370849898465
 31
0
  0
LINE
  8
1
 62
7
 10
0
 20
3.750000000000055
 30
0
 11
-1.800000000001098
 21
3.75000000000011
 31
0
  0
LINE
  8
1
 62
7
 10
0
 20
14.50000000000005
 30
0
 11
0
 21
-14.49999999999994
 31
0
  0
LINE
  8
1
 62
3
 10
-108.447355102018
 20
-7.763834088038944
 30
0
 11
-104.174652760124
 21
-5.296988240779566
 31
0
  0
LINE
  8
1
 62
2
 10
-125.3903014490321
 20
-40.99999999999994
 30
0
 11
-56.56760229488439
 21
-40.99999999999994
 31
0
  0
LINE
  8
1
 62
3
 10
-113
 20
9.553440434605019e-014
 30
0
 11
-77.00000000000001
 21
0
 31
0
  0
LINE
  8
1
 62
3
 10
-95
 20
18
 30
0
 11
-95
 21
-18
 31
0
  0
LINE
  8
1
 62
3
 10
-86.104930974092
 20
-5.135570496567899
 30
0
 11
-81.78492409760408
 21
-7.6297276296095
 31
0
  0
LINE
  8
1
 62
2
 10
76.9339854765296
 20
32.64861998126089
 30
0
 11
149.8587056195047
 21
32.64861998126089
 31
0
  0
LINE
  8
1
 62
2
 10
-125.3903014490321
 20
-47.99999999999994
 30
0
 11
-56.56760229488439
 21
-47.99999999999983
 31
0
  0
CIRCLE
  8
1
 62
2
 10
-106.258330249198
 20
-6.499999999999945
 30
0
 40
1.299999999999898
  0
CIRCLE
  8
1
 62
7
 10
-106.258330249198
 20
-6.499999999999945
 30
0
 40
0.7999999999991019
  0
CIRCLE
  8
1
 62
3
  6
CENTER
 10
-95
 20
0
 30
0
 40
12.99999999999999
  0
CIRCLE
  8
1
 62
7
 10
-95
 20
0
 30
0
 40
1
  0
CIRCLE
  8
1
 62
7
 10
-95
 20
13
 30
0
 40
0.7999999999998977
  0
CIRCLE
  8
1
 62
7
 10
-83.74166975080199
 20
-6.5
 30
0
 40
0.7999999999999545
  0
CIRCLE
  8
1
 62
2
 10
-95
 20
13
 30
0
 40
1.299999999999898
  0
CIRCLE
  8
1
 62
2
 10
-83.74166975080199
 20
-6.5
 30
0
 40
1.299999999999045
  0
CIRCLE
  8
1
 62
7
 10
-95
 20
0
 30
0
 40
2.999999999999986
  0
CIRCLE
  8
1
 62
7
 10
-95
 20
0
 30
0
 40
3.749999999999986
  0
CIRCLE
  8
1
 62
7
 10
-95
 20
0
 30
0
 40
15.99999999999999
  0
POLYLINE
  8
1
 62
2
 66
1
  0
VERTEX
  8
1
 10
47.87048588694802
 20
14.74398228888465
 30
0
 42
-0.004186897804127059
  0
VERTEX
  8
1
 10
47.91842470530434
 20
14.61068084811248
 30
0
 42
-0.01290248157263824
  0
VERTEX
  8
1
 10
47.96123258808328
 20
14.47762559113137
 30
0
 42
-0.02254802247763409
  0
VERTEX
  8
1
 10
47.99377859970744
 20
14.3450627017324
 30
0
 42
-0.03328225659861418
  0
VERTEX
  8
1
 10
48.01093180459945
 20
14.21323836370663
 30
0
 42
-0.04414267360471728
  0
VERTEX
  8
1
 10
48.00756126718193
 20
14.08239876084513
 30
0
 42
-0.04746932973044984
  0
VERTEX
  8
1
 10
47.97160286330471
 20
13.92248470576798
 30
0
 42
-0.02328907139356777
  0
VERTEX
  8
1
 10
47.91167637727526
 20
13.76400957252393
 30
0
 42
-0.002187931268825079
  0
VERTEX
  8
1
 10
47.84289494783042
 20
13.60653715452697
 30
0
 42
0.01880544693328304
  0
VERTEX
  8
1
 10
47.78037171370703
 20
13.44963124519105
 30
0
 42
0.0424691054464178
  0
VERTEX
  8
1
 10
47.73921981364197
 20
13.29285563793013
 30
0
 42
0.07659463129752968
  0
VERTEX
  8
1
 10
47.73530027671639
 20
13.08571957712397
 30
0
 42
0.04405793155078849
  0
VERTEX
  8
1
 10
47.78215761504333
 20
12.87815777698252
 30
0
 42
0.03892408209551312
  0
VERTEX
  8
1
 10
47.86709760980966
 20
12.67027667233961
 30
0
 42
0.01089913513621231
  0
VERTEX
  8
1
 10
47.97742604220227
 20
12.46218269802905
 30
0
 42
0.01219559973381915
  0
VERTEX
  8
1
 10
48.100448693408
 20
12.25398228888466
 30
0
  0
SEQEND
  8
1
  0
POLYLINE
  8
1
 62
2
 66
1
  0
VERTEX
  8
1
 10
56.36305391162
 20
14.74398228888465
 30
0
 42
-0.00418689780413261
  0
VERTEX
  8
1
 10
56.41099272997605
 20
14.61068084811248
 30
0
 42
-0.01290248157255718
  0
VERTEX
  8
1
 10
56.45380061275473
 20
14.47762559113137
 30
0
 42
-0.02254802247755022
  0
VERTEX
  8
1
 10
56.4863466243787
 20
14.3450627017324
 30
0
 42
-0.03328225659841301
  0
VERTEX
  8
1
 10
56.50349982927057
 20
14.21323836370663
 30
0
 42
-0.04414267360460861
  0
VERTEX
  8
1
 10
56.500129291853
 20
14.08239876084513
 30
0
 42
-0.04746932973016688
  0
VERTEX
  8
1
 10
56.46417088797588
 20
13.92248470576798
 30
0
 42
-0.0232890713935571
  0
VERTEX
  8
1
 10
56.40424440194661
 20
13.76400957252395
 30
0
 42
-0.002187931268826078
  0
VERTEX
  8
1
 10
56.33546297250203
 20
13.60653715452699
 30
0
 42
0.01880544693318708
  0
VERTEX
  8
1
 10
56.27293973837887
 20
13.44963124519106
 30
0
 42
0.0424691054462939
  0
VERTEX
  8
1
 10
56.23178783831393
 20
13.29285563793013
 30
0
 42
0.07659463129717345
  0
VERTEX
  8
1
 10
56.22786830138831
 20
13.08571957712399
 30
0
 42
0.04405793155058059
  0
VERTEX
  8
1
 10
56.27472563971497
 20
12.87815777698255
 30
0
 42
0.03892408209539972
  0
VERTEX
  8
1
 10
56.35966563448083
 20
12.67027667233963
 30
0
 42
0.01089913513617549
  0
VERTEX
  8
1
 10
56.46999406687285
 20
12.46218269802906
 30
0
 42
0.01219559973380874
  0
VERTEX
  8
1
 10
56.59301671807793
 20
12.25398228888466
 30
0
  0
SEQEND
  8
1
  0
ARC
  8
1
 62
7
 10
33.630297122201
 20
14.94398228888466
 30
0
 40
0.20000000000001
 50
270
 51
3.645191185387317
  0
ARC
  8
1
 62
7
 10
30.17836200630495
 20
17.64398228888475
 30
0
 40
0.5
 50
90
 51
177.279550894049
  0
ARC
  8
1
 62
7
 10
33.20163799369402
 20
17.64398228888475
 30
0
 40
0.4999999999993174
 50
2.720449105951061
 51
90
  0
ARC
  8
1
 62
7
 10
-11.8000000000011
 20
-0.8000000000000668
 30
0
 40
0.1999999999988997
 50
180
 51
270
  0
ARC
  8
1
 62
7
 10
-11.8000000000011
 20
0.8000000000000448
 30
0
 40
0.2000000000000103
 50
90
 51
180
  0
ARC
  8
1
 62
7
 10
1.5
 20
-14.49999999999994
 30
0
 40
1.5
 50
180
 51
270
  0
ARC
  8
1
 62
7
 10
1.5
 20
14.50000000000005
 30
0
 40
1.5
 50
90
 51
180
  0
LINE
  8
1
 62
2
 10
25.20422801210497
 20
24.25800189109145
 30
0
 11
5.022480357715041
 21
24.25800189109145
 31
0
  0
LINE
  8
1
 62
2
 10
5.022480357715041
 20
24.25800189109145
 30
0
 11
9.790239972504875
 21
16.00000000000005
 31
0
  0
SOLID
  8
1
 62
2
 10
7.641189546666693
 20
18.80069704246769
 30
0
 11
8.439290398343182
 21
19.26148078402355
 31
0
 12
9.790239972504875
 22
16.00000000000005
 32
0
 13
9.790239972504875
 23
16.00000000000005
 33
0
  0
LINE
  8
1
 62
2
 10
149.8587056195045
 20
39.64861998126089
 30
0
 11
79.93038431519267
 21
39.64861998126089
 31
0
  0
LINE
  8
1
 62
2
 10
79.93038431519267
 20
39.64861998126089
 30
0
 11
69.23873748996766
 21
14.7439822888846
 31
0
  0
SOLID
  8
1
 62
2
 10
70.19602895526298
 20
18.14191029091098
 30
0
 11
71.04285852039409
 21
17.77836343898017
 31
0
 12
69.23873748996766
 22
14.7439822888846
 32
0
 13
69.23873748996766
 23
14.7439822888846
 33
0
  0
TEXT
  8
1
 62
2
 10
-138
 20
93.5
 30
0
 40
5
  1
DME33S
 41
0.9
 72
1
 73
2
 11
-124.5
 21
96
 31
0
  0
TEXT
  8
1
 62
2
 10
60.66784230225704
 20
-36.19999999999994
 30
0
 40
2
  1
+1.181
 41
0.63
  0
TEXT
  8
1
 62
2
 10
60.66784230225704
 20
-38.59999999999994
 30
0
 40
2
  1
 0
 41
0.63
  0
TEXT
  8
1
 62
2
 10
49.12149852911485
 20
-37.99999999999994
 30
0
 40
3.2
  1
(11.811   )
 41
0.6300000000000001
 72
1
 73
2
 11
60.20949852911485
 21
-36.39999999999994
 31
0
  0
TEXT
  8
1
 62
2
 10
69.14400000000005
 20
-25.22626537754709
 30
0
 40
3.2
  1
(0.118)
 41
0.6300000000000001
 72
1
 73
2
 11
76.20000000000005
 21
-23.62626537754709
 31
0
  0
TEXT
  8
1
 62
2
 10
7.357009599715049
 20
25.27293895829395
 30
0
 40
3.2
  1
NAME PLATE
 41
0.54
 72
1
 73
2
 11
15.99700959971505
 21
26.87293895829395
 31
0
  0
TEXT
  8
1
 62
2
 10
33.13600000000005
 20
33.7983645630168
 30
0
 40
3.2
  1
(0.0472)
 41
0.6300000000000001
 72
1
 73
2
 11
41.20000000000005
 21
35.3983645630168
 31
0
  0
TEXT
  8
1
 62
2
 10
-0.8639999999999599
 20
33.7983645630168
 30
0
 40
3.2
  1
(0.0787)
 41
0.6300000000000001
 72
1
 73
2
 11
7.200000000000042
 21
35.3983645630168
 31
0
  0
TEXT
  8
1
 62
2
 10
9.144000000000037
 20
45.7923889153413
 30
0
 40
3.2
  1
(1.228)
 41
0.6300000000000001
 72
1
 73
2
 11
16.20000000000004
 21
47.3923889153413
 31
0
  0
TEXT
  8
1
 62
2
 10
-13.056
 20
45.7923889153413
 30
0
 40
3.2
  1
(0.472)
 41
0.6300000000000001
 72
1
 73
2
 11
-6
 21
47.3923889153413
 31
0
  0
TEXT
  8
1
 62
2
 10
55.3919186208275
 20
-10.07999999999995
 30
0
 40
3.2
  1
(1.26DIA.)
 50
90
 41
0.6300000000000001
 72
1
 73
2
 11
53.7919186208275
 21
5.473399511402022e-014
 31
0
  0
TEXT
  8
1
 62
2
 10
-33.29050147088515
 20
17.93080602710265
 30
0
 40
2
  1
 %%p0.00787
 50
90
 41
0.63
 72
1
 73
2
 11
-34.29050147088515
 21
24.86080602710265
 31
0
  0
TEXT
  8
1
 62
2
 10
-32.69050147088515
 20
2.094462253960845
 30
0
 40
3.2
  1
(0.295DIA.     )
 50
90
 41
0.6300000000000001
 72
1
 73
2
 11
-34.29050147088515
 21
18.22246225396085
 31
0
  0
TEXT
  8
1
 62
2
 10
-21.8
 20
21.99080602710266
 30
0
 40
2
  1
 0
 50
90
 41
0.63
  0
TEXT
  8
1
 62
2
 10
-19.4
 20
21.99080602710266
 30
0
 40
2
  1
-0.000551
 50
90
 41
0.63
  0
TEXT
  8
1
 62
2
 10
-20
 20
1.278462253960843
 30
0
 40
3.2
  1
(0.0787DIA.      )
 50
90
 41
0.6300000000000001
 72
1
 73
2
 11
-21.6
 21
19.42246225396085
 31
0
  0
TEXT
  8
1
 62
2
 10
-120.9036094600072
 20
-32.98481685313684
 30
0
 40
3.5
  1
(3-M2.6 P0.45 DEPTH 0.118MAX)
 41
0.7020000000000001
 73
2
 11
-120.9036094600072
 21
-31.23481685313684
 31
0
  0
TEXT
  8
1
 62
2
 10
-119.9036094600072
 20
-40.0043320676476
 30
0
 40
3.5
  1
P=120%%d P.C.D=ƒÓ26
 41
0.9
 73
2
 11
-119.9036094600072
 21
-38.2543320676476
 31
0
  0
TEXT
  8
1
 62
2
 10
82.34669839264961
 20
33.8370748214713
 30
0
 40
3.5
  1
UL1007 AWG22
 41
0.9
 73
2
 11
82.34669839264961
 21
35.5870748214713
 31
0
  0
TEXT
  8
1
 62
2
 10
82.34669839264961
 20
40.93369681053311
 30
0
 40
3.5
  1
LEAD WIRES (RED,BLACK)
 41
0.9
 73
2
 11
82.34669839264961
 21
42.68369681053311
 31
0
  0
TEXT
  8
1
 62
2
 10
-120.9036094600072
 20
-47.00433206764754
 30
0
 40
3.5
  1
(P.C.D=1.024DIA.     )
 41
0.9
 73
2
 11
-120.9036094600072
 21
-45.25433206764754
 31
0
  0
TEXT
  8
1
 62
2
 10
-77.73311552688726
 20
-39.5043320676476
 30
0
 40
2.5
  1
%%p0.2
 41
0.7200000000000001
 72
1
 73
2
 11
-72.33311552688726
 21
-38.2543320676476
 31
0
  0
TEXT
  8
1
 62
2
 10
-84.34059513522905
 20
-46.50433206764754
 30
0
 40
2.5
  1
%%p0.00787
 41
0.7200000000000001
 72
1
 73
2
 11
-75.34059513522905
 21
-45.25433206764754
 31
0
  0
DIMENSION
  8
1
  6
CONTINUOUS
 62
2
  2
*D0
  3
DMST_1
 10
31.1999999999989
 20
49.9140390211362
 30
0
 11
15.59999999999945
 21
52.5140390211362
 31
0
 12
0
 22
0
 32
0
 70
0
 13
0
 23
14.50000000000005
 33
0
 14
31.1999999999989
 24
15.00000000000005
 34
0
 53
0
  0
DIMENSION
  8
1
  6
CONTINUOUS
 62
2
  2
*D1
  3
DMST_2
 10
85.52091180435696
 20
-20.9998704243389
 30
0
 11
76.33947275584426
 21
-18.3998704243389
 31
0
 12
0
 22
0
 32
0
 70
0
  1
(<>
 13
88.52091180435696
 23
12.64898228888475
 33
0
 14
85.52091180435696
 24
12.25398228888466
 34
0
 53
0
  0
DIMENSION
  8
1
  6
CONTINUOUS
 62
2
  2
*D2
  3
DMST_3
 10
31.19999999999891
 20
-33.0201457348626
 30
0
 11
59.86045590217793
 21
-29.6201457348626
 31
0
 12
0
 22
0
 32
0
 70
0
  1
300
 13
88.52091180435696
 23
12.64898228888475
 33
0
 14
31.1999999999989
 24
-14.99999999999994
 34
0
 53
0
  0
DIMENSION
  8
1
  6
CONTINUOUS
 62
2
  2
*D3
  3
DMST_4
 10
-25.0600408197618
 20
1.00000000000006
 30
0
 11
-28.4600408197618
 21
20.3028763203299
 31
0
 12
0
 22
0
 32
0
 70
0
  1
ƒÓ<>
 13
-11.8000000000011
 23
-0.9999999999999453
 33
0
 14
-11.8000000000011
 24
1.000000000000055
 34
0
 50
90
 53
0
  0
DIMENSION
  8
1
  6
CONTINUOUS
 62
2
  2
*D4
  3
DMST_5
 10
-37.0843952082369
 20
3.75000000000011
 30
0
 11
-39.6843952082369
 21
19.6426201798314
 31
0
 12
0
 22
0
 32
0
 70
0
  1
ƒÓ<>
 13
-1.800000000001098
 23
-3.749999999999945
 33
0
 14
-1.800000000001098
 24
3.75000000000011
 34
0
 50
90
 53
0
  0
DIMENSION
  8
1
  6
CONTINUOUS
 62
2
  2
*D5
  3
DMST_2
 10
32.39999999999895
 20
37.970934668364
 30
0
 11
40.93840794707515
 21
40.570934668364
 31
0
 12
0
 22
0
 32
0
 70
0
  1
(<>
 13
31.1999999999989
 23
15.00000000000005
 33
0
 14
32.39999999999895
 24
4.599999999999936
 34
0
 53
0
  0
DIMENSION
  8
1
  6
CONTINUOUS
 62
2
  2
*D6
  3
DMST_1
 10
51.199999999999
 20
16.00000000000004
 30
0
 11
48.599999999999
 21
5.473399511402022e-014
 31
0
 12
0
 22
0
 32
0
 70
0
  1
ƒÓ<>
 13
30.1999999999989
 23
-15.99999999999994
 33
0
 14
30.1999999999989
 24
16.00000000000005
 34
0
 50
90
 53
0
  0
DIMENSION
  8
1
  6
CONTINUOUS
 62
2
  2
*D7
  3
DMST_1
 10
-12
 20
49.9942441159741
 30
0
 11
-6
 21
52.5942441159741
 31
0
 12
0
 22
0
 32
0
 70
0
 13
0
 23
14.50000000000005
 33
0
 14
-12
 24
0.8000000000000448
 34
0
 53
0
  0
DIMENSION
  8
1
  6
CONTINUOUS
 62
2
  2
*D8
  3
DMST_1
 10
-6.217248937900877e-015
 20
38.0090541363917
 30
0
 11
6.201837257348211
 21
40.6090541363917
 31
0
 12
0
 22
0
 32
0
 70
0
 13
-2
 23
3.000000000000055
 33
0
 14
0
 24
14.50000000000005
 34
0
 53
0
  0
INSERT
  8
0
  2
___R___O_______R
 10
0.5
 20
-3.75
 30
0
  0
INSERT
  8
1
  2
*D9
 10
0
 20
0
 30
0
  0
ENDSEC
  0
EOF
