  0
SECTION
  2
HEADER
  9
$ACADVER
  1
AC1009
  9
$INSBASE
 10
0
 20
0
  9
$EXTMIN
 10
-194.5
 20
-146
  9
$EXTMAX
 10
194.5
 20
146
  9
$LIMMIN
 10
-194.5
 20
-146
  9
$LIMMAX
 10
194.5
 20
146
  9
$VIEWCTR
 10
10
 20
10
  9
$VIEWSIZE
 40
10
  9
$SNAPMODE
 70
0
  9
$SNAPUNIT
 10
1
 20
1
  9
$SNAPBASE
 10
0
 20
0
  9
$SNAPANG
 50
0
  9
$SNAPSTYLE
 70
0
  9
$SNAPISOPAIR
 70
0
  9
$GRIDMODE
 70
0
  9
$GRIDUNIT
 10
0
 20
0
  9
$ORTHOMODE
 70
0
  9
$REGENMODE
 70
1
  9
$FILLMODE
 70
1
  9
$QTEXTMODE
 70
0
  9
$DRAGMODE
 70
2
  9
$LTSCALE
 40
1
  9
$OSMODE
 70
0
  9
$ATTMODE
 70
1
  9
$TEXTSIZE
 40
3.5
  9
$TRACEWID
 40
0.5
  9
$TEXTSTYLE
  7
STANDARD
  9
$CLAYER
  8
0
  9
$CELTYPE
  6
BYLAYER
  9
$CECOLOR
 62
256
  9
$DIMSCALE
 40
1
  9
$DIMASZ
 40
0.18
  9
$DIMEXO
 40
0.0625
  9
$DIMDLI
 40
0.38
  9
$DIMRND
 40
0
  9
$DIMDLE
 40
0
  9
$DIMEXE
 40
0.18
  9
$DIMTP
 40
0
  9
$DIMTM
 40
0
  9
$DIMTXT
 40
0.18
  9
$DIMCEN
 40
0.09
  9
$DIMTSZ
 40
0
  9
$DIMTOL
 70
0
  9
$DIMLIM
 70
0
  9
$DIMTIH
 70
1
  9
$DIMTOH
 70
1
  9
$DIMSE1
 70
0
  9
$DIMSE2
 70
0
  9
$DIMTAD
 70
0
  9
$DIMZIN
 70
0
  9
$DIMBLK
  1

  9
$DIMASO
 70
1
  9
$DIMSHO
 70
1
  9
$DIMPOST
  1

  9
$DIMAPOST
  1

  9
$DIMALT
 70
0
  9
$DIMALTD
 70
2
  9
$DIMALTF
 40
25.4
  9
$DIMLFAC
 40
1
  9
$DIMTOFL
 70
0
  9
$DIMTVP
 40
0
  9
$DIMTIX
 70
0
  9
$DIMSOXD
 70
0
  9
$DIMSAH
 70
0
  9
$DIMBLK1
  1

  9
$DIMBLK2
  1

  9
$DIMSTYLE
  2
*UNNAMED
  9
$DIMCLRD
 70
0
  9
$DIMCLRE
 70
0
  9
$DIMCLRT
 70
0
  9
$DIMTFAC
 40
1
  9
$DIMGAP
 40
0.09
  9
$LUNITS
 70
2
  9
$LUPREC
 70
4
  9
$AXISMODE
 70
0
  9
$AXISUNIT
 10
0
 20
0
  9
$SKETCHINC
 40
0.1
  9
$FILLETRAD
 40
2
  9
$AUNITS
 70
0
  9
$AUPREC
 70
0
  9
$MENU
  1
ACAD
  9
$ELEVATION
 40
0
  9
$THICKNESS
 40
0
  9
$VIEWDIR
 10
0
 20
0
 30
1
  9
$LIMCHECK
 70
0
  9
$BLIPMODE
 70
1
  9
$CHAMFERA
 40
0
  9
$CHAMFERB
 40
0
  9
$FASTZOOM
 70
1
  9
$SKPOLY
 70
0
  9
$ANGBASE
 50
0
  9
$ANGDIR
 70
0
  9
$PDMODE
 70
0
  9
$PDSIZE
 40
0
  9
$PLINEWID
 40
0
  9
$COORDS
 70
2
  0
ENDSEC
  0
SECTION
  2
TABLES
  0
TABLE
  2
DIMSTYLE
 70
5
  0
DIMSTYLE
  2
DMST_1
 70
0
  3
)
  4

  5

  6

  7

 40
1
 41
3.2
 42
1
 43
7
 44
1
 45
0
 46
0
 47
0
 48
0
140
3.2
141
0
142
0
143
25.4
144
1
145
0
146
1
147
0.09
 71
0
 72
0
 73
0
 74
0
 75
0
 76
0
 77
1
 78
9
170
0
171
2
172
0
173
0
174
0
175
0
176
2
177
2
178
2
  0
DIMSTYLE
  2
DMST_2
 70
0
  3

  4

  5

  6

  7

 40
1
 41
3.2
 42
1
 43
7
 44
1
 45
0
 46
0
 47
0
 48
0
140
3.2
141
0
142
0
143
25.4
144
1
145
0
146
1
147
0.09
 71
0
 72
0
 73
0
 74
0
 75
0
 76
0
 77
1
 78
9
170
0
171
2
172
0
173
0
174
0
175
0
176
2
177
2
178
2
  0
DIMSTYLE
  2
DMST_3
 70
0
  3

  4

  5

  6

  7

 40
1
 41
3.2
 42
1
 43
7
 44
1
 45
0
 46
0
 47
0
 48
0
140
3.2
141
0
142
0
143
25.4
144
1
145
0
146
0.6
147
0.09
 71
1
 72
0
 73
0
 74
0
 75
0
 76
0
 77
1
 78
9
170
0
171
2
172
0
173
0
174
0
175
0
176
2
177
2
178
2
  0
DIMSTYLE
  2
DMST_4
 70
0
  3

  4

  5

  6

  7

 40
1
 41
3.2
 42
1
 43
7
 44
1
 45
0
 46
0
 47
0
 48
0.014
140
3.2
141
0
142
0
143
25.4
144
1
145
0
146
0.6
147
0.09
 71
1
 72
0
 73
0
 74
0
 75
0
 76
0
 77
1
 78
9
170
0
171
2
172
0
173
0
174
0
175
0
176
2
177
2
178
2
  0
DIMSTYLE
  2
DMST_5
 70
0
  3

  4

  5

  6

  7

 40
1
 41
3.2
 42
1
 43
7
 44
1
 45
0
 46
0
 47
0.2
 48
0.2
140
3.2
141
0
142
0
143
25.4
144
1
145
0
146
0.6
147
0.09
 71
1
 72
0
 73
0
 74
0
 75
0
 76
0
 77
1
 78
9
170
0
171
2
172
0
173
0
174
0
175
0
176
2
177
2
178
2
  0
ENDTAB
  0
TABLE
  2
LTYPE
 70
9
  0
LTYPE
  2
CONTINUOUS
 70
64
  3
Solid line
 72
65
 73
0
 40
0
  0
LTYPE
  2
BORDER
 70
64
  3
__ __ . __ __ .
 72
65
 73
6
 40
17.91447368421053
 49
5.118421052631579
 49
-2.559210526315789
 49
5.118421052631579
 49
-2.559210526315789
 49
0
 49
-2.559210526315789
  0
LTYPE
  2
CENTER
 70
64
  3
____ _ ____ _
 72
65
 73
4
 40
20.47368421052632
 49
12.79605263157895
 49
-2.559210526315789
 49
2.559210526315789
 49
-2.559210526315789
  0
LTYPE
  2
DASHDOT
 70
64
  3
__ . __ . __ .
 72
65
 73
4
 40
10.23684210526316
 49
5.118421052631579
 49
-2.559210526315789
 49
0
 49
-2.559210526315789
  0
LTYPE
  2
DASHED
 70
64
  3
__ __ __ __ __
 72
65
 73
2
 40
7.677631578947368
 49
5.118421052631579
 49
-2.559210526315789
  0
LTYPE
  2
DIVIDE
 70
64
  3
__ . . __ . . 
 72
65
 73
6
 40
12.79605263157895
 49
5.118421052631579
 49
-2.559210526315789
 49
0
 49
-2.559210526315789
 49
0
 49
-2.559210526315789
  0
LTYPE
  2
DOT
 70
64
  3
..............
 72
65
 73
4
 40
5.118421052631579
 49
0
 49
-2.559210526315789
 49
0
 49
-2.559210526315789
  0
LTYPE
  2
HIDDEN
 70
64
  3
_ _ _ _ _ _ _
 72
65
 73
2
 40
3.838815789473684
 49
2.559210526315789
 49
-1.279605263157895
  0
LTYPE
  2
PHANTOM
 70
64
  3
_____ _ _ _____ _ _ 
 72
65
 73
6
 40
25.59210526315789
 49
12.79605263157895
 49
-2.559210526315789
 49
2.559210526315789
 49
-2.559210526315789
 49
2.559210526315789
 49
-2.559210526315789
  0
ENDTAB
  0
TABLE
  2
LAYER
 70
3
  0
LAYER
  2
1
 70
0
 62
7
  6
CONTINUOUS
  0
LAYER
  2
0
 70
0
 62
7
  6
CONTINUOUS
  0
ENDTAB
  0
TABLE
  2
STYLE
 70
4
  0
STYLE
  2
STANDARD
 70
0
 40
0
 41
1
 50
0
 71
0
 42
3.5
  3
txt
  4

  0
STYLE
  2
SIMPLEX
 70
0
 40
0
 41
1
 50
0
 71
0
 42
3.5
  3
simplex
  4

  0
STYLE
  2
COMPLEX
 70
0
 40
0
 41
1
 50
0
 71
0
 42
3.5
  3
complex
  4

  0
STYLE
  2
ITALIC
 70
0
 40
0
 41
1
 50
0
 71
0
 42
3.5
  3
italic
  4

  0
ENDTAB
  0
TABLE
  2
VIEW
 70
0
  0
ENDTAB
  0
ENDSEC
  0
SECTION
  2
BLOCKS
  0
BLOCK
  8
0
  2
___R___O_______R
 70
0
 10
0.5
 20
-3.75
 30
0
  0
LINE
  8
1
 62
4
  6
PHANTOM
 10
194.5
 20
-136.5
 30
0
 11
194.5
 21
-146
 31
0
  0
LINE
  8
1
 62
4
  6
PHANTOM
 10
-194.5
 20
-146
 30
0
 11
-194.5
 21
146
 31
0
  0
LINE
  8
1
 62
4
  6
PHANTOM
 10
194.5
 20
146
 30
0
 11
194.5
 21
129
 31
0
  0
LINE
  8
1
 62
4
  6
PHANTOM
 10
194.5
 20
146
 30
0
 11
-194.5
 21
146
 31
0
  0
LINE
  8
1
 62
4
  6
PHANTOM
 10
-194.5
 20
-146
 30
0
 11
194.5
 21
-146
 31
0
  0
TEXT
  8
1
 62
4
 10
178.746911898274
 20
-142.6071298819256
 30
0
 40
5
  1
A3
 41
0.9
 72
1
 73
2
 11
183.246911898274
 21
-140.1071298819256
 31
0
  0
ENDBLK
  8
0
  0
BLOCK
  8
1
  2
*D0
 70
1
 10
0
 20
0
 30
0
  0
LINE
  8
1
 62
2
 10
107.2552071287616
 20
-35.64733266756707
 30
0
 11
107.2552071287616
 21
-4.247332667566978
 31
0
  0
LINE
  8
1
 62
2
 10
90.89999999999998
 20
-35.64733266756707
 30
0
 11
108.2552071287616
 21
-35.64733266756707
 31
0
  0
LINE
  8
1
 62
2
 10
90.89999999999998
 20
-4.247332667566978
 30
0
 11
108.2552071287616
 21
-4.247332667566978
 31
0
  0
SOLID
  8
1
 62
2
 10
107.2552071287616
 20
-4.247332667566978
 30
0
 11
107.6712071287616
 21
-7.447332667566979
 31
0
 12
106.8392071287616
 22
-7.447332667566979
 32
0
 13
106.8392071287616
 23
-7.447332667566979
 33
0
  0
SOLID
  8
1
 62
2
 10
107.2552071287616
 20
-35.64733266756707
 30
0
 11
106.8392071287616
 21
-32.44733266756707
 31
0
 12
107.6712071287616
 22
-32.44733266756707
 32
0
 13
107.6712071287616
 23
-32.44733266756707
 33
0
  0
TEXT
  8
1
 62
2
 10
106.2552071287616
 20
-25.42733266756703
 30
0
 40
3.2
  1
âË31.4
 50
90
 41
0.9
  0
TEXT
  8
1
 62
2
 10
106.2552071287616
 20
-27.50733266756703
 30
0
 40
3.2
  1
(
 50
90
 41
0.9
  0
TEXT
  8
1
 62
2
 10
106.2552071287616
 20
-12.86733266756703
 30
0
 40
3.2
  1
)
 50
90
 41
0.9
  0
ENDBLK
  8
0
  0
BLOCK
  8
1
  2
*D1
 70
1
 10
0
 20
0
 30
0
  0
LINE
  8
1
 62
2
 10
31.99999999999999
 20
30.0157558858873
 30
0
 11
90.29999999999994
 21
30.0157558858873
 31
0
  0
LINE
  8
1
 62
2
 10
31.99999999999999
 20
-4.49999999999995
 30
0
 11
31.99999999999999
 21
31.0157558858873
 31
0
  0
LINE
  8
1
 62
2
 10
90.29999999999994
 20
-3.647332667566957
 30
0
 11
90.29999999999994
 21
31.0157558858873
 31
0
  0
SOLID
  8
1
 62
2
 10
31.99999999999999
 20
30.0157558858873
 30
0
 11
35.2
 21
30.4317558858873
 31
0
 12
35.2
 22
29.5997558858873
 32
0
 13
35.2
 23
29.5997558858873
 33
0
  0
SOLID
  8
1
 62
2
 10
90.29999999999994
 20
30.0157558858873
 30
0
 11
87.09999999999994
 21
29.5997558858873
 31
0
 12
87.09999999999994
 22
30.4317558858873
 32
0
 13
87.09999999999994
 23
30.4317558858873
 33
0
  0
TEXT
  8
1
 62
2
 10
56.78999999999996
 20
31.0157558858873
 30
0
 40
3.2
  1
58.3
 41
0.9
  0
ENDBLK
  8
0
  0
BLOCK
  8
1
  2
*D2
 70
1
 10
0
 20
0
 30
0
  0
LINE
  8
1
 62
2
 10
107.2552071287616
 20
69.17193367115337
 30
0
 11
107.2552071287616
 21
62.77193367115336
 31
0
  0
LINE
  8
1
 62
2
 10
107.2552071287616
 20
59.77193367115336
 30
0
 11
107.2552071287616
 21
62.77193367115336
 31
0
  0
LINE
  8
1
 62
2
 10
107.2552071287616
 20
59.77193367115336
 30
0
 11
107.2552071287616
 21
48.385447741015
 31
0
  0
LINE
  8
1
 62
2
 10
80.825034847604
 20
59.77193367115336
 30
0
 11
108.2552071287616
 21
59.77193367115336
 31
0
  0
LINE
  8
1
 62
2
 10
80.33999999999969
 20
62.77193367115336
 30
0
 11
108.2552071287616
 21
62.77193367115336
 31
0
  0
SOLID
  8
1
 62
2
 10
107.2552071287616
 20
62.77193367115336
 30
0
 11
106.8392071287616
 21
65.97193367115337
 31
0
 12
107.6712071287616
 22
65.97193367115337
 32
0
 13
107.6712071287616
 23
65.97193367115337
 33
0
  0
SOLID
  8
1
 62
2
 10
107.2552071287616
 20
59.77193367115336
 30
0
 11
107.6712071287616
 21
56.57193367115336
 31
0
 12
106.8392071287616
 22
56.57193367115336
 32
0
 13
106.8392071287616
 23
56.57193367115336
 33
0
  0
TEXT
  8
1
 62
2
 10
106.2552071287616
 20
50.465447741015
 30
0
 40
3.2
  1
3
 50
90
 41
0.9
  0
TEXT
  8
1
 62
2
 10
106.2552071287616
 20
48.385447741015
 30
0
 40
3.2
  1
(
 50
90
 41
0.9
  0
TEXT
  8
1
 62
2
 10
106.2552071287616
 20
53.985447741015
 30
0
 40
3.2
  1
)
 50
90
 41
0.9
  0
ENDBLK
  8
0
  0
BLOCK
  8
1
  2
*D3
 70
1
 10
0
 20
0
 30
0
  0
LINE
  8
1
 62
2
 10
119.269946481069
 20
-35.99999999999994
 30
0
 11
119.269946481069
 21
-3.99999999999994
 31
0
  0
LINE
  8
1
 62
2
 10
75.70000000000007
 20
-35.99999999999994
 30
0
 11
120.269946481069
 21
-35.99999999999994
 31
0
  0
LINE
  8
1
 62
2
 10
75.70000000000007
 20
-3.99999999999994
 30
0
 11
120.269946481069
 21
-3.99999999999994
 31
0
  0
SOLID
  8
1
 62
2
 10
119.269946481069
 20
-3.99999999999994
 30
0
 11
119.685946481069
 21
-7.199999999999941
 31
0
 12
118.853946481069
 22
-7.199999999999941
 32
0
 13
118.853946481069
 23
-7.199999999999941
 33
0
  0
SOLID
  8
1
 62
2
 10
119.269946481069
 20
-35.99999999999994
 30
0
 11
118.853946481069
 21
-32.79999999999994
 31
0
 12
119.685946481069
 22
-32.79999999999994
 32
0
 13
119.685946481069
 23
-32.79999999999994
 33
0
  0
TEXT
  8
1
 62
2
 10
118.269946481069
 20
-20.57777777777772
 30
0
 40
3.2
  1
32
 50
90
 41
0.9
  0
TEXT
  8
1
 62
2
 10
118.269946481069
 20
-24.22222222222216
 30
0
 40
3.2
  1
âË
 50
90
 41
0.9
  0
ENDBLK
  8
0
  0
BLOCK
  8
1
  2
*D4
 70
1
 10
0
 20
0
 30
0
  0
LINE
  8
1
 62
2
 10
119.371415123377
 20
-3.999999999999943
 30
0
 11
119.371415123377
 21
62.77193367115336
 31
0
  0
LINE
  8
1
 62
2
 10
75.70000000000005
 20
-3.999999999999943
 30
0
 11
120.371415123377
 21
-3.999999999999943
 31
0
  0
LINE
  8
1
 62
2
 10
80.33999999999969
 20
62.77193367115336
 30
0
 11
120.371415123377
 21
62.77193367115336
 31
0
  0
SOLID
  8
1
 62
2
 10
119.371415123377
 20
-3.999999999999943
 30
0
 11
118.955415123377
 21
-0.7999999999999425
 31
0
 12
119.787415123377
 22
-0.7999999999999425
 32
0
 13
119.787415123377
 23
-0.7999999999999425
 33
0
  0
SOLID
  8
1
 62
2
 10
119.371415123377
 20
62.77193367115336
 30
0
 11
119.787415123377
 21
59.57193367115336
 31
0
 12
118.955415123377
 22
59.57193367115336
 32
0
 13
118.955415123377
 23
59.57193367115336
 33
0
  0
TEXT
  8
1
 62
2
 10
117.571415123377
 20
22.53796683557671
 30
0
 40
3.2
  1
300
 50
90
 41
0.9
  0
TEXT
  8
1
 62
2
 10
115.491415123377
 20
31.81796683557671
 30
0
 40
1.92
  1
+30
 50
90
 41
0.9
  0
TEXT
  8
1
 62
2
 10
118.371415123377
 20
33.54596683557671
 30
0
 40
1.92
  1
 0
 50
90
 41
0.9
  0
ENDBLK
  8
0
  0
BLOCK
  8
1
  2
*D5
 70
1
 10
0
 20
0
 30
0
  0
LINE
  8
1
 62
2
 10
6.939959180238195
 20
-18.99999999999994
 30
0
 11
6.939959180238195
 21
7.845098542552119
 31
0
  0
LINE
  8
1
 62
2
 10
6.939959180238195
 20
-20.99999999999995
 30
0
 11
6.939959180238195
 21
-18.99999999999994
 31
0
  0
LINE
  8
1
 62
2
 10
6.939959180238195
 20
-27.39999999999995
 30
0
 11
6.939959180238195
 21
-20.99999999999995
 31
0
  0
LINE
  8
1
 62
2
 10
19.1999999999989
 20
-18.99999999999994
 30
0
 11
5.939959180238195
 21
-18.99999999999994
 31
0
  0
LINE
  8
1
 62
2
 10
19.1999999999989
 20
-20.99999999999995
 30
0
 11
5.939959180238195
 21
-20.99999999999995
 31
0
  0
SOLID
  8
1
 62
2
 10
6.939959180238195
 20
-18.99999999999994
 30
0
 11
6.523959180238194
 21
-15.79999999999994
 31
0
 12
7.355959180238194
 22
-15.79999999999994
 32
0
 13
7.355959180238194
 23
-15.79999999999994
 33
0
  0
SOLID
  8
1
 62
2
 10
6.939959180238195
 20
-20.99999999999995
 30
0
 11
7.355959180238195
 21
-24.19999999999995
 31
0
 12
6.523959180238195
 22
-24.19999999999995
 32
0
 13
6.523959180238195
 23
-24.19999999999995
 33
0
  0
TEXT
  8
1
 62
2
 10
5.139959180238196
 20
-3.594901457447876
 30
0
 40
3.2
  1
2
 50
90
 41
0.9
  0
TEXT
  8
1
 62
2
 10
3.059959180238196
 20
-0.07490145744787652
 30
0
 40
1.92
  1
 0
 50
90
 41
0.9
  0
TEXT
  8
1
 62
2
 10
5.939959180238196
 20
-0.07490145744787652
 30
0
 40
1.92
  1
-0.014
 50
90
 41
0.9
  0
TEXT
  8
1
 62
2
 10
5.139959180238196
 20
-7.239345901892321
 30
0
 40
3.2
  1
âË
 50
90
 41
0.9
  0
ENDBLK
  8
0
  0
BLOCK
  8
1
  2
*D6
 70
1
 10
0
 20
0
 30
0
  0
LINE
  8
1
 62
2
 10
-5.084395208236902
 20
-16.24999999999989
 30
0
 11
-5.084395208236902
 21
7.608842402053625
 31
0
  0
LINE
  8
1
 62
2
 10
-5.084395208236902
 20
-23.74999999999995
 30
0
 11
-5.084395208236902
 21
-16.24999999999989
 31
0
  0
LINE
  8
1
 62
2
 10
-5.084395208236902
 20
-30.14999999999995
 30
0
 11
-5.084395208236902
 21
-23.74999999999995
 31
0
  0
LINE
  8
1
 62
2
 10
29.1999999999989
 20
-16.24999999999989
 30
0
 11
-6.084395208236902
 21
-16.24999999999989
 31
0
  0
LINE
  8
1
 62
2
 10
29.1999999999989
 20
-23.74999999999995
 30
0
 11
-6.084395208236902
 21
-23.74999999999995
 31
0
  0
SOLID
  8
1
 62
2
 10
-5.084395208236902
 20
-16.24999999999989
 30
0
 11
-5.500395208236903
 21
-13.04999999999989
 31
0
 12
-4.668395208236904
 22
-13.04999999999989
 32
0
 13
-4.668395208236904
 23
-13.04999999999989
 33
0
  0
SOLID
  8
1
 62
2
 10
-5.084395208236902
 20
-23.74999999999995
 30
0
 11
-4.668395208236903
 21
-26.94999999999995
 31
0
 12
-5.500395208236903
 22
-26.94999999999995
 32
0
 13
-5.500395208236903
 23
-26.94999999999995
 33
0
  0
TEXT
  8
1
 62
2
 10
-6.084395208236904
 20
-4.679157597946377
 30
0
 40
3.2
  1
7.5
 50
90
 41
0.9
  0
TEXT
  8
1
 62
2
 10
-6.724395208236904
 20
2.760842402053624
 30
0
 40
1.92
  1
%%p0.2
 50
90
 41
0.9
  0
TEXT
  8
1
 62
2
 10
-6.084395208236904
 20
-8.323602042390821
 30
0
 40
3.2
  1
âË
 50
90
 41
0.9
  0
ENDBLK
  8
0
  0
BLOCK
  8
1
  2
*D7
 70
1
 10
0
 20
0
 30
0
  0
LINE
  8
1
 62
2
 10
20
 20
29.9942441159741
 30
0
 11
32
 21
29.9942441159741
 31
0
  0
LINE
  8
1
 62
2
 10
20
 20
-18.19999999999995
 30
0
 11
20
 21
30.9942441159741
 31
0
  0
LINE
  8
1
 62
2
 10
32
 20
-4.49999999999995
 30
0
 11
32
 21
30.9942441159741
 31
0
  0
SOLID
  8
1
 62
2
 10
20
 20
29.9942441159741
 30
0
 11
23.2
 21
30.4102441159741
 31
0
 12
23.2
 22
29.5782441159741
 32
0
 13
23.2
 23
29.5782441159741
 33
0
  0
SOLID
  8
1
 62
2
 10
32
 20
29.9942441159741
 30
0
 11
28.8
 21
29.5782441159741
 31
0
 12
28.8
 22
30.4102441159741
 32
0
 13
28.8
 23
30.4102441159741
 33
0
  0
TEXT
  8
1
 62
2
 10
24.08
 20
30.9942441159741
 30
0
 40
3.2
  1
12
 41
0.9
  0
ENDBLK
  8
0
  0
BLOCK
  8
1
  2
*D8
 70
1
 10
0
 20
0
 30
0
  0
LINE
  8
1
 62
2
 10
31.99999999999999
 20
18.0519103424867
 30
0
 11
40.07913686520879
 21
18.0519103424867
 31
0
  0
LINE
  8
1
 62
2
 10
29.99999999999999
 20
18.0519103424867
 30
0
 11
31.99999999999999
 21
18.0519103424867
 31
0
  0
LINE
  8
1
 62
2
 10
23.6
 20
18.0519103424867
 30
0
 11
29.99999999999999
 21
18.0519103424867
 31
0
  0
LINE
  8
1
 62
2
 10
31.99999999999999
 20
-4.49999999999994
 30
0
 11
31.99999999999999
 21
19.0519103424867
 31
0
  0
LINE
  8
1
 62
2
 10
29.99999999999999
 20
-15.99999999999994
 30
0
 11
29.99999999999999
 21
19.0519103424867
 31
0
  0
SOLID
  8
1
 62
2
 10
29.99999999999999
 20
18.0519103424867
 30
0
 11
26.79999999999999
 21
17.6359103424867
 31
0
 12
26.79999999999999
 22
18.4679103424867
 32
0
 13
26.79999999999999
 23
18.4679103424867
 33
0
  0
SOLID
  8
1
 62
2
 10
31.99999999999999
 20
18.0519103424867
 30
0
 11
35.2
 21
18.4679103424867
 31
0
 12
35.2
 22
17.6359103424867
 32
0
 13
35.2
 23
17.6359103424867
 33
0
  0
TEXT
  8
1
 62
2
 10
38.15913686520879
 20
19.0519103424867
 30
0
 40
3.2
  1
2
 41
0.9
  0
ENDBLK
  8
0
  0
BLOCK
  8
1
  2
*D9
 70
1
 10
0
 20
0
 30
0
  0
LINE
  8
1
 62
2
 10
-93.85470016526196
 20
-47.06363008393602
 30
0
 11
-37.93470016526196
 21
-47.06363008393602
 31
0
  0
LINE
  8
1
 62
2
 10
-81.93738089578312
 20
-27.60855320998675
 30
0
 11
-93.85470016526196
 21
-47.06363008393602
 31
0
  0
SOLID
  8
1
 62
2
 10
-81.93738089578312
 20
-27.60855320998675
 30
0
 11
-83.2541531524893
 21
-30.55459577993867
 31
0
 12
-83.9636272068809
 22
-30.12000336612416
 32
0
 13
-83.9636272068809
 23
-30.12000336612416
 33
0
  0
TEXT
  8
1
 62
2
 10
-79.37470016526196
 20
-46.06363008393602
 30
0
 40
3.2
  1
2.6
 41
0.9
  0
TEXT
  8
1
 62
2
 10
-88.65470016526196
 20
-46.06363008393602
 30
0
 40
3.2
  1
3-M
 41
0.9
  0
TEXT
  8
1
 62
2
 10
-71.93470016526196
 20
-46.06363008393602
 30
0
 40
3.2
  1
 DEPTH 3MAX.
 41
0.9
  0
ENDBLK
  8
0
  0
ENDSEC
  0
SECTION
  2
ENTITIES
  0
LINE
  8
1
 62
7
 10
43.24999999999999
 20
-33.09999999999994
 30
0
 11
60.25
 21
-33.09999999999994
 31
0
  0
LINE
  8
1
 62
7
 10
60.25
 20
-33.09999999999994
 30
0
 11
60.25
 21
-6.899999999999938
 31
0
  0
LINE
  8
1
 62
7
 10
60.25
 20
-6.899999999999938
 30
0
 11
43.13618041308544
 21
-6.899999999999938
 31
0
  0
LINE
  8
1
 62
7
 10
43.13618041308544
 20
-6.899999999999938
 30
0
 11
43.24999999999999
 21
-33.09999999999994
 31
0
  0
LINE
  8
1
 62
7
 10
89.89999999999996
 20
-35.64733266756707
 30
0
 11
90.29999999999994
 21
-35.24733266756709
 31
0
  0
LINE
  8
1
 62
7
 10
89.89999999999996
 20
-4.24733266756698
 30
0
 11
90.29999999999994
 21
-4.647332667566957
 31
0
  0
LINE
  8
1
 62
7
 10
83.90000000000008
 20
-23.64531670453118
 30
0
 11
83.90000000000008
 21
-24.20946326689705
 31
0
  0
LINE
  8
1
 62
7
 10
78.20000000000003
 20
-5.499999999999943
 30
0
 11
78.29999999999994
 21
-5.499999999999943
 31
0
  0
LINE
  8
1
 62
7
 10
78.20000000000003
 20
-34.49999999999994
 30
0
 11
78.20000000000003
 21
-28.17985962709827
 31
0
  0
LINE
  8
1
 62
7
 10
78.20000000000005
 20
-3.799999999999955
 30
0
 11
78.20000000000003
 21
-23.64531670453118
 31
0
  0
LINE
  8
1
 62
2
 10
77.90000000000008
 20
-24.20946326689705
 30
0
 11
77.90000000000008
 21
-26.83775584930333
 31
0
  0
LINE
  8
1
 62
7
 10
78.29999999999994
 20
-5.946886465981947
 30
0
 11
79.29999999999994
 21
-5.946886465981947
 31
0
  0
LINE
  8
1
 62
7
 10
78.29999999999994
 20
-5.24733266756698
 30
0
 11
79.29999999999994
 21
-4.24733266756698
 31
0
  0
LINE
  8
1
 62
7
 10
90.29999999999994
 20
-23.64531670453118
 30
0
 11
78.20000000000003
 21
-23.64531670453118
 31
0
  0
LINE
  8
1
 62
7
 10
78.29999999999994
 20
-23.64531670453118
 30
0
 11
78.29999999999994
 21
-5.24733266756698
 31
0
  0
LINE
  8
1
 62
7
 10
79.82503484760399
 20
22.98682088759904
 30
0
 11
79.82503484760399
 21
0.3591963261373508
 31
0
  0
LINE
  8
1
 62
7
 10
78.85999999999966
 20
62.77193367115336
 30
0
 11
78.85999999999966
 21
59.77193367115336
 31
0
  0
LINE
  8
1
 62
7
 10
75.97855428562319
 20
62.77193367115336
 30
0
 11
75.97855428562319
 21
59.77193367115336
 31
0
  0
LINE
  8
1
 62
7
 10
76.45000000000162
 20
62.77193367115336
 30
0
 11
76.45000000000162
 21
59.77193367115336
 31
0
  0
LINE
  8
1
 62
7
 10
76.93000000000073
 20
62.77193367115336
 30
0
 11
76.93000000000073
 21
59.77193367115336
 31
0
  0
LINE
  8
1
 62
7
 10
77.90000000000008
 20
62.77193367115336
 30
0
 11
77.90000000000008
 21
59.77193367115336
 31
0
  0
LINE
  8
1
 62
7
 10
78.37999999999987
 20
62.77193367115336
 30
0
 11
78.37999999999987
 21
59.77193367115336
 31
0
  0
LINE
  8
1
 62
7
 10
75.32855428562219
 20
59.77193367115336
 30
0
 11
75.32855428562219
 21
31.68572492901666
 31
0
  0
LINE
  8
1
 62
7
 10
75.74
 20
59.77193367115336
 30
0
 11
75.74
 21
31.89133365736444
 31
0
  0
LINE
  8
1
 62
7
 10
77.42000000000029
 20
62.77193367115336
 30
0
 11
77.42000000000029
 21
59.77193367115336
 31
0
  0
LINE
  8
1
 62
7
 10
78.87999999999987
 20
59.77193367115336
 30
0
 11
78.87999999999987
 21
31.70252368665717
 31
0
  0
LINE
  8
1
 62
7
 10
75.32855428562219
 20
4.407834971999137
 30
0
 11
75.32855428562219
 21
23.21979710193972
 31
0
  0
LINE
  8
1
 62
7
 10
78.87999999999987
 20
4.407834971999137
 30
0
 11
78.87999999999987
 21
23.23659585965004
 31
0
  0
LINE
  8
1
 62
7
 10
75.74
 20
4.407834971999137
 30
0
 11
75.74
 21
23.42540583027954
 31
0
  0
LINE
  8
1
 62
7
 10
77.30999999999993
 20
4.407834971999137
 30
0
 11
77.30999999999993
 21
22.85501317770684
 31
0
  0
LINE
  8
1
 62
7
 10
79.82503484760399
 20
4.407834971999137
 30
0
 11
74.32855428562219
 21
4.407834971999137
 31
0
  0
LINE
  8
1
 62
7
 10
73.56954816873643
 20
-2.518909389911641
 30
0
 11
73.07769244558516
 21
-3.999999999999943
 31
0
  0
LINE
  8
1
 62
7
 10
74.32748253900967
 20
-1.058761573297375
 30
0
 11
74.14054981658431
 21
-1.342246969217626
 31
0
  0
LINE
  8
1
 62
7
 10
75.32855428562219
 20
1.907834971999137
 30
0
 11
75.02969320570399
 21
0.5888318653272791
 31
0
  0
LINE
  8
1
 62
7
 10
74.05037072773392
 20
-1.970012317310193
 30
0
 11
73.16867747437094
 21
-3.999999999999943
 31
0
  0
LINE
  8
1
 62
7
 10
74.89501750338717
 20
-0.909723889703173
 30
0
 11
74.68840410891333
 21
-1.092218809299425
 31
0
  0
LINE
  8
1
 62
7
 10
75.74
 20
1.907834971999137
 30
0
 11
75.74
 21
0.9640202399693862
 31
0
  0
LINE
  8
1
 62
7
 10
75.42592393299422
 20
-2.969847534288874
 30
0
 11
74.89416212696777
 21
-4.194162126967626
 31
0
  0
LINE
  8
1
 62
7
 10
76.55501750338725
 20
-1.658316465479459
 30
0
 11
76.06395731417364
 21
-2.092054026278163
 31
0
  0
LINE
  8
1
 62
7
 10
77.40000000000008
 20
-2.801182377350244
 30
0
 11
77.40000000000008
 21
1.907834971999137
 31
0
  0
LINE
  8
1
 62
7
 10
78.76260690259004
 20
-4.126314320592996
 30
0
 11
78.589999444589
 21
-4.470242072550946
 31
0
  0
LINE
  8
1
 62
7
 10
78.34843323953736
 20
-4.982787935777765
 30
0
 11
78.20000000000003
 21
-5.24733266756698
 31
0
  0
LINE
  8
1
 62
7
 10
78.80037892258791
 20
-3.714083467171235
 30
0
 11
78.79633357210786
 21
-3.736479781175944
 31
0
  0
LINE
  8
1
 62
7
 10
78.87999999999987
 20
1.907834971999137
 30
0
 11
78.87999999999987
 21
-2.825336451338444
 31
0
  0
LINE
  8
1
 62
7
 10
79.29999999999994
 20
-5.946886465981947
 30
0
 11
79.29999999999994
 21
-4.24733266756698
 31
0
  0
LINE
  8
1
 62
7
 10
75.70000000000003
 20
-3.799999999999955
 30
0
 11
78.20000000000005
 21
-3.799999999999955
 31
0
  0
LINE
  8
1
 62
7
 10
77.31595525703004
 20
-3.714081008567859
 30
0
 11
77.29999999999994
 21
-3.799999999999955
 31
0
  0
LINE
  8
1
 62
7
 10
74.32855428562219
 20
1.907834971999137
 30
0
 11
79.82503484760399
 21
1.907834971999137
 31
0
  0
LINE
  8
1
 62
2
 10
75.70000000000003
 20
-7.193361096681087
 30
0
 11
78.20000000000003
 21
-7.193361096681087
 31
0
  0
LINE
  8
1
 62
2
 10
75.70000000000003
 20
-5.296258979429695
 30
0
 11
78.20000000000003
 21
-5.296258979429695
 31
0
  0
LINE
  8
1
 62
7
 10
77.29999999999994
 20
-2.999999999999943
 30
0
 11
77.29999999999994
 21
-3.799999999999955
 31
0
  0
LINE
  8
1
 62
7
 10
76.70000000000003
 20
-2.999999999999943
 30
0
 11
77.29999999999994
 21
-2.999999999999943
 31
0
  0
LINE
  8
1
 62
7
 10
76.70000000000003
 20
-3.799999999999955
 30
0
 11
76.70000000000003
 21
-2.999999999999943
 31
0
  0
LINE
  8
1
 62
7
 10
82.74876632546464
 20
5.168909465118759
 30
0
 11
80.03775038330535
 21
5.297727472783663
 31
0
  0
LINE
  8
1
 62
7
 10
83.22503484760408
 20
1.64619697830517
 30
0
 11
83.22503484760408
 21
4.669472965693103
 31
0
  0
LINE
  8
1
 62
7
 10
80.03775038330535
 20
1.017942471214553
 30
0
 11
82.74876632546464
 21
1.146760478879514
 31
0
  0
LINE
  8
1
 62
7
 10
89.89999999999996
 20
-4.24733266756698
 30
0
 11
79.29999999999994
 21
-4.24733266756698
 31
0
  0
LINE
  8
1
 62
7
 10
89.89999999999996
 20
-35.64733266756707
 30
0
 11
78.29999999999994
 21
-35.64733266756707
 31
0
  0
LINE
  8
1
 62
7
 10
78.29999999999994
 20
-29.35505576286209
 30
0
 11
90.29999999999994
 21
-29.35505576286209
 31
0
  0
LINE
  8
1
 62
7
 10
90.29999999999994
 20
-28.17985962709827
 30
0
 11
78.20000000000003
 21
-28.17985962709827
 31
0
  0
LINE
  8
1
 62
7
 10
83.90000000000008
 20
-27.59075956552437
 30
0
 11
80.70000000000003
 21
-27.59075956552437
 31
0
  0
LINE
  8
1
 62
7
 10
80.70000000000003
 20
-28.17985962709827
 30
0
 11
80.70000000000003
 21
-23.64531670453118
 31
0
  0
LINE
  8
1
 62
7
 10
83.90000000000008
 20
-26.83775584930333
 30
0
 11
83.90000000000008
 21
-27.59075956552437
 31
0
  0
LINE
  8
1
 62
7
 10
80.70000000000003
 20
-26.83775584930333
 30
0
 11
83.90000000000008
 21
-26.83775584930333
 31
0
  0
LINE
  8
1
 62
7
 10
83.90000000000008
 20
-24.20946326689705
 30
0
 11
80.70000000000003
 21
-24.20946326689705
 31
0
  0
LINE
  8
1
 62
7
 10
75.70000000000003
 20
-34.49999999999994
 30
0
 11
78.29999999999994
 21
-34.49999999999994
 31
0
  0
LINE
  8
1
 62
7
 10
78.29999999999994
 20
-35.64733266756707
 30
0
 11
78.29999999999994
 21
-28.17985962709827
 31
0
  0
LINE
  8
1
 62
7
 10
78.20000000000003
 20
-24.20946326689705
 30
0
 11
78.20000000000003
 21
-26.83775584930333
 31
0
  0
LINE
  8
1
 62
7
 10
76.89999999999985
 20
-24.20946326689705
 30
0
 11
76.89999999999985
 21
-26.83775584930333
 31
0
  0
LINE
  8
1
 62
7
 10
78.20000000000003
 20
-24.20946326689705
 30
0
 11
75.70000000000003
 21
-24.20946326689705
 31
0
  0
LINE
  8
1
 62
7
 10
75.70000000000003
 20
-26.83775584930333
 30
0
 11
78.20000000000003
 21
-26.83775584930333
 31
0
  0
LINE
  8
1
 62
3
 10
17.10187842330492
 20
-19.99999999999994
 30
0
 11
93.7757487130052
 21
-19.99999999999994
 31
0
  0
LINE
  8
1
 62
7
 10
70.40000000000008
 20
-9.436291501015148
 30
0
 11
71.49999999999999
 21
-9.436291501015148
 31
0
  0
LINE
  8
1
 62
7
 10
68.99999999999999
 20
-11.93629150101538
 30
0
 11
70.40000000000008
 21
-11.93629150101515
 31
0
  0
LINE
  8
1
 62
7
 10
68.99999999999999
 20
-5.436291501015376
 30
0
 11
68.99999999999999
 21
-11.93629150101538
 31
0
  0
LINE
  8
1
 62
7
 10
70.40000000000008
 20
-5.436291501015148
 30
0
 11
68.99999999999999
 21
-5.436291501015376
 31
0
  0
LINE
  8
1
 62
7
 10
70.40000000000008
 20
-5.436291501015148
 30
0
 11
70.40000000000008
 21
-11.93629150101515
 31
0
  0
LINE
  8
1
 62
7
 10
71.49999999999999
 20
-7.936291501015148
 30
0
 11
71.49999999999999
 21
-3.999999999999943
 31
0
  0
LINE
  8
1
 62
7
 10
71.49999999999999
 20
-7.936291501015148
 30
0
 11
70.40000000000008
 21
-7.936291501015148
 31
0
  0
LINE
  8
1
 62
7
 10
71.49999999999999
 20
-35.99999999999994
 30
0
 11
71.49999999999999
 21
-9.436291501015148
 31
0
  0
LINE
  8
1
 62
7
 10
74.70000000000003
 20
-3.999999999999943
 30
0
 11
33.5
 21
-3.999999999999943
 31
0
  0
LINE
  8
1
 62
7
 10
75.70000000000003
 20
-4.999999999999943
 30
0
 11
74.70000000000003
 21
-3.999999999999943
 31
0
  0
LINE
  8
1
 62
7
 10
74.70000000000003
 20
-3.999999999999943
 30
0
 11
74.70000000000003
 21
-6.015997032442044
 31
0
  0
LINE
  8
1
 62
7
 10
71.49999999999999
 20
-6.015997032442044
 30
0
 11
74.70000000000003
 21
-6.015997032442044
 31
0
  0
LINE
  8
1
 62
7
 10
74.70000000000003
 20
-6.015997032442044
 30
0
 11
75.70000000000003
 21
-7.558553688216875
 31
0
  0
LINE
  8
1
 62
7
 10
75.70000000000003
 20
-7.558553688216875
 30
0
 11
71.49999999999999
 21
-7.558553688216875
 31
0
  0
LINE
  8
1
 62
7
 10
71.49999999999999
 20
-12.22519061305456
 30
0
 11
74.70000000000003
 21
-12.22519061305456
 31
0
  0
LINE
  8
1
 62
7
 10
74.70000000000003
 20
-12.22519061305456
 30
0
 11
75.70000000000003
 21
-12.80254088224422
 31
0
  0
LINE
  8
1
 62
7
 10
75.70000000000003
 20
-3.799999999999955
 30
0
 11
75.70000000000003
 21
-34.99999999999994
 31
0
  0
LINE
  8
1
 62
7
 10
74.70000000000003
 20
-35.99999999999994
 30
0
 11
33.5
 21
-35.99999999999994
 31
0
  0
LINE
  8
1
 62
7
 10
74.70000000000003
 20
-35.99999999999994
 30
0
 11
75.70000000000003
 21
-34.99999999999994
 31
0
  0
LINE
  8
1
 62
7
 10
74.70000000000003
 20
-12.22519061305456
 30
0
 11
74.70000000000003
 21
-35.99999999999994
 31
0
  0
LINE
  8
1
 62
7
 10
79.33999999999968
 20
62.77193367115336
 30
0
 11
79.33999999999968
 21
59.77193367115336
 31
0
  0
LINE
  8
1
 62
7
 10
79.82503484760399
 20
59.77193367115336
 30
0
 11
79.82503484760399
 21
31.45274871467592
 31
0
  0
LINE
  8
1
 62
7
 10
90.29999999999994
 20
-4.647332667566957
 30
0
 11
90.29999999999994
 21
-35.24733266756709
 31
0
  0
LINE
  8
1
 62
7
 10
74.32855428562219
 20
4.407834971999137
 30
0
 11
74.32855428562219
 21
1.907834971999137
 31
0
  0
LINE
  8
1
 62
7
 10
79.82503484760399
 20
59.77193367115336
 30
0
 11
75.32855428562219
 21
59.77193367115336
 31
0
  0
LINE
  8
1
 62
2
 10
-15.88332301900143
 20
69.72859832042593
 30
0
 11
62.00387468327868
 21
69.72859832042593
 31
0
  0
LINE
  8
1
 62
2
 10
-15.88332301900143
 20
62.72859832042593
 30
0
 11
67.2412226991856
 21
62.72859832042593
 31
0
  0
LINE
  8
1
 62
7
 10
30
 20
-20.99999999999994
 30
0
 11
20.1999999999989
 21
-20.99999999999994
 31
0
  0
LINE
  8
1
 62
7
 10
30.1999999999989
 20
-22.99999999999989
 30
0
 11
30
 21
-22.99999999999994
 31
0
  0
LINE
  8
1
 62
7
 10
30
 20
-16.99999999999994
 30
0
 11
30.1999999999989
 21
-16.99999999999994
 31
0
  0
LINE
  8
1
 62
7
 10
30
 20
-16.99999999999994
 30
0
 11
30
 21
-22.99999999999994
 31
0
  0
LINE
  8
1
 62
2
 10
-94.39030144903208
 20
-53.99999999999994
 30
0
 11
-37.5676022948844
 21
-53.99999999999994
 31
0
  0
LINE
  8
1
 62
7
 10
30.1999999999989
 20
-23.74999999999994
 30
0
 11
32
 21
-23.74999999999994
 31
0
  0
LINE
  8
1
 62
7
 10
30.1999999999989
 20
-16.24999999999989
 30
0
 11
30.1999999999989
 21
-23.74999999999994
 31
0
  0
LINE
  8
1
 62
7
 10
20
 20
-19.19999999999995
 30
0
 11
20
 21
-20.80000000000007
 31
0
  0
LINE
  8
1
 62
7
 10
20.1999999999989
 20
-18.99999999999994
 30
0
 11
30
 21
-18.99999999999994
 31
0
  0
LINE
  8
1
 62
7
 10
32
 20
-16.24999999999994
 30
0
 11
30.1999999999989
 21
-16.24999999999989
 31
0
  0
LINE
  8
1
 62
7
 10
32
 20
-5.499999999999943
 30
0
 11
32
 21
-34.49999999999994
 31
0
  0
LINE
  8
1
 62
3
 10
-83.44735510201798
 20
-27.76383408803894
 30
0
 11
-79.17465276012399
 21
-25.29698824077957
 31
0
  0
LINE
  8
1
 62
2
 10
-94.39030144903208
 20
-60.99999999999994
 30
0
 11
-37.5676022948844
 21
-60.99999999999994
 31
0
  0
LINE
  8
1
 62
3
 10
-88
 20
-19.9999999999999
 30
0
 11
-52.00000000000001
 21
-20
 31
0
  0
LINE
  8
1
 62
3
 10
-70
 20
-2
 30
0
 11
-70
 21
-38
 31
0
  0
LINE
  8
1
 62
3
 10
-61.104930974092
 20
-25.1355704965679
 30
0
 11
-56.78492409760408
 21
-27.6297276296095
 31
0
  0
LINE
  8
1
 62
2
 10
-94.39030144903208
 20
-67.99999999999994
 30
0
 11
-37.5676022948844
 21
-67.99999999999983
 31
0
  0
LINE
  8
1
 62
7
 10
77.30999999999993
 20
59.77193367115336
 30
0
 11
77.30999999999993
 21
31.32094100478395
 31
0
  0
CIRCLE
  8
1
 62
2
 10
-81.258330249198
 20
-26.49999999999994
 30
0
 40
1.299999999999898
  0
CIRCLE
  8
1
 62
7
 10
-81.258330249198
 20
-26.49999999999994
 30
0
 40
0.7999999999991019
  0
CIRCLE
  8
1
 62
3
  6
CENTER
 10
-70
 20
-20
 30
0
 40
12.99999999999999
  0
CIRCLE
  8
1
 62
7
 10
-70
 20
-20
 30
0
 40
1
  0
CIRCLE
  8
1
 62
7
 10
-70
 20
-7
 30
0
 40
0.7999999999998977
  0
CIRCLE
  8
1
 62
7
 10
-58.74166975080199
 20
-26.5
 30
0
 40
0.7999999999999616
  0
CIRCLE
  8
1
 62
2
 10
-70
 20
-7
 30
0
 40
1.299999999999898
  0
CIRCLE
  8
1
 62
2
 10
-58.74166975080199
 20
-26.5
 30
0
 40
1.299999999999038
  0
CIRCLE
  8
1
 62
7
 10
-70
 20
-20
 30
0
 40
3
  0
CIRCLE
  8
1
 62
7
 10
-70
 20
-20
 30
0
 40
3.75
  0
CIRCLE
  8
1
 62
7
 10
-70
 20
-20
 30
0
 40
15.99999999999999
  0
POLYLINE
  8
1
 62
2
 66
1
  0
VERTEX
  8
1
 10
75.32855428562219
 20
31.68572492901666
 30
0
 42
-0.004626370682173698
  0
VERTEX
  8
1
 10
75.47243927656305
 20
31.76610803410134
 30
0
 42
-0.01456038958038101
  0
VERTEX
  8
1
 10
75.61579662262065
 20
31.83920905470357
 30
0
 42
-0.0265439240884851
  0
VERTEX
  8
1
 10
75.75809867891171
 20
31.89774590634094
 30
0
 42
-0.04160535926891525
  0
VERTEX
  8
1
 10
75.89881780055293
 20
31.934436504531
 30
0
 42
-0.1629918231625591
  0
VERTEX
  8
1
 10
76.27326257836987
 20
31.87719724395194
 30
0
 42
-0.04090592147307937
  0
VERTEX
  8
1
 10
76.50438157347176
 20
31.74307391081661
 30
0
 42
-0.005406937280419279
  0
VERTEX
  8
1
 10
76.73407055788961
 20
31.58077752237237
 30
0
 42
0.02731093190291896
  0
VERTEX
  8
1
 10
76.96561676154622
 20
31.43145683560633
 30
0
 42
0.06798647295597263
  0
VERTEX
  8
1
 10
77.20230741436443
 20
31.33626060750555
 30
0
 42
0.1063727924447663
  0
VERTEX
  8
1
 10
77.46649410650547
 20
31.32709331088156
 30
0
 42
0.03081058068140129
  0
VERTEX
  8
1
 10
77.73828147324457
 20
31.39327709624094
 30
0
 42
0.03197685909153037
  0
VERTEX
  8
1
 10
78.01543146037419
 20
31.49899096206344
 30
0
 42
-0.01159811739474218
  0
VERTEX
  8
1
 10
78.29570601368673
 20
31.60841390682878
 30
0
 42
-0.04130453454212384
  0
VERTEX
  8
1
 10
78.57686707897459
 20
31.68572492901666
 30
0
 42
-0.04847776149946505
  0
VERTEX
  8
1
 10
78.82780050709165
 20
31.70446561590739
 30
0
 42
-0.03780567789604977
  0
VERTEX
  8
1
 10
79.07786735228125
 20
31.6796490162922
 30
0
 42
-0.02603018371818965
  0
VERTEX
  8
1
 10
79.32728426027528
 20
31.62216445179757
 30
0
 42
-0.01498609696501114
  0
VERTEX
  8
1
 10
79.57626787680556
 20
31.54290124404998
 30
0
 42
-0.004871349426448749
  0
VERTEX
  8
1
 10
79.82503484760399
 20
31.45274871467592
 30
0
  0
SEQEND
  8
1
  0
POLYLINE
  8
1
 62
2
 66
1
  0
VERTEX
  8
1
 10
75.32855428562219
 20
23.21979710193972
 30
0
 42
-0.004626370682211225
  0
VERTEX
  8
1
 10
75.47243927656305
 20
23.30018020702441
 30
0
 42
-0.01456038958037968
  0
VERTEX
  8
1
 10
75.61579662262065
 20
23.37328122762666
 30
0
 42
-0.02654392408845332
  0
VERTEX
  8
1
 10
75.75809867891169
 20
23.43181807926404
 30
0
 42
-0.04160535926887789
  0
VERTEX
  8
1
 10
75.89881780055293
 20
23.46850867745411
 30
0
 42
-0.1629918231626063
  0
VERTEX
  8
1
 10
76.27326257836987
 20
23.41126941687507
 30
0
 42
-0.04090592147316857
  0
VERTEX
  8
1
 10
76.50438157347175
 20
23.27714608373973
 30
0
 42
-0.005406937280497663
  0
VERTEX
  8
1
 10
76.7340705578896
 20
23.1148496952955
 30
0
 42
0.02731093190292612
  0
VERTEX
  8
1
 10
76.96561676154622
 20
22.96552900852946
 30
0
 42
0.0679864729559497
  0
VERTEX
  8
1
 10
77.20230741436443
 20
22.87033278042867
 30
0
 42
0.1063727924447673
  0
VERTEX
  8
1
 10
77.46649410650547
 20
22.86116548380466
 30
0
 42
0.03081058068141057
  0
VERTEX
  8
1
 10
77.73828147324457
 20
22.92734926916403
 30
0
 42
0.03197685909152492
  0
VERTEX
  8
1
 10
78.01543146037419
 20
23.03306313498651
 30
0
 42
-0.0115981173947424
  0
VERTEX
  8
1
 10
78.29570601368673
 20
23.14248607975184
 30
0
 42
-0.04130453454210092
  0
VERTEX
  8
1
 10
78.57686707897459
 20
23.21979710193972
 30
0
 42
-0.0484777614994646
  0
VERTEX
  8
1
 10
78.82780050709165
 20
23.23853778883045
 30
0
 42
-0.03780567789603598
  0
VERTEX
  8
1
 10
79.07786735228125
 20
23.21372118921526
 30
0
 42
-0.02603018371819031
  0
VERTEX
  8
1
 10
79.32728426027528
 20
23.15623662472065
 30
0
 42
-0.01498609696502469
  0
VERTEX
  8
1
 10
79.57626787680556
 20
23.07697341697308
 30
0
 42
-0.004871349426448971
  0
VERTEX
  8
1
 10
79.82503484760399
 20
22.98682088759904
 30
0
  0
SEQEND
  8
1
  0
ARC
  8
1
 62
7
 10
82.72503484760408
 20
1.64619697830517
 30
0
 40
0.4999999999999997
 50
272.7204491059318
 51
0
  0
ARC
  8
1
 62
7
 10
82.72503484760408
 20
4.669472965693103
 30
0
 40
0.5
 50
0
 51
87.27955089406814
  0
ARC
  8
1
 62
7
 10
78.3147313122888
 20
-4.094738357200356
 30
0
 40
5.000000000000085
 50
146.598796388662
 51
161.6291771193577
  0
ARC
  8
1
 62
7
 10
70.15330104330518
 20
1.693729814685355
 30
0
 40
5.000000000000085
 50
326.5987963886619
 51
347.2334244745493
  0
ARC
  8
1
 62
7
 10
74.90000000000008
 20
0.21542766419293
 30
0
 40
2.499999999999929
 50
311.453118333274
 51
0
  0
ARC
  8
1
 62
7
 10
77.71897481756081
 20
-3.965798155950552
 30
0
 40
2.499999999999929
 50
131.453118333274
 51
156.5230410178507
  0
ARC
  8
1
 62
7
 10
76.3434216123005
 20
-2.96596293897187
 30
0
 40
2.499999999999971
 50
131.4531183332731
 51
156.5230410178508
  0
ARC
  8
1
 62
7
 10
73.24
 20
0.9640202399693862
 30
0
 40
2.500000000000056
 50
311.4531183332714
 51
0
  0
ARC
  8
1
 62
7
 10
69.82503484760399
 20
0.3591963261373508
 30
0
 40
9.999999999999943
 50
333.3492402967695
 51
0
  0
ARC
  8
1
 62
7
 10
74.86003043403728
 20
-3.025482168509768
 30
0
 40
4.000000000000167
 50
330.7036798394124
 51
349.7613037362353
  0
ARC
  8
1
 62
7
 10
73.87999999999987
 20
-2.825336451338444
 30
0
 40
5.000000000000036
 50
349.7613037362342
 51
0
  0
ARC
  8
1
 62
7
 10
72.40000000000008
 20
-2.801182377350244
 30
0
 40
4.999999999999954
 50
349.4799422403979
 51
0
  0
ARC
  8
1
 62
7
 10
80.02503484760403
 20
1.217537849797964
 30
0
 40
0.2000000000000455
 50
180
 51
273.6451911854089
  0
ARC
  8
1
 62
7
 10
80.02503484760403
 20
5.098132094200309
 30
0
 40
0.2000000000000093
 50
86.35480881459012
 51
180
  0
ARC
  8
1
 62
7
 10
33.50000000000001
 20
-34.49999999999994
 30
0
 40
1.500000000000007
 50
180
 51
270
  0
ARC
  8
1
 62
7
 10
33.50000000000001
 20
-5.499999999999943
 30
0
 40
1.5
 50
90
 51
180
  0
ARC
  8
1
 62
7
 10
20.1999999999989
 20
-20.80000000000007
 30
0
 40
0.1999999999989015
 50
180
 51
270
  0
ARC
  8
1
 62
7
 10
20.1999999999989
 20
-19.19999999999995
 30
0
 40
0.20000000000001
 50
90
 51
180
  0
LINE
  8
1
 62
2
 10
-15.88332301900143
 20
76.72859832042593
 30
0
 11
57.0038746832787
 21
76.72859832042593
 31
0
  0
LINE
  8
1
 62
2
 10
57.0038746832787
 20
76.72859832042593
 30
0
 11
75.32855428562219
 21
52.40391871808237
 31
0
  0
SOLID
  8
1
 62
2
 10
72.85455218595421
 20
54.9221790833585
 30
0
 11
73.5906255063198
 21
55.47669030324042
 31
0
 12
75.32855428562219
 22
52.40391871808237
 32
0
 13
75.32855428562219
 23
52.40391871808237
 33
0
  0
LINE
  8
1
 62
2
 10
62.70422801210496
 20
6.000000000000057
 30
0
 11
42.52248035771504
 21
6.000000000000057
 31
0
  0
LINE
  8
1
 62
2
 10
42.52248035771504
 20
6.000000000000057
 30
0
 11
50.89732707710878
 21
-6.899999999999938
 31
0
  0
SOLID
  8
1
 62
2
 10
48.60501230382038
 20
-4.215299898192289
 30
0
 11
49.37797255234204
 21
-3.713484115126135
 31
0
 12
50.89732707710878
 22
-6.899999999999938
 32
0
 13
50.89732707710878
 23
-6.899999999999938
 33
0
  0
TEXT
  8
1
 62
2
 10
-140.25
 20
93.5
 30
0
 40
5
  1
DME33BM
 41
0.9
 72
1
 73
2
 11
-124.5
 21
96
 31
0
  0
TEXT
  8
1
 62
2
 10
122.5
 20
29.59721783720714
 30
0
 40
2
  1
+1.181
 50
90
 41
0.63
  0
TEXT
  8
1
 62
2
 10
124.9
 20
29.59721783720714
 30
0
 40
2
  1
 0
 50
90
 41
0.63
  0
TEXT
  8
1
 62
2
 10
124.3
 20
18.05087406406495
 30
0
 40
3.2
  1
(11.811   )
 50
90
 41
0.6300000000000001
 72
1
 73
2
 11
122.7
 21
29.13887406406495
 31
0
  0
TEXT
  8
1
 62
2
 10
111.5128866371002
 20
45.07337553495015
 30
0
 40
3.2
  1
(0.118)
 50
90
 41
0.6300000000000001
 72
1
 73
2
 11
109.9128866371002
 21
52.12937553495014
 31
0
  0
TEXT
  8
1
 62
2
 10
44.85700959971504
 20
7.014937067202557
 30
0
 40
3.2
  1
NAME PLATE
 41
0.54
 72
1
 73
2
 11
53.49700959971504
 21
8.614937067202558
 31
0
  0
TEXT
  8
1
 62
2
 10
31.13600000000005
 20
13.7983645630168
 30
0
 40
3.2
  1
(0.0787)
 41
0.6300000000000001
 72
1
 73
2
 11
39.20000000000005
 21
15.3983645630168
 31
0
  0
TEXT
  8
1
 62
2
 10
54.64400000000003
 20
25.7923889153413
 30
0
 40
3.2
  1
(2.295)
 41
0.6300000000000001
 72
1
 73
2
 11
61.70000000000003
 21
27.3923889153413
 31
0
  0
TEXT
  8
1
 62
2
 10
18.944
 20
25.7923889153413
 30
0
 40
3.2
  1
(0.472)
 41
0.6300000000000001
 72
1
 73
2
 11
26
 21
27.3923889153413
 31
0
  0
TEXT
  8
1
 62
2
 10
123.5039682656965
 20
-30.07999999999994
 30
0
 40
3.2
  1
(1.26DIA.)
 50
90
 41
0.6300000000000001
 72
1
 73
2
 11
121.9039682656965
 21
-19.99999999999994
 31
0
  0
TEXT
  8
1
 62
2
 10
-1.29050147088515
 20
-2.069193972897349
 30
0
 40
2
  1
 %%p0.00787
 50
90
 41
0.63
 72
1
 73
2
 11
-2.29050147088515
 21
4.860806027102651
 31
0
  0
TEXT
  8
1
 62
2
 10
-0.6905014708851507
 20
-17.90553774603916
 30
0
 40
3.2
  1
(0.295DIA.     )
 50
90
 41
0.6300000000000001
 72
1
 73
2
 11
-2.29050147088515
 21
-1.777537746039151
 31
0
  0
TEXT
  8
1
 62
2
 10
10.2
 20
1.990806027102659
 30
0
 40
2
  1
 0
 50
90
 41
0.63
  0
TEXT
  8
1
 62
2
 10
12.6
 20
1.990806027102658
 30
0
 40
2
  1
-0.000551
 50
90
 41
0.63
  0
TEXT
  8
1
 62
2
 10
12
 20
-18.72153774603916
 30
0
 40
3.2
  1
(0.0787DIA.      )
 50
90
 41
0.6300000000000001
 72
1
 73
2
 11
10.4
 21
-0.5775377460391518
 31
0
  0
TEXT
  8
1
 62
2
 10
-89.9036094600072
 20
-52.98481685313684
 30
0
 40
3.5
  1
(3-M2.6 DEPTH 0.118MAX)
 41
0.7020000000000001
 73
2
 11
-89.9036094600072
 21
-51.23481685313684
 31
0
  0
TEXT
  8
1
 62
2
 10
-88.9036094600072
 20
-60.0043320676476
 30
0
 40
3.5
  1
P=120%%d P.C.D=âË26
 41
0.9
 73
2
 11
-88.9036094600072
 21
-58.2543320676476
 31
0
  0
TEXT
  8
1
 62
2
 10
-14.46700894154448
 20
70.91705316063634
 30
0
 40
3.5
  1
MOTOR LEAD : UL1007 AWG22
 41
0.8100000000000001
 73
2
 11
-14.46700894154448
 21
72.66705316063634
 31
0
  0
TEXT
  8
1
 62
2
 10
-14.46700894154448
 20
78.01367514969815
 30
0
 40
3.5
  1
LEAD WIRES
 41
0.9
 73
2
 11
-14.46700894154448
 21
79.76367514969815
 31
0
  0
TEXT
  8
1
 62
2
 10
-89.9036094600072
 20
-67.00433206764754
 30
0
 40
3.5
  1
(P.C.D=1.024DIA.     )
 41
0.8550000000000001
 73
2
 11
-89.9036094600072
 21
-65.25433206764754
 31
0
  0
TEXT
  8
1
 62
2
 10
-46.73311552688725
 20
-59.5043320676476
 30
0
 40
2.5
  1
%%p0.2
 41
0.7200000000000001
 72
1
 73
2
 11
-41.33311552688725
 21
-58.2543320676476
 31
0
  0
TEXT
  8
1
 62
2
 10
-55.84059513522905
 20
-66.50433206764754
 30
0
 40
2.5
  1
%%p0.00787
 41
0.7200000000000001
 72
1
 73
2
 11
-46.84059513522905
 21
-65.25433206764754
 31
0
  0
TEXT
  8
1
 62
2
 10
-14.46700894154448
 20
63.91705316063634
 30
0
 40
3.5
  1
PG LEAD ü@  : UL1007 AWG24
 41
0.8100000000000001
 73
2
 11
-14.46700894154448
 21
65.66705316063634
 31
0
  0
TEXT
  8
1
 62
2
 10
111.5039682656965
 20
-31.08799999999994
 30
0
 40
3.2
  1
(1.236DIA.)
 50
90
 41
0.6300000000000001
 72
1
 73
2
 11
109.9039682656965
 21
-19.99999999999994
 31
0
  0
DIMENSION
  8
1
  6
CONTINUOUS
 62
2
  2
*D0
  3
DMST_1
 10
107.2552071287616
 20
-35.64733266756707
 30
0
 11
104.6552071287616
 21
-19.94733266756703
 31
0
 12
0
 22
0
 32
0
 70
0
  1
âË31.4
 13
89.89999999999996
 23
-4.24733266756698
 33
0
 14
89.89999999999996
 24
-35.64733266756707
 34
0
 50
90
 53
0
  0
DIMENSION
  8
1
  6
CONTINUOUS
 62
2
  2
*D1
  3
DMST_2
 10
31.99999999999999
 20
30.0157558858873
 30
0
 11
61.14999999999996
 21
32.6157558858873
 31
0
 12
0
 22
0
 32
0
 70
0
 13
90.29999999999994
 23
-4.647332667566957
 33
0
 14
32
 24
-5.499999999999943
 34
0
 53
0
  0
DIMENSION
  8
1
  6
CONTINUOUS
 62
2
  2
*D2
  3
DMST_1
 10
107.2552071287616
 20
59.77193367115336
 30
0
 11
104.6552071287616
 21
51.425447741015
 31
0
 12
0
 22
0
 32
0
 70
0
  1
(<>
 13
79.33999999999968
 23
62.77193367115336
 33
0
 14
79.82503484760399
 24
59.77193367115336
 34
0
 50
90
 53
0
  0
DIMENSION
  8
1
  6
CONTINUOUS
 62
2
  2
*D3
  3
DMST_2
 10
119.269946481069
 20
-35.99999999999994
 30
0
 11
116.669946481069
 21
-19.99999999999994
 31
0
 12
0
 22
0
 32
0
 70
0
  1
32
 13
74.70000000000003
 23
-3.999999999999943
 33
0
 14
74.70000000000003
 24
-35.99999999999994
 34
0
 50
90
 53
0
  0
DIMENSION
  8
1
  6
CONTINUOUS
 62
2
  2
*D4
  3
DMST_3
 10
119.371415123377
 20
-3.999999999999943
 30
0
 11
115.971415123377
 21
29.38596683557671
 31
0
 12
0
 22
0
 32
0
 70
0
  1
300
 13
79.33999999999968
 23
62.77193367115336
 33
0
 14
74.70000000000003
 24
-3.999999999999943
 34
0
 50
90
 53
0
  0
DIMENSION
  8
1
  6
CONTINUOUS
 62
2
  2
*D5
  3
DMST_4
 10
6.939959180238195
 20
-18.99999999999994
 30
0
 11
3.539959180238196
 21
0.3028763203299008
 31
0
 12
0
 22
0
 32
0
 70
0
  1
âË<>
 13
20.1999999999989
 23
-20.99999999999994
 33
0
 14
20.1999999999989
 24
-18.99999999999994
 34
0
 50
90
 53
0
  0
DIMENSION
  8
1
  6
CONTINUOUS
 62
2
  2
*D6
  3
DMST_5
 10
-5.084395208236902
 20
-16.24999999999989
 30
0
 11
-7.684395208236904
 21
-0.3573798201685996
 31
0
 12
0
 22
0
 32
0
 70
0
  1
âË<>
 13
30.1999999999989
 23
-23.74999999999994
 33
0
 14
30.1999999999989
 24
-16.24999999999989
 34
0
 50
90
 53
0
  0
DIMENSION
  8
1
  6
CONTINUOUS
 62
2
  2
*D7
  3
DMST_2
 10
20
 20
29.9942441159741
 30
0
 11
26
 21
32.5942441159741
 31
0
 12
0
 22
0
 32
0
 70
0
 13
32
 23
-5.499999999999943
 33
0
 14
20
 24
-19.19999999999995
 34
0
 53
0
  0
DIMENSION
  8
1
  6
CONTINUOUS
 62
2
  2
*D8
  3
DMST_2
 10
31.99999999999999
 20
18.0519103424867
 30
0
 11
39.11913686520879
 21
20.6519103424867
 31
0
 12
0
 22
0
 32
0
 70
0
 13
30
 23
-16.99999999999994
 33
0
 14
32
 24
-5.499999999999943
 34
0
 53
0
  0
INSERT
  8
0
  2
___R___O_______R
 10
0.5
 20
-3.75
 30
0
  0
INSERT
  8
1
  2
*D9
 10
0
 20
0
 30
0
  0
ENDSEC
  0
EOF
