  0
SECTION
  2
HEADER
  9
$ACADVER
  1
AC1009
  9
$INSBASE
 10
0
 20
0
  9
$EXTMIN
 10
-194.5
 20
-146
  9
$EXTMAX
 10
194.5
 20
146
  9
$LIMMIN
 10
-194.5
 20
-146
  9
$LIMMAX
 10
194.5
 20
146
  9
$VIEWCTR
 10
10
 20
10
  9
$VIEWSIZE
 40
10
  9
$SNAPMODE
 70
0
  9
$SNAPUNIT
 10
1
 20
1
  9
$SNAPBASE
 10
0
 20
0
  9
$SNAPANG
 50
0
  9
$SNAPSTYLE
 70
0
  9
$SNAPISOPAIR
 70
0
  9
$GRIDMODE
 70
0
  9
$GRIDUNIT
 10
0
 20
0
  9
$ORTHOMODE
 70
0
  9
$REGENMODE
 70
1
  9
$FILLMODE
 70
1
  9
$QTEXTMODE
 70
0
  9
$DRAGMODE
 70
2
  9
$LTSCALE
 40
1
  9
$OSMODE
 70
0
  9
$ATTMODE
 70
1
  9
$TEXTSIZE
 40
3.5
  9
$TRACEWID
 40
0.5
  9
$TEXTSTYLE
  7
STANDARD
  9
$CLAYER
  8
0
  9
$CELTYPE
  6
BYLAYER
  9
$CECOLOR
 62
256
  9
$DIMSCALE
 40
1
  9
$DIMASZ
 40
0.18
  9
$DIMEXO
 40
0.0625
  9
$DIMDLI
 40
0.38
  9
$DIMRND
 40
0
  9
$DIMDLE
 40
0
  9
$DIMEXE
 40
0.18
  9
$DIMTP
 40
0
  9
$DIMTM
 40
0
  9
$DIMTXT
 40
0.18
  9
$DIMCEN
 40
0.09
  9
$DIMTSZ
 40
0
  9
$DIMTOL
 70
0
  9
$DIMLIM
 70
0
  9
$DIMTIH
 70
1
  9
$DIMTOH
 70
1
  9
$DIMSE1
 70
0
  9
$DIMSE2
 70
0
  9
$DIMTAD
 70
0
  9
$DIMZIN
 70
0
  9
$DIMBLK
  1

  9
$DIMASO
 70
1
  9
$DIMSHO
 70
1
  9
$DIMPOST
  1

  9
$DIMAPOST
  1

  9
$DIMALT
 70
0
  9
$DIMALTD
 70
2
  9
$DIMALTF
 40
25.4
  9
$DIMLFAC
 40
1
  9
$DIMTOFL
 70
0
  9
$DIMTVP
 40
0
  9
$DIMTIX
 70
0
  9
$DIMSOXD
 70
0
  9
$DIMSAH
 70
0
  9
$DIMBLK1
  1

  9
$DIMBLK2
  1

  9
$DIMSTYLE
  2
*UNNAMED
  9
$DIMCLRD
 70
0
  9
$DIMCLRE
 70
0
  9
$DIMCLRT
 70
0
  9
$DIMTFAC
 40
1
  9
$DIMGAP
 40
0.09
  9
$LUNITS
 70
2
  9
$LUPREC
 70
4
  9
$AXISMODE
 70
0
  9
$AXISUNIT
 10
0
 20
0
  9
$SKETCHINC
 40
0.1
  9
$FILLETRAD
 40
2
  9
$AUNITS
 70
0
  9
$AUPREC
 70
0
  9
$MENU
  1
ACAD
  9
$ELEVATION
 40
0
  9
$THICKNESS
 40
0
  9
$VIEWDIR
 10
0
 20
0
 30
1
  9
$LIMCHECK
 70
0
  9
$BLIPMODE
 70
1
  9
$CHAMFERA
 40
0
  9
$CHAMFERB
 40
0
  9
$FASTZOOM
 70
1
  9
$SKPOLY
 70
0
  9
$ANGBASE
 50
0
  9
$ANGDIR
 70
0
  9
$PDMODE
 70
0
  9
$PDSIZE
 40
0
  9
$PLINEWID
 40
0
  9
$COORDS
 70
2
  0
ENDSEC
  0
SECTION
  2
TABLES
  0
TABLE
  2
DIMSTYLE
 70
6
  0
DIMSTYLE
  2
DMST_1
 70
0
  3

  4

  5

  6

  7

 40
1
 41
3.2
 42
1
 43
7
 44
1
 45
0
 46
0
 47
0
 48
0
140
3.2
141
0
142
0
143
25.4
144
1
145
0
146
1
147
0.09
 71
0
 72
0
 73
0
 74
0
 75
0
 76
0
 77
1
 78
9
170
0
171
2
172
0
173
0
174
0
175
0
176
2
177
2
178
2
  0
DIMSTYLE
  2
DMST_2
 70
0
  3
)
  4

  5

  6

  7

 40
1
 41
3.2
 42
1
 43
7
 44
1
 45
0
 46
0
 47
0
 48
0
140
3.2
141
0
142
0
143
25.4
144
1
145
0
146
1
147
0.09
 71
0
 72
0
 73
0
 74
0
 75
0
 76
0
 77
1
 78
9
170
0
171
2
172
0
173
0
174
0
175
0
176
2
177
2
178
2
  0
DIMSTYLE
  2
DMST_3
 70
0
  3

  4

  5

  6

  7

 40
1
 41
3.2
 42
1
 43
7
 44
1
 45
0
 46
0
 47
0
 48
0
140
3.2
141
0
142
0
143
25.4
144
1
145
0
146
0.6
147
0.09
 71
1
 72
0
 73
0
 74
0
 75
0
 76
0
 77
1
 78
9
170
0
171
2
172
0
173
0
174
0
175
0
176
2
177
2
178
2
  0
DIMSTYLE
  2
DMST_4
 70
0
  3

  4

  5

  6

  7

 40
1
 41
3.2
 42
1
 43
7
 44
1
 45
0
 46
0
 47
0
 48
0
140
3.2
141
0
142
0
143
25.4
144
1
145
0
146
1
147
0.09
 71
0
 72
0
 73
1
 74
1
 75
0
 76
0
 77
1
 78
9
170
0
171
2
172
0
173
0
174
0
175
0
176
2
177
2
178
2
  0
DIMSTYLE
  2
DMST_5
 70
0
  3

  4

  5

  6

  7

 40
1
 41
3.2
 42
1
 43
7
 44
1
 45
0
 46
0
 47
0.3
 48
0.3
140
3.2
141
0
142
0
143
25.4
144
1
145
0
146
0.6
147
0.09
 71
1
 72
0
 73
0
 74
0
 75
0
 76
0
 77
1
 78
9
170
0
171
2
172
0
173
0
174
0
175
0
176
2
177
2
178
2
  0
DIMSTYLE
  2
DMST_6
 70
0
  3

  4

  5

  6

  7

 40
1
 41
3.2
 42
1
 43
7
 44
1
 45
0
 46
0
 47
0
 48
0.02
140
3.2
141
0
142
0
143
25.4
144
1
145
0
146
0.6
147
0.09
 71
1
 72
0
 73
0
 74
0
 75
0
 76
0
 77
1
 78
9
170
0
171
2
172
0
173
0
174
0
175
0
176
2
177
2
178
2
  0
ENDTAB
  0
TABLE
  2
LTYPE
 70
9
  0
LTYPE
  2
CONTINUOUS
 70
64
  3
Solid line
 72
65
 73
0
 40
0
  0
LTYPE
  2
BORDER
 70
64
  3
__ __ . __ __ .
 72
65
 73
6
 40
17.91447368421053
 49
5.118421052631579
 49
-2.559210526315789
 49
5.118421052631579
 49
-2.559210526315789
 49
0
 49
-2.559210526315789
  0
LTYPE
  2
CENTER
 70
64
  3
____ _ ____ _
 72
65
 73
4
 40
20.47368421052632
 49
12.79605263157895
 49
-2.559210526315789
 49
2.559210526315789
 49
-2.559210526315789
  0
LTYPE
  2
DASHDOT
 70
64
  3
__ . __ . __ .
 72
65
 73
4
 40
10.23684210526316
 49
5.118421052631579
 49
-2.559210526315789
 49
0
 49
-2.559210526315789
  0
LTYPE
  2
DASHED
 70
64
  3
__ __ __ __ __
 72
65
 73
2
 40
7.677631578947368
 49
5.118421052631579
 49
-2.559210526315789
  0
LTYPE
  2
DIVIDE
 70
64
  3
__ . . __ . . 
 72
65
 73
6
 40
12.79605263157895
 49
5.118421052631579
 49
-2.559210526315789
 49
0
 49
-2.559210526315789
 49
0
 49
-2.559210526315789
  0
LTYPE
  2
DOT
 70
64
  3
..............
 72
65
 73
4
 40
5.118421052631579
 49
0
 49
-2.559210526315789
 49
0
 49
-2.559210526315789
  0
LTYPE
  2
HIDDEN
 70
64
  3
_ _ _ _ _ _ _
 72
65
 73
2
 40
3.838815789473684
 49
2.559210526315789
 49
-1.279605263157895
  0
LTYPE
  2
PHANTOM
 70
64
  3
_____ _ _ _____ _ _ 
 72
65
 73
6
 40
25.59210526315789
 49
12.79605263157895
 49
-2.559210526315789
 49
2.559210526315789
 49
-2.559210526315789
 49
2.559210526315789
 49
-2.559210526315789
  0
ENDTAB
  0
TABLE
  2
LAYER
 70
3
  0
LAYER
  2
1
 70
0
 62
7
  6
CONTINUOUS
  0
LAYER
  2
0
 70
0
 62
7
  6
CONTINUOUS
  0
ENDTAB
  0
TABLE
  2
STYLE
 70
4
  0
STYLE
  2
STANDARD
 70
0
 40
0
 41
1
 50
0
 71
0
 42
3.5
  3
txt
  4

  0
STYLE
  2
SIMPLEX
 70
0
 40
0
 41
1
 50
0
 71
0
 42
3.5
  3
simplex
  4

  0
STYLE
  2
COMPLEX
 70
0
 40
0
 41
1
 50
0
 71
0
 42
3.5
  3
complex
  4

  0
STYLE
  2
ITALIC
 70
0
 40
0
 41
1
 50
0
 71
0
 42
3.5
  3
italic
  4

  0
ENDTAB
  0
TABLE
  2
VIEW
 70
0
  0
ENDTAB
  0
ENDSEC
  0
SECTION
  2
BLOCKS
  0
BLOCK
  8
0
  2
___R___O_______R
 70
0
 10
0.5
 20
-3.75
 30
0
  0
LINE
  8
1
 62
4
  6
PHANTOM
 10
194.5
 20
-136.5
 30
0
 11
194.5
 21
-146
 31
0
  0
LINE
  8
1
 62
4
  6
PHANTOM
 10
-194.5
 20
-146
 30
0
 11
-194.5
 21
146
 31
0
  0
LINE
  8
1
 62
4
  6
PHANTOM
 10
194.5
 20
146
 30
0
 11
194.5
 21
129
 31
0
  0
LINE
  8
1
 62
4
  6
PHANTOM
 10
194.5
 20
146
 30
0
 11
-194.5
 21
146
 31
0
  0
LINE
  8
1
 62
4
  6
PHANTOM
 10
-194.5
 20
-146
 30
0
 11
194.5
 21
-146
 31
0
  0
TEXT
  8
1
 62
4
 10
178.746911898274
 20
-142.6071298819256
 30
0
 40
5
  1
A3
 41
0.9
 72
1
 73
2
 11
183.246911898274
 21
-140.1071298819256
 31
0
  0
ENDBLK
  8
0
  0
BLOCK
  8
1
  2
*D0
 70
1
 10
0
 20
0
 30
0
  0
LINE
  8
1
 62
2
 10
53.39999999999987
 20
15.24999999999999
 30
0
 11
53.39999999999987
 21
47.24999999999999
 31
0
  0
LINE
  8
1
 62
2
 10
33.39999999999987
 20
15.24999999999999
 30
0
 11
54.39999999999987
 21
15.24999999999999
 31
0
  0
LINE
  8
1
 62
2
 10
33.39999999999987
 20
47.24999999999999
 30
0
 11
54.39999999999987
 21
47.24999999999999
 31
0
  0
SOLID
  8
1
 62
2
 10
53.39999999999987
 20
47.24999999999999
 30
0
 11
53.81599999999987
 21
44.04999999999998
 31
0
 12
52.98399999999987
 22
44.04999999999998
 32
0
 13
52.98399999999987
 23
44.04999999999998
 33
0
  0
SOLID
  8
1
 62
2
 10
53.39999999999987
 20
15.24999999999999
 30
0
 11
52.98399999999987
 21
18.44999999999999
 31
0
 12
53.81599999999987
 22
18.44999999999999
 32
0
 13
53.81599999999987
 23
18.44999999999999
 33
0
  0
TEXT
  8
1
 62
2
 10
52.39999999999996
 20
30.67222222222221
 30
0
 40
3.2
  1
32
 50
90
 41
0.9
  0
TEXT
  8
1
 62
2
 10
52.39999999999996
 20
27.02777777777777
 30
0
 40
3.2
  1
ƒÓ
 50
90
 41
0.9
  0
ENDBLK
  8
0
  0
BLOCK
  8
1
  2
*D1
 70
1
 10
0
 20
0
 30
0
  0
LINE
  8
1
 62
2
 10
34.59999999999991
 20
57.2602481433251
 30
0
 11
47.6935517202725
 21
57.2602481433251
 31
0
  0
LINE
  8
1
 62
2
 10
33.39999999999986
 20
57.2602481433251
 30
0
 11
34.59999999999991
 21
57.2602481433251
 31
0
  0
LINE
  8
1
 62
2
 10
26.99999999999986
 20
57.2602481433251
 30
0
 11
33.39999999999986
 21
57.2602481433251
 31
0
  0
LINE
  8
1
 62
2
 10
34.59999999999991
 20
36.84999999999987
 30
0
 11
34.59999999999991
 21
58.2602481433251
 31
0
  0
LINE
  8
1
 62
2
 10
33.39999999999986
 20
47.24999999999999
 30
0
 11
33.39999999999986
 21
58.2602481433251
 31
0
  0
SOLID
  8
1
 62
2
 10
33.39999999999986
 20
57.2602481433251
 30
0
 11
30.19999999999986
 21
56.8442481433251
 31
0
 12
30.19999999999986
 22
57.6762481433251
 32
0
 13
30.19999999999986
 23
57.6762481433251
 33
0
  0
SOLID
  8
1
 62
2
 10
34.59999999999991
 20
57.2602481433251
 30
0
 11
37.79999999999991
 21
57.6762481433251
 31
0
 12
37.79999999999991
 22
56.8442481433251
 32
0
 13
37.79999999999991
 23
56.8442481433251
 33
0
  0
TEXT
  8
1
 62
2
 10
40.7335517202725
 20
58.2602481433251
 30
0
 40
3.2
  1
1.2
 41
0.9
  0
TEXT
  8
1
 62
2
 10
38.6535517202725
 20
58.2602481433251
 30
0
 40
3.2
  1
(
 41
0.9
  0
TEXT
  8
1
 62
2
 10
47.2135517202725
 20
58.2602481433251
 30
0
 40
3.2
  1
)
 41
0.9
  0
ENDBLK
  8
0
  0
BLOCK
  8
1
  2
*D2
 70
1
 10
0
 20
0
 30
0
  0
LINE
  8
1
 62
2
 10
33.39999999999985
 20
-4.750000000000007
 30
0
 11
89.12091180435596
 21
-4.750000000000007
 31
0
  0
LINE
  8
1
 62
2
 10
89.12091180435596
 20
42.8989822888847
 30
0
 11
89.12091180435596
 21
-5.750000000000007
 31
0
  0
LINE
  8
1
 62
2
 10
33.39999999999985
 20
15.25
 30
0
 11
33.39999999999985
 21
-5.750000000000007
 31
0
  0
SOLID
  8
1
 62
2
 10
33.39999999999985
 20
-4.750000000000007
 30
0
 11
36.59999999999985
 21
-4.334000000000007
 31
0
 12
36.59999999999985
 22
-5.166000000000008
 32
0
 13
36.59999999999985
 23
-5.166000000000008
 33
0
  0
SOLID
  8
1
 62
2
 10
89.12091180435596
 20
-4.750000000000007
 30
0
 11
85.92091180435595
 21
-5.166000000000007
 31
0
 12
85.92091180435595
 22
-4.334000000000007
 32
0
 13
85.92091180435595
 23
-4.334000000000007
 33
0
  0
TEXT
  8
1
 62
2
 10
58.51996330027653
 20
-2.950000000000007
 30
0
 40
3.2
  1
300
 41
0.9
  0
TEXT
  8
1
 62
2
 10
67.79996330027653
 20
-0.870000000000007
 30
0
 40
1.92
  1
+30
 41
0.9
  0
TEXT
  8
1
 62
2
 10
69.52796330027653
 20
-3.750000000000007
 30
0
 40
1.92
  1
 0
 41
0.9
  0
ENDBLK
  8
0
  0
BLOCK
  8
1
  2
*D3
 70
1
 10
0
 20
0
 30
0
  0
LINE
  8
1
 62
2
 10
95.52091180435605
 20
12.86693942041256
 30
0
 11
89.12091180435596
 21
12.86693942041256
 31
0
  0
LINE
  8
1
 62
2
 10
86.12091180435596
 20
12.86693942041256
 30
0
 11
89.12091180435596
 21
12.86693942041256
 31
0
  0
LINE
  8
1
 62
2
 10
86.12091180435596
 20
12.86693942041256
 30
0
 11
74.22718178779587
 21
12.86693942041256
 31
0
  0
LINE
  8
1
 62
2
 10
86.12091180435596
 20
42.50398228888459
 30
0
 11
86.12091180435596
 21
11.86693942041256
 31
0
  0
LINE
  8
1
 62
2
 10
89.12091180435596
 20
42.89898228888469
 30
0
 11
89.12091180435596
 21
11.86693942041256
 31
0
  0
SOLID
  8
1
 62
2
 10
89.12091180435596
 20
12.86693942041256
 30
0
 11
92.32091180435596
 21
13.28293942041256
 31
0
 12
92.32091180435596
 22
12.45093942041256
 32
0
 13
92.32091180435596
 23
12.45093942041256
 33
0
  0
SOLID
  8
1
 62
2
 10
86.12091180435596
 20
12.86693942041256
 30
0
 11
82.92091180435595
 21
12.45093942041256
 31
0
 12
82.92091180435595
 22
13.28293942041256
 32
0
 13
82.92091180435595
 23
13.28293942041256
 33
0
  0
TEXT
  8
1
 62
2
 10
76.30718178779584
 20
13.86693942041256
 30
0
 40
3.2
  1
3
 41
0.9
  0
TEXT
  8
1
 62
2
 10
74.22718178779583
 20
13.86693942041256
 30
0
 40
3.2
  1
(
 41
0.9
  0
TEXT
  8
1
 62
2
 10
79.82718178779584
 20
13.86693942041256
 30
0
 40
3.2
  1
)
 41
0.9
  0
ENDBLK
  8
0
  0
BLOCK
  8
1
  2
*D4
 70
1
 10
0
 20
0
 30
0
  0
LINE
  8
1
 62
2
 10
185
 20
15.25000000000001
 30
0
 11
185
 21
47.25000000000001
 31
0
  0
LINE
  8
1
 62
2
 10
170.25
 20
15.25000000000001
 30
0
 11
186
 21
15.25000000000001
 31
0
  0
LINE
  8
1
 62
2
 10
172
 20
47.25000000000001
 30
0
 11
186
 21
47.25000000000001
 31
0
  0
SOLID
  8
1
 62
2
 10
185
 20
47.25000000000001
 30
0
 11
185.416
 21
44.05000000000001
 31
0
 12
184.584
 22
44.05000000000001
 32
0
 13
184.584
 23
44.05000000000001
 33
0
  0
SOLID
  8
1
 62
2
 10
185
 20
15.25000000000001
 30
0
 11
184.584
 21
18.45000000000001
 31
0
 12
185.416
 22
18.45000000000001
 32
0
 13
185.416
 23
18.45000000000001
 33
0
  0
TEXT
  8
1
 62
2
 10
184
 20
28.85000000000001
 30
0
 40
3.2
  1
32
 50
90
 41
0.9
  0
TEXT
  8
1
 62
2
 10
184
 20
26.77000000000001
 30
0
 40
3.2
  1
(
 50
90
 41
0.9
  0
TEXT
  8
1
 62
2
 10
184
 20
35.25000000000001
 30
0
 40
3.2
  1
)
 50
90
 41
0.9
  0
ENDBLK
  8
0
  0
BLOCK
  8
1
  2
*D5
 70
1
 10
0
 20
0
 30
0
  0
LINE
  8
1
 62
2
 10
-29.59999999999999
 20
9.749999999999981
 30
0
 11
-35.99999999999999
 21
9.749999999999981
 31
0
  0
LINE
  8
1
 62
2
 10
-36.49999999999999
 20
9.749999999999981
 30
0
 11
-35.99999999999999
 21
9.749999999999981
 31
0
  0
LINE
  8
1
 62
2
 10
-36.49999999999999
 20
9.749999999999981
 30
0
 11
-47.49173007942997
 21
9.749999999999981
 31
0
  0
LINE
  8
1
 62
2
 10
-36.49999999999999
 20
-17.7229932327033
 30
0
 11
-36.49999999999999
 21
10.74999999999998
 31
0
  0
LINE
  8
1
 62
2
 10
-35.99999999999999
 20
-15.21301556963091
 30
0
 11
-35.99999999999999
 21
10.74999999999998
 31
0
  0
SOLID
  8
1
 62
2
 10
-36.49999999999999
 20
9.749999999999981
 30
0
 11
-39.69999999999999
 21
9.333999999999982
 31
0
 12
-39.69999999999999
 22
10.16599999999998
 32
0
 13
-39.69999999999999
 23
10.16599999999998
 33
0
  0
SOLID
  8
1
 62
2
 10
-35.99999999999999
 20
9.749999999999981
 30
0
 11
-32.79999999999998
 21
10.16599999999998
 31
0
 12
-32.79999999999998
 22
9.33399999999998
 32
0
 13
-32.79999999999998
 23
9.33399999999998
 33
0
  0
TEXT
  8
1
 62
2
 10
-47.49173007942997
 20
10.74999999999998
 30
0
 40
3.2
  1
0.5
 41
0.9
  0
ENDBLK
  8
0
  0
BLOCK
  8
1
  2
*D6
 70
1
 10
0
 20
0
 30
0
  0
LINE
  8
1
 62
2
 10
-53.5
 20
-0.2499999999999889
 30
0
 11
-36.5
 21
-0.2499999999999889
 31
0
  0
LINE
  8
1
 62
2
 10
-53.5
 20
-19.25000000000001
 30
0
 11
-53.5
 21
0.7500000000000111
 31
0
  0
LINE
  8
1
 62
2
 10
-36.5
 20
-17.7229932327033
 30
0
 11
-36.5
 21
0.7500000000000111
 31
0
  0
SOLID
  8
1
 62
2
 10
-53.5
 20
-0.2499999999999889
 30
0
 11
-50.3
 21
0.1660000000000112
 31
0
 12
-50.3
 22
-0.6659999999999891
 32
0
 13
-50.3
 23
-0.6659999999999891
 33
0
  0
SOLID
  8
1
 62
2
 10
-36.5
 20
-0.2499999999999889
 30
0
 11
-39.7
 21
-0.6659999999999883
 31
0
 12
-39.7
 22
0.1660000000000113
 32
0
 13
-39.7
 23
0.1660000000000113
 33
0
  0
TEXT
  8
1
 62
2
 10
-46.92
 20
0.7500000000000111
 30
0
 40
3.2
  1
17
 41
0.9
  0
ENDBLK
  8
0
  0
BLOCK
  8
1
  2
*D7
 70
1
 10
0
 20
0
 30
0
  0
LINE
  8
1
 62
2
 10
-139.4562364348919
 20
57.3159105113614
 30
0
 11
-99.45623643489208
 21
57.3159105113614
 31
0
  0
LINE
  8
1
 62
2
 10
-139.4562364348919
 20
48.25
 30
0
 11
-139.4562364348919
 21
58.3159105113614
 31
0
  0
LINE
  8
1
 62
2
 10
-99.45623643489208
 20
48.3593059936909
 30
0
 11
-99.45623643489208
 21
58.3159105113614
 31
0
  0
SOLID
  8
1
 62
2
 10
-139.4562364348919
 20
57.3159105113614
 30
0
 11
-136.256236434892
 21
57.7319105113614
 31
0
 12
-136.256236434892
 22
56.89991051136141
 32
0
 13
-136.256236434892
 23
56.89991051136141
 33
0
  0
SOLID
  8
1
 62
2
 10
-99.45623643489208
 20
57.3159105113614
 30
0
 11
-102.6562364348921
 21
56.89991051136141
 31
0
 12
-102.6562364348921
 22
57.7319105113614
 32
0
 13
-102.6562364348921
 23
57.7319105113614
 33
0
  0
TEXT
  8
1
 62
2
 10
-125.080236434892
 20
58.3159105113614
 30
0
 40
3.2
  1
40
 41
0.9
  0
TEXT
  8
1
 62
2
 10
-118.680236434892
 20
58.9559105113614
 30
0
 40
1.92
  1
%%p0.3
 41
0.9
  0
ENDBLK
  8
0
  0
BLOCK
  8
1
  2
*D8
 70
1
 10
0
 20
0
 30
0
  0
LINE
  8
1
 62
2
 10
-159.456236434892
 20
31.25000000000001
 30
0
 11
-159.456236434892
 21
47.25000000000001
 31
0
  0
LINE
  8
1
 62
2
 10
-126.456236434892
 20
31.25000000000001
 30
0
 11
-160.456236434892
 21
31.25000000000001
 31
0
  0
LINE
  8
1
 62
2
 10
-146.456236434892
 20
47.25000000000001
 30
0
 11
-160.456236434892
 21
47.25000000000001
 31
0
  0
SOLID
  8
1
 62
2
 10
-159.456236434892
 20
31.25000000000001
 30
0
 11
-159.872236434892
 21
34.45000000000001
 31
0
 12
-159.040236434892
 22
34.45000000000001
 32
0
 13
-159.040236434892
 23
34.45000000000001
 33
0
  0
SOLID
  8
1
 62
2
 10
-159.456236434892
 20
47.25000000000001
 30
0
 11
-159.040236434892
 21
44.05
 31
0
 12
-159.872236434892
 22
44.05
 32
0
 13
-159.872236434892
 23
44.05
 33
0
  0
TEXT
  8
1
 62
2
 10
-160.456236434892
 20
37.33000000000001
 30
0
 40
3.2
  1
16
 50
90
 41
0.9
  0
ENDBLK
  8
0
  0
BLOCK
  8
1
  2
*D9
 70
1
 10
0
 20
0
 30
0
  0
LINE
  8
1
 62
2
 10
-159.456236434892
 20
-23.25000000000001
 30
0
 11
-159.456236434892
 21
16.75000000000001
 31
0
  0
LINE
  8
1
 62
2
 10
-150.4562364348919
 20
-23.25000000000001
 30
0
 11
-160.456236434892
 21
-23.25000000000001
 31
0
  0
LINE
  8
1
 62
2
 10
-150.4562364348919
 20
16.75000000000001
 30
0
 11
-160.456236434892
 21
16.75000000000001
 31
0
  0
SOLID
  8
1
 62
2
 10
-159.456236434892
 20
16.75000000000001
 30
0
 11
-159.040236434892
 21
13.55000000000001
 31
0
 12
-159.872236434892
 22
13.55000000000001
 32
0
 13
-159.872236434892
 23
13.55000000000001
 33
0
  0
SOLID
  8
1
 62
2
 10
-159.456236434892
 20
-23.25000000000001
 30
0
 11
-159.872236434892
 21
-20.05000000000002
 31
0
 12
-159.040236434892
 22
-20.05000000000002
 32
0
 13
-159.040236434892
 23
-20.05000000000002
 33
0
  0
TEXT
  8
1
 62
2
 10
-160.456236434892
 20
-8.874000000000017
 30
0
 40
3.2
  1
40
 50
90
 41
0.9
  0
TEXT
  8
1
 62
2
 10
-161.096236434892
 20
-2.474000000000014
 30
0
 40
1.92
  1
%%p0.3
 50
90
 41
0.9
  0
ENDBLK
  8
0
  0
BLOCK
  8
1
  2
*D10
 70
1
 10
0
 20
0
 30
0
  0
LINE
  8
1
 62
2
 10
-159.456236434892
 20
-47.25000000000001
 30
0
 11
-159.456236434892
 21
-23.25000000000001
 31
0
  0
LINE
  8
1
 62
2
 10
-146.4562364348919
 20
-47.25000000000001
 30
0
 11
-160.456236434892
 21
-47.25000000000001
 31
0
  0
LINE
  8
1
 62
2
 10
-150.4562364348919
 20
-23.25000000000001
 30
0
 11
-160.456236434892
 21
-23.25000000000001
 31
0
  0
SOLID
  8
1
 62
2
 10
-159.456236434892
 20
-23.25000000000001
 30
0
 11
-159.040236434892
 21
-26.45000000000001
 31
0
 12
-159.872236434892
 22
-26.45000000000001
 32
0
 13
-159.872236434892
 23
-26.45000000000001
 33
0
  0
SOLID
  8
1
 62
2
 10
-159.456236434892
 20
-47.25000000000001
 30
0
 11
-159.872236434892
 21
-44.05
 31
0
 12
-159.040236434892
 22
-44.05
 32
0
 13
-159.040236434892
 23
-44.05
 33
0
  0
TEXT
  8
1
 62
2
 10
-160.456236434892
 20
-37.65000000000001
 30
0
 40
3.2
  1
24
 50
90
 41
0.9
  0
ENDBLK
  8
0
  0
BLOCK
  8
1
  2
*D11
 70
1
 10
0
 20
0
 30
0
  0
LINE
  8
1
 62
2
 10
-171.4915159331527
 20
-47.25000000000001
 30
0
 11
-171.4915159331527
 21
47.25000000000001
 31
0
  0
LINE
  8
1
 62
2
 10
-146.456236434892
 20
-47.25000000000001
 30
0
 11
-172.4915159331527
 21
-47.25000000000001
 31
0
  0
LINE
  8
1
 62
2
 10
-146.456236434892
 20
47.25000000000001
 30
0
 11
-172.4915159331527
 21
47.25000000000001
 31
0
  0
SOLID
  8
1
 62
2
 10
-171.4915159331527
 20
-47.25000000000001
 30
0
 11
-171.9075159331527
 21
-44.05
 31
0
 12
-171.0755159331527
 22
-44.05
 32
0
 13
-171.0755159331527
 23
-44.05
 33
0
  0
SOLID
  8
1
 62
2
 10
-171.4915159331527
 20
47.25000000000001
 30
0
 11
-171.0755159331527
 21
44.05
 31
0
 12
-171.9075159331527
 22
44.05
 32
0
 13
-171.9075159331527
 23
44.05
 33
0
  0
TEXT
  8
1
 62
2
 10
-172.4915159331527
 20
-4.359999999999986
 30
0
 40
3.2
  1
94.5
 50
90
 41
0.9
  0
ENDBLK
  8
0
  0
BLOCK
  8
1
  2
*D12
 70
1
 10
0
 20
0
 30
0
  0
LINE
  8
1
 62
2
 10
-149.4562364348919
 20
69.30722910344591
 30
0
 11
-89.45623643489208
 21
69.30722910344591
 31
0
  0
LINE
  8
1
 62
2
 10
-149.4562364348919
 20
44.25000000000001
 30
0
 11
-149.4562364348919
 21
70.30722910344591
 31
0
  0
LINE
  8
1
 62
2
 10
-89.45623643489208
 20
44.25000000000001
 30
0
 11
-89.45623643489208
 21
70.30722910344591
 31
0
  0
SOLID
  8
1
 62
2
 10
-149.4562364348919
 20
69.30722910344591
 30
0
 11
-146.256236434892
 21
69.7232291034459
 31
0
 12
-146.256236434892
 22
68.89122910344591
 32
0
 13
-146.256236434892
 23
68.89122910344591
 33
0
  0
SOLID
  8
1
 62
2
 10
-89.45623643489208
 20
69.30722910344591
 30
0
 11
-92.65623643489208
 21
68.89122910344591
 31
0
 12
-92.65623643489208
 22
69.7232291034459
 32
0
 13
-92.65623643489208
 23
69.7232291034459
 33
0
  0
TEXT
  8
1
 62
2
 10
-121.856236434892
 20
70.30722910344591
 30
0
 40
3.2
  1
60
 41
0.9
  0
ENDBLK
  8
0
  0
BLOCK
  8
1
  2
*D13
 70
1
 10
0
 20
0
 30
0
  0
LINE
  8
1
 62
2
 10
-62.92692826673143
 20
-20.25000000000001
 30
0
 11
-62.92692826673143
 21
-10.6054867277327
 31
0
  0
LINE
  8
1
 62
2
 10
-62.92692826673143
 20
-27.25000000000001
 30
0
 11
-62.92692826673143
 21
-20.25000000000001
 31
0
  0
LINE
  8
1
 62
2
 10
-62.92692826673143
 20
-33.65000000000001
 30
0
 11
-62.92692826673143
 21
-27.25000000000001
 31
0
  0
LINE
  8
1
 62
2
 10
-54.49999999999999
 20
-20.25000000000001
 30
0
 11
-63.92692826673143
 21
-20.25000000000001
 31
0
  0
LINE
  8
1
 62
2
 10
-54.49999999999999
 20
-27.25000000000001
 30
0
 11
-63.92692826673143
 21
-27.25000000000001
 31
0
  0
SOLID
  8
1
 62
2
 10
-62.92692826673143
 20
-20.25000000000001
 30
0
 11
-63.34292826673143
 21
-17.05000000000001
 31
0
 12
-62.51092826673143
 22
-17.05000000000001
 32
0
 13
-62.51092826673143
 23
-17.05000000000001
 33
0
  0
SOLID
  8
1
 62
2
 10
-62.92692826673143
 20
-27.25000000000001
 30
0
 11
-62.51092826673143
 21
-30.45000000000001
 31
0
 12
-63.34292826673143
 22
-30.45000000000001
 32
0
 13
-63.34292826673143
 23
-30.45000000000001
 33
0
  0
TEXT
  8
1
 62
2
 10
-63.92692826673143
 20
-12.5254867277327
 30
0
 40
3.2
  1
7
 50
90
 41
0.9
  0
ENDBLK
  8
0
  0
BLOCK
  8
1
  2
*D14
 70
1
 10
0
 20
0
 30
0
  0
LINE
  8
1
 62
2
 10
-74.96524210975855
 20
-19.25000000000001
 30
0
 11
-74.96524210975855
 21
2.07665869286361
 31
0
  0
LINE
  8
1
 62
2
 10
-74.96524210975855
 20
-27.25000000000001
 30
0
 11
-74.96524210975855
 21
-19.25000000000001
 31
0
  0
LINE
  8
1
 62
2
 10
-74.96524210975855
 20
-33.65000000000001
 30
0
 11
-74.96524210975855
 21
-27.25000000000001
 31
0
  0
LINE
  8
1
 62
2
 10
-40.50000000000001
 20
-19.25000000000001
 30
0
 11
-75.96524210975855
 21
-19.25000000000001
 31
0
  0
LINE
  8
1
 62
2
 10
-54.5
 20
-27.25000000000001
 30
0
 11
-75.96524210975855
 21
-27.25000000000001
 31
0
  0
SOLID
  8
1
 62
2
 10
-74.96524210975855
 20
-19.25000000000001
 30
0
 11
-75.38124210975855
 21
-16.05000000000001
 31
0
 12
-74.54924210975855
 22
-16.05000000000001
 32
0
 13
-74.54924210975855
 23
-16.05000000000001
 33
0
  0
SOLID
  8
1
 62
2
 10
-74.96524210975855
 20
-27.25000000000001
 30
0
 11
-74.54924210975855
 21
-30.45000000000001
 31
0
 12
-75.38124210975855
 22
-30.45000000000001
 32
0
 13
-75.38124210975855
 23
-30.45000000000001
 33
0
  0
TEXT
  8
1
 62
2
 10
-76.76524210975856
 20
-8.211341307136388
 30
0
 40
3.2
  1
8
 50
90
 41
0.9
  0
TEXT
  8
1
 62
2
 10
-78.84524210975856
 20
-4.691341307136388
 30
0
 40
1.92
  1
 0
 50
90
 41
0.9
  0
TEXT
  8
1
 62
2
 10
-75.96524210975855
 20
-4.691341307136388
 30
0
 40
1.92
  1
-0.02
 50
90
 41
0.9
  0
TEXT
  8
1
 62
2
 10
-76.76524210975856
 20
-11.85578575158083
 30
0
 40
3.2
  1
ƒÓ
 50
90
 41
0.9
  0
ENDBLK
  8
0
  0
BLOCK
  8
1
  2
*D15
 70
1
 10
0
 20
0
 30
0
  0
LINE
  8
1
 62
2
 10
-53.5
 20
-10.24999999999999
 30
0
 11
-39.49999999999999
 21
-10.24999999999999
 31
0
  0
LINE
  8
1
 62
2
 10
-53.5
 20
-19.25000000000001
 30
0
 11
-53.5
 21
-9.249999999999991
 31
0
  0
LINE
  8
1
 62
2
 10
-39.49999999999999
 20
-18.25000000000001
 30
0
 11
-39.49999999999999
 21
-9.249999999999991
 31
0
  0
SOLID
  8
1
 62
2
 10
-53.5
 20
-10.24999999999999
 30
0
 11
-50.3
 21
-9.833999999999991
 31
0
 12
-50.3
 22
-10.66599999999999
 32
0
 13
-50.3
 23
-10.66599999999999
 33
0
  0
SOLID
  8
1
 62
2
 10
-39.49999999999999
 20
-10.24999999999999
 30
0
 11
-42.7
 21
-10.66599999999999
 31
0
 12
-42.7
 22
-9.833999999999991
 32
0
 13
-42.7
 23
-9.833999999999991
 33
0
  0
TEXT
  8
1
 62
2
 10
-48.42
 20
-9.249999999999991
 30
0
 40
3.2
  1
14
 41
0.9
  0
ENDBLK
  8
0
  0
BLOCK
  8
1
  2
*D16
 70
1
 10
0
 20
0
 30
0
  0
LINE
  8
1
 62
2
 10
115
 20
57.3159105113614
 30
0
 11
126.5
 21
57.3159105113614
 31
0
  0
LINE
  8
1
 62
2
 10
115
 20
44.25
 30
0
 11
115
 21
58.3159105113614
 31
0
  0
LINE
  8
1
 62
2
 10
126.5
 20
44.25
 30
0
 11
126.5
 21
58.3159105113614
 31
0
  0
SOLID
  8
1
 62
2
 10
115
 20
57.3159105113614
 30
0
 11
118.2
 21
57.7319105113614
 31
0
 12
118.2
 22
56.89991051136141
 32
0
 13
118.2
 23
56.89991051136141
 33
0
  0
SOLID
  8
1
 62
2
 10
126.5
 20
57.3159105113614
 30
0
 11
123.3
 21
56.89991051136141
 31
0
 12
123.3
 22
57.7319105113614
 32
0
 13
123.3
 23
57.7319105113614
 33
0
  0
TEXT
  8
1
 62
2
 10
119.31
 20
58.3159105113614
 30
0
 40
3.2
  1
11
 41
0.9
  0
TEXT
  8
1
 62
2
 10
117.23
 20
58.3159105113614
 30
0
 40
3.2
  1
(
 41
0.9
  0
TEXT
  8
1
 62
2
 10
123.79
 20
58.3159105113614
 30
0
 40
3.2
  1
)
 41
0.9
  0
ENDBLK
  8
0
  0
BLOCK
  8
1
  2
*D17
 70
1
 10
0
 20
0
 30
0
  0
LINE
  8
1
 62
2
 10
163.5
 20
57.3159105113614
 30
0
 11
175
 21
57.3159105113614
 31
0
  0
LINE
  8
1
 62
2
 10
163.5
 20
44.25
 30
0
 11
163.5
 21
58.3159105113614
 31
0
  0
LINE
  8
1
 62
2
 10
175
 20
44.25000000000004
 30
0
 11
175
 21
58.3159105113614
 31
0
  0
SOLID
  8
1
 62
2
 10
163.5
 20
57.3159105113614
 30
0
 11
166.7
 21
57.7319105113614
 31
0
 12
166.7
 22
56.89991051136141
 32
0
 13
166.7
 23
56.89991051136141
 33
0
  0
SOLID
  8
1
 62
2
 10
175
 20
57.3159105113614
 30
0
 11
171.8
 21
56.89991051136141
 31
0
 12
171.8
 22
57.7319105113614
 32
0
 13
171.8
 23
57.7319105113614
 33
0
  0
TEXT
  8
1
 62
2
 10
167.81
 20
58.3159105113614
 30
0
 40
3.2
  1
11
 41
0.9
  0
TEXT
  8
1
 62
2
 10
165.73
 20
58.3159105113614
 30
0
 40
3.2
  1
(
 41
0.9
  0
TEXT
  8
1
 62
2
 10
172.29
 20
58.3159105113614
 30
0
 40
3.2
  1
)
 41
0.9
  0
ENDBLK
  8
0
  0
BLOCK
  8
1
  2
*D18
 70
1
 10
0
 20
0
 30
0
  0
LINE
  8
1
 62
2
 10
-36.5
 20
57.3159105113614
 30
0
 11
-14.49999999999999
 21
57.3159105113614
 31
0
  0
LINE
  8
1
 62
2
 10
-36.5
 20
22.27700676729668
 30
0
 11
-36.5
 21
58.3159105113614
 31
0
  0
LINE
  8
1
 62
2
 10
-14.49999999999999
 20
48.25
 30
0
 11
-14.49999999999999
 21
58.3159105113614
 31
0
  0
SOLID
  8
1
 62
2
 10
-36.5
 20
57.3159105113614
 30
0
 11
-33.3
 21
57.7319105113614
 31
0
 12
-33.3
 22
56.89991051136141
 32
0
 13
-33.3
 23
56.89991051136141
 33
0
  0
SOLID
  8
1
 62
2
 10
-14.49999999999999
 20
57.3159105113614
 30
0
 11
-17.69999999999999
 21
56.89991051136141
 31
0
 12
-17.69999999999999
 22
57.7319105113614
 32
0
 13
-17.69999999999999
 23
57.7319105113614
 33
0
  0
TEXT
  8
1
 62
2
 10
-27.89999999999999
 20
58.3159105113614
 30
0
 40
3.2
  1
22
 41
0.9
  0
ENDBLK
  8
0
  0
BLOCK
  8
1
  2
*D19
 70
1
 10
0
 20
0
 30
0
  0
LINE
  8
1
 62
2
 10
-36.5
 20
69.22386342914051
 30
0
 11
33.39999999999986
 21
69.22386342914051
 31
0
  0
LINE
  8
1
 62
2
 10
-36.5
 20
22.27700676729667
 30
0
 11
-36.5
 21
70.22386342914051
 31
0
  0
LINE
  8
1
 62
2
 10
33.39999999999985
 20
47.24999999999999
 30
0
 11
33.39999999999986
 21
70.22386342914051
 31
0
  0
SOLID
  8
1
 62
2
 10
-36.5
 20
69.22386342914051
 30
0
 11
-33.3
 21
69.63986342914051
 31
0
 12
-33.3
 22
68.80786342914051
 32
0
 13
-33.3
 23
68.80786342914051
 33
0
  0
SOLID
  8
1
 62
2
 10
33.39999999999986
 20
69.22386342914051
 30
0
 11
30.19999999999986
 21
68.80786342914051
 31
0
 12
30.19999999999986
 22
69.63986342914051
 32
0
 13
30.19999999999986
 23
69.63986342914051
 33
0
  0
TEXT
  8
1
 62
2
 10
-5.910000000000069
 20
70.22386342914051
 30
0
 40
3.2
  1
69.9
 41
0.9
  0
ENDBLK
  8
0
  0
BLOCK
  8
1
  2
*D20
 70
1
 10
0
 20
0
 30
0
  0
LINE
  8
1
 62
2
 10
-73.0644513178752
 20
-57.3022212403035
 30
0
 11
-22.1044513178752
 21
-57.3022212403035
 31
0
  0
LINE
  8
1
 62
2
 10
-98.23105500449474
 20
-24.8308005764832
 30
0
 11
-73.0644513178752
 21
-57.3022212403035
 31
0
  0
SOLID
  8
1
 62
2
 10
-98.23105500449474
 20
-24.8308005764832
 30
0
 11
-95.94195819595053
 21
-27.10524376133367
 31
0
 12
-96.59957123576754
 22
-27.61491923637895
 32
0
 13
-96.59957123576754
 23
-27.61491923637895
 33
0
  0
TEXT
  8
1
 62
2
 10
-58.5844513178752
 20
-56.3022212403035
 30
0
 40
3.2
  1
4
 41
0.9
  0
TEXT
  8
1
 62
2
 10
-67.86445131787519
 20
-56.3022212403035
 30
0
 40
3.2
  1
4-M
 41
0.9
  0
TEXT
  8
1
 62
2
 10
-55.0644513178752
 20
-56.3022212403035
 30
0
 40
3.2
  1
 DEPTH 6MAX
 41
0.9
  0
ENDBLK
  8
0
  0
ENDSEC
  0
SECTION
  2
ENTITIES
  0
LINE
  8
1
 62
3
 10
162.75
 20
31.25000000000001
 30
0
 11
177.6938493032267
 21
31.25000000000001
 31
0
  0
LINE
  8
1
 62
7
 10
164.2867489613315
 20
18.64490568738788
 30
0
 11
162.75
 21
31.25000000000001
 31
0
  0
LINE
  8
1
 62
3
 10
115
 20
-18.25000000000001
 30
0
 11
124
 21
-18.25000000000001
 31
0
  0
LINE
  8
1
 62
3
 10
119.5
 20
-13.75000000000001
 30
0
 11
119.5
 21
-22.75000000000001
 31
0
  0
LINE
  8
1
 62
3
 10
170.5
 20
-38.25000000000001
 30
0
 11
170.5
 21
-47.25000000000001
 31
0
  0
LINE
  8
1
 62
3
 10
166
 20
-42.75000000000001
 30
0
 11
175
 21
-42.75000000000001
 31
0
  0
LINE
  8
1
 62
3
 10
170.5
 20
14.25000000000001
 30
0
 11
170.5
 21
5.250000000000014
 31
0
  0
LINE
  8
1
 62
3
 10
166
 20
9.750000000000014
 30
0
 11
175
 21
9.750000000000014
 31
0
  0
LINE
  8
1
 62
7
 10
157.9903810567709
 20
23.74999999999726
 30
0
 11
157.99038105677
 21
23.74999999999613
 31
0
  0
LINE
  8
1
 62
7
 10
157.9903810567709
 20
23.74999999999726
 30
0
 11
157.200899669262
 21
24.06364854319252
 31
0
  0
LINE
  8
1
 62
7
 10
158.8564064605549
 20
23.24999999999743
 30
0
 11
157.9903810567709
 21
23.74999999999726
 31
0
  0
LINE
  8
1
 62
7
 10
157.99038105677
 20
23.74999999999613
 30
0
 11
157.9903810567709
 21
23.74999999999726
 31
0
  0
LINE
  8
1
 62
7
 10
158.8564064605549
 20
23.24999999999613
 30
0
 11
158.8564064605549
 21
23.24999999999743
 31
0
  0
LINE
  8
1
 62
7
 10
155.866841246586
 20
21.73231967960714
 30
0
 11
156.2797247722189
 21
22.69001115286125
 31
0
  0
LINE
  8
1
 62
7
 10
152.500000000004
 20
18.25961894322955
 30
0
 11
153.000000000004
 21
17.39359353944513
 31
0
  0
LINE
  8
1
 62
7
 10
152.186351456808
 20
19.04910033073866
 30
0
 11
152.500000000004
 21
18.25961894322955
 31
0
  0
LINE
  8
1
 62
7
 10
154.57152551963
 20
20.34247540815533
 30
0
 11
153.538237379962
 21
19.95380141624787
 31
0
  0
LINE
  8
1
 62
7
 10
132.0096189432331
 20
38.74999999999886
 30
0
 11
132.009618943234
 21
38.74999999999999
 31
0
  0
LINE
  8
1
 62
7
 10
132.0096189432331
 20
38.74999999999886
 30
0
 11
132.799100330742
 21
38.43635145680361
 31
0
  0
LINE
  8
1
 62
7
 10
131.1435935394491
 20
39.24999999999869
 30
0
 11
132.0096189432331
 21
38.74999999999886
 31
0
  0
LINE
  8
1
 62
7
 10
137.5
 20
44.24038105676657
 30
0
 11
137
 21
45.106406460551
 31
0
  0
LINE
  8
1
 62
7
 10
132.009618943234
 20
38.74999999999999
 30
0
 11
132.0096189432331
 21
38.74999999999886
 31
0
  0
LINE
  8
1
 62
7
 10
131.1435935394491
 20
39.24999999999999
 30
0
 11
131.1435935394491
 21
39.24999999999869
 31
0
  0
LINE
  8
1
 62
7
 10
148
 20
46.96623364550169
 30
0
 11
148
 21
41.04999999999995
 31
0
  0
LINE
  8
1
 62
7
 10
142
 20
46.96623364550169
 30
0
 11
142
 21
41.04999999999995
 31
0
  0
LINE
  8
1
 62
7
 10
142
 20
41.04999999999995
 30
0
 11
148
 21
41.04999999999995
 31
0
  0
LINE
  8
1
 62
3
 10
138.2
 20
20.13244816332798
 30
0
 11
138.2
 21
13.73311985232897
 31
0
  0
LINE
  8
1
 62
3
 10
158.3
 20
46.233079364373
 30
0
 11
158.3
 21
38.970920269867
 31
0
  0
LINE
  8
1
 62
3
 10
131.7
 20
47.24999999999999
 30
0
 11
131.7
 21
38.68331000869898
 31
0
  0
LINE
  8
1
 62
3
 10
135.4171798959201
 20
16.75
 30
0
 11
141.450390084465
 21
16.75
 31
0
  0
LINE
  8
1
 62
3
 10
155.1129386781931
 20
42.74999999999999
 30
0
 11
161.310901044885
 21
42.74999999999999
 31
0
  0
LINE
  8
1
 62
3
 10
127.976988059924
 20
42.74999999999999
 30
0
 11
135.28740521038
 21
42.74999999999999
 31
0
  0
LINE
  8
1
 62
7
 10
137.813648543196
 20
43.45089966925747
 30
0
 11
137.5
 21
44.24038105676657
 31
0
  0
LINE
  8
1
 62
7
 10
135.428474480374
 20
42.1575245918408
 30
0
 11
136.461762620042
 21
42.54619858374826
 31
0
  0
LINE
  8
1
 62
7
 10
134.133158753418
 20
40.76768032038898
 30
0
 11
133.7202752277851
 21
39.80998884713488
 31
0
  0
LINE
  8
1
 62
3
 10
-33.44182330683816
 20
31.24999999999999
 30
0
 11
39.06999788488588
 21
31.24999999999999
 31
0
  0
LINE
  8
1
 62
7
 10
-10.29999999999995
 20
47.25000000000004
 30
0
 11
-10.30000000000018
 21
16.75000000000011
 31
0
  0
LINE
  8
1
 62
7
 10
0.9499999999998181
 20
44.14700000000004
 30
0
 11
0.9499999999998181
 21
18.35300000000006
 31
0
  0
LINE
  8
1
 62
7
 10
17.94999999999982
 20
44.14700000000004
 30
0
 11
0.9499999999998181
 21
44.14700000000004
 31
0
  0
LINE
  8
1
 62
7
 10
17.94999999999982
 20
18.35300000000006
 30
0
 11
17.94999999999982
 21
44.14700000000004
 31
0
  0
LINE
  8
1
 62
7
 10
0.9499999999998181
 20
18.35300000000006
 30
0
 11
17.94999999999982
 21
18.35300000000006
 31
0
  0
LINE
  8
1
 62
7
 10
29.20000000000096
 20
15.25
 30
0
 11
29.20000000000096
 21
41.8137084989846
 31
0
  0
LINE
  8
1
 62
7
 10
29.20000000000096
 20
43.3137084989846
 30
0
 11
28.09999999999991
 21
43.3137084989846
 31
0
  0
LINE
  8
1
 62
7
 10
29.20000000000096
 20
43.3137084989846
 30
0
 11
29.20000000000096
 21
47.24999999999999
 31
0
  0
LINE
  8
1
 62
7
 10
28.09999999999991
 20
45.8137084989846
 30
0
 11
28.09999999999991
 21
39.3137084989846
 31
0
  0
LINE
  8
1
 62
7
 10
28.09999999999991
 20
45.8137084989846
 30
0
 11
26.70000000000096
 21
45.8137084989846
 31
0
  0
LINE
  8
1
 62
7
 10
26.70000000000096
 20
45.8137084989846
 30
0
 11
26.70000000000096
 21
39.3137084989846
 31
0
  0
LINE
  8
1
 62
7
 10
26.70000000000096
 20
39.3137084989846
 30
0
 11
28.09999999999991
 21
39.3137084989846
 31
0
  0
LINE
  8
1
 62
7
 10
28.09999999999991
 20
41.8137084989846
 30
0
 11
29.20000000000096
 21
41.8137084989846
 31
0
  0
LINE
  8
1
 62
7
 10
32.39999999999986
 20
47.24999999999999
 30
0
 11
-8.800000000000182
 21
47.24999999999999
 31
0
  0
LINE
  8
1
 62
7
 10
33.39999999999986
 20
46.24999999999999
 30
0
 11
33.39999999999986
 21
16.25
 31
0
  0
LINE
  8
1
 62
7
 10
32.39999999999986
 20
15.25
 30
0
 11
-8.800000000000182
 21
15.25000000000011
 31
0
  0
LINE
  8
1
 62
7
 10
32.39999999999986
 20
15.25
 30
0
 11
33.39999999999986
 21
16.25
 31
0
  0
LINE
  8
1
 62
7
 10
32.39999999999986
 20
47.24999999999999
 30
0
 11
32.39999999999986
 21
45.23400296755769
 31
0
  0
LINE
  8
1
 62
7
 10
29.20000000000096
 20
39.02480938694529
 30
0
 11
32.39999999999986
 21
39.02480938694529
 31
0
  0
LINE
  8
1
 62
7
 10
32.39999999999986
 20
39.02480938694529
 30
0
 11
32.39999999999986
 21
15.25
 31
0
  0
LINE
  8
1
 62
7
 10
29.20000000000096
 20
45.23400296755769
 30
0
 11
32.39999999999986
 21
45.23400296755769
 31
0
  0
LINE
  8
1
 62
7
 10
33.39999999999986
 20
43.69144631178298
 30
0
 11
29.20000000000096
 21
43.69144631178298
 31
0
  0
LINE
  8
1
 62
7
 10
32.39999999999986
 20
45.23400296755769
 30
0
 11
33.39999999999986
 21
43.69144631178298
 31
0
  0
LINE
  8
1
 62
7
 10
32.39999999999986
 20
39.02480938694529
 30
0
 11
33.39999999999986
 21
38.44745911775569
 31
0
  0
LINE
  8
1
 62
7
 10
33.39999999999986
 20
25.24999999999999
 30
0
 11
34.59999999999991
 21
26.64999999999997
 31
0
  0
LINE
  8
1
 62
7
 10
34.59999999999991
 20
26.64999999999997
 30
0
 11
34.59999999999991
 21
35.84999999999987
 31
0
  0
LINE
  8
1
 62
7
 10
34.59999999999991
 20
35.84999999999987
 30
0
 11
33.39999999999986
 21
37.24999999999999
 31
0
  0
LINE
  8
1
 62
7
 10
32.39999999999986
 20
47.24999999999999
 30
0
 11
33.39999999999986
 21
46.24999999999999
 31
0
  0
LINE
  8
1
 62
2
 10
68.35882916353971
 20
65.89861998126089
 30
0
 11
139.4087056195048
 21
65.89861998126089
 31
0
  0
LINE
  8
1
 62
7
 10
57.06144007521903
 20
45.16398228888468
 30
0
 11
86.12091180435596
 21
45.16398228888468
 31
0
  0
LINE
  8
1
 62
7
 10
56.963053911619
 20
45.9939822888846
 30
0
 11
86.12091180435596
 21
45.9939822888846
 31
0
  0
LINE
  8
1
 62
7
 10
35.13999999999987
 20
43.50398228888459
 30
0
 11
50.30044869340895
 21
43.50398228888459
 31
0
  0
LINE
  8
1
 62
7
 10
35.13999999999987
 20
45.16398228888468
 30
0
 11
50.16887205054991
 21
45.16398228888468
 31
0
  0
LINE
  8
1
 62
7
 10
86.12091180435596
 20
45.9939822888846
 30
0
 11
86.12091180435596
 21
43.50398228888459
 31
0
  0
LINE
  8
1
 62
7
 10
86.12091180435596
 20
45.6189822888846
 30
0
 11
89.12091180435596
 21
45.6189822888846
 31
0
  0
LINE
  8
1
 62
7
 10
89.12091180435596
 20
44.5689822888846
 30
0
 11
86.12091180435596
 21
44.5689822888846
 31
0
  0
LINE
  8
1
 62
7
 10
86.12091180435596
 20
44.94898228888459
 30
0
 11
89.12091180435596
 21
44.94898228888459
 31
0
  0
LINE
  8
1
 62
7
 10
89.12091180435596
 20
43.8989822888847
 30
0
 11
86.12091180435596
 21
43.8989822888847
 31
0
  0
LINE
  8
1
 62
7
 10
35.13999999999987
 20
41.99398228888457
 30
0
 11
35.13999999999987
 21
45.9939822888846
 31
0
  0
LINE
  8
1
 62
7
 10
31.87892550688093
 20
48.91771376674539
 30
0
 11
31.79968157421195
 21
47.24999999999999
 31
0
  0
LINE
  8
1
 62
7
 10
35.40163799369498
 20
49.39398228888469
 30
0
 11
32.37836200630591
 21
49.39398228888469
 31
0
  0
LINE
  8
1
 62
7
 10
36.02989250078485
 20
46.2066978245858
 30
0
 11
35.90107449311995
 21
48.91771376674539
 31
0
  0
LINE
  8
1
 62
7
 10
33.39999999999986
 20
41.99398228888457
 30
0
 11
35.13999999999987
 21
41.99398228888457
 31
0
  0
LINE
  8
1
 62
7
 10
57.19301671807693
 20
43.50398228888459
 30
0
 11
86.12091180435596
 21
43.50398228888459
 31
0
  0
LINE
  8
1
 62
7
 10
33.39999999999986
 20
45.9939822888846
 30
0
 11
50.07048588694897
 21
45.9939822888846
 31
0
  0
LINE
  8
1
 62
3
 10
-125.456236434892
 20
31.25000000000001
 30
0
 11
-128.456236434892
 21
31.25000000000001
 31
0
  0
LINE
  8
1
 62
7
 10
-145.4562364348919
 20
47.25000000000001
 30
0
 11
-93.45623643489205
 21
47.25000000000001
 31
0
  0
LINE
  8
1
 62
3
 10
-139.4562364348919
 20
47.25000000000001
 30
0
 11
-139.4562364348919
 21
50.25000000000001
 31
0
  0
LINE
  8
1
 62
3
 10
-99.45623643489205
 20
47.3593059936909
 30
0
 11
-99.45623643489205
 21
50.25000000000001
 31
0
  0
LINE
  8
1
 62
3
 10
-149.4562364348919
 20
-23.25000000000001
 30
0
 11
-153.4562364348919
 21
-23.25000000000001
 31
0
  0
LINE
  8
1
 62
7
 10
-149.4562364348919
 20
43.25000000000001
 30
0
 11
-149.4562364348919
 21
-43.25000000000001
 31
0
  0
LINE
  8
1
 62
3
 10
-149.4562364348919
 20
16.75000000000001
 30
0
 11
-153.4562364348919
 21
16.75000000000001
 31
0
  0
LINE
  8
1
 62
2
 10
-72.69068014033576
 20
-64.25000000000001
 30
0
 11
-22.19068014033575
 21
-64.25000000000001
 31
0
  0
LINE
  8
1
 62
2
 10
-14.49999999999999
 20
24.75000000000001
 30
0
 11
-12.90000000000008
 21
24.75000000000001
 31
0
  0
LINE
  8
1
 62
7
 10
-31.5
 20
11.28270459830487
 30
0
 11
-31.5
 21
5.025785323693881
 31
0
  0
LINE
  8
1
 62
7
 10
-28
 20
-24.25000000000001
 30
0
 11
-30
 21
-24.25000000000001
 31
0
  0
LINE
  8
1
 62
7
 10
-28
 20
-22.25000000000001
 30
0
 11
-30
 21
-22.25000000000001
 31
0
  0
LINE
  8
1
 62
7
 10
-36.5
 20
-18.7229932327033
 30
0
 11
-36.5
 21
-27.77700676729661
 31
0
  0
LINE
  8
1
 62
7
 10
-36.02773500981112
 20
-28.27623694389929
 30
0
 11
-28
 21
-28.7499999999999
 31
0
  0
LINE
  8
1
 62
7
 10
-28
 20
-17.75000000000001
 30
0
 11
-36.02773500981112
 21
-18.22376305610059
 31
0
  0
LINE
  8
1
 62
7
 10
-30
 20
-22.25000000000001
 30
0
 11
-30
 21
-24.25000000000001
 31
0
  0
LINE
  8
1
 62
7
 10
-30
 20
15.75000000000001
 30
0
 11
-30
 21
17.75000000000001
 31
0
  0
LINE
  8
1
 62
7
 10
-11.40000000000008
 20
-21.6801690413139
 30
0
 11
-11.40000000000008
 21
-30.9918669205634
 31
0
  0
LINE
  8
1
 62
3
 10
174
 20
-42.75000000000001
 30
0
 11
174.4160916152368
 21
-42.75000000000001
 31
0
  0
LINE
  8
1
 62
3
 10
116.25
 20
16.75000000000001
 30
0
 11
125.25
 21
16.75000000000001
 31
0
  0
LINE
  8
1
 62
7
 10
166.2573593128807
 20
-35.67893218813451
 30
0
 11
158.456296932178
 21
-27.87786980743191
 31
0
  0
LINE
  8
1
 62
7
 10
155.6278698074318
 20
-30.70629693217809
 30
0
 11
163.4289321881345
 21
-38.50735931288069
 31
0
  0
LINE
  8
1
 62
7
 10
136.0723679650869
 20
-32.59476973952572
 30
0
 11
127.0766998289794
 21
-39.47381007890199
 31
0
  0
LINE
  8
1
 62
7
 10
124.6468993986962
 20
-36.2963787469932
 30
0
 11
133.6425675348037
 21
-29.4173384076169
 31
0
  0
LINE
  8
1
 62
7
 10
127.736769469557
 20
-17.82696868655061
 30
0
 11
133.1153487450158
 21
-18.8815920738955
 31
0
  0
LINE
  8
1
 62
7
 10
126.9671116266729
 20
-21.75222368525921
 30
0
 11
132.3456909021317
 21
-22.8068470726041
 31
0
  0
LINE
  8
1
 62
7
 10
127.5
 20
-10.75000000000001
 30
0
 11
127.5
 21
9.250000000000014
 31
0
  0
LINE
  8
1
 62
7
 10
125
 20
9.250000000000014
 30
0
 11
125
 21
-10.755811097706
 31
0
  0
LINE
  8
1
 62
7
 10
167.1909899941781
 20
2.196824986711093
 30
0
 11
154.409098016554
 21
-14.3444469843319
 31
0
  0
LINE
  8
1
 62
7
 10
151.2439580109853
 20
-11.8986569800288
 30
0
 11
164.0258499886097
 21
4.642614991014185
 31
0
  0
LINE
  8
1
 62
7
 10
160
 20
16.75000000000001
 30
0
 11
160
 21
6.750000000000014
 31
0
  0
LINE
  8
1
 62
7
 10
157.5
 20
16.75000000000001
 30
0
 11
157.5
 21
6.750000000000014
 31
0
  0
LINE
  8
1
 62
7
 10
-122.1019877459566
 20
-20.25000000000001
 30
0
 11
-116.8104851238274
 21
-20.25000000000001
 31
0
  0
LINE
  8
1
 62
3
 10
-39.14881184975251
 20
16.75000000000001
 30
0
 11
-23.27019400765749
 21
16.75000000000001
 31
0
  0
LINE
  8
1
 62
7
 10
-30
 20
-17.8680315632047
 30
0
 11
-30
 21
11.36803156320481
 31
0
  0
LINE
  8
1
 62
7
 10
-36
 20
-18.2220717301165
 30
0
 11
-36
 21
-16.21301556963091
 31
0
  0
LINE
  8
1
 62
7
 10
-36
 20
-28.27783407997201
 30
0
 11
-36
 21
-30.286984430369
 31
0
  0
LINE
  8
1
 62
7
 10
-12.90000000000008
 20
20.39999999999999
 30
0
 11
-10.79999999999995
 21
20.39999999999999
 31
0
  0
LINE
  8
1
 62
7
 10
-12.90000000000008
 20
39.89999999999999
 30
0
 11
-10.79999999999995
 21
39.89999999999999
 31
0
  0
LINE
  8
1
 62
7
 10
-14.49999999999999
 20
47.25000000000001
 30
0
 11
-10.29999999999995
 21
47.25000000000004
 31
0
  0
LINE
  8
1
 62
7
 10
-28
 20
-42.25000000000001
 30
0
 11
-25
 21
-42.25000000000001
 31
0
  0
LINE
  8
1
 62
7
 10
-28
 20
42.25000000000001
 30
0
 11
-25
 21
42.25000000000001
 31
0
  0
LINE
  8
1
 62
7
 10
-25
 20
47.25000000000001
 30
0
 11
-25
 21
-47.25000000000001
 31
0
  0
LINE
  8
1
 62
7
 10
-145.4562364348919
 20
-47.25000000000001
 30
0
 11
-93.45623643489205
 21
-47.25000000000001
 31
0
  0
LINE
  8
1
 62
7
 10
-89.45623643489205
 20
-43.25000000000001
 30
0
 11
-89.45623643489205
 21
43.25000000000001
 31
0
  0
LINE
  8
1
 62
7
 10
-145.6383256950743
 20
-42.40146495181811
 30
0
 11
-119.456236434892
 21
-47.25000000000001
 31
0
  0
LINE
  8
1
 62
7
 10
-119.456236434892
 20
-47.25000000000001
 30
0
 11
-93.27414717470975
 21
-42.40146495181811
 31
0
  0
LINE
  8
1
 62
7
 10
-93.27414717470975
 20
42.40146495181808
 30
0
 11
-104.1615003816428
 21
44.41764147162048
 31
0
  0
LINE
  8
1
 62
7
 10
-119.456236434892
 20
47.25000000000001
 30
0
 11
-145.6383256950743
 21
42.40146495181808
 31
0
  0
LINE
  8
1
 62
3
 10
-119.156236434892
 20
18.45
 30
0
 11
-106.156236434892
 21
18.45
 31
0
  0
LINE
  8
1
 62
3
 10
-112.656236434892
 20
24.95
 30
0
 11
-112.656236434892
 21
11.95
 31
0
  0
LINE
  8
1
 62
3
 10
-125.756236434892
 20
14.64999999999999
 30
0
 11
-125.756236434892
 21
1.649999999999991
 31
0
  0
LINE
  8
1
 62
3
 10
-132.256236434892
 20
8.149999999999992
 30
0
 11
-119.256236434892
 21
8.149999999999992
 31
0
  0
LINE
  8
1
 62
3
 10
-125.456236434892
 20
31.25000000000001
 30
0
 11
-110.456236434892
 21
31.25000000000001
 31
0
  0
LINE
  8
1
 62
3
 10
-119.456236434892
 20
51.25000000000001
 30
0
 11
-119.456236434892
 21
-51.25000000000001
 31
0
  0
LINE
  8
1
 62
3
 10
-149.4562364348919
 20
-23.25000000000001
 30
0
 11
-86.45623643489205
 21
-23.25000000000001
 31
0
  0
LINE
  8
1
 62
3
 10
-149.4562364348919
 20
16.75000000000001
 30
0
 11
-86.45623643489205
 21
16.75000000000001
 31
0
  0
LINE
  8
1
 62
3
 10
-139.4562364348919
 20
47.25000000000001
 30
0
 11
-139.4562364348919
 21
-50.25
 31
0
  0
LINE
  8
1
 62
3
 10
-99.45623643489205
 20
47.3593059936909
 30
0
 11
-99.45623643489205
 21
-50.25000000000001
 31
0
  0
LINE
  8
1
 62
7
 10
-112.0933218336859
 20
4.369869423256674
 30
0
 11
-106.6933218336859
 21
2.369869423256702
 31
0
  0
LINE
  8
1
 62
7
 10
-109.8191510360983
 20
-6.069869423256691
 30
0
 11
-115.2191510360983
 21
-4.069869423256691
 31
0
  0
LINE
  8
1
 62
3
 10
-119.0258674992225
 20
2.138752246048384
 30
0
 11
-102.9193234034902
 21
-3.826634456074814
 31
0
  0
LINE
  8
1
 62
7
 10
-140.4562364348919
 20
26.75000000000001
 30
0
 11
-140.4562364348919
 21
21.64897948556639
 31
0
  0
LINE
  8
1
 62
7
 10
-140.4562364348919
 20
26.75000000000001
 30
0
 11
-138.4562364348919
 21
26.75000000000001
 31
0
  0
LINE
  8
1
 62
7
 10
-138.4562364348919
 20
26.75000000000001
 30
0
 11
-138.4562364348919
 21
21.64897948556639
 31
0
  0
LINE
  8
1
 62
7
 10
-140.4562364348919
 20
11.85102051443359
 30
0
 11
-140.4562364348919
 21
-18.35102051443361
 31
0
  0
LINE
  8
1
 62
7
 10
-138.4562364348919
 20
11.85102051443359
 30
0
 11
-138.4562364348919
 21
-18.35102051443361
 31
0
  0
LINE
  8
1
 62
7
 10
-140.4562364348919
 20
-28.14897948556641
 30
0
 11
-140.4562364348919
 21
-33.25000000000001
 31
0
  0
LINE
  8
1
 62
7
 10
-140.4562364348919
 20
-33.25000000000001
 30
0
 11
-138.4562364348919
 21
-33.25000000000001
 31
0
  0
LINE
  8
1
 62
7
 10
-138.4562364348919
 20
-33.25000000000001
 30
0
 11
-138.4562364348919
 21
-28.14897948556641
 31
0
  0
LINE
  8
1
 62
7
 10
-146.4562364348919
 20
17.75000000000001
 30
0
 11
-144.3552159204584
 21
17.75000000000001
 31
0
  0
LINE
  8
1
 62
7
 10
-146.4562364348919
 20
15.75000000000001
 30
0
 11
-144.3552159204584
 21
15.75000000000001
 31
0
  0
LINE
  8
1
 62
7
 10
-134.5572569493256
 20
17.75000000000001
 30
0
 11
-117.1014585890705
 21
17.75000000000001
 31
0
  0
LINE
  8
1
 62
7
 10
-134.5572569493256
 20
15.75000000000001
 30
0
 11
-116.2562364348919
 21
15.75000000000001
 31
0
  0
LINE
  8
1
 62
7
 10
-94.55725694932568
 20
17.75000000000001
 30
0
 11
-92.45623643489205
 21
17.75000000000001
 31
0
  0
LINE
  8
1
 62
7
 10
-94.55725694932568
 20
15.75000000000001
 30
0
 11
-92.45623643489205
 21
15.75000000000001
 31
0
  0
LINE
  8
1
 62
7
 10
-100.456236434892
 20
21.64897948556639
 30
0
 11
-100.456236434892
 21
26.75000000000001
 31
0
  0
LINE
  8
1
 62
7
 10
-100.456236434892
 20
26.75000000000001
 30
0
 11
-98.45623643489205
 21
26.75000000000001
 31
0
  0
LINE
  8
1
 62
7
 10
-98.45623643489205
 20
26.75000000000001
 30
0
 11
-98.45623643489205
 21
21.64897948556639
 31
0
  0
LINE
  8
1
 62
7
 10
-100.456236434892
 20
11.85102051443359
 30
0
 11
-100.456236434892
 21
-18.35102051443361
 31
0
  0
LINE
  8
1
 62
7
 10
-98.45623643489205
 20
11.85102051443359
 30
0
 11
-98.45623643489205
 21
-18.35102051443361
 31
0
  0
LINE
  8
1
 62
7
 10
-100.456236434892
 20
-28.14897948556641
 30
0
 11
-100.456236434892
 21
-33.25000000000001
 31
0
  0
LINE
  8
1
 62
7
 10
-100.456236434892
 20
-33.25000000000001
 30
0
 11
-98.45623643489205
 21
-33.25000000000001
 31
0
  0
LINE
  8
1
 62
7
 10
-98.45623643489205
 20
-33.25000000000001
 30
0
 11
-98.45623643489205
 21
-28.14897948556641
 31
0
  0
LINE
  8
1
 62
7
 10
-146.4562364348919
 20
-22.25000000000001
 30
0
 11
-144.3552159204584
 21
-22.25000000000001
 31
0
  0
LINE
  8
1
 62
7
 10
-146.4562364348919
 20
-24.25000000000001
 30
0
 11
-144.3552159204584
 21
-24.25000000000001
 31
0
  0
LINE
  8
1
 62
7
 10
-146.4562364348919
 20
-41.4181829468336
 30
0
 11
-146.4562364348919
 21
41.41818294683357
 31
0
  0
LINE
  8
1
 62
7
 10
-134.5572569493256
 20
-22.25000000000001
 30
0
 11
-127.3934903680858
 21
-22.25000000000001
 31
0
  0
LINE
  8
1
 62
7
 10
-134.5572569493256
 20
-24.25000000000001
 30
0
 11
-127.3934903680858
 21
-24.25000000000001
 31
0
  0
LINE
  8
1
 62
7
 10
-111.5189825016983
 20
-22.25000000000001
 30
0
 11
-104.3552159204585
 21
-22.25000000000001
 31
0
  0
LINE
  8
1
 62
7
 10
-111.5189825016983
 20
-24.25000000000001
 30
0
 11
-104.3552159204585
 21
-24.25000000000001
 31
0
  0
LINE
  8
1
 62
7
 10
-94.55725694932568
 20
-22.25000000000001
 30
0
 11
-92.45623643489205
 21
-22.25000000000001
 31
0
  0
LINE
  8
1
 62
7
 10
-94.55725694932568
 20
-24.25000000000001
 30
0
 11
-92.45623643489205
 21
-24.25000000000001
 31
0
  0
LINE
  8
1
 62
7
 10
-92.45623643489205
 20
-41.4181829468336
 30
0
 11
-92.45623643489205
 21
41.41818294683357
 31
0
  0
LINE
  8
1
 62
7
 10
-14.49999999999999
 20
47.25000000000001
 30
0
 11
-27
 21
47.25000000000001
 31
0
  0
LINE
  8
1
 62
7
 10
-27
 20
-47.25000000000001
 30
0
 11
-12.90000000000008
 21
-47.25000000000001
 31
0
  0
LINE
  8
1
 62
7
 10
-14.49999999999999
 20
-47.25000000000001
 30
0
 11
-14.49999999999999
 21
47.25000000000001
 31
0
  0
LINE
  8
1
 62
7
 10
-28.85857864376271
 20
37.12734590803389
 30
0
 11
-30.64142135623728
 21
36.87265409196608
 31
0
  0
LINE
  8
1
 62
7
 10
-31.5
 20
35.88270459830501
 30
0
 11
-31.5
 21
26.61729540169507
 31
0
  0
LINE
  8
1
 62
7
 10
-30.64142135623728
 20
25.62734590803389
 30
0
 11
-30
 21
25.53571428571429
 31
0
  0
LINE
  8
1
 62
7
 10
-28
 20
26.75000000000003
 30
0
 11
-30
 21
26.75000000000001
 31
0
  0
LINE
  8
1
 62
7
 10
-30
 20
26.75000000000001
 30
0
 11
-30
 21
22.13196843679528
 31
0
  0
LINE
  8
1
 62
7
 10
-30
 20
-33.25000000000001
 30
0
 11
-28
 21
-33.25000000000001
 31
0
  0
LINE
  8
1
 62
7
 10
-28
 20
46.25000000000001
 30
0
 11
-28
 21
-46.25000000000001
 31
0
  0
LINE
  8
1
 62
7
 10
-30
 20
-15.25000000000001
 30
0
 11
-35.53834824944244
 21
-15.71448832688021
 31
0
  0
LINE
  8
1
 62
7
 10
-35.53834824944244
 20
-30.78551167311981
 30
0
 11
-30
 21
-31.25000000000001
 31
0
  0
LINE
  8
1
 62
7
 10
-30
 20
-33.25000000000001
 30
0
 11
-30
 21
-28.63196843679519
 31
0
  0
LINE
  8
1
 62
7
 10
-36.5
 20
-27.25000000000001
 30
0
 11
-53.5
 21
-27.25000000000001
 31
0
  0
LINE
  8
1
 62
7
 10
-53.5
 20
-27.25000000000001
 30
0
 11
-53.5
 21
-20.25000000000001
 31
0
  0
LINE
  8
1
 62
7
 10
-53.5
 20
-20.25000000000001
 30
0
 11
-39.5
 21
-20.25000000000001
 31
0
  0
LINE
  8
1
 62
7
 10
-39.5
 20
-20.25000000000001
 30
0
 11
-39.5
 21
-19.25000000000001
 31
0
  0
LINE
  8
1
 62
7
 10
-39.5
 20
-19.25000000000001
 30
0
 11
-36.5
 21
-19.25000000000001
 31
0
  0
LINE
  8
1
 62
3
 10
-56.86903757315348
 20
-23.25000000000001
 30
0
 11
-8.006599104008494
 21
-23.25000000000001
 31
0
  0
LINE
  8
1
 62
3
 10
145
 20
-51.25000000000001
 30
0
 11
145
 21
51.24999999999999
 31
0
  0
LINE
  8
1
 62
7
 10
119
 20
-47.25000000000001
 30
0
 11
171
 21
-47.25000000000001
 31
0
  0
LINE
  8
1
 62
7
 10
115
 20
-43.25000000000001
 30
0
 11
115
 21
43.25000000000001
 31
0
  0
LINE
  8
1
 62
7
 10
162.75
 20
43.25000000000001
 30
0
 11
162.75
 21
31.25000000000001
 31
0
  0
LINE
  8
1
 62
7
 10
119
 20
47.25000000000001
 30
0
 11
171
 21
47.25000000000001
 31
0
  0
LINE
  8
1
 62
7
 10
169.25
 20
14.25000000000001
 30
0
 11
172.5
 21
14.25000000000001
 31
0
  0
LINE
  8
1
 62
3
 10
134.2000000000001
 20
-23.25000000000001
 30
0
 11
155.8
 21
-23.25000000000001
 31
0
  0
LINE
  8
1
 62
7
 10
127.25
 20
31.25000000000001
 30
0
 11
127.25
 21
43.25000000000001
 31
0
  0
LINE
  8
1
 62
7
 10
120.75
 20
24.75000000000001
 30
0
 11
117.5
 21
24.75000000000001
 31
0
  0
LINE
  8
1
 62
7
 10
175
 20
-43.25000000000001
 30
0
 11
175
 21
43.25000000000004
 31
0
  0
LINE
  8
1
 62
3
 10
147.8820198137628
 20
8.149999999999992
 30
0
 11
154.5982349293129
 21
8.149999999999992
 31
0
  0
LINE
  8
1
 62
3
 10
135.0756774324168
 20
0.2199999999999847
 30
0
 11
141.1658046982129
 21
0.2199999999999847
 31
0
  0
LINE
  8
1
 62
3
 10
130.977647870387
 20
-1.850000000000009
 30
0
 11
136.6124385181788
 21
-1.850000000000009
 31
0
  0
LINE
  8
1
 62
3
 10
116.033409923285
 20
-42.75000000000001
 30
0
 11
122.8376020048918
 21
-42.75000000000001
 31
0
  0
LINE
  8
1
 62
3
 10
120.75
 20
21.25000000000001
 30
0
 11
120.75
 21
12.25000000000001
 31
0
  0
LINE
  8
1
 62
3
 10
151.2999999999997
 20
11.64794545885702
 30
0
 11
151.2999999999997
 21
4.745299190811991
 31
0
  0
LINE
  8
1
 62
3
 10
138.1999999999998
 20
3.666760711430001
 30
0
 11
138.1999999999998
 21
-2.804470164861996
 31
0
  0
LINE
  8
1
 62
3
 10
133.7999999999997
 20
1.150170926205007
 30
0
 11
133.7999999999997
 21
-4.889644558334012
 31
0
  0
LINE
  8
1
 62
3
 10
119.5
 20
-39.32394952935
 30
0
 11
119.5
 21
-46.066949151842
 31
0
  0
LINE
  8
1
 62
7
 10
140.0028307636121
 20
-19.0932825904447
 30
0
 11
144.4327985208074
 21
-16.77479479228641
 31
0
  0
LINE
  8
1
 62
7
 10
145.5672014791921
 20
-29.72520520771361
 30
0
 11
149.9971692363874
 21
-27.40671740955541
 31
0
  0
LINE
  8
1
 62
7
 10
139.1805400027026
 20
-18.05636106955289
 30
0
 11
144.0494756266748
 21
-15.5081330794366
 31
0
  0
LINE
  8
1
 62
7
 10
145.9505243733251
 20
-30.9918669205634
 30
0
 11
150.8194599972971
 21
-28.44363893044719
 31
0
  0
LINE
  8
1
 62
7
 10
119
 20
36.75000000000001
 30
0
 11
124
 21
36.75000000000001
 31
0
  0
LINE
  8
1
 62
7
 10
126.5
 20
39.25000000000001
 30
0
 11
126.5
 21
43.25000000000001
 31
0
  0
LINE
  8
1
 62
7
 10
124
 20
45.75000000000001
 30
0
 11
119
 21
45.75000000000001
 31
0
  0
LINE
  8
1
 62
7
 10
116.5
 20
43.25000000000001
 30
0
 11
116.5
 21
39.25000000000001
 31
0
  0
LINE
  8
1
 62
7
 10
163.5
 20
43.25000000000001
 30
0
 11
163.5
 21
39.25000000000001
 31
0
  0
LINE
  8
1
 62
7
 10
166
 20
36.75000000000001
 30
0
 11
171
 21
36.75000000000001
 31
0
  0
LINE
  8
1
 62
7
 10
173.5
 20
39.25000000000001
 30
0
 11
173.5
 21
43.25000000000001
 31
0
  0
LINE
  8
1
 62
7
 10
171
 20
45.75000000000001
 30
0
 11
166
 21
45.75000000000001
 31
0
  0
LINE
  8
1
 62
3
 10
111.5465326903838
 20
31.25000000000001
 30
0
 11
162.75
 21
31.25000000000001
 31
0
  0
LINE
  8
1
 62
3
 10
163.4442108240314
 20
19.25000000000001
 30
0
 11
175
 21
19.25000000000001
 31
0
  0
LINE
  8
1
 62
3
 10
169.25
 20
13.25000000000001
 30
0
 11
169.25
 21
25.25000000000001
 31
0
  0
LINE
  8
1
 62
7
 10
-109.056236434892
 20
15.75000000000001
 30
0
 11
-104.3552159204585
 21
15.75000000000001
 31
0
  0
LINE
  8
1
 62
7
 10
-108.2110142807134
 20
17.75000000000001
 30
0
 11
-104.3552159204585
 21
17.75000000000001
 31
0
  0
LINE
  8
1
 62
7
 10
-12.90000000000008
 20
47.25000000000001
 30
0
 11
-12.90000000000008
 21
-47.25000000000001
 31
0
  0
LINE
  8
1
 62
7
 10
-11.40000000000008
 20
-30.9918669205634
 30
0
 11
-12.90000000000008
 21
-30.9918669205634
 31
0
  0
LINE
  8
1
 62
7
 10
120.35
 20
18.34999999999998
 30
0
 11
120.35
 21
18.95
 31
0
  0
LINE
  8
1
 62
7
 10
120.45
 20
19.04999999999997
 30
0
 11
121.0499999999999
 21
19.04999999999997
 31
0
  0
LINE
  8
1
 62
7
 10
121.15
 20
18.95
 30
0
 11
121.15
 21
18.34999999999998
 31
0
  0
LINE
  8
1
 62
7
 10
122.35
 20
17.14999999999999
 30
0
 11
122.9499999999999
 21
17.14999999999999
 31
0
  0
LINE
  8
1
 62
7
 10
123.0499999999999
 20
17.04999999999997
 30
0
 11
123.0499999999999
 21
16.45
 31
0
  0
LINE
  8
1
 62
7
 10
122.9499999999999
 20
16.34999999999998
 30
0
 11
122.35
 21
16.34999999999998
 31
0
  0
LINE
  8
1
 62
7
 10
121.15
 20
15.14999999999999
 30
0
 11
121.15
 21
14.54999999999997
 31
0
  0
LINE
  8
1
 62
7
 10
121.0499999999999
 20
14.45
 30
0
 11
120.45
 21
14.45
 31
0
  0
LINE
  8
1
 62
7
 10
120.35
 20
14.54999999999997
 30
0
 11
120.35
 21
15.14999999999999
 31
0
  0
LINE
  8
1
 62
7
 10
119.15
 20
16.34999999999998
 30
0
 11
118.5500000000001
 21
16.34999999999998
 31
0
  0
LINE
  8
1
 62
7
 10
118.45
 20
16.45
 30
0
 11
118.45
 21
17.04999999999997
 31
0
  0
LINE
  8
1
 62
7
 10
118.5500000000001
 20
17.14999999999999
 30
0
 11
119.15
 21
17.14999999999999
 31
0
  0
LINE
  8
1
 62
7
 10
170.1
 20
11.34999999999998
 30
0
 11
170.1
 21
11.95
 31
0
  0
LINE
  8
1
 62
7
 10
170.2
 20
12.04999999999997
 30
0
 11
170.7999999999999
 21
12.04999999999997
 31
0
  0
LINE
  8
1
 62
7
 10
170.9
 20
11.95
 30
0
 11
170.9
 21
11.34999999999998
 31
0
  0
LINE
  8
1
 62
7
 10
172.1
 20
10.14999999999999
 30
0
 11
172.6999999999999
 21
10.14999999999999
 31
0
  0
LINE
  8
1
 62
7
 10
172.7999999999999
 20
10.04999999999997
 30
0
 11
172.7999999999999
 21
9.450000000000003
 31
0
  0
LINE
  8
1
 62
7
 10
172.6999999999999
 20
9.34999999999998
 30
0
 11
172.1
 21
9.34999999999998
 31
0
  0
LINE
  8
1
 62
7
 10
170.9
 20
8.149999999999992
 30
0
 11
170.9
 21
7.549999999999969
 31
0
  0
LINE
  8
1
 62
7
 10
170.7999999999999
 20
7.450000000000003
 30
0
 11
170.2
 21
7.450000000000003
 31
0
  0
LINE
  8
1
 62
7
 10
170.1
 20
7.549999999999969
 30
0
 11
170.1
 21
8.149999999999992
 31
0
  0
LINE
  8
1
 62
7
 10
168.9
 20
9.34999999999998
 30
0
 11
168.3000000000001
 21
9.34999999999998
 31
0
  0
LINE
  8
1
 62
7
 10
168.2
 20
9.450000000000003
 30
0
 11
168.2
 21
10.04999999999997
 31
0
  0
LINE
  8
1
 62
7
 10
168.3000000000001
 20
10.14999999999999
 30
0
 11
168.9
 21
10.14999999999999
 31
0
  0
LINE
  8
1
 62
7
 10
119.1
 20
-16.64999999999999
 30
0
 11
119.1
 21
-16.05
 31
0
  0
LINE
  8
1
 62
7
 10
119.2
 20
-15.95
 30
0
 11
119.7999999999999
 21
-15.95
 31
0
  0
LINE
  8
1
 62
7
 10
119.9
 20
-16.05
 30
0
 11
119.9
 21
-16.64999999999999
 31
0
  0
LINE
  8
1
 62
7
 10
121.1
 20
-17.85000000000001
 30
0
 11
121.6999999999999
 21
-17.85000000000001
 31
0
  0
LINE
  8
1
 62
7
 10
121.7999999999999
 20
-17.95
 30
0
 11
121.7999999999999
 21
-18.55
 31
0
  0
LINE
  8
1
 62
7
 10
121.6999999999999
 20
-18.64999999999999
 30
0
 11
121.1
 21
-18.64999999999999
 31
0
  0
LINE
  8
1
 62
7
 10
119.9
 20
-19.85000000000001
 30
0
 11
119.9
 21
-20.45
 31
0
  0
LINE
  8
1
 62
7
 10
119.7999999999999
 20
-20.55
 30
0
 11
119.2
 21
-20.55
 31
0
  0
LINE
  8
1
 62
7
 10
119.1
 20
-20.45
 30
0
 11
119.1
 21
-19.85000000000001
 31
0
  0
LINE
  8
1
 62
7
 10
117.9
 20
-18.64999999999999
 30
0
 11
117.3000000000001
 21
-18.64999999999999
 31
0
  0
LINE
  8
1
 62
7
 10
117.2
 20
-18.55
 30
0
 11
117.2
 21
-17.95
 31
0
  0
LINE
  8
1
 62
7
 10
117.3000000000001
 20
-17.85000000000001
 30
0
 11
117.9
 21
-17.85000000000001
 31
0
  0
LINE
  8
1
 62
7
 10
170.1
 20
-41.14999999999999
 30
0
 11
170.1
 21
-40.55
 31
0
  0
LINE
  8
1
 62
7
 10
170.2
 20
-40.45
 30
0
 11
170.7999999999999
 21
-40.45
 31
0
  0
LINE
  8
1
 62
7
 10
170.9
 20
-40.55
 30
0
 11
170.9
 21
-41.14999999999999
 31
0
  0
LINE
  8
1
 62
7
 10
172.1
 20
-42.35000000000001
 30
0
 11
172.6999999999999
 21
-42.35000000000001
 31
0
  0
LINE
  8
1
 62
7
 10
172.7999999999999
 20
-42.45
 30
0
 11
172.7999999999999
 21
-43.05
 31
0
  0
LINE
  8
1
 62
7
 10
172.6999999999999
 20
-43.14999999999999
 30
0
 11
172.1
 21
-43.14999999999999
 31
0
  0
LINE
  8
1
 62
7
 10
170.9
 20
-44.35000000000001
 30
0
 11
170.9
 21
-44.95
 31
0
  0
LINE
  8
1
 62
7
 10
170.7999999999999
 20
-45.05
 30
0
 11
170.2
 21
-45.05
 31
0
  0
LINE
  8
1
 62
7
 10
170.1
 20
-44.95
 30
0
 11
170.1
 21
-44.35000000000001
 31
0
  0
LINE
  8
1
 62
7
 10
168.9
 20
-43.14999999999999
 30
0
 11
168.3000000000001
 21
-43.14999999999999
 31
0
  0
LINE
  8
1
 62
7
 10
168.2
 20
-43.05
 30
0
 11
168.2
 21
-42.45
 31
0
  0
LINE
  8
1
 62
7
 10
168.3000000000001
 20
-42.35000000000001
 30
0
 11
168.9
 21
-42.35000000000001
 31
0
  0
LINE
  8
1
 62
7
 10
-11.56639151906335
 20
20.20403352100779
 30
0
 11
-12.79128442572539
 21
20.24961946980922
 31
0
  0
LINE
  8
1
 62
3
 10
-15.49999999999999
 20
16.75000000000001
 30
0
 11
-8.900000000000084
 21
16.75000000000001
 31
0
  0
LINE
  8
1
 62
7
 10
-11.56639151906335
 20
13.29596647899218
 30
0
 11
-12.79128442572539
 21
13.25038053019081
 31
0
  0
LINE
  8
1
 62
7
 10
-11.56639151906335
 20
13.20403352100779
 30
0
 11
-12.79128442572539
 21
13.24961946980922
 31
0
  0
LINE
  8
1
 62
3
 10
-15.49999999999999
 20
9.750000000000014
 30
0
 11
-8.900000000000084
 21
9.750000000000014
 31
0
  0
LINE
  8
1
 62
7
 10
-11.56639151906335
 20
6.295966478992185
 30
0
 11
-12.79128442572539
 21
6.25038053019081
 31
0
  0
LINE
  8
1
 62
7
 10
-11.56639151906335
 20
-14.79596647899221
 30
0
 11
-12.79128442572539
 21
-14.75038053019081
 31
0
  0
LINE
  8
1
 62
3
 10
-15.49999999999999
 20
-18.25000000000001
 30
0
 11
-8.900000000000084
 21
-18.25000000000001
 31
0
  0
LINE
  8
1
 62
7
 10
-11.56639151906335
 20
-21.70403352100782
 30
0
 11
-12.79128442572539
 21
-21.74961946980922
 31
0
  0
LINE
  8
1
 62
7
 10
-11.56639151906335
 20
-39.29596647899221
 30
0
 11
-12.79128442572539
 21
-39.25038053019081
 31
0
  0
LINE
  8
1
 62
3
 10
-15.49999999999999
 20
-42.75000000000001
 30
0
 11
-8.900000000000084
 21
-42.75000000000001
 31
0
  0
LINE
  8
1
 62
7
 10
-11.56639151906335
 20
-46.20403352100782
 30
0
 11
-12.79128442572539
 21
-46.24961946980922
 31
0
  0
LINE
  8
1
 62
7
 10
-30
 20
15.75000000000001
 30
0
 11
-28
 21
15.75000000000001
 31
0
  0
LINE
  8
1
 62
7
 10
-30
 20
17.75000000000001
 30
0
 11
-30
 21
15.75000000000001
 31
0
  0
LINE
  8
1
 62
7
 10
-28
 20
17.7499999999999
 30
0
 11
-30
 21
17.75000000000001
 31
0
  0
LINE
  8
1
 62
7
 10
-30.64142135623728
 20
22.57265409196602
 30
0
 11
-30
 21
22.66428571428561
 31
0
  0
LINE
  8
1
 62
7
 10
-28
 20
22.25000000000001
 30
0
 11
-36.02773500981123
 21
21.77623694389941
 31
0
  0
LINE
  8
1
 62
7
 10
-36.02773500981123
 20
11.72376305610079
 30
0
 11
-28
 21
11.25000000000001
 31
0
  0
LINE
  8
1
 62
7
 10
-36.5
 20
21.27700676729667
 30
0
 11
-36.5
 21
12.22299323270342
 31
0
  0
LINE
  8
1
 62
7
 10
-31.5
 20
3.282704598304903
 30
0
 11
-31.5
 21
-4.982704598305091
 31
0
  0
LINE
  8
1
 62
7
 10
-30.64142135623728
 20
-5.972654091966191
 30
0
 11
-30
 21
-6.064285714285901
 31
0
  0
LINE
  8
1
 62
7
 10
-30
 20
4.364285714285714
 30
0
 11
-30.64142135623728
 21
4.272654091966004
 31
0
  0
LINE
  8
1
 62
3
 10
-103.0988973796969
 20
42.75000000000007
 30
0
 11
-109.300674019792
 21
42.75000000000007
 31
0
  0
LINE
  8
1
 62
3
 10
-106.1562364348922
 20
45.89793268284798
 30
0
 11
-106.1562364348922
 21
39.23958352937179
 31
0
  0
LINE
  8
1
 62
7
 10
-107.4215295173192
 20
45.02135057081991
 30
0
 11
-119.456236434892
 21
47.25000000000001
 31
0
  0
LINE
  8
1
 62
7
 10
120
 20
36.74999999999996
 30
0
 11
120
 21
40.24999999999996
 31
0
  0
LINE
  8
1
 62
7
 10
170
 20
36.74999999999996
 30
0
 11
170
 21
40.24999999999996
 31
0
  0
LINE
  8
1
 62
7
 10
120
 20
40.24999999999996
 30
0
 11
126.5
 21
41.69444444444447
 31
0
  0
LINE
  8
1
 62
7
 10
163.5
 20
41.69444444444447
 30
0
 11
170
 21
40.24999999999996
 31
0
  0
ARC
  8
1
 62
7
 10
-119.456236434892
 20
31.25000000000001
 30
0
 40
15.99999999999996
 50
33.79686662852325
 51
47.90056283863441
  0
ARC
  8
1
 62
7
 10
145.000000000004
 20
31.24999999999613
 30
0
 40
15.00000000000025
 50
309.798167402777
 51
320.5156350565264
  0
ARC
  8
1
 62
7
 10
145.000000000002
 20
31.24999999999806
 30
0
 40
14.16000000000255
 50
300.4981602534867
 51
329.5018397465162
  0
ARC
  8
1
 62
7
 10
156.321134366866
 20
24.53354286729472
 30
0
 40
1.843996729023902
 50
268.7132328242221
 51
334.8546824632819
  0
ARC
  8
1
 62
7
 10
156.3036040627809
 20
24.57527407633813
 30
0
 40
2.876308651640597
 50
261.2659417540867
 51
332.5641521374775
  0
ARC
  8
1
 62
7
 10
151.845918941278
 20
19.90182090562326
 30
0
 40
2.760997575253375
 50
294.7080195370951
 51
9.18366462644668
  0
ARC
  8
1
 62
7
 10
151.6377489214289
 20
19.95324811298921
 30
0
 40
1.900488539077444
 50
296.9813017566031
 51
0.01668094350900467
  0
ARC
  8
1
 62
7
 10
133.678865633138
 20
37.96645713270141
 30
0
 40
1.843996729023906
 50
88.71323282422213
 51
154.8546824632819
  0
ARC
  8
1
 62
7
 10
133.6963959372231
 20
37.924725923658
 30
0
 40
2.876308651640594
 50
81.26594175408614
 51
152.5641521374774
  0
ARC
  8
1
 62
7
 10
145
 20
31.24999999999999
 30
0
 40
14.99999999999951
 50
149.9999999999989
 51
299.9999999999999
  0
ARC
  8
1
 62
7
 10
145
 20
31.24999999999999
 30
0
 40
15
 50
101.5369590328155
 51
120
  0
ARC
  8
1
 62
7
 10
145
 20
31.24999999999999
 30
0
 40
15.00000000000044
 50
330.000000000001
 51
78.46304096718453
  0
ARC
  8
1
 62
7
 10
138.2
 20
16.75
 30
0
 40
1.499999999999634
 50
151.6057599767136
 51
338.1443243927288
  0
ARC
  8
1
 62
7
 10
131.7
 20
42.74999999999999
 30
0
 40
2.300000000000431
 50
2.895168147868337
 51
275.407402384966
  0
ARC
  8
1
 62
7
 10
145
 20
31.24999999999999
 30
0
 40
15.00000000000027
 50
129.798167402777
 51
140.5156350565265
  0
ARC
  8
1
 62
7
 10
138.154081058726
 20
42.59817909437287
 30
0
 40
2.760997575253378
 50
114.7080195370951
 51
189.1836646264467
  0
ARC
  8
1
 62
7
 10
145.000000000002
 20
31.24999999999806
 30
0
 40
14.16000000000254
 50
120.4981602534866
 51
149.5018397465162
  0
ARC
  8
1
 62
7
 10
138.3622510785751
 20
42.54675188700691
 30
0
 40
1.900488539077444
 50
116.9813017566031
 51
180.0166809435089
  0
ARC
  8
1
 62
7
 10
126.25
 20
8.97289613913479
 30
0
 40
1.280346261644253
 50
12.49936792538156
 51
167.5006320746185
  0
ARC
  8
1
 62
7
 10
126.2493376133996
 20
-10.46793933682791
 30
0
 40
1.282074343774989
 50
192.9755909515071
 51
347.2907696670898
  0
ARC
  8
1
 62
7
 10
158.75
 20
16.46875000000001
 30
0
 40
1.28125
 50
12.68038349181982
 51
167.3196165081802
  0
ARC
  8
1
 62
7
 10
158.75
 20
7.031250000000014
 30
0
 40
1.28125
 50
192.6803834918198
 51
347.3196165081802
  0
ARC
  8
1
 62
7
 10
-113.656236434892
 20
0.1499999999999915
 30
0
 40
4.499999999999986
 50
69.67686317033814
 51
249.6768631703356
  0
ARC
  8
1
 62
7
 10
-108.256236434892
 20
-1.850000000000009
 30
0
 40
4.50000000000006
 50
249.6768631703356
 51
69.6768631703381
  0
ARC
  8
1
 62
7
 10
169.25
 20
19.25000000000001
 30
0
 40
4.999999999999939
 50
186.9509076652039
 51
270
  0
ARC
  8
1
 62
7
 10
145
 20
-23.25000000000001
 30
0
 40
6.499999999999819
 50
320.2458278153803
 51
95.00609791930431
  0
ARC
  8
1
 62
7
 10
145
 20
-23.25000000000001
 30
0
 40
6.500000000000133
 50
140.2458278153837
 51
275.0060979193
  0
ARC
  8
1
 62
7
 10
145
 20
-23.25000000000001
 30
0
 40
7.799999999999843
 50
318.2523439171416
 51
96.99958181754271
  0
ARC
  8
1
 62
7
 10
145
 20
-23.25000000000001
 30
0
 40
7.800000000000038
 50
138.2523439171434
 51
276.9995818175419
  0
ARC
  8
1
 62
7
 10
-18.29492957746492
 20
16.76521753674298
 30
0
 40
7.999999999999964
 50
2.040035164553977
 51
21.50479479967101
  0
ARC
  8
1
 62
7
 10
-18.29492957746492
 20
16.73478246325688
 30
0
 40
8.000000000000025
 50
338.4952052003297
 51
357.9599648354467
  0
ARC
  8
1
 62
7
 10
-9.425000000000061
 20
16.75000000000001
 30
0
 40
0.925000000000089
 50
161.0753555839534
 51
198.9246444160497
  0
ARC
  8
1
 62
7
 10
-18.29492957746492
 20
9.765217536742981
 30
0
 40
8.000000000000073
 50
2.040035164553961
 51
21.504794799671
  0
ARC
  8
1
 62
7
 10
-18.29492957746492
 20
9.734782463256877
 30
0
 40
8.000000000000023
 50
338.4952052003297
 51
357.9599648354469
  0
ARC
  8
1
 62
7
 10
-9.425000000000061
 20
9.750000000000014
 30
0
 40
0.9249999999999842
 50
161.0753555839513
 51
198.9246444160519
  0
ARC
  8
1
 62
7
 10
-18.29492957746492
 20
-18.23478246325699
 30
0
 40
7.999999999999964
 50
2.040035164554003
 51
21.50479479967101
  0
ARC
  8
1
 62
7
 10
-18.29492957746492
 20
-18.26521753674309
 30
0
 40
8.000000000000034
 50
338.4952052003295
 51
357.9599648354466
  0
ARC
  8
1
 62
7
 10
-9.425000000000061
 20
-18.25000000000001
 30
0
 40
0.9250000000001062
 50
161.0753555839503
 51
198.9246444160485
  0
ARC
  8
1
 62
7
 10
-18.29492957746492
 20
-42.73478246325699
 30
0
 40
7.999999999999964
 50
2.040035164553977
 51
21.50479479967101
  0
ARC
  8
1
 62
7
 10
-18.29492957746492
 20
-42.76521753674309
 30
0
 40
8.000000000000034
 50
338.4952052003295
 51
357.9599648354466
  0
ARC
  8
1
 62
7
 10
-9.425000000000061
 20
-42.75000000000001
 30
0
 40
0.9250000000001039
 50
161.0753555839507
 51
198.9246444160485
  0
CIRCLE
  8
1
 62
7
 10
-106.1562364348922
 20
42.75000000000007
 30
0
 40
2.600000000000021
  0
CIRCLE
  8
1
 62
7
 10
143.75
 20
43.54999999999995
 30
0
 40
0.600000000000108
  0
CIRCLE
  8
1
 62
7
 10
146.25
 20
43.54999999999995
 30
0
 40
0.600000000000108
  0
CIRCLE
  8
1
 62
7
 10
143.75
 20
43.54999999999995
 30
0
 40
0.8299999999998988
  0
CIRCLE
  8
1
 62
7
 10
146.25
 20
43.54999999999995
 30
0
 40
0.8299999999998988
  0
CIRCLE
  8
1
 62
7
 10
145
 20
31.24999999999999
 30
0
 40
6
  0
CIRCLE
  8
1
 62
7
 10
145
 20
31.24999999999999
 30
0
 40
4.600000000000108
  0
CIRCLE
  8
1
 62
7
 10
145
 20
31.24999999999999
 30
0
 40
1.25
  0
CIRCLE
  8
1
 62
7
 10
158.3
 20
42.74999999999999
 30
0
 40
1.5
  0
CIRCLE
  8
1
 62
7
 10
169.25
 20
19.25000000000001
 30
0
 40
4
  0
CIRCLE
  8
1
 62
7
 10
-139.4562364348919
 20
16.75000000000001
 30
0
 40
5
  0
CIRCLE
  8
1
 62
7
 10
-99.45623643489205
 20
16.75000000000001
 30
0
 40
5.000000000000114
  0
CIRCLE
  8
1
 62
7
 10
-139.4562364348919
 20
-23.25000000000001
 30
0
 40
5
  0
CIRCLE
  8
1
 62
7
 10
-119.456236434892
 20
-23.25000000000001
 30
0
 40
4
  0
CIRCLE
  8
1
 62
7
 10
-119.456236434892
 20
-23.25000000000001
 30
0
 40
8
  0
CIRCLE
  8
1
 62
7
 10
-99.45623643489205
 20
-23.25000000000001
 30
0
 40
5.000000000000114
  0
CIRCLE
  8
1
 62
7
 10
170.5
 20
-42.75000000000001
 30
0
 40
3.5
  0
CIRCLE
  8
1
 62
7
 10
119.5
 20
-18.25000000000001
 30
0
 40
3.5
  0
CIRCLE
  8
1
 62
7
 10
170.5
 20
9.750000000000014
 30
0
 40
3.5
  0
CIRCLE
  8
1
 62
7
 10
120.75
 20
16.75000000000001
 30
0
 40
3.5
  0
CIRCLE
  8
1
 62
7
 10
-119.456236434892
 20
31.25000000000001
 30
0
 40
6
  0
CIRCLE
  8
1
 62
7
 10
-119.456236434892
 20
-23.25000000000001
 30
0
 40
5.5
  0
CIRCLE
  8
1
 62
2
 10
-139.4562364348919
 20
16.75000000000001
 30
0
 40
2
  0
CIRCLE
  8
1
 62
7
 10
-139.4562364348919
 20
16.75000000000001
 30
0
 40
1.400000000000205
  0
CIRCLE
  8
1
 62
2
 10
-99.45623643489205
 20
-23.25000000000001
 30
0
 40
1.999999999999957
  0
CIRCLE
  8
1
 62
7
 10
-139.4562364348919
 20
-23.25000000000001
 30
0
 40
1.400000000000205
  0
CIRCLE
  8
1
 62
7
 10
-99.45623643489205
 20
-23.25000000000001
 30
0
 40
1.399999999999977
  0
CIRCLE
  8
1
 62
2
 10
-99.45623643489205
 20
16.75000000000001
 30
0
 40
2
  0
CIRCLE
  8
1
 62
7
 10
-99.45623643489205
 20
16.75000000000001
 30
0
 40
1.399999999999977
  0
CIRCLE
  8
1
 62
7
 10
-112.656236434892
 20
18.45
 30
0
 40
4.5
  0
CIRCLE
  8
1
 62
7
 10
-125.756236434892
 20
8.149999999999992
 30
0
 40
4.5
  0
CIRCLE
  8
1
 62
7
 10
145
 20
-23.25000000000001
 30
0
 40
4
  0
CIRCLE
  8
1
 62
7
 10
119.5
 20
-42.75000000000001
 30
0
 40
1.5
  0
CIRCLE
  8
1
 62
7
 10
151.2999999999997
 20
8.149999999999992
 30
0
 40
1.5
  0
CIRCLE
  8
1
 62
7
 10
138.1999999999998
 20
0.2199999999999847
 30
0
 40
1.5
  0
CIRCLE
  8
1
 62
7
 10
133.7999999999997
 20
-1.850000000000009
 30
0
 40
1.5
  0
CIRCLE
  8
1
 62
7
 10
169.25
 20
19.25000000000001
 30
0
 40
1.899999999999807
  0
CIRCLE
  8
1
 62
7
 10
169.25
 20
19.25000000000001
 30
0
 40
3.5
  0
CIRCLE
  8
1
 62
2
 10
-139.4562364348919
 20
-23.25000000000001
 30
0
 40
2
  0
CIRCLE
  8
1
 62
7
 10
145
 20
31.24999999999999
 30
0
 40
15.99999999999999
  0
POLYLINE
  8
1
 62
2
 66
1
  0
VERTEX
  8
1
 10
56.963053911619
 20
45.9939822888846
 30
0
 42
-0.004186897804188011
  0
VERTEX
  8
1
 10
57.01099272997504
 20
45.86068084811242
 30
0
 42
-0.01290248157269698
  0
VERTEX
  8
1
 10
57.05380061275373
 20
45.72762559113132
 30
0
 42
-0.02254802247743226
  0
VERTEX
  8
1
 10
57.0863466243777
 20
45.59506270173235
 30
0
 42
-0.03328225659840023
  0
VERTEX
  8
1
 10
57.10349982926957
 20
45.46323836370657
 30
0
 42
-0.04414267360449715
  0
VERTEX
  8
1
 10
57.100129291852
 20
45.33239876084507
 30
0
 42
-0.04746932973023219
  0
VERTEX
  8
1
 10
57.06417088797488
 20
45.17248470576792
 30
0
 42
-0.02328907139349401
  0
VERTEX
  8
1
 10
57.00424440194563
 20
45.01400957252389
 30
0
 42
-0.002187931268850836
  0
VERTEX
  8
1
 10
56.93546297250103
 20
44.85653715452693
 30
0
 42
0.01880544693318775
  0
VERTEX
  8
1
 10
56.87293973837788
 20
44.699631245191
 30
0
 42
0.04246910544626587
  0
VERTEX
  8
1
 10
56.83178783831295
 20
44.54285563793007
 30
0
 42
0.07659463129716429
  0
VERTEX
  8
1
 10
56.82786830138733
 20
44.33571957712393
 30
0
 42
0.04405793155060764
  0
VERTEX
  8
1
 10
56.87472563971399
 20
44.12815777698249
 30
0
 42
0.03892408209536894
  0
VERTEX
  8
1
 10
56.95966563447985
 20
43.92027667233957
 30
0
 42
0.01089913513619014
  0
VERTEX
  8
1
 10
57.06999406687186
 20
43.71218269802899
 30
0
 42
0.01219559973380172
  0
VERTEX
  8
1
 10
57.19301671807693
 20
43.50398228888459
 30
0
  0
SEQEND
  8
1
  0
POLYLINE
  8
1
 62
2
 66
1
  0
VERTEX
  8
1
 10
50.07048588694897
 20
45.9939822888846
 30
0
 42
-0.004186897804229423
  0
VERTEX
  8
1
 10
50.11842470530529
 20
45.86068084811242
 30
0
 42
-0.01290248157265012
  0
VERTEX
  8
1
 10
50.16123258808423
 20
45.72762559113131
 30
0
 42
-0.02254802247762831
  0
VERTEX
  8
1
 10
50.1937785997084
 20
45.59506270173235
 30
0
 42
-0.03328225659854816
  0
VERTEX
  8
1
 10
50.21093180460041
 20
45.46323836370657
 30
0
 42
-0.04414267360477112
  0
VERTEX
  8
1
 10
50.20756126718288
 20
45.33239876084507
 30
0
 42
-0.0474693297304573
  0
VERTEX
  8
1
 10
50.17160286330567
 20
45.17248470576791
 30
0
 42
-0.02328907139359321
  0
VERTEX
  8
1
 10
50.11167637727621
 20
45.01400957252388
 30
0
 42
-0.002187931268942097
  0
VERTEX
  8
1
 10
50.04289494783137
 20
44.85653715452691
 30
0
 42
0.01880544693331103
  0
VERTEX
  8
1
 10
49.980371713708
 20
44.69963124519099
 30
0
 42
0.04246910544634017
  0
VERTEX
  8
1
 10
49.93921981364292
 20
44.54285563793007
 30
0
 42
0.07659463129763332
  0
VERTEX
  8
1
 10
49.93530027671734
 20
44.3357195771239
 30
0
 42
0.04405793155068289
  0
VERTEX
  8
1
 10
49.98215761504429
 20
44.12815777698246
 30
0
 42
0.03892408209561891
  0
VERTEX
  8
1
 10
50.06709760981062
 20
43.92027667233954
 30
0
 42
0.01089913513610142
  0
VERTEX
  8
1
 10
50.17742604220322
 20
43.71218269802898
 30
0
 42
0.01219559973393541
  0
VERTEX
  8
1
 10
50.30044869340895
 20
43.50398228888459
 30
0
  0
SEQEND
  8
1
  0
ARC
  8
1
 62
7
 10
-8.800000000000182
 20
45.74999999999999
 30
0
 40
1.5
 50
90
 51
180
  0
ARC
  8
1
 62
7
 10
-8.800000000000182
 20
16.75000000000011
 30
0
 40
1.499999999999998
 50
180
 51
270
  0
ARC
  8
1
 62
7
 10
35.40163799369498
 20
48.89398228888469
 30
0
 40
0.4999999999993174
 50
2.720449105951061
 51
90
  0
ARC
  8
1
 62
7
 10
32.37836200630591
 20
48.89398228888469
 30
0
 40
0.5
 50
90
 51
177.279550894049
  0
ARC
  8
1
 62
7
 10
35.83029712220196
 20
46.1939822888846
 30
0
 40
0.1999999999999957
 50
270
 51
3.645191185385923
  0
ARC
  8
1
 62
7
 10
-30.5
 20
5.025785323693881
 30
0
 40
1
 50
180
 51
240.6381359591541
  0
ARC
  8
1
 62
7
 10
-30.5
 20
11.28270459830487
 30
0
 40
0.9999999999999711
 50
170.0399662975989
 51
180
  0
ARC
  8
1
 62
7
 10
-30.5
 20
-4.982704598305091
 30
0
 40
1
 50
180
 51
261.8698976458451
  0
ARC
  8
1
 62
7
 10
-30.5
 20
3.282704598304903
 30
0
 40
0.9999999999999311
 50
98.13010235415487
 51
180
  0
ARC
  8
1
 62
7
 10
-36
 20
-27.77700676729661
 30
0
 40
0.5
 50
180
 51
266.8201698801522
  0
ARC
  8
1
 62
7
 10
-36
 20
-18.7229932327033
 30
0
 40
0.4999999999999941
 50
93.17983011984771
 51
180
  0
ARC
  8
1
 62
7
 10
164.8431457505076
 20
-37.09314575050762
 30
0
 40
1.999999999999991
 50
224.9999999999993
 51
45
  0
ARC
  8
1
 62
7
 10
157.0420833698049
 20
-29.29208336980501
 30
0
 40
1.999999999999991
 50
45.00000000000043
 51
224.9999999999995
  0
ARC
  8
1
 62
7
 10
134.8574677499453
 20
-31.00605407357129
 30
0
 40
2.00000000000003
 50
307.405356631408
 51
127.4053566314087
  0
ARC
  8
1
 62
7
 10
125.8617996138378
 20
-37.88509441294759
 30
0
 40
1.999999999999999
 50
127.4053566314087
 51
307.4053566314084
  0
ARC
  8
1
 62
7
 10
132.7305198235738
 20
-20.84421957324982
 30
0
 40
1.999999999999977
 50
258.9062769884404
 51
78.9062769884422
  0
ARC
  8
1
 62
7
 10
127.3519405481149
 20
-19.7895961859049
 30
0
 40
1.999999999999993
 50
78.90627698843964
 51
258.9062769884429
  0
ARC
  8
1
 62
7
 10
165.6084199913939
 20
3.419719988862695
 30
0
 40
1.999999999999933
 50
322.3057595333067
 51
142.3057595333093
  0
ARC
  8
1
 62
7
 10
152.8265280137696
 20
-13.12155198218029
 30
0
 40
1.999999999999954
 50
142.3057595333113
 51
322.30575953331
  0
ARC
  8
1
 62
7
 10
-10.79999999999995
 20
40.39999999999999
 30
0
 40
0.5
 50
270
 51
0
  0
ARC
  8
1
 62
7
 10
-145.4562364348919
 20
43.25000000000001
 30
0
 40
4
 50
90
 51
180
  0
ARC
  8
1
 62
7
 10
-145.4562364348919
 20
-43.25000000000001
 30
0
 40
4
 50
180
 51
270
  0
ARC
  8
1
 62
7
 10
-93.45623643489205
 20
-43.25000000000001
 30
0
 40
4
 50
270
 51
0
  0
ARC
  8
1
 62
7
 10
-93.45623643489205
 20
43.25000000000001
 30
0
 40
4
 50
0
 51
90
  0
ARC
  8
1
 62
7
 10
-145.4562364348919
 20
-41.4181829468336
 30
0
 40
1
 50
180
 51
259.5085229876648
  0
ARC
  8
1
 62
7
 10
-145.4562364348919
 20
41.41818294683357
 30
0
 40
1.000000000000062
 50
100.4914770123352
 51
180
  0
ARC
  8
1
 62
7
 10
-93.45623643489205
 20
41.41818294683357
 30
0
 40
1
 50
0
 51
79.50852298766964
  0
ARC
  8
1
 62
7
 10
-93.45623643489205
 20
-41.4181829468336
 30
0
 40
1.000000000000046
 50
280.4914770123303
 51
0
  0
ARC
  8
1
 62
7
 10
-27
 20
46.25000000000001
 30
0
 40
1
 50
90
 51
180
  0
ARC
  8
1
 62
7
 10
-27
 20
-46.25000000000001
 30
0
 40
1
 50
180
 51
270
  0
ARC
  8
1
 62
7
 10
-30.5
 20
35.88270459830501
 30
0
 40
0.9999999999999026
 50
98.1301023541551
 51
180
  0
ARC
  8
1
 62
7
 10
-29
 20
38.11729540169507
 30
0
 40
1.00000000000001
 50
278.1301023541549
 51
0
  0
ARC
  8
1
 62
7
 10
-30.5
 20
26.61729540169507
 30
0
 40
1
 50
180
 51
261.8698976458458
  0
ARC
  8
1
 62
7
 10
-35.5
 20
-16.21301556963091
 30
0
 40
0.4999999999999175
 50
94.39870535500478
 51
180
  0
ARC
  8
1
 62
7
 10
-35.5
 20
-30.286984430369
 30
0
 40
0.5
 50
180
 51
265.6012946449962
  0
ARC
  8
1
 62
7
 10
119
 20
43.25000000000001
 30
0
 40
4
 50
90
 51
180
  0
ARC
  8
1
 62
7
 10
119
 20
-43.25000000000001
 30
0
 40
4
 50
180
 51
270
  0
ARC
  8
1
 62
7
 10
171
 20
-43.25000000000001
 30
0
 40
4
 50
270
 51
0
  0
ARC
  8
1
 62
7
 10
171
 20
43.25000000000001
 30
0
 40
4
 50
0
 51
90
  0
ARC
  8
1
 62
7
 10
120.75
 20
31.25000000000001
 30
0
 40
6.5
 50
270
 51
0
  0
ARC
  8
1
 62
7
 10
117.5
 20
22.25000000000001
 30
0
 40
2.5
 50
90
 51
180
  0
ARC
  8
1
 62
7
 10
172.5
 20
11.75000000000001
 30
0
 40
2.5
 50
0
 51
90
  0
ARC
  8
1
 62
7
 10
131.25
 20
43.25000000000001
 30
0
 40
4
 50
90
 51
180
  0
ARC
  8
1
 62
7
 10
158.75
 20
43.25000000000001
 30
0
 40
4
 50
0
 51
90
  0
ARC
  8
1
 62
7
 10
119
 20
43.25000000000001
 30
0
 40
2.5
 50
90
 51
180
  0
ARC
  8
1
 62
7
 10
119
 20
39.25000000000001
 30
0
 40
2.5
 50
180
 51
270
  0
ARC
  8
1
 62
7
 10
124
 20
39.25000000000001
 30
0
 40
2.5
 50
270
 51
0
  0
ARC
  8
1
 62
7
 10
124
 20
43.25000000000001
 30
0
 40
2.5
 50
0
 51
90
  0
ARC
  8
1
 62
7
 10
166
 20
39.25000000000001
 30
0
 40
2.5
 50
180
 51
270
  0
ARC
  8
1
 62
7
 10
171
 20
39.25000000000001
 30
0
 40
2.5
 50
270
 51
0
  0
ARC
  8
1
 62
7
 10
166
 20
43.25000000000001
 30
0
 40
2.5
 50
90
 51
180
  0
ARC
  8
1
 62
7
 10
171
 20
43.25000000000001
 30
0
 40
2.5
 50
0
 51
90
  0
ARC
  8
1
 62
7
 10
119.15
 20
18.34999999999998
 30
0
 40
1.199999999999989
 50
270
 51
0
  0
ARC
  8
1
 62
7
 10
122.35
 20
18.34999999999998
 30
0
 40
1.199999999999989
 50
180
 51
270
  0
ARC
  8
1
 62
7
 10
119.15
 20
15.14999999999999
 30
0
 40
1.199999999999989
 50
0
 51
90
  0
ARC
  8
1
 62
7
 10
122.35
 20
15.14999999999999
 30
0
 40
1.19999999999999
 50
90
 51
180
  0
ARC
  8
1
 62
7
 10
120.45
 20
18.95
 30
0
 40
0.09999999999996945
 50
90
 51
180
  0
ARC
  8
1
 62
7
 10
121.0499999999999
 20
18.95
 30
0
 40
0.100000000000108
 50
0
 51
90
  0
ARC
  8
1
 62
7
 10
118.5500000000001
 20
17.04999999999997
 30
0
 40
0.1000000000000227
 50
90
 51
180
  0
ARC
  8
1
 62
7
 10
118.5500000000001
 20
16.45
 30
0
 40
0.1000000000000938
 50
180
 51
270
  0
ARC
  8
1
 62
7
 10
120.45
 20
14.54999999999997
 30
0
 40
0.1000000000000085
 50
180
 51
270
  0
ARC
  8
1
 62
7
 10
121.0499999999999
 20
14.54999999999997
 30
0
 40
0.09999999999997122
 50
270
 51
0
  0
ARC
  8
1
 62
7
 10
122.9499999999999
 20
16.45
 30
0
 40
0.1000000000000192
 50
270
 51
0
  0
ARC
  8
1
 62
7
 10
122.9499999999999
 20
17.04999999999997
 30
0
 40
0.09999999999999432
 50
0
 51
90
  0
ARC
  8
1
 62
7
 10
168.9
 20
11.34999999999998
 30
0
 40
1.19999999999999
 50
270
 51
0
  0
ARC
  8
1
 62
7
 10
172.1
 20
11.34999999999998
 30
0
 40
1.199999999999989
 50
180
 51
270
  0
ARC
  8
1
 62
7
 10
168.9
 20
8.149999999999992
 30
0
 40
1.199999999999989
 50
0
 51
90
  0
ARC
  8
1
 62
7
 10
172.1
 20
8.149999999999992
 30
0
 40
1.199999999999989
 50
90
 51
180
  0
ARC
  8
1
 62
7
 10
170.2
 20
11.95
 30
0
 40
0.09999999999997122
 50
90
 51
180
  0
ARC
  8
1
 62
7
 10
170.7999999999999
 20
11.95
 30
0
 40
0.100000000000108
 50
0
 51
90
  0
ARC
  8
1
 62
7
 10
168.3000000000001
 20
10.04999999999997
 30
0
 40
0.1000000000000192
 50
90
 51
180
  0
ARC
  8
1
 62
7
 10
168.3000000000001
 20
9.450000000000003
 30
0
 40
0.100000000000108
 50
180
 51
270
  0
ARC
  8
1
 62
7
 10
170.2
 20
7.549999999999969
 30
0
 40
0.09999999999999432
 50
180
 51
270
  0
ARC
  8
1
 62
7
 10
170.7999999999999
 20
7.549999999999969
 30
0
 40
0.09999999999996589
 50
270
 51
0
  0
ARC
  8
1
 62
7
 10
172.6999999999999
 20
9.450000000000003
 30
0
 40
0.1000000000000227
 50
270
 51
0
  0
ARC
  8
1
 62
7
 10
172.6999999999999
 20
10.04999999999997
 30
0
 40
0.09999999999999432
 50
0
 51
90
  0
ARC
  8
1
 62
7
 10
117.9
 20
-16.64999999999999
 30
0
 40
1.200000000000017
 50
270
 51
0
  0
ARC
  8
1
 62
7
 10
121.1
 20
-16.64999999999999
 30
0
 40
1.199999999999989
 50
180
 51
270
  0
ARC
  8
1
 62
7
 10
117.9
 20
-19.85000000000001
 30
0
 40
1.199999999999989
 50
0
 51
90
  0
ARC
  8
1
 62
7
 10
121.1
 20
-19.85000000000001
 30
0
 40
1.200000000000017
 50
90
 51
180
  0
ARC
  8
1
 62
7
 10
119.2
 20
-16.05
 30
0
 40
0.1000000000000014
 50
90
 51
180
  0
ARC
  8
1
 62
7
 10
119.7999999999999
 20
-16.05
 30
0
 40
0.100000000000108
 50
0
 51
90
  0
ARC
  8
1
 62
7
 10
117.3000000000001
 20
-17.95
 30
0
 40
0.09999999999999076
 50
90
 51
180
  0
ARC
  8
1
 62
7
 10
117.3000000000001
 20
-18.55
 30
0
 40
0.1000000000000938
 50
180
 51
270
  0
ARC
  8
1
 62
7
 10
119.2
 20
-20.45
 30
0
 40
0.1000000000000085
 50
180
 51
270
  0
ARC
  8
1
 62
7
 10
119.7999999999999
 20
-20.45
 30
0
 40
0.1000000000000014
 50
270
 51
0
  0
ARC
  8
1
 62
7
 10
121.6999999999999
 20
-18.55
 30
0
 40
0.09999999999999076
 50
270
 51
0
  0
ARC
  8
1
 62
7
 10
121.6999999999999
 20
-17.95
 30
0
 40
0.09999999999999432
 50
0
 51
90
  0
ARC
  8
1
 62
7
 10
168.9
 20
-41.14999999999999
 30
0
 40
1.200000000000017
 50
270
 51
0
  0
ARC
  8
1
 62
7
 10
172.1
 20
-41.14999999999999
 30
0
 40
1.199999999999989
 50
180
 51
270
  0
ARC
  8
1
 62
7
 10
168.9
 20
-44.35000000000001
 30
0
 40
1.199999999999989
 50
0
 51
90
  0
ARC
  8
1
 62
7
 10
172.1
 20
-44.35000000000001
 30
0
 40
1.200000000000017
 50
90
 51
180
  0
ARC
  8
1
 62
7
 10
170.2
 20
-40.55
 30
0
 40
0.09999999999999432
 50
90
 51
180
  0
ARC
  8
1
 62
7
 10
170.7999999999999
 20
-40.55
 30
0
 40
0.100000000000108
 50
0
 51
90
  0
ARC
  8
1
 62
7
 10
168.3000000000001
 20
-42.45
 30
0
 40
0.09999999999999432
 50
90
 51
180
  0
ARC
  8
1
 62
7
 10
168.3000000000001
 20
-43.05
 30
0
 40
0.100000000000108
 50
180
 51
270
  0
ARC
  8
1
 62
7
 10
170.2
 20
-44.95
 30
0
 40
0.09999999999999432
 50
180
 51
270
  0
ARC
  8
1
 62
7
 10
170.7999999999999
 20
-44.95
 30
0
 40
0.09999999999999432
 50
270
 51
0
  0
ARC
  8
1
 62
7
 10
172.6999999999999
 20
-43.05
 30
0
 40
0.09999999999999432
 50
270
 51
0
  0
ARC
  8
1
 62
7
 10
172.6999999999999
 20
-42.45
 30
0
 40
0.09999999999999432
 50
0
 51
90
  0
ARC
  8
1
 62
7
 10
-11.59614394027721
 20
19.40458696655158
 30
0
 40
0.8000000000000274
 50
21.50479479966752
 51
87.86864827538524
  0
ARC
  8
1
 62
7
 10
-11.59614394027721
 20
14.09541303344839
 30
0
 40
0.7999999999999961
 50
272.1313517246148
 51
338.4952052003326
  0
ARC
  8
1
 62
7
 10
-12.80000000000017
 20
13.34999999999998
 30
0
 40
0.09999999999991083
 50
180
 51
275.000000000008
  0
ARC
  8
1
 62
7
 10
-12.80000000000017
 20
20.14999999999999
 30
0
 40
0.1000000000000532
 50
84.9999999999949
 51
180
  0
ARC
  8
1
 62
7
 10
-11.59614394027709
 20
12.40458696655158
 30
0
 40
0.7999999999999143
 50
21.50479479967057
 51
87.8686482753939
  0
ARC
  8
1
 62
7
 10
-11.59614394027709
 20
7.095413033448395
 30
0
 40
0.7999999999999906
 50
272.1313517246061
 51
338.4952052003291
  0
ARC
  8
1
 62
7
 10
-12.80000000000017
 20
6.34999999999998
 30
0
 40
0.09999999999991083
 50
180
 51
275.000000000008
  0
ARC
  8
1
 62
7
 10
-12.80000000000017
 20
13.14999999999999
 30
0
 40
0.1000000000000567
 50
84.99999999999508
 51
180
  0
ARC
  8
1
 62
7
 10
-11.59614394027721
 20
-15.59541303344839
 30
0
 40
0.8000000000000268
 50
21.5047947996674
 51
87.86864827538516
  0
ARC
  8
1
 62
7
 10
-11.59614394027721
 20
-20.90458696655161
 30
0
 40
0.7999999999999961
 50
272.1313517246148
 51
338.4952052003325
  0
ARC
  8
1
 62
7
 10
-12.80000000000017
 20
-21.64999999999999
 30
0
 40
0.09999999999991083
 50
180
 51
275.0000000000051
  0
ARC
  8
1
 62
7
 10
-12.80000000000017
 20
-14.85000000000001
 30
0
 40
0.1000000000000266
 50
84.99999999999358
 51
180
  0
ARC
  8
1
 62
7
 10
-11.59614394027721
 20
-40.09541303344839
 30
0
 40
0.800000000000026
 50
21.50479479966728
 51
87.86864827538516
  0
ARC
  8
1
 62
7
 10
-11.59614394027721
 20
-45.40458696655161
 30
0
 40
0.7999999999999961
 50
272.1313517246148
 51
338.4952052003327
  0
ARC
  8
1
 62
7
 10
-12.80000000000017
 20
-46.14999999999999
 30
0
 40
0.09999999999991083
 50
180
 51
275.0000000000051
  0
ARC
  8
1
 62
7
 10
-12.80000000000017
 20
-39.35000000000001
 30
0
 40
0.1000000000000249
 50
84.99999999999349
 51
180
  0
ARC
  8
1
 62
7
 10
-30.5
 20
21.58270459830489
 30
0
 40
0.9999999999999589
 50
98.13010235415466
 51
152.1220809242138
  0
ARC
  8
1
 62
7
 10
-36
 20
12.22299323270342
 30
0
 40
0.5
 50
180
 51
266.8201698801388
  0
ARC
  8
1
 62
7
 10
-36
 20
21.27700676729661
 30
0
 40
0.5000000000000926
 50
93.17983011986011
 51
180
  0
ARC
  8
1
 62
7
 10
-10.80000000000017
 20
20.89999999999998
 30
0
 40
0.4999999999999893
 50
270.0000000000252
 51
0
  0
LINE
  8
1
 62
2
 10
139.4087056195048
 20
72.89861998126089
 30
0
 11
70.88038431519294
 21
72.89861998126089
 31
0
  0
LINE
  8
1
 62
2
 10
70.88038431519294
 20
72.89861998126089
 30
0
 11
61.18873748996794
 21
45.9939822888846
 31
0
  0
SOLID
  8
1
 62
2
 10
61.94138831360792
 20
49.44301670363844
 30
0
 11
62.80841815245185
 21
49.13069333838501
 31
0
 12
61.18873748996794
 22
45.9939822888846
 32
0
 13
61.18873748996794
 23
45.9939822888846
 33
0
  0
LINE
  8
1
 62
2
 10
23.37366365821902
 20
5.25
 30
0
 11
-2.336304954547009
 21
5.25
 31
0
  0
LINE
  8
1
 62
2
 10
-2.336304954547009
 20
5.25
 30
0
 11
7.563695045452969
 21
18.14999999999999
 31
0
  0
SOLID
  8
1
 62
2
 10
5.79837333695335
 20
15.09288356093814
 30
0
 11
5.067285257979238
 21
15.6539511564299
 31
0
 12
7.563695045452969
 22
18.14999999999999
 32
0
 13
7.563695045452969
 23
18.14999999999999
 33
0
  0
TEXT
  8
1
 62
2
 10
-142.5615802496679
 20
93.50000000000001
 30
0
 40
5
  1
DME33B5C
 41
0.9
 72
1
 73
2
 11
-124.5615802496679
 21
96.00000000000001
 31
0
  0
TEXT
  8
1
 62
2
 10
72.29669839264986
 20
67.08707482147131
 30
0
 40
3.5
  1
UL1007 AWG22
 41
0.9
 73
2
 11
72.29669839264986
 21
68.83707482147131
 31
0
  0
TEXT
  8
1
 62
2
 10
72.29669839264986
 20
74.18369681053309
 30
0
 40
3.5
  1
LEAD WIRES (RED,BLACK)
 41
0.9
 73
2
 11
72.29669839264986
 21
75.93369681053309
 31
0
  0
TEXT
  8
1
 62
2
 10
57.61176030705341
 20
21.16999999999999
 30
0
 40
3.2
  1
(1.26DIA.)
 50
90
 41
0.6300000000000001
 72
1
 73
2
 11
56.01176030705341
 21
31.24999999999999
 31
0
  0
TEXT
  8
1
 62
2
 10
34.836000000001
 20
53.05306639442912
 30
0
 40
3.2
  1
(0.0472)
 41
0.6300000000000001
 72
1
 73
2
 11
42.900000000001
 21
54.65306639442912
 31
0
  0
TEXT
  8
1
 62
2
 10
70.344000000001
 20
8.132151295558689
 30
0
 40
3.2
  1
(0.118)
 41
0.6300000000000001
 72
1
 73
2
 11
77.400000000001
 21
9.73215129555869
 31
0
  0
TEXT
  8
1
 62
2
 10
54.82149852911581
 20
-9.727537746039314
 30
0
 40
3.2
  1
(11.811   )
 41
0.6300000000000001
 72
1
 73
2
 11
65.90949852911581
 21
-8.127537746039312
 31
0
  0
TEXT
  8
1
 62
2
 10
66.16784230225792
 20
-8.041067714109538
 30
0
 40
2
  1
+1.181
 41
0.63
  0
TEXT
  8
1
 62
2
 10
66.16784230225792
 20
-10.44106771410954
 30
0
 40
2
  1
 0
 41
0.63
  0
TEXT
  8
1
 62
2
 10
-68.91775428359279
 20
-63.734769879772
 30
0
 40
3.5
  1
(4-M4 DEPTH 0.236MAX)
 41
0.666
 73
2
 11
-68.91775428359279
 21
-61.984769879772
 31
0
  0
TEXT
  8
1
 62
2
 10
-71.8
 20
-3.420011650184021
 30
0
 40
2
  1
 0
 50
90
 41
0.63
  0
TEXT
  8
1
 62
2
 10
-69.39999999999999
 20
-3.420011650184021
 30
0
 40
2
  1
-0.000787
 50
90
 41
0.63
  0
TEXT
  8
1
 62
2
 10
-155.8587466798174
 20
-4.779536178856089
 30
0
 40
2
  1
%%p0.0118
 50
90
 41
0.63
 72
1
 73
2
 11
-156.8587466798174
 21
0.8904638211439111
 31
0
  0
TEXT
  8
1
 62
2
 10
-120.9857726137482
 20
53.63677402711256
 30
0
 40
2
  1
%%p0.0118
 41
0.63
 72
1
 73
2
 11
-115.3157726137482
 21
54.63677402711256
 31
0
  0
TEXT
  8
1
 62
2
 10
-155.2587466798172
 20
-42.07397680894201
 30
0
 40
3.2
  1
(0.945)
 50
90
 41
0.6300000000000001
 72
1
 73
2
 11
-156.8587466798172
 21
-35.01797680894201
 31
0
  0
TEXT
  8
1
 62
2
 10
189.2008521839611
 20
25.20200000000001
 30
0
 40
3.2
  1
(1.26)
 50
90
 41
0.6300000000000001
 72
1
 73
2
 11
187.6008521839611
 21
31.25000000000001
 31
0
  0
TEXT
  8
1
 62
2
 10
-53.14026536898798
 20
-14.59720694415599
 30
0
 40
3.2
  1
(0.551)
 41
0.6300000000000001
 72
1
 73
2
 11
-46.08426536898798
 21
-12.99720694415599
 31
0
  0
TEXT
  8
1
 62
2
 10
-52.14026536898798
 20
-4.597206944155963
 30
0
 40
3.2
  1
(0.669)
 41
0.6300000000000001
 72
1
 73
2
 11
-45.08426536898798
 21
-2.997206944155963
 31
0
  0
TEXT
  8
1
 62
2
 10
-53.14826536898798
 20
5.402793055844065
 30
0
 40
3.2
  1
(0.0197)
 41
0.6300000000000001
 72
1
 73
2
 11
-45.08426536898798
 21
7.002793055844066
 31
0
  0
TEXT
  8
1
 62
2
 10
-58.80032579457815
 20
-19.07397680894201
 30
0
 40
3.2
  1
(0.276)
 50
90
 41
0.6300000000000001
 72
1
 73
2
 11
-60.40032579457815
 21
-12.01797680894201
 31
0
  0
TEXT
  8
1
 62
2
 10
-69.99999999999999
 20
-22.15397680894201
 30
0
 40
3.2
  1
(0.315DIA.      )
 50
90
 41
0.6300000000000001
 72
1
 73
2
 11
-71.59999999999999
 21
-5.017976808942009
 31
0
  0
TEXT
  8
1
 62
2
 10
-155.2587466798172
 20
33.20147840257302
 30
0
 40
3.2
  1
(0.63)
 50
90
 41
0.6300000000000001
 72
1
 73
2
 11
-156.8587466798172
 21
39.24947840257302
 31
0
  0
TEXT
  8
1
 62
2
 10
-155.2587466798172
 20
-14.33799999999999
 30
0
 40
3.2
  1
(1.575    )
 50
90
 41
0.6300000000000001
 72
1
 73
2
 11
-156.8587466798172
 21
-3.249999999999986
 31
0
  0
TEXT
  8
1
 62
2
 10
-167.2587466798172
 20
-6.06597680894201
 30
0
 40
3.2
  1
(3.72)
 50
90
 41
0.6300000000000001
 72
1
 73
2
 11
-168.8587466798172
 21
-0.01797680894200937
 31
0
  0
TEXT
  8
1
 62
2
 10
-130.544236434892
 20
53.03677402711256
 30
0
 40
3.2
  1
(1.575    )
 41
0.6300000000000001
 72
1
 73
2
 11
-119.456236434892
 21
54.63677402711256
 31
0
  0
TEXT
  8
1
 62
2
 10
163.202
 20
53.03677402711256
 30
0
 40
3.2
  1
(0.433)
 41
0.54
 72
1
 73
2
 11
169.25
 21
54.63677402711256
 31
0
  0
TEXT
  8
1
 62
2
 10
114.702
 20
53.03677402711256
 30
0
 40
3.2
  1
(0.433)
 41
0.54
 72
1
 73
2
 11
120.75
 21
54.63677402711256
 31
0
  0
TEXT
  8
1
 62
2
 10
-32.64026536898798
 20
53.03677402711256
 30
0
 40
3.2
  1
(0.866)
 41
0.6300000000000001
 72
1
 73
2
 11
-25.58426536898798
 21
54.63677402711256
 31
0
  0
TEXT
  8
1
 62
2
 10
-8.140265368987979
 20
65.05306639442912
 30
0
 40
3.2
  1
(2.752)
 41
0.6300000000000001
 72
1
 73
2
 11
-1.084265368987978
 21
66.65306639442913
 31
0
  0
TEXT
  8
1
 62
2
 10
-126.512236434892
 20
65.05306639442912
 30
0
 40
3.2
  1
(2.362)
 41
0.6300000000000001
 72
1
 73
2
 11
-119.456236434892
 21
66.65306639442913
 31
0
  0
TEXT
  8
1
 62
2
 10
2.714103473589319
 20
5.999461668914023
 30
0
 40
3
  1
NAME PLATE
 41
0.6300000000000001
 72
1
 73
2
 11
12.16410347358932
 21
7.499461668914023
 31
0
  0
DIMENSION
  8
1
  6
CONTINUOUS
 62
2
  2
*D0
  3
DMST_1
 10
53.39999999999987
 20
15.24999999999999
 30
0
 11
50.79999999999996
 21
31.24999999999999
 31
0
 12
0
 22
0
 32
0
 70
0
  1
ƒÓ<>
 13
32.39999999999986
 23
47.24999999999999
 33
0
 14
32.39999999999986
 24
15.25
 34
0
 50
90
 53
0
  0
DIMENSION
  8
1
  6
CONTINUOUS
 62
2
  2
*D1
  3
DMST_2
 10
34.59999999999991
 20
57.2602481433251
 30
0
 11
43.1735517202725
 21
59.8602481433251
 31
0
 12
0
 22
0
 32
0
 70
0
  1
(<>
 13
33.39999999999986
 23
46.24999999999999
 33
0
 14
34.59999999999991
 24
35.84999999999987
 34
0
 53
0
  0
DIMENSION
  8
1
  6
CONTINUOUS
 62
2
  2
*D2
  3
DMST_3
 10
89.12091180435596
 20
-4.750000000000007
 30
0
 11
65.36796330027653
 21
-1.350000000000007
 31
0
 12
0
 22
0
 32
0
 70
0
  1
300
 13
33.39999999999986
 23
16.25
 33
0
 14
89.12091180435596
 24
43.8989822888847
 34
0
 53
0
  0
DIMENSION
  8
1
  6
CONTINUOUS
 62
2
  2
*D3
  3
DMST_2
 10
86.12091180435596
 20
12.86693942041256
 30
0
 11
77.26718178779584
 21
15.46693942041256
 31
0
 12
0
 22
0
 32
0
 70
0
  1
(<>
 13
89.12091180435596
 23
43.8989822888847
 33
0
 14
86.12091180435596
 24
43.50398228888459
 34
0
 53
0
  0
DIMENSION
  8
1
  6
CONTINUOUS
 62
2
  2
*D4
  3
DMST_2
 10
185
 20
15.25000000000001
 30
0
 11
182.4
 21
31.25000000000001
 31
0
 12
0
 22
0
 32
0
 70
0
  1
(<>
 13
171
 23
47.25000000000001
 33
0
 14
169.25
 24
15.25000000000001
 34
0
 50
90
 53
0
  0
DIMENSION
  8
1
  6
CONTINUOUS
 62
2
  2
*D5
  3
DMST_4
 10
-36.49999999999999
 20
9.749999999999981
 30
0
 11
-44.57173007942997
 21
12.34999999999998
 31
0
 12
0
 22
0
 32
0
 70
0
 13
-36
 23
-16.21301556963091
 33
0
 14
-36.5
 24
-18.7229932327033
 34
0
 53
0
  0
DIMENSION
  8
1
  6
CONTINUOUS
 62
2
  2
*D6
  3
DMST_4
 10
-36.5
 20
-0.2499999999999889
 30
0
 11
-44.99999999999999
 21
2.350000000000011
 31
0
 12
0
 22
0
 32
0
 70
0
 13
-53.5
 23
-20.25000000000001
 33
0
 14
-36.5
 24
-18.7229932327033
 34
0
 53
0
  0
DIMENSION
  8
1
  6
CONTINUOUS
 62
2
  2
*D7
  3
DMST_5
 10
-139.4562364348919
 20
57.3159105113614
 30
0
 11
-119.456236434892
 21
59.9159105113614
 31
0
 12
0
 22
0
 32
0
 70
0
 13
-99.45623643489205
 23
47.3593059936909
 33
0
 14
-139.4562364348919
 24
47.25000000000001
 34
0
 53
0
  0
DIMENSION
  8
1
  6
CONTINUOUS
 62
2
  2
*D8
  3
DMST_1
 10
-159.456236434892
 20
31.25000000000001
 30
0
 11
-162.056236434892
 21
39.25000000000001
 31
0
 12
0
 22
0
 32
0
 70
0
 13
-145.4562364348919
 23
47.25000000000001
 33
0
 14
-125.456236434892
 24
31.25000000000001
 34
0
 50
90
 53
0
  0
DIMENSION
  8
1
  6
CONTINUOUS
 62
2
  2
*D9
  3
DMST_5
 10
-159.456236434892
 20
-23.25000000000001
 30
0
 11
-162.056236434892
 21
-3.250000000000014
 31
0
 12
0
 22
0
 32
0
 70
0
 13
-149.4562364348919
 23
16.75000000000001
 33
0
 14
-149.4562364348919
 24
-23.25000000000001
 34
0
 50
90
 53
0
  0
DIMENSION
  8
1
  6
CONTINUOUS
 62
2
  2
*D10
  3
DMST_1
 10
-159.456236434892
 20
-47.25000000000001
 30
0
 11
-162.056236434892
 21
-35.25000000000001
 31
0
 12
0
 22
0
 32
0
 70
0
 13
-149.4562364348919
 23
-23.25000000000001
 33
0
 14
-145.4562364348919
 24
-47.25000000000001
 34
0
 50
90
 53
0
  0
DIMENSION
  8
1
  6
CONTINUOUS
 62
2
  2
*D11
  3
DMST_1
 10
-171.4915159331527
 20
47.25000000000001
 30
0
 11
-174.0915159331527
 21
1.4210854715202e-014
 31
0
 12
0
 22
0
 32
0
 70
0
 13
-145.4562364348919
 23
-47.25000000000001
 33
0
 14
-145.4562364348919
 24
47.25000000000001
 34
0
 50
90
 53
0
  0
DIMENSION
  8
1
  6
CONTINUOUS
 62
2
  2
*D12
  3
DMST_1
 10
-149.4562364348919
 20
69.30722910344591
 30
0
 11
-119.456236434892
 21
71.9072291034459
 31
0
 12
0
 22
0
 32
0
 70
1
 13
-89.45623643489205
 23
43.25000000000001
 33
0
 14
-149.4562364348919
 24
43.25000000000001
 34
0
 53
0
  0
DIMENSION
  8
1
  6
CONTINUOUS
 62
2
  2
*D13
  3
DMST_1
 10
-62.92692826673143
 20
-20.25000000000001
 30
0
 11
-65.52692826673143
 21
-11.5654867277327
 31
0
 12
0
 22
0
 32
0
 70
1
 13
-53.5
 23
-27.25000000000001
 33
0
 14
-53.5
 24
-20.25000000000001
 34
0
 53
0
  0
DIMENSION
  8
1
  6
CONTINUOUS
 62
2
  2
*D14
  3
DMST_6
 10
-74.96524210975855
 20
-19.25000000000001
 30
0
 11
-78.36524210975856
 21
-4.88956352935861
 31
0
 12
0
 22
0
 32
0
 70
0
  1
ƒÓ<>
 13
-53.5
 23
-27.25000000000001
 33
0
 14
-39.5
 24
-19.25000000000001
 34
0
 50
90
 53
0
  0
DIMENSION
  8
1
  6
CONTINUOUS
 62
2
  2
*D15
  3
DMST_1
 10
-53.5
 20
-10.24999999999999
 30
0
 11
-46.5
 21
-7.649999999999991
 31
0
 12
0
 22
0
 32
0
 70
0
 13
-39.5
 23
-19.25000000000001
 33
0
 14
-53.5
 24
-20.25000000000001
 34
0
 53
0
  0
DIMENSION
  8
1
  6
CONTINUOUS
 62
2
  2
*D16
  3
DMST_2
 10
115
 20
57.3159105113614
 30
0
 11
120.75
 21
59.9159105113614
 31
0
 12
0
 22
0
 32
0
 70
0
  1
11
 13
126.5
 23
43.25000000000001
 33
0
 14
115
 24
43.25000000000001
 34
0
 53
0
  0
DIMENSION
  8
1
  6
CONTINUOUS
 62
2
  2
*D17
  3
DMST_2
 10
163.5
 20
57.3159105113614
 30
0
 11
169.25
 21
59.9159105113614
 31
0
 12
0
 22
0
 32
0
 70
0
  1
11
 13
175
 23
43.25000000000004
 33
0
 14
163.5
 24
43.25000000000001
 34
0
 53
0
  0
DIMENSION
  8
1
  6
CONTINUOUS
 62
2
  2
*D18
  3
DMST_1
 10
-14.49999999999999
 20
57.3159105113614
 30
0
 11
-25.49999999999999
 21
59.9159105113614
 31
0
 12
0
 22
0
 32
0
 70
0
 13
-36.5
 23
21.27700676729667
 33
0
 14
-14.49999999999999
 24
47.25000000000001
 34
0
 53
0
  0
DIMENSION
  8
1
  6
CONTINUOUS
 62
2
  2
*D19
  3
DMST_1
 10
-36.5
 20
69.22386342914051
 30
0
 11
-1.550000000000068
 21
71.8238634291405
 31
0
 12
0
 22
0
 32
0
 70
0
 13
33.39999999999986
 23
46.24999999999999
 33
0
 14
-36.5
 24
21.27700676729667
 34
0
 53
0
  0
INSERT
  8
0
  2
___R___O_______R
 10
0.5
 20
-3.75
 30
0
  0
INSERT
  8
1
  2
*D20
 10
0
 20
0
 30
0
  0
ENDSEC
  0
EOF
