  0
SECTION
  2
HEADER
  9
$ACADVER
  1
AC1009
  9
$INSBASE
 10
0
 20
0
  9
$EXTMIN
 10
-194.5
 20
-146
  9
$EXTMAX
 10
194.5
 20
146
  9
$LIMMIN
 10
-194.5
 20
-146
  9
$LIMMAX
 10
194.5
 20
146
  9
$VIEWCTR
 10
10
 20
10
  9
$VIEWSIZE
 40
10
  9
$SNAPMODE
 70
0
  9
$SNAPUNIT
 10
1
 20
1
  9
$SNAPBASE
 10
0
 20
0
  9
$SNAPANG
 50
0
  9
$SNAPSTYLE
 70
0
  9
$SNAPISOPAIR
 70
0
  9
$GRIDMODE
 70
0
  9
$GRIDUNIT
 10
0
 20
0
  9
$ORTHOMODE
 70
0
  9
$REGENMODE
 70
1
  9
$FILLMODE
 70
1
  9
$QTEXTMODE
 70
0
  9
$DRAGMODE
 70
2
  9
$LTSCALE
 40
1
  9
$OSMODE
 70
0
  9
$ATTMODE
 70
1
  9
$TEXTSIZE
 40
3.5
  9
$TRACEWID
 40
0.5
  9
$TEXTSTYLE
  7
STANDARD
  9
$CLAYER
  8
0
  9
$CELTYPE
  6
BYLAYER
  9
$CECOLOR
 62
256
  9
$DIMSCALE
 40
1
  9
$DIMASZ
 40
0.18
  9
$DIMEXO
 40
0.0625
  9
$DIMDLI
 40
0.38
  9
$DIMRND
 40
0
  9
$DIMDLE
 40
0
  9
$DIMEXE
 40
0.18
  9
$DIMTP
 40
0
  9
$DIMTM
 40
0
  9
$DIMTXT
 40
0.18
  9
$DIMCEN
 40
0.09
  9
$DIMTSZ
 40
0
  9
$DIMTOL
 70
0
  9
$DIMLIM
 70
0
  9
$DIMTIH
 70
1
  9
$DIMTOH
 70
1
  9
$DIMSE1
 70
0
  9
$DIMSE2
 70
0
  9
$DIMTAD
 70
0
  9
$DIMZIN
 70
0
  9
$DIMBLK
  1

  9
$DIMASO
 70
1
  9
$DIMSHO
 70
1
  9
$DIMPOST
  1

  9
$DIMAPOST
  1

  9
$DIMALT
 70
0
  9
$DIMALTD
 70
2
  9
$DIMALTF
 40
25.4
  9
$DIMLFAC
 40
1
  9
$DIMTOFL
 70
0
  9
$DIMTVP
 40
0
  9
$DIMTIX
 70
0
  9
$DIMSOXD
 70
0
  9
$DIMSAH
 70
0
  9
$DIMBLK1
  1

  9
$DIMBLK2
  1

  9
$DIMSTYLE
  2
*UNNAMED
  9
$DIMCLRD
 70
0
  9
$DIMCLRE
 70
0
  9
$DIMCLRT
 70
0
  9
$DIMTFAC
 40
1
  9
$DIMGAP
 40
0.09
  9
$LUNITS
 70
2
  9
$LUPREC
 70
4
  9
$AXISMODE
 70
0
  9
$AXISUNIT
 10
0
 20
0
  9
$SKETCHINC
 40
0.1
  9
$FILLETRAD
 40
2
  9
$AUNITS
 70
0
  9
$AUPREC
 70
0
  9
$MENU
  1
ACAD
  9
$ELEVATION
 40
0
  9
$THICKNESS
 40
0
  9
$VIEWDIR
 10
0
 20
0
 30
1
  9
$LIMCHECK
 70
0
  9
$BLIPMODE
 70
1
  9
$CHAMFERA
 40
0
  9
$CHAMFERB
 40
0
  9
$FASTZOOM
 70
1
  9
$SKPOLY
 70
0
  9
$ANGBASE
 50
0
  9
$ANGDIR
 70
0
  9
$PDMODE
 70
0
  9
$PDSIZE
 40
0
  9
$PLINEWID
 40
0
  9
$COORDS
 70
2
  0
ENDSEC
  0
SECTION
  2
TABLES
  0
TABLE
  2
DIMSTYLE
 70
7
  0
DIMSTYLE
  2
DMST_1
 70
0
  3

  4

  5

  6

  7

 40
1
 41
3.2
 42
1
 43
7
 44
1
 45
0
 46
0
 47
0
 48
0
140
3.2
141
0
142
0
143
25.4
144
1
145
0
146
1
147
0.09
 71
0
 72
0
 73
0
 74
0
 75
0
 76
0
 77
1
 78
9
170
0
171
2
172
0
173
0
174
0
175
0
176
2
177
2
178
2
  0
DIMSTYLE
  2
DMST_2
 70
0
  3

  4

  5

  6

  7

 40
1
 41
3.2
 42
1
 43
7
 44
1
 45
0
 46
0
 47
0
 48
0
140
3.2
141
0
142
0
143
25.4
144
1
145
0
146
1
147
0.09
 71
0
 72
0
 73
1
 74
1
 75
0
 76
0
 77
1
 78
9
170
0
171
2
172
0
173
0
174
0
175
0
176
2
177
2
178
2
  0
DIMSTYLE
  2
DMST_3
 70
0
  3

  4

  5

  6

  7

 40
1
 41
3.2
 42
1
 43
7
 44
1
 45
0
 46
0
 47
0.1
 48
0.1
140
3.2
141
0
142
0
143
25.4
144
1
145
0
146
0.6
147
0.09
 71
1
 72
0
 73
0
 74
0
 75
0
 76
0
 77
1
 78
9
170
0
171
2
172
0
173
0
174
0
175
0
176
2
177
2
178
2
  0
DIMSTYLE
  2
DMST_4
 70
0
  3

  4

  5

  6

  7

 40
1
 41
3.2
 42
1
 43
7
 44
1
 45
0
 46
0
 47
0
 48
0.02
140
3.2
141
0
142
0
143
25.4
144
1
145
0
146
0.6
147
0.09
 71
1
 72
0
 73
0
 74
0
 75
0
 76
0
 77
1
 78
9
170
0
171
2
172
0
173
0
174
0
175
0
176
2
177
2
178
2
  0
DIMSTYLE
  2
DMST_5
 70
0
  3

  4

  5

  6

  7

 40
1
 41
3.2
 42
1
 43
7
 44
1
 45
0
 46
0
 47
0.2
 48
0.2
140
3.2
141
0
142
0
143
25.4
144
1
145
0
146
0.6
147
0.09
 71
1
 72
0
 73
0
 74
0
 75
0
 76
0
 77
1
 78
9
170
0
171
2
172
0
173
0
174
0
175
0
176
2
177
2
178
2
  0
DIMSTYLE
  2
DMST_6
 70
0
  3
)
  4

  5

  6

  7

 40
1
 41
3.2
 42
1
 43
7
 44
1
 45
0
 46
0
 47
0
 48
0
140
3.2
141
0
142
0
143
25.4
144
1
145
0
146
1
147
0.09
 71
0
 72
0
 73
0
 74
0
 75
0
 76
0
 77
1
 78
9
170
0
171
2
172
0
173
0
174
0
175
0
176
2
177
2
178
2
  0
DIMSTYLE
  2
DMST_7
 70
0
  3

  4

  5

  6

  7

 40
1
 41
3.2
 42
1
 43
7
 44
1
 45
0
 46
0
 47
0
 48
0
140
3.2
141
0
142
0
143
25.4
144
1
145
0
146
0.6
147
0.09
 71
1
 72
0
 73
0
 74
0
 75
0
 76
0
 77
1
 78
9
170
0
171
2
172
0
173
0
174
0
175
0
176
2
177
2
178
2
  0
ENDTAB
  0
TABLE
  2
LTYPE
 70
9
  0
LTYPE
  2
CONTINUOUS
 70
64
  3
Solid line
 72
65
 73
0
 40
0
  0
LTYPE
  2
BORDER
 70
64
  3
__ __ . __ __ .
 72
65
 73
6
 40
17.91447368421053
 49
5.118421052631579
 49
-2.559210526315789
 49
5.118421052631579
 49
-2.559210526315789
 49
0
 49
-2.559210526315789
  0
LTYPE
  2
CENTER
 70
64
  3
____ _ ____ _
 72
65
 73
4
 40
20.47368421052632
 49
12.79605263157895
 49
-2.559210526315789
 49
2.559210526315789
 49
-2.559210526315789
  0
LTYPE
  2
DASHDOT
 70
64
  3
__ . __ . __ .
 72
65
 73
4
 40
10.23684210526316
 49
5.118421052631579
 49
-2.559210526315789
 49
0
 49
-2.559210526315789
  0
LTYPE
  2
DASHED
 70
64
  3
__ __ __ __ __
 72
65
 73
2
 40
7.677631578947368
 49
5.118421052631579
 49
-2.559210526315789
  0
LTYPE
  2
DIVIDE
 70
64
  3
__ . . __ . . 
 72
65
 73
6
 40
12.79605263157895
 49
5.118421052631579
 49
-2.559210526315789
 49
0
 49
-2.559210526315789
 49
0
 49
-2.559210526315789
  0
LTYPE
  2
DOT
 70
64
  3
..............
 72
65
 73
4
 40
5.118421052631579
 49
0
 49
-2.559210526315789
 49
0
 49
-2.559210526315789
  0
LTYPE
  2
HIDDEN
 70
64
  3
_ _ _ _ _ _ _
 72
65
 73
2
 40
3.838815789473684
 49
2.559210526315789
 49
-1.279605263157895
  0
LTYPE
  2
PHANTOM
 70
64
  3
_____ _ _ _____ _ _ 
 72
65
 73
6
 40
25.59210526315789
 49
12.79605263157895
 49
-2.559210526315789
 49
2.559210526315789
 49
-2.559210526315789
 49
2.559210526315789
 49
-2.559210526315789
  0
ENDTAB
  0
TABLE
  2
LAYER
 70
3
  0
LAYER
  2
1
 70
0
 62
7
  6
CONTINUOUS
  0
LAYER
  2
0
 70
0
 62
7
  6
CONTINUOUS
  0
ENDTAB
  0
TABLE
  2
STYLE
 70
4
  0
STYLE
  2
STANDARD
 70
0
 40
0
 41
1
 50
0
 71
0
 42
3.5
  3
txt
  4

  0
STYLE
  2
SIMPLEX
 70
0
 40
0
 41
1
 50
0
 71
0
 42
3.5
  3
simplex
  4

  0
STYLE
  2
COMPLEX
 70
0
 40
0
 41
1
 50
0
 71
0
 42
3.5
  3
complex
  4

  0
STYLE
  2
ITALIC
 70
0
 40
0
 41
1
 50
0
 71
0
 42
3.5
  3
italic
  4

  0
ENDTAB
  0
TABLE
  2
VIEW
 70
0
  0
ENDTAB
  0
ENDSEC
  0
SECTION
  2
BLOCKS
  0
BLOCK
  8
0
  2
___R___O_______R
 70
0
 10
0.5
 20
-3.75
 30
0
  0
LINE
  8
1
 62
4
  6
PHANTOM
 10
-194.5
 20
-146
 30
0
 11
194.5
 21
-146
 31
0
  0
LINE
  8
1
 62
4
  6
PHANTOM
 10
194.5
 20
146
 30
0
 11
-194.5
 21
146
 31
0
  0
LINE
  8
1
 62
4
  6
PHANTOM
 10
194.5
 20
146
 30
0
 11
194.5
 21
129
 31
0
  0
LINE
  8
1
 62
4
  6
PHANTOM
 10
-194.5
 20
-146
 30
0
 11
-194.5
 21
146
 31
0
  0
LINE
  8
1
 62
4
  6
PHANTOM
 10
194.5
 20
-136.5
 30
0
 11
194.5
 21
-146
 31
0
  0
TEXT
  8
1
 62
4
 10
178.746911898274
 20
-142.6071298819256
 30
0
 40
5
  1
A3
 41
0.9
 72
1
 73
2
 11
183.246911898274
 21
-140.1071298819256
 31
0
  0
ENDBLK
  8
0
  0
BLOCK
  8
1
  2
*D0
 70
1
 10
0
 20
0
 30
0
  0
LINE
  8
1
 62
2
 10
4.000000000000206
 20
47.0162481822815
 30
0
 11
78.30000000000015
 21
47.0162481822815
 31
0
  0
LINE
  8
1
 62
2
 10
78.30000000000015
 20
15.7439822888846
 30
0
 11
78.30000000000015
 21
48.0162481822815
 31
0
  0
LINE
  8
1
 62
2
 10
4.000000000000206
 20
26
 30
0
 11
4.000000000000206
 21
48.0162481822815
 31
0
  0
SOLID
  8
1
 62
2
 10
4.000000000000206
 20
47.0162481822815
 30
0
 11
7.200000000000207
 21
47.4322481822815
 31
0
 12
7.200000000000207
 22
46.6002481822815
 32
0
 13
7.200000000000207
 23
46.6002481822815
 33
0
  0
SOLID
  8
1
 62
2
 10
78.30000000000015
 20
47.0162481822815
 30
0
 11
75.10000000000015
 21
46.6002481822815
 31
0
 12
75.10000000000015
 22
47.4322481822815
 32
0
 13
75.10000000000015
 23
47.4322481822815
 33
0
  0
TEXT
  8
1
 62
2
 10
36.79000000000018
 20
48.0162481822815
 30
0
 40
3.2
  1
74.3
 41
0.9
  0
ENDBLK
  8
0
  0
BLOCK
  8
1
  2
*D1
 70
1
 10
0
 20
0
 30
0
  0
LINE
  8
1
 62
2
 10
4.000000000000199
 20
35.0286347652978
 30
0
 11
34.60000000000008
 21
35.0286347652978
 31
0
  0
LINE
  8
1
 62
2
 10
34.60000000000008
 20
18.3778068896783
 30
0
 11
34.60000000000008
 21
36.0286347652978
 31
0
  0
LINE
  8
1
 62
2
 10
4.000000000000199
 20
26
 30
0
 11
4.000000000000199
 21
36.0286347652978
 31
0
  0
SOLID
  8
1
 62
2
 10
4.000000000000199
 20
35.0286347652978
 30
0
 11
7.2000000000002
 21
35.44463476529779
 31
0
 12
7.2000000000002
 22
34.6126347652978
 32
0
 13
7.2000000000002
 23
34.6126347652978
 33
0
  0
SOLID
  8
1
 62
2
 10
34.60000000000008
 20
35.0286347652978
 30
0
 11
31.40000000000008
 21
34.6126347652978
 31
0
 12
31.40000000000008
 22
35.44463476529779
 32
0
 13
31.40000000000008
 23
35.44463476529779
 33
0
  0
TEXT
  8
1
 62
2
 10
14.94000000000014
 20
36.0286347652978
 30
0
 40
3.2
  1
30.6
 41
0.9
  0
ENDBLK
  8
0
  0
BLOCK
  8
1
  2
*D2
 70
1
 10
0
 20
0
 30
0
  0
LINE
  8
1
 62
2
 10
-52.0599864225019
 20
2
 30
0
 11
-52.0599864225019
 21
14
 31
0
  0
LINE
  8
1
 62
2
 10
-52.0599864225019
 20
14
 30
0
 11
-52.0599864225019
 21
33.96464184746022
 31
0
  0
LINE
  8
1
 62
2
 10
-1
 20
2
 30
0
 11
-53.0599864225019
 21
2
 31
0
  0
LINE
  8
1
 62
2
 10
-1
 20
14
 30
0
 11
-53.0599864225019
 21
14
 31
0
  0
SOLID
  8
1
 62
2
 10
-52.0599864225019
 20
2
 30
0
 11
-52.4759864225019
 21
5.200000000000001
 31
0
 12
-51.6439864225019
 22
5.200000000000001
 32
0
 13
-51.6439864225019
 23
5.200000000000001
 33
0
  0
SOLID
  8
1
 62
2
 10
-52.0599864225019
 20
14
 30
0
 11
-51.6439864225019
 21
10.8
 31
0
 12
-52.4759864225019
 22
10.8
 32
0
 13
-52.4759864225019
 23
10.8
 33
0
  0
TEXT
  8
1
 62
2
 10
-53.0599864225019
 20
24.25264184746023
 30
0
 40
3.2
  1
12
 50
90
 41
0.9
  0
TEXT
  8
1
 62
2
 10
-53.6999864225019
 20
29.69264184746022
 30
0
 40
1.92
  1
%%p0.1
 50
90
 41
0.9
  0
TEXT
  8
1
 62
2
 10
-53.0599864225019
 20
20.60819740301578
 30
0
 40
3.2
  1
ƒÓ
 50
90
 41
0.9
  0
ENDBLK
  8
0
  0
BLOCK
  8
1
  2
*D3
 70
1
 10
0
 20
0
 30
0
  0
LINE
  8
1
 62
2
 10
-40.0391725780563
 20
-1.400000000000002
 30
0
 11
-40.0391725780563
 21
5
 31
0
  0
LINE
  8
1
 62
2
 10
-40.0391725780563
 20
5
 30
0
 11
-40.0391725780563
 21
11
 31
0
  0
LINE
  8
1
 62
2
 10
-40.0391725780563
 20
11
 30
0
 11
-40.0391725780563
 21
35.55738764332602
 31
0
  0
LINE
  8
1
 62
2
 10
-21.99999999999996
 20
5
 30
0
 11
-41.0391725780563
 21
5
 31
0
  0
LINE
  8
1
 62
2
 10
-10
 20
11
 30
0
 11
-41.0391725780563
 21
11
 31
0
  0
SOLID
  8
1
 62
2
 10
-40.0391725780563
 20
5
 30
0
 11
-39.62317257805631
 21
1.799999999999999
 31
0
 12
-40.45517257805631
 22
1.799999999999999
 32
0
 13
-40.45517257805631
 23
1.799999999999999
 33
0
  0
SOLID
  8
1
 62
2
 10
-40.0391725780563
 20
11
 30
0
 11
-40.45517257805631
 21
14.2
 31
0
 12
-39.62317257805631
 22
14.2
 32
0
 13
-39.62317257805631
 23
14.2
 33
0
  0
TEXT
  8
1
 62
2
 10
-41.8391725780563
 20
25.26938764332602
 30
0
 40
3.2
  1
6
 50
90
 41
0.9
  0
TEXT
  8
1
 62
2
 10
-43.9191725780563
 20
28.78938764332602
 30
0
 40
1.92
  1
 0
 50
90
 41
0.9
  0
TEXT
  8
1
 62
2
 10
-41.0391725780563
 20
28.78938764332602
 30
0
 40
1.92
  1
-0.02
 50
90
 41
0.9
  0
TEXT
  8
1
 62
2
 10
-41.8391725780563
 20
21.62494319888158
 30
0
 40
3.2
  1
ƒÓ
 50
90
 41
0.9
  0
ENDBLK
  8
0
  0
BLOCK
  8
1
  2
*D4
 70
1
 10
0
 20
0
 30
0
  0
LINE
  8
1
 62
2
 10
-29.00811608180306
 20
10.5
 30
0
 11
-29.00811608180306
 21
31.0851861039751
 31
0
  0
LINE
  8
1
 62
2
 10
-29.00811608180306
 20
5
 30
0
 11
-29.00811608180306
 21
10.5
 31
0
  0
LINE
  8
1
 62
2
 10
-29.00811608180306
 20
-1.400000000000002
 30
0
 11
-29.00811608180306
 21
5
 31
0
  0
LINE
  8
1
 62
2
 10
-21.99999999999996
 20
10.5
 30
0
 11
-30.00811608180306
 21
10.5
 31
0
  0
LINE
  8
1
 62
2
 10
-21.99999999999996
 20
5
 30
0
 11
-30.00811608180306
 21
5
 31
0
  0
SOLID
  8
1
 62
2
 10
-29.00811608180306
 20
5
 30
0
 11
-28.59211608180306
 21
1.799999999999999
 31
0
 12
-29.42411608180306
 22
1.799999999999999
 32
0
 13
-29.42411608180306
 23
1.799999999999999
 33
0
  0
SOLID
  8
1
 62
2
 10
-29.00811608180306
 20
10.5
 30
0
 11
-29.42411608180306
 21
13.7
 31
0
 12
-28.59211608180306
 22
13.7
 32
0
 13
-28.59211608180306
 23
13.7
 33
0
  0
TEXT
  8
1
 62
2
 10
-30.00811608180306
 20
18.7971861039751
 30
0
 40
3.2
  1
5.5
 50
90
 41
0.9
  0
TEXT
  8
1
 62
2
 10
-30.64811608180306
 20
26.2371861039751
 30
0
 40
1.92
  1
%%p0.2
 50
90
 41
0.9
  0
ENDBLK
  8
0
  0
BLOCK
  8
1
  2
*D5
 70
1
 10
0
 20
0
 30
0
  0
LINE
  8
1
 62
2
 10
-20.99999999999996
 20
47.0197793354005
 30
0
 11
4.000000000000201
 21
47.0197793354005
 31
0
  0
LINE
  8
1
 62
2
 10
4.000000000000201
 20
26
 30
0
 11
4.000000000000201
 21
48.0197793354005
 31
0
  0
LINE
  8
1
 62
2
 10
-20.99999999999996
 20
11.5
 30
0
 11
-20.99999999999996
 21
48.0197793354005
 31
0
  0
SOLID
  8
1
 62
2
 10
-20.99999999999996
 20
47.0197793354005
 30
0
 11
-17.79999999999996
 21
47.4357793354005
 31
0
 12
-17.79999999999996
 22
46.6037793354005
 32
0
 13
-17.79999999999996
 23
46.6037793354005
 33
0
  0
SOLID
  8
1
 62
2
 10
4.000000000000201
 20
47.0197793354005
 30
0
 11
0.8000000000002001
 21
46.6037793354005
 31
0
 12
0.8000000000002001
 22
47.4357793354005
 32
0
 13
0.8000000000002001
 23
47.4357793354005
 33
0
  0
TEXT
  8
1
 62
2
 10
-10.89999999999988
 20
48.0197793354005
 30
0
 40
3.2
  1
25
 41
0.9
  0
ENDBLK
  8
0
  0
BLOCK
  8
1
  2
*D6
 70
1
 10
0
 20
0
 30
0
  0
LINE
  8
1
 62
2
 10
0
 20
35.0286347652978
 30
0
 11
-6.4
 21
35.0286347652978
 31
0
  0
LINE
  8
1
 62
2
 10
0
 20
35.0286347652978
 30
0
 11
4.000000000000201
 21
35.0286347652978
 31
0
  0
LINE
  8
1
 62
2
 10
10.4000000000002
 20
35.0286347652978
 30
0
 11
4.000000000000201
 21
35.0286347652978
 31
0
  0
LINE
  8
1
 62
2
 10
4.000000000000201
 20
26
 30
0
 11
4.000000000000201
 21
36.0286347652978
 31
0
  0
LINE
  8
1
 62
2
 10
0
 20
15
 30
0
 11
0
 21
36.0286347652978
 31
0
  0
SOLID
  8
1
 62
2
 10
0
 20
35.0286347652978
 30
0
 11
-3.200000000000001
 21
34.6126347652978
 31
0
 12
-3.200000000000001
 22
35.44463476529779
 32
0
 13
-3.200000000000001
 23
35.44463476529779
 33
0
  0
SOLID
  8
1
 62
2
 10
4.000000000000201
 20
35.0286347652978
 30
0
 11
7.200000000000202
 21
35.44463476529779
 31
0
 12
7.200000000000202
 22
34.6126347652978
 32
0
 13
7.200000000000202
 23
34.6126347652978
 33
0
  0
TEXT
  8
1
 62
2
 10
-5.721649665417179
 20
36.0286347652978
 30
0
 40
3.2
  1
4
 41
0.9
  0
ENDBLK
  8
0
  0
BLOCK
  8
1
  2
*D7
 70
1
 10
0
 20
0
 30
0
  0
LINE
  8
1
 62
2
 10
-20.99999999999996
 20
35.0286347652978
 30
0
 11
-9.000000000000002
 21
35.0286347652978
 31
0
  0
LINE
  8
1
 62
2
 10
-9.000000000000002
 20
11.5
 30
0
 11
-9.000000000000002
 21
36.0286347652978
 31
0
  0
LINE
  8
1
 62
2
 10
-20.99999999999996
 20
11.5
 30
0
 11
-20.99999999999996
 21
36.0286347652978
 31
0
  0
SOLID
  8
1
 62
2
 10
-20.99999999999996
 20
35.0286347652978
 30
0
 11
-17.79999999999996
 21
35.44463476529779
 31
0
 12
-17.79999999999996
 22
34.6126347652978
 32
0
 13
-17.79999999999996
 23
34.6126347652978
 33
0
  0
SOLID
  8
1
 62
2
 10
-9.000000000000002
 20
35.0286347652978
 30
0
 11
-12.2
 21
34.6126347652978
 31
0
 12
-12.2
 22
35.44463476529779
 32
0
 13
-12.2
 23
35.44463476529779
 33
0
  0
TEXT
  8
1
 62
2
 10
-16.91999999999998
 20
36.0286347652978
 30
0
 40
3.2
  1
12
 41
0.9
  0
ENDBLK
  8
0
  0
BLOCK
  8
1
  2
*D8
 70
1
 10
0
 20
0
 30
0
  0
LINE
  8
1
 62
2
 10
-77.08021846900411
 20
7.999999999999888
 30
0
 11
-77.08021846900411
 21
23.443530727469
 31
0
  0
LINE
  8
1
 62
2
 10
-77.08021846900411
 20
0
 30
0
 11
-77.08021846900411
 21
7.999999999999888
 31
0
  0
LINE
  8
1
 62
2
 10
-77.08021846900411
 20
-6.400000000000002
 30
0
 11
-77.08021846900411
 21
0
 31
0
  0
LINE
  8
1
 62
2
 10
-105
 20
7.999999999999888
 30
0
 11
-76.08021846900411
 21
7.999999999999888
 31
0
  0
LINE
  8
1
 62
2
 10
-86
 20
0
 30
0
 11
-76.08021846900411
 21
0
 31
0
  0
SOLID
  8
1
 62
2
 10
-77.08021846900411
 20
0
 30
0
 11
-76.66421846900411
 21
-3.200000000000001
 31
0
 12
-77.49621846900411
 22
-3.200000000000001
 32
0
 13
-77.49621846900411
 23
-3.200000000000001
 33
0
  0
SOLID
  8
1
 62
2
 10
-77.08021846900411
 20
7.999999999999888
 30
0
 11
-77.49621846900411
 21
11.19999999999989
 31
0
 12
-76.66421846900411
 22
11.19999999999989
 32
0
 13
-76.66421846900411
 23
11.19999999999989
 33
0
  0
TEXT
  8
1
 62
2
 10
-78.08021846900411
 20
15.075530727469
 30
0
 40
3.2
  1
8
 50
90
 41
0.9
  0
TEXT
  8
1
 62
2
 10
-78.72021846900411
 20
18.595530727469
 30
0
 40
1.92
  1
%%p0.2
 50
90
 41
0.9
  0
ENDBLK
  8
0
  0
BLOCK
  8
1
  2
*D9
 70
1
 10
0
 20
0
 30
0
  0
LINE
  8
1
 62
2
 10
-65.03292283532406
 20
9.99999999999989
 30
0
 11
-65.03292283532406
 21
23.3863022135852
 31
0
  0
LINE
  8
1
 62
2
 10
-65.03292283532406
 20
0
 30
0
 11
-65.03292283532406
 21
9.99999999999989
 31
0
  0
LINE
  8
1
 62
2
 10
-92
 20
9.99999999999989
 30
0
 11
-64.03292283532406
 21
9.99999999999989
 31
0
  0
LINE
  8
1
 62
2
 10
-86
 20
0
 30
0
 11
-64.03292283532406
 21
0
 31
0
  0
SOLID
  8
1
 62
2
 10
-65.03292283532406
 20
0
 30
0
 11
-65.44892283532406
 21
3.200000000000001
 31
0
 12
-64.61692283532406
 22
3.200000000000001
 32
0
 13
-64.61692283532406
 23
3.200000000000001
 33
0
  0
SOLID
  8
1
 62
2
 10
-65.03292283532406
 20
9.99999999999989
 30
0
 11
-64.61692283532406
 21
6.799999999999889
 31
0
 12
-65.44892283532406
 22
6.799999999999889
 32
0
 13
-65.44892283532406
 23
6.799999999999889
 33
0
  0
TEXT
  8
1
 62
2
 10
-66.03292283532406
 20
13.0983022135852
 30
0
 40
3.2
  1
10
 50
90
 41
0.9
  0
TEXT
  8
1
 62
2
 10
-66.67292283532406
 20
18.5383022135852
 30
0
 40
1.92
  1
%%p0.2
 50
90
 41
0.9
  0
ENDBLK
  8
0
  0
BLOCK
  8
1
  2
*D10
 70
1
 10
0
 20
0
 30
0
  0
LINE
  8
1
 62
2
 10
-65.03292283532406
 20
-20.00000000000012
 30
0
 11
-65.03292283532406
 21
0
 31
0
  0
LINE
  8
1
 62
2
 10
-86
 20
0
 30
0
 11
-64.03292283532406
 21
0
 31
0
  0
LINE
  8
1
 62
2
 10
-109
 20
-20.00000000000012
 30
0
 11
-64.03292283532406
 21
-20.00000000000012
 31
0
  0
SOLID
  8
1
 62
2
 10
-65.03292283532406
 20
0
 30
0
 11
-64.61692283532406
 21
-3.200000000000001
 31
0
 12
-65.44892283532406
 22
-3.200000000000001
 32
0
 13
-65.44892283532406
 23
-3.200000000000001
 33
0
  0
SOLID
  8
1
 62
2
 10
-65.03292283532406
 20
-20.00000000000012
 30
0
 11
-65.44892283532406
 21
-16.80000000000012
 31
0
 12
-64.61692283532406
 22
-16.80000000000012
 32
0
 13
-64.61692283532406
 23
-16.80000000000012
 33
0
  0
TEXT
  8
1
 62
2
 10
-66.03292283532406
 20
-15.62400000000006
 30
0
 40
3.2
  1
20
 50
90
 41
0.9
  0
TEXT
  8
1
 62
2
 10
-66.67292283532406
 20
-9.224000000000061
 30
0
 40
1.92
  1
%%p0.2
 50
90
 41
0.9
  0
ENDBLK
  8
0
  0
BLOCK
  8
1
  2
*D11
 70
1
 10
0
 20
0
 30
0
  0
LINE
  8
1
 62
2
 10
-129
 20
34.9787577640941
 30
0
 11
-112
 21
34.9787577640941
 31
0
  0
LINE
  8
1
 62
2
 10
-112
 20
25.99999999999988
 30
0
 11
-112
 21
35.9787577640941
 31
0
  0
LINE
  8
1
 62
2
 10
-129
 20
12.99999999999989
 30
0
 11
-129
 21
35.9787577640941
 31
0
  0
SOLID
  8
1
 62
2
 10
-129
 20
34.9787577640941
 30
0
 11
-125.8
 21
35.3947577640941
 31
0
 12
-125.8
 22
34.5627577640941
 32
0
 13
-125.8
 23
34.5627577640941
 33
0
  0
SOLID
  8
1
 62
2
 10
-112
 20
34.9787577640941
 30
0
 11
-115.2
 21
34.5627577640941
 31
0
 12
-115.2
 22
35.3947577640941
 32
0
 13
-115.2
 23
35.3947577640941
 33
0
  0
TEXT
  8
1
 62
2
 10
-125.644
 20
35.9787577640941
 30
0
 40
3.2
  1
17
 41
0.9
  0
TEXT
  8
1
 62
2
 10
-120.204
 20
36.6187577640941
 30
0
 40
1.92
  1
%%p0.2
 41
0.9
  0
ENDBLK
  8
0
  0
BLOCK
  8
1
  2
*D12
 70
1
 10
0
 20
0
 30
0
  0
LINE
  8
1
 62
2
 10
-112
 20
34.9787577640941
 30
0
 11
-95
 21
34.9787577640941
 31
0
  0
LINE
  8
1
 62
2
 10
-95
 20
12.99999999999989
 30
0
 11
-95
 21
35.9787577640941
 31
0
  0
LINE
  8
1
 62
2
 10
-112
 20
25.99999999999988
 30
0
 11
-112
 21
35.9787577640941
 31
0
  0
SOLID
  8
1
 62
2
 10
-112
 20
34.9787577640941
 30
0
 11
-108.8
 21
35.3947577640941
 31
0
 12
-108.8
 22
34.5627577640941
 32
0
 13
-108.8
 23
34.5627577640941
 33
0
  0
SOLID
  8
1
 62
2
 10
-95
 20
34.9787577640941
 30
0
 11
-98.2
 21
34.5627577640941
 31
0
 12
-98.2
 22
35.3947577640941
 32
0
 13
-98.2
 23
35.3947577640941
 33
0
  0
TEXT
  8
1
 62
2
 10
-108.644
 20
35.9787577640941
 30
0
 40
3.2
  1
17
 41
0.9
  0
TEXT
  8
1
 62
2
 10
-103.204
 20
36.6187577640941
 30
0
 40
1.92
  1
%%p0.2
 41
0.9
  0
ENDBLK
  8
0
  0
BLOCK
  8
1
  2
*D13
 70
1
 10
0
 20
0
 30
0
  0
LINE
  8
1
 62
2
 10
-137
 20
46.9975727345427
 30
0
 11
-87
 21
46.9975727345427
 31
0
  0
LINE
  8
1
 62
2
 10
-137
 20
0.9999999999998934
 30
0
 11
-137
 21
47.9975727345427
 31
0
  0
LINE
  8
1
 62
2
 10
-87
 20
1
 30
0
 11
-87
 21
47.9975727345427
 31
0
  0
SOLID
  8
1
 62
2
 10
-137
 20
46.9975727345427
 30
0
 11
-133.8
 21
47.4135727345427
 31
0
 12
-133.8
 22
46.5815727345427
 32
0
 13
-133.8
 23
46.5815727345427
 33
0
  0
SOLID
  8
1
 62
2
 10
-87
 20
46.9975727345427
 30
0
 11
-90.2
 21
46.5815727345427
 31
0
 12
-90.2
 22
47.4135727345427
 32
0
 13
-90.2
 23
47.4135727345427
 33
0
  0
TEXT
  8
1
 62
2
 10
-112.5777777777778
 20
47.9975727345427
 30
0
 40
3.2
  1
50
 41
0.9
  0
TEXT
  8
1
 62
2
 10
-116.2222222222222
 20
47.9975727345427
 30
0
 40
3.2
  1
ƒÓ
 41
0.9
  0
ENDBLK
  8
0
  0
BLOCK
  8
1
  2
*D14
 70
1
 10
0
 20
0
 30
0
  0
LINE
  8
1
 62
2
 10
131.0209118043562
 20
-25.9916349659101
 30
0
 11
119.810015000133
 21
-25.9916349659101
 31
0
  0
LINE
  8
1
 62
2
 10
131.0209118043562
 20
-25.9916349659101
 30
0
 11
134.0209118043562
 21
-25.9916349659101
 31
0
  0
LINE
  8
1
 62
2
 10
140.4209118043562
 20
-25.9916349659101
 30
0
 11
134.0209118043562
 21
-25.9916349659101
 31
0
  0
LINE
  8
1
 62
2
 10
134.0209118043562
 20
11.6489822888847
 30
0
 11
134.0209118043562
 21
-26.9916349659101
 31
0
  0
LINE
  8
1
 62
2
 10
131.0209118043562
 20
11.2539822888846
 30
0
 11
131.0209118043562
 21
-26.9916349659101
 31
0
  0
SOLID
  8
1
 62
2
 10
134.0209118043562
 20
-25.9916349659101
 30
0
 11
137.2209118043562
 21
-25.5756349659101
 31
0
 12
137.2209118043562
 22
-26.4076349659101
 32
0
 13
137.2209118043562
 23
-26.4076349659101
 33
0
  0
SOLID
  8
1
 62
2
 10
131.0209118043562
 20
-25.9916349659101
 30
0
 11
127.8209118043562
 21
-26.4076349659101
 31
0
 12
127.8209118043562
 22
-25.5756349659101
 32
0
 13
127.8209118043562
 23
-25.5756349659101
 33
0
  0
TEXT
  8
1
 62
2
 10
121.890015000133
 20
-24.9916349659101
 30
0
 40
3.2
  1
3
 41
0.9
  0
TEXT
  8
1
 62
2
 10
119.810015000133
 20
-24.9916349659101
 30
0
 40
3.2
  1
(
 41
0.9
  0
TEXT
  8
1
 62
2
 10
125.410015000133
 20
-24.9916349659101
 30
0
 40
3.2
  1
)
 41
0.9
  0
ENDBLK
  8
0
  0
BLOCK
  8
1
  2
*D15
 70
1
 10
0
 20
0
 30
0
  0
LINE
  8
1
 62
2
 10
78.30000000000015
 20
-37.9138669350218
 30
0
 11
134.0209118043562
 21
-37.9138669350218
 31
0
  0
LINE
  8
1
 62
2
 10
134.0209118043562
 20
11.64898228888471
 30
0
 11
134.0209118043562
 21
-38.9138669350218
 31
0
  0
LINE
  8
1
 62
2
 10
78.30000000000015
 20
-16
 30
0
 11
78.30000000000015
 21
-38.9138669350218
 31
0
  0
SOLID
  8
1
 62
2
 10
78.30000000000015
 20
-37.9138669350218
 30
0
 11
81.50000000000016
 21
-37.4978669350218
 31
0
 12
81.50000000000016
 22
-38.3298669350218
 32
0
 13
81.50000000000016
 23
-38.3298669350218
 33
0
  0
SOLID
  8
1
 62
2
 10
134.0209118043562
 20
-37.9138669350218
 30
0
 11
130.8209118043562
 21
-38.3298669350218
 31
0
 12
130.8209118043562
 22
-37.4978669350218
 32
0
 13
130.8209118043562
 23
-37.4978669350218
 33
0
  0
TEXT
  8
1
 62
2
 10
99.3124559021782
 20
-36.1138669350218
 30
0
 40
3.2
  1
300
 41
0.9
  0
TEXT
  8
1
 62
2
 10
108.5924559021782
 20
-34.03386693502181
 30
0
 40
1.92
  1
+30
 41
0.9
  0
TEXT
  8
1
 62
2
 10
110.3204559021782
 20
-36.9138669350218
 30
0
 40
1.92
  1
 0
 41
0.9
  0
ENDBLK
  8
0
  0
BLOCK
  8
1
  2
*D16
 70
1
 10
0
 20
0
 30
0
  0
LINE
  8
1
 62
2
 10
79.5000000000002
 20
35.02775553406939
 30
0
 11
93.08967048895622
 21
35.02775553406939
 31
0
  0
LINE
  8
1
 62
2
 10
78.30000000000015
 20
35.02775553406939
 30
0
 11
79.5000000000002
 21
35.02775553406939
 31
0
  0
LINE
  8
1
 62
2
 10
71.90000000000006
 20
35.02775553406939
 30
0
 11
78.30000000000015
 21
35.02775553406939
 31
0
  0
LINE
  8
1
 62
2
 10
79.5000000000002
 20
5.599999999999874
 30
0
 11
79.5000000000002
 21
36.02775553406939
 31
0
  0
LINE
  8
1
 62
2
 10
78.30000000000015
 20
15.99999999999999
 30
0
 11
78.30000000000015
 21
36.02775553406939
 31
0
  0
SOLID
  8
1
 62
2
 10
78.30000000000015
 20
35.02775553406939
 30
0
 11
75.10000000000015
 21
34.61175553406939
 31
0
 12
75.10000000000015
 22
35.44375553406938
 32
0
 13
75.10000000000015
 23
35.44375553406938
 33
0
  0
SOLID
  8
1
 62
2
 10
79.5000000000002
 20
35.02775553406939
 30
0
 11
82.7000000000002
 21
35.44375553406938
 31
0
 12
82.7000000000002
 22
34.61175553406939
 32
0
 13
82.7000000000002
 23
34.61175553406939
 33
0
  0
TEXT
  8
1
 62
2
 10
86.12967048895624
 20
36.02775553406939
 30
0
 40
3.2
  1
1.2
 41
0.9
  0
TEXT
  8
1
 62
2
 10
84.04967048895624
 20
36.02775553406939
 30
0
 40
3.2
  1
(
 41
0.9
  0
TEXT
  8
1
 62
2
 10
92.60967048895624
 20
36.02775553406939
 30
0
 40
3.2
  1
)
 41
0.9
  0
ENDBLK
  8
0
  0
BLOCK
  8
1
  2
*D17
 70
1
 10
0
 20
0
 30
0
  0
LINE
  8
1
 62
2
 10
98.30000000000015
 20
-16
 30
0
 11
98.30000000000015
 21
16
 31
0
  0
LINE
  8
1
 62
2
 10
78.30000000000015
 20
16
 30
0
 11
99.30000000000015
 21
16
 31
0
  0
LINE
  8
1
 62
2
 10
78.30000000000015
 20
-16
 30
0
 11
99.30000000000015
 21
-16
 31
0
  0
SOLID
  8
1
 62
2
 10
98.30000000000015
 20
16
 30
0
 11
98.71600000000015
 21
12.8
 31
0
 12
97.88400000000016
 22
12.8
 32
0
 13
97.88400000000016
 23
12.8
 33
0
  0
SOLID
  8
1
 62
2
 10
98.30000000000015
 20
-16
 30
0
 11
97.88400000000016
 21
-12.8
 31
0
 12
98.71600000000015
 22
-12.8
 32
0
 13
98.71600000000015
 23
-12.8
 33
0
  0
TEXT
  8
1
 62
2
 10
97.30000000000024
 20
-0.577777777777778
 30
0
 40
3.2
  1
32
 50
90
 41
0.9
  0
TEXT
  8
1
 62
2
 10
97.30000000000024
 20
-4.222222222222222
 30
0
 40
3.2
  1
ƒÓ
 50
90
 41
0.9
  0
ENDBLK
  8
0
  0
BLOCK
  8
1
  2
*D18
 70
1
 10
0
 20
0
 30
0
  0
LINE
  8
1
 62
2
 10
-95.13851792798414
 20
-34.74582965817501
 30
0
 11
-45.45851792798408
 21
-34.74582965817501
 31
0
  0
LINE
  8
1
 62
2
 10
-110.4944941316942
 20
-21.31660627390915
 30
0
 11
-95.13851792798414
 21
-34.74582965817501
 31
0
  0
SOLID
  8
1
 62
2
 10
-110.4944941316942
 20
-21.31660627390915
 30
0
 11
-107.8118306374318
 21
-23.11003109155602
 31
0
 12
-108.3595388473779
 22
-23.73632153277125
 32
0
 13
-108.3595388473779
 23
-23.73632153277125
 33
0
  0
TEXT
  8
1
 62
2
 10
-89.93851792798408
 20
-33.74582965817501
 30
0
 40
3.2
  1
3-M4 DEPTH 5MAX
 41
0.9
  0
ENDBLK
  8
0
  0
ENDSEC
  0
SECTION
  2
ENTITIES
  0
LINE
  8
1
 62
7
 10
30.7
 20
19.3778068896783
 30
0
 11
32.60000000000008
 21
19.3778068896783
 31
0
  0
LINE
  8
1
 62
7
 10
32.60000000000009
 20
-22.22514344369848
 30
0
 11
30.7
 21
-22.22514344369848
 31
0
  0
LINE
  8
1
 62
7
 10
28.7000000000001
 20
-24.99999999999999
 30
0
 11
28.7
 21
25
 31
0
  0
LINE
  8
1
 62
7
 10
27.10000000000009
 20
-25
 30
0
 11
27.10000000000009
 21
25
 31
0
  0
LINE
  8
1
 62
7
 10
28.7000000000001
 20
-24.99999999999999
 30
0
 11
27.10000000000009
 21
-25
 31
0
  0
LINE
  8
1
 62
7
 10
27.10000000000009
 20
25
 30
0
 11
28.7
 21
25
 31
0
  0
LINE
  8
1
 62
7
 10
34.60000000000008
 20
17.3778068896783
 30
0
 11
34.60000000000008
 21
-20.22514344369849
 31
0
  0
LINE
  8
1
 62
7
 10
0
 20
2
 30
0
 11
4.000000000000201
 21
2
 31
0
  0
LINE
  8
1
 62
7
 10
4.000000000000201
 20
14
 30
0
 11
0
 21
14
 31
0
  0
LINE
  8
1
 62
7
 10
0
 20
14
 30
0
 11
0
 21
2
 31
0
  0
LINE
  8
1
 62
7
 10
4.000000000000201
 20
25
 30
0
 11
4.000000000000201
 21
-25
 31
0
  0
LINE
  8
1
 62
7
 10
4.000000000000201
 20
-25
 30
0
 11
25.60000000000009
 21
-24.99999999999999
 31
0
  0
LINE
  8
1
 62
7
 10
8.000000000000201
 20
-24.99999999999999
 30
0
 11
8.000000000000201
 21
25
 31
0
  0
LINE
  8
1
 62
7
 10
25.60000000000009
 20
25
 30
0
 11
4.000000000000201
 21
25
 31
0
  0
LINE
  8
1
 62
7
 10
0
 20
11
 30
0
 11
-9.000000000000002
 21
11
 31
0
  0
LINE
  8
1
 62
7
 10
-9.000000000000002
 20
10.5
 30
0
 11
-20.99999999999996
 21
10.5
 31
0
  0
LINE
  8
1
 62
7
 10
-20.99999999999996
 20
10.5
 30
0
 11
-20.99999999999996
 21
5
 31
0
  0
LINE
  8
1
 62
7
 10
-9.000000000000002
 20
11
 30
0
 11
-9.000000000000002
 21
10.5
 31
0
  0
LINE
  8
1
 62
7
 10
-20.99999999999996
 20
5
 30
0
 11
0
 21
5
 31
0
  0
LINE
  8
1
 62
3
 10
-112
 20
24.99999999999988
 30
0
 11
-112
 21
27.99999999999988
 31
0
  0
LINE
  8
1
 62
2
 10
-129
 20
11.99999999999989
 30
0
 11
-129
 21
12.99999999999989
 31
0
  0
LINE
  8
1
 62
2
 10
-95
 20
11.99999999999989
 30
0
 11
-95
 21
12.99999999999989
 31
0
  0
LINE
  8
1
 62
2
 10
-87
 20
0
 30
0
 11
-84
 21
-1.101341240428155e-013
 31
0
  0
LINE
  8
1
 62
2
 10
-93
 20
9.99999999999989
 30
0
 11
-92
 21
9.99999999999989
 31
0
  0
LINE
  8
1
 62
2
 10
-106
 20
7.99999999999989
 30
0
 11
-104
 21
7.99999999999989
 31
0
  0
LINE
  8
1
 62
2
 10
-110
 20
-20.00000000000011
 30
0
 11
-109
 21
-20.00000000000011
 31
0
  0
LINE
  8
1
 62
3
 10
0.5074263361632081
 20
0
 30
0
 11
83.80018787286619
 21
0
 31
0
  0
LINE
  8
1
 62
7
 10
-113.658312395178
 20
10.49999999999989
 30
0
 11
-110.341687604822
 21
10.49999999999989
 31
0
  0
LINE
  8
1
 62
3
 10
-140
 20
-1.101341240428155e-013
 30
0
 11
-87
 21
0
 31
0
  0
LINE
  8
1
 62
3
 10
-97.5
 20
-19.00000000000011
 30
0
 11
-97.5
 21
-10.00000000000011
 31
0
  0
LINE
  8
1
 62
3
 10
-102
 20
-14.50000000000011
 30
0
 11
-93
 21
-14.50000000000011
 31
0
  0
LINE
  8
1
 62
3
 10
-98
 20
9.99999999999989
 30
0
 11
-93
 21
9.99999999999989
 31
0
  0
LINE
  8
1
 62
3
 10
-98.5
 20
11.49999999999989
 30
0
 11
-98.5
 21
20.49999999999989
 31
0
  0
LINE
  8
1
 62
3
 10
-103
 20
15.99999999999989
 30
0
 11
-94
 21
15.99999999999989
 31
0
  0
LINE
  8
1
 62
3
 10
-112
 20
-28.00000000000012
 30
0
 11
-112
 21
24.99999999999988
 31
0
  0
LINE
  8
1
 62
3
 10
-23.76540038581268
 20
8
 30
0
 11
11.03861503488631
 21
8
 31
0
  0
LINE
  8
1
 62
3
 10
-95
 20
6.99999999999989
 30
0
 11
-95
 21
11.99999999999989
 31
0
  0
LINE
  8
1
 62
3
 10
-129
 20
6.99999999999989
 30
0
 11
-129
 21
11.99999999999989
 31
0
  0
LINE
  8
1
 62
3
 10
-132
 20
9.99999999999989
 30
0
 11
-126
 21
9.99999999999989
 31
0
  0
LINE
  8
1
 62
3
 10
-115
 20
-20.00000000000011
 30
0
 11
-110
 21
-20.00000000000011
 31
0
  0
LINE
  8
1
 62
3
 10
-120
 20
7.99999999999989
 30
0
 11
-106
 21
7.99999999999989
 31
0
  0
LINE
  8
1
 62
7
 10
-97.49411764705906
 20
16.2999999999999
 30
0
 11
-97.10000000000014
 21
16.2999999999999
 31
0
  0
LINE
  8
1
 62
7
 10
-97.49411764705906
 20
15.69999999999988
 30
0
 11
-97.10000000000014
 21
15.69999999999988
 31
0
  0
LINE
  8
1
 62
7
 10
-97.5
 20
16.2999999999999
 30
0
 11
-97.49411764705906
 21
16.2999999999999
 31
0
  0
LINE
  8
1
 62
7
 10
-97.5
 20
15.69999999999988
 30
0
 11
-97.49411764705906
 21
15.69999999999988
 31
0
  0
LINE
  8
1
 62
7
 10
-98.20000000000005
 20
14.99999999999989
 30
0
 11
-98.20000000000005
 21
14.59999999999991
 31
0
  0
LINE
  8
1
 62
7
 10
-98.70000000000005
 20
17.49999999999989
 30
0
 11
-98.29999999999996
 21
17.49999999999989
 31
0
  0
LINE
  8
1
 62
7
 10
-98.70000000000005
 20
14.49999999999989
 30
0
 11
-98.29999999999996
 21
14.49999999999989
 31
0
  0
LINE
  8
1
 62
7
 10
-97
 20
16.19999999999988
 30
0
 11
-97
 21
15.7999999999999
 31
0
  0
LINE
  8
1
 62
7
 10
-100
 20
16.19999999999988
 30
0
 11
-100
 21
15.7999999999999
 31
0
  0
LINE
  8
1
 62
7
 10
-99.90000000000009
 20
16.2999999999999
 30
0
 11
-99.5
 21
16.2999999999999
 31
0
  0
LINE
  8
1
 62
7
 10
-99.90000000000009
 20
15.69999999999988
 30
0
 11
-99.5
 21
15.69999999999988
 31
0
  0
LINE
  8
1
 62
7
 10
-98.79999999999991
 20
14.59999999999991
 30
0
 11
-98.79999999999996
 21
14.99999999999989
 31
0
  0
LINE
  8
1
 62
7
 10
-98.79999999999991
 20
17.39999999999992
 30
0
 11
-98.79999999999996
 21
16.99999999999989
 31
0
  0
LINE
  8
1
 62
7
 10
-98.20000000000005
 20
17.39999999999992
 30
0
 11
-98.20000000000005
 21
16.99999999999989
 31
0
  0
LINE
  8
1
 62
3
 10
-132
 20
4.47181675659499
 30
0
 11
-132
 21
-4.32100537872128
 31
0
  0
LINE
  8
1
 62
7
 10
-130.9941176470591
 20
0.2999999999999012
 30
0
 11
-130.6000000000001
 21
0.2999999999999012
 31
0
  0
LINE
  8
1
 62
7
 10
-130.9941176470591
 20
-0.3000000000001215
 30
0
 11
-130.6000000000001
 21
-0.3000000000001215
 31
0
  0
LINE
  8
1
 62
7
 10
-131
 20
0.2999999999999012
 30
0
 11
-130.9941176470591
 21
0.2999999999999012
 31
0
  0
LINE
  8
1
 62
7
 10
-131
 20
-0.3000000000001215
 30
0
 11
-130.9941176470591
 21
-0.3000000000001215
 31
0
  0
LINE
  8
1
 62
7
 10
-131.7
 20
-1.00000000000011
 30
0
 11
-131.7
 21
-1.400000000000091
 31
0
  0
LINE
  8
1
 62
7
 10
-132.2
 20
1.49999999999989
 30
0
 11
-131.8
 21
1.49999999999989
 31
0
  0
LINE
  8
1
 62
7
 10
-132.2
 20
-1.50000000000011
 30
0
 11
-131.8
 21
-1.50000000000011
 31
0
  0
LINE
  8
1
 62
7
 10
-130.5
 20
0.1999999999998785
 30
0
 11
-130.5
 21
-0.2000000000000988
 31
0
  0
LINE
  8
1
 62
7
 10
-133.5
 20
0.1999999999998785
 30
0
 11
-133.5
 21
-0.2000000000000988
 31
0
  0
LINE
  8
1
 62
7
 10
-133.4000000000001
 20
0.2999999999999012
 30
0
 11
-133
 21
0.2999999999999012
 31
0
  0
LINE
  8
1
 62
7
 10
-133.4000000000001
 20
-0.3000000000001215
 30
0
 11
-133
 21
-0.3000000000001215
 31
0
  0
LINE
  8
1
 62
7
 10
-132.2999999999999
 20
-1.400000000000091
 30
0
 11
-132.3
 21
-1.00000000000011
 31
0
  0
LINE
  8
1
 62
7
 10
-132.2999999999999
 20
1.39999999999992
 30
0
 11
-132.3
 21
0.9999999999998899
 31
0
  0
LINE
  8
1
 62
7
 10
-131.7
 20
1.39999999999992
 30
0
 11
-131.7
 21
0.9999999999998899
 31
0
  0
LINE
  8
1
 62
7
 10
-96.49411764705906
 20
-14.2000000000001
 30
0
 11
-96.10000000000014
 21
-14.2000000000001
 31
0
  0
LINE
  8
1
 62
7
 10
-96.49411764705906
 20
-14.80000000000012
 30
0
 11
-96.10000000000014
 21
-14.80000000000012
 31
0
  0
LINE
  8
1
 62
7
 10
-96.5
 20
-14.2000000000001
 30
0
 11
-96.49411764705906
 21
-14.2000000000001
 31
0
  0
LINE
  8
1
 62
7
 10
-96.5
 20
-14.80000000000012
 30
0
 11
-96.49411764705906
 21
-14.80000000000012
 31
0
  0
LINE
  8
1
 62
7
 10
-97.20000000000005
 20
-15.50000000000011
 30
0
 11
-97.20000000000005
 21
-15.90000000000009
 31
0
  0
LINE
  8
1
 62
7
 10
-97.70000000000005
 20
-13.00000000000011
 30
0
 11
-97.29999999999996
 21
-13.00000000000011
 31
0
  0
LINE
  8
1
 62
7
 10
-97.70000000000005
 20
-16.00000000000011
 30
0
 11
-97.29999999999996
 21
-16.00000000000011
 31
0
  0
LINE
  8
1
 62
7
 10
-96
 20
-14.30000000000012
 30
0
 11
-96
 21
-14.7000000000001
 31
0
  0
LINE
  8
1
 62
7
 10
-99
 20
-14.30000000000012
 30
0
 11
-99
 21
-14.7000000000001
 31
0
  0
LINE
  8
1
 62
7
 10
-98.90000000000009
 20
-14.2000000000001
 30
0
 11
-98.5
 21
-14.2000000000001
 31
0
  0
LINE
  8
1
 62
7
 10
-98.90000000000009
 20
-14.80000000000012
 30
0
 11
-98.5
 21
-14.80000000000012
 31
0
  0
LINE
  8
1
 62
7
 10
-97.79999999999991
 20
-15.90000000000009
 30
0
 11
-97.79999999999996
 21
-15.50000000000011
 31
0
  0
LINE
  8
1
 62
7
 10
-97.79999999999991
 20
-13.10000000000008
 30
0
 11
-97.79999999999996
 21
-13.50000000000011
 31
0
  0
LINE
  8
1
 62
7
 10
-97.20000000000005
 20
-13.10000000000008
 30
0
 11
-97.20000000000005
 21
-13.50000000000011
 31
0
  0
LINE
  8
1
 62
7
 10
78.30000000000015
 20
14.7439822888846
 30
0
 11
94.97048588694926
 21
14.7439822888846
 31
0
  0
LINE
  8
1
 62
7
 10
102.0930167180772
 20
12.2539822888846
 30
0
 11
131.0209118043562
 21
12.2539822888846
 31
0
  0
LINE
  8
1
 62
7
 10
78.30000000000015
 20
10.74398228888458
 30
0
 11
80.04000000000016
 21
10.74398228888458
 31
0
  0
LINE
  8
1
 62
7
 10
80.92989250078514
 20
14.95669782458581
 30
0
 11
80.80107449312024
 21
17.6677137667454
 31
0
  0
LINE
  8
1
 62
7
 10
80.30163799369527
 20
18.1439822888847
 30
0
 11
77.2783620063062
 21
18.1439822888847
 31
0
  0
LINE
  8
1
 62
7
 10
76.77892550688122
 20
17.6677137667454
 30
0
 11
76.69968157421224
 21
16
 31
0
  0
LINE
  8
1
 62
7
 10
80.04000000000016
 20
10.74398228888458
 30
0
 11
80.04000000000016
 21
14.7439822888846
 31
0
  0
LINE
  8
1
 62
7
 10
134.0209118043562
 20
12.6489822888847
 30
0
 11
131.0209118043562
 21
12.6489822888847
 31
0
  0
LINE
  8
1
 62
7
 10
131.0209118043562
 20
13.6989822888846
 30
0
 11
134.0209118043562
 21
13.6989822888846
 31
0
  0
LINE
  8
1
 62
7
 10
134.0209118043562
 20
13.3189822888846
 30
0
 11
131.0209118043562
 21
13.3189822888846
 31
0
  0
LINE
  8
1
 62
7
 10
131.0209118043562
 20
14.3689822888846
 30
0
 11
134.0209118043562
 21
14.3689822888846
 31
0
  0
LINE
  8
1
 62
7
 10
131.0209118043562
 20
14.7439822888846
 30
0
 11
131.0209118043562
 21
12.2539822888846
 31
0
  0
LINE
  8
1
 62
7
 10
80.04000000000016
 20
13.91398228888469
 30
0
 11
95.0688720505502
 21
13.91398228888469
 31
0
  0
LINE
  8
1
 62
7
 10
80.04000000000016
 20
12.2539822888846
 30
0
 11
95.20044869340924
 21
12.2539822888846
 31
0
  0
LINE
  8
1
 62
7
 10
101.8630539116193
 20
14.7439822888846
 30
0
 11
131.0209118043562
 21
14.7439822888846
 31
0
  0
LINE
  8
1
 62
7
 10
101.9614400752193
 20
13.91398228888469
 30
0
 11
131.0209118043562
 21
13.91398228888469
 31
0
  0
LINE
  8
1
 62
2
 10
-95.19950134497412
 20
-42.2309568476085
 30
0
 11
-45.20476177140404
 21
-42.2309568476085
 31
0
  0
LINE
  8
1
 62
2
 10
111.0839854765302
 20
32.64861998126089
 30
0
 11
182.3087056195052
 21
32.64861998126089
 31
0
  0
LINE
  8
1
 62
7
 10
77.30000000000015
 20
16
 30
0
 11
78.30000000000015
 21
15
 31
0
  0
LINE
  8
1
 62
7
 10
79.5000000000002
 20
4.599999999999881
 30
0
 11
78.30000000000015
 21
6
 31
0
  0
LINE
  8
1
 62
7
 10
79.5000000000002
 20
-4.600000000000021
 30
0
 11
79.5000000000002
 21
4.599999999999881
 31
0
  0
LINE
  8
1
 62
7
 10
78.30000000000015
 20
-6
 30
0
 11
79.5000000000002
 21
-4.600000000000021
 31
0
  0
LINE
  8
1
 62
7
 10
77.30000000000015
 20
7.7748093869453
 30
0
 11
78.30000000000015
 21
7.197459117755699
 31
0
  0
LINE
  8
1
 62
7
 10
77.30000000000015
 20
13.9840029675577
 30
0
 11
78.30000000000015
 21
12.44144631178299
 31
0
  0
LINE
  8
1
 62
7
 10
78.30000000000015
 20
12.44144631178299
 30
0
 11
74.10000000000125
 21
12.44144631178299
 31
0
  0
LINE
  8
1
 62
7
 10
74.10000000000125
 20
13.9840029675577
 30
0
 11
77.30000000000015
 21
13.9840029675577
 31
0
  0
LINE
  8
1
 62
7
 10
77.30000000000015
 20
7.7748093869453
 30
0
 11
77.30000000000015
 21
-16
 31
0
  0
LINE
  8
1
 62
7
 10
74.10000000000125
 20
7.7748093869453
 30
0
 11
77.30000000000015
 21
7.7748093869453
 31
0
  0
LINE
  8
1
 62
7
 10
77.30000000000015
 20
16
 30
0
 11
77.30000000000015
 21
13.9840029675577
 31
0
  0
LINE
  8
1
 62
7
 10
77.30000000000015
 20
-16
 30
0
 11
78.30000000000015
 21
-15
 31
0
  0
LINE
  8
1
 62
7
 10
77.30000000000015
 20
-16
 30
0
 11
36.10000000000011
 21
-16
 31
0
  0
LINE
  8
1
 62
7
 10
78.30000000000015
 20
15
 30
0
 11
78.30000000000015
 21
-15
 31
0
  0
LINE
  8
1
 62
7
 10
77.30000000000015
 20
16
 30
0
 11
36.10000000000011
 21
16
 31
0
  0
LINE
  8
1
 62
7
 10
73.0000000000002
 20
10.5637084989846
 30
0
 11
74.10000000000125
 21
10.5637084989846
 31
0
  0
LINE
  8
1
 62
7
 10
71.60000000000125
 20
8.0637084989846
 30
0
 11
73.0000000000002
 21
8.0637084989846
 31
0
  0
LINE
  8
1
 62
7
 10
71.60000000000125
 20
14.5637084989846
 30
0
 11
71.60000000000125
 21
8.0637084989846
 31
0
  0
LINE
  8
1
 62
7
 10
73.0000000000002
 20
14.5637084989846
 30
0
 11
71.60000000000125
 21
14.5637084989846
 31
0
  0
LINE
  8
1
 62
7
 10
73.0000000000002
 20
14.5637084989846
 30
0
 11
73.0000000000002
 21
8.0637084989846
 31
0
  0
LINE
  8
1
 62
7
 10
74.10000000000125
 20
12.0637084989846
 30
0
 11
74.10000000000125
 21
16
 31
0
  0
LINE
  8
1
 62
7
 10
74.10000000000125
 20
12.0637084989846
 30
0
 11
73.0000000000002
 21
12.0637084989846
 31
0
  0
LINE
  8
1
 62
7
 10
74.10000000000125
 20
-16
 30
0
 11
74.10000000000125
 21
10.5637084989846
 31
0
  0
LINE
  8
1
 62
7
 10
45.85000000000011
 20
-12.89699999999993
 30
0
 11
62.85000000000011
 21
-12.89699999999993
 31
0
  0
LINE
  8
1
 62
7
 10
62.85000000000011
 20
-12.89699999999993
 30
0
 11
62.85000000000011
 21
12.89700000000005
 31
0
  0
LINE
  8
1
 62
7
 10
62.85000000000011
 20
12.89700000000005
 30
0
 11
45.85000000000011
 21
12.89700000000005
 31
0
  0
LINE
  8
1
 62
7
 10
45.85000000000011
 20
12.89700000000005
 30
0
 11
45.85000000000011
 21
-12.89699999999993
 31
0
  0
ARC
  8
1
 62
7
 10
-112
 20
-1.101341240428155e-013
 30
0
 40
25
 50
2.524088195209447e-013
 51
180
  0
ARC
  8
1
 62
7
 10
-112
 20
-1.101341240428155e-013
 30
0
 40
25
 50
180
 51
2.524088195209447e-013
  0
ARC
  8
1
 62
7
 10
-99.50294117647104
 20
17.00294117647048
 30
0
 40
0.7029473295325004
 50
270.2397298961177
 51
359.7602701039193
  0
ARC
  8
1
 62
7
 10
-97.49705882352896
 20
17.00294117647048
 30
0
 40
0.7029473295330065
 50
180.2397298960808
 51
270.239729896025
  0
ARC
  8
1
 62
7
 10
-97.49705882352896
 20
14.9970588235293
 30
0
 40
0.7029473295324975
 50
89.76027010397496
 51
179.7602701039193
  0
ARC
  8
1
 62
7
 10
-99.50294117647104
 20
14.9970588235293
 30
0
 40
0.7029473295330065
 50
0.2397298960807542
 51
89.76027010388231
  0
ARC
  8
1
 62
7
 10
-133.002941176471
 20
1.002941176470479
 30
0
 40
0.7029473295325004
 50
270.2397298961154
 51
359.7602701039192
  0
ARC
  8
1
 62
7
 10
-130.997058823529
 20
1.002941176470479
 30
0
 40
0.7029473295329213
 50
180.2397298960808
 51
270.2397298960227
  0
ARC
  8
1
 62
7
 10
-130.997058823529
 20
-1.002941176470699
 30
0
 40
0.7029473295324953
 50
89.76027010397728
 51
179.7602701039192
  0
ARC
  8
1
 62
7
 10
-133.002941176471
 20
-1.002941176470699
 30
0
 40
0.7029473295329213
 50
0.2397298960807833
 51
89.76027010388462
  0
ARC
  8
1
 62
7
 10
-98.50294117647104
 20
-13.49705882352952
 30
0
 40
0.7029473295325039
 50
270.2397298961177
 51
359.7602701039191
  0
ARC
  8
1
 62
7
 10
-96.49705882352896
 20
-13.49705882352952
 30
0
 40
0.7029473295330065
 50
180.2397298960809
 51
270.239729896025
  0
ARC
  8
1
 62
7
 10
-96.49705882352896
 20
-15.5029411764707
 30
0
 40
0.7029473295324975
 50
89.76027010397496
 51
179.7602701039193
  0
ARC
  8
1
 62
7
 10
-98.50294117647104
 20
-15.5029411764707
 30
0
 40
0.7029473295330065
 50
0.2397298960807542
 51
89.76027010388231
  0
CIRCLE
  8
1
 62
7
 10
-112
 20
7.99999999999989
 30
0
 40
6
  0
CIRCLE
  8
1
 62
7
 10
-97.5
 20
-14.50000000000011
 30
0
 40
3
  0
CIRCLE
  8
1
 62
7
 10
-98.5
 20
15.99999999999989
 30
0
 40
3
  0
CIRCLE
  8
1
 62
7
 10
-112
 20
-20.00000000000011
 30
0
 40
1.5
  0
CIRCLE
  8
1
 62
7
 10
-95
 20
9.99999999999989
 30
0
 40
1.500000000000043
  0
CIRCLE
  8
1
 62
2
 10
-95
 20
9.99999999999989
 30
0
 40
2
  0
CIRCLE
  8
1
 62
2
 10
-112
 20
-20.00000000000011
 30
0
 40
2
  0
CIRCLE
  8
1
 62
7
 10
-129
 20
9.99999999999989
 30
0
 40
1.5
  0
CIRCLE
  8
1
 62
2
 10
-129
 20
9.99999999999989
 30
0
 40
1.999999999999886
  0
CIRCLE
  8
1
 62
7
 10
-132
 20
-1.101341240428155e-013
 30
0
 40
3
  0
CIRCLE
  8
1
 62
7
 10
-98.5
 20
15.99999999999989
 30
0
 40
2.75
  0
CIRCLE
  8
1
 62
7
 10
-132
 20
-1.101341240428155e-013
 30
0
 40
2.75
  0
CIRCLE
  8
1
 62
7
 10
-97.5
 20
-14.50000000000011
 30
0
 40
2.75
  0
CIRCLE
  8
1
 62
7
 10
-112
 20
7.99999999999989
 30
0
 40
3
  0
POLYLINE
  8
1
 62
2
 66
1
  0
VERTEX
  8
1
 10
94.97048588694926
 20
14.7439822888846
 30
0
 42
-0.004186897804178241
  0
VERTEX
  8
1
 10
95.01842470530559
 20
14.61068084811243
 30
0
 42
-0.01290248157259415
  0
VERTEX
  8
1
 10
95.06123258808452
 20
14.47762559113132
 30
0
 42
-0.0225480224776342
  0
VERTEX
  8
1
 10
95.09377859970869
 20
14.34506270173235
 30
0
 42
-0.03328225659860751
  0
VERTEX
  8
1
 10
95.1109318046007
 20
14.21323836370658
 30
0
 42
-0.04414267360482675
  0
VERTEX
  8
1
 10
95.10756126718317
 20
14.08239876084508
 30
0
 42
-0.04746932973044817
  0
VERTEX
  8
1
 10
95.07160286330596
 20
13.92248470576793
 30
0
 42
-0.02328907139357665
  0
VERTEX
  8
1
 10
95.0116763772765
 20
13.76400957252388
 30
0
 42
-0.002187931268900907
  0
VERTEX
  8
1
 10
94.94289494783166
 20
13.60653715452692
 30
0
 42
0.01880544693309534
  0
VERTEX
  8
1
 10
94.88037171370829
 20
13.449631245191
 30
0
 42
0.04246910544656595
  0
VERTEX
  8
1
 10
94.83921981364321
 20
13.29285563793008
 30
0
 42
0.07659463129743767
  0
VERTEX
  8
1
 10
94.83530027671765
 20
13.08571957712392
 30
0
 42
0.04405793155081084
  0
VERTEX
  8
1
 10
94.88215761504458
 20
12.87815777698247
 30
0
 42
0.03892408209552483
  0
VERTEX
  8
1
 10
94.96709760981091
 20
12.67027667233955
 30
0
 42
0.0108991351361998
  0
VERTEX
  8
1
 10
95.07742604220351
 20
12.46218269802899
 30
0
 42
0.01219559973383162
  0
VERTEX
  8
1
 10
95.20044869340924
 20
12.2539822888846
 30
0
  0
SEQEND
  8
1
  0
POLYLINE
  8
1
 62
2
 66
1
  0
VERTEX
  8
1
 10
101.8630539116193
 20
14.7439822888846
 30
0
 42
-0.004186897804184458
  0
VERTEX
  8
1
 10
101.9109927299754
 20
14.61068084811243
 30
0
 42
-0.01290248157269886
  0
VERTEX
  8
1
 10
101.953800612754
 20
14.47762559113132
 30
0
 42
-0.02254802247744303
  0
VERTEX
  8
1
 10
101.986346624378
 20
14.34506270173235
 30
0
 42
-0.03328225659830231
  0
VERTEX
  8
1
 10
102.0034998292699
 20
14.21323836370658
 30
0
 42
-0.0441426736043928
  0
VERTEX
  8
1
 10
102.0001292918523
 20
14.08239876084508
 30
0
 42
-0.04746932973029017
  0
VERTEX
  8
1
 10
101.9641708879752
 20
13.92248470576793
 30
0
 42
-0.02328907139351422
  0
VERTEX
  8
1
 10
101.9042444019459
 20
13.7640095725239
 30
0
 42
-0.002187931268825856
  0
VERTEX
  8
1
 10
101.8354629725013
 20
13.60653715452694
 30
0
 42
0.01880544693318197
  0
VERTEX
  8
1
 10
101.7729397383781
 20
13.44963124519102
 30
0
 42
0.04246910544628233
  0
VERTEX
  8
1
 10
101.7317878383132
 20
13.29285563793008
 30
0
 42
0.07659463129718752
  0
VERTEX
  8
1
 10
101.7278683013876
 20
13.08571957712394
 30
0
 42
0.04405793155055058
  0
VERTEX
  8
1
 10
101.7747256397142
 20
12.8781577769825
 30
0
 42
0.03892408209549037
  0
VERTEX
  8
1
 10
101.8596656344801
 20
12.67027667233958
 30
0
 42
0.01089913513607089
  0
VERTEX
  8
1
 10
101.9699940668721
 20
12.462182698029
 30
0
 42
0.01219559973388489
  0
VERTEX
  8
1
 10
102.0930167180772
 20
12.2539822888846
 30
0
  0
SEQEND
  8
1
  0
ARC
  8
1
 62
7
 10
32.60000000000008
 20
17.3778068896783
 30
0
 40
2
 50
0
 51
90
  0
ARC
  8
1
 62
7
 10
30.7
 20
21.3778068896783
 30
0
 40
2
 50
180
 51
270
  0
ARC
  8
1
 62
7
 10
32.60000000000008
 20
-20.22514344369848
 30
0
 40
2
 50
270
 51
0
  0
ARC
  8
1
 62
7
 10
30.7
 20
-24.22514344369848
 30
0
 40
2
 50
90
 51
180
  0
ARC
  8
1
 62
7
 10
25.60000000000009
 20
-23.49999999999999
 30
0
 40
1.5
 50
270
 51
0
  0
ARC
  8
1
 62
7
 10
25.60000000000009
 20
23.50000000000001
 30
0
 40
1.5
 50
0
 51
90
  0
ARC
  8
1
 62
7
 10
36.10000000000011
 20
-14.5
 30
0
 40
1.5
 50
180
 51
270
  0
ARC
  8
1
 62
7
 10
36.10000000000011
 20
14.5
 30
0
 40
1.5
 50
90
 51
180
  0
ARC
  8
1
 62
7
 10
-99.90000000000009
 20
16.19999999999988
 30
0
 40
0.1000000000000227
 50
90
 51
180
  0
ARC
  8
1
 62
7
 10
-99.90000000000009
 20
15.7999999999999
 30
0
 40
0.09999999999990905
 50
180
 51
270
  0
ARC
  8
1
 62
7
 10
-98.7
 20
14.59999999999991
 30
0
 40
0.09999999999990905
 50
180
 51
270
  0
ARC
  8
1
 62
7
 10
-98.29999999999996
 20
14.59999999999991
 30
0
 40
0.100000000000021
 50
270
 51
0
  0
ARC
  8
1
 62
7
 10
-97.10000000000014
 20
15.7999999999999
 30
0
 40
0.1000000000000192
 50
270
 51
0
  0
ARC
  8
1
 62
7
 10
-97.10000000000014
 20
16.19999999999988
 30
0
 40
0.1000000000001364
 50
0
 51
90
  0
ARC
  8
1
 62
7
 10
-98.29999999999996
 20
17.39999999999992
 30
0
 40
0.09999999999990905
 50
0
 51
90
  0
ARC
  8
1
 62
7
 10
-98.7
 20
17.39999999999992
 30
0
 40
0.09999999999996945
 50
90
 51
180
  0
ARC
  8
1
 62
7
 10
-133.4000000000001
 20
0.1999999999998785
 30
0
 40
0.1000000000000227
 50
90
 51
180
  0
ARC
  8
1
 62
7
 10
-133.4000000000001
 20
-0.2000000000000988
 30
0
 40
0.09999999999990905
 50
180
 51
270
  0
ARC
  8
1
 62
7
 10
-132.2
 20
-1.400000000000091
 30
0
 40
0.09999999999990905
 50
180
 51
270
  0
ARC
  8
1
 62
7
 10
-131.8
 20
-1.400000000000091
 30
0
 40
0.100000000000019
 50
270
 51
0
  0
ARC
  8
1
 62
7
 10
-130.6000000000001
 20
-0.2000000000000988
 30
0
 40
0.1000000000000227
 50
270
 51
0
  0
ARC
  8
1
 62
7
 10
-130.6000000000001
 20
0.1999999999998785
 30
0
 40
0.100000000000108
 50
0
 51
90
  0
ARC
  8
1
 62
7
 10
-131.8
 20
1.39999999999992
 30
0
 40
0.1000000000000227
 50
0
 51
90
  0
ARC
  8
1
 62
7
 10
-132.2
 20
1.39999999999992
 30
0
 40
0.09999999999997011
 50
90
 51
180
  0
ARC
  8
1
 62
7
 10
-98.90000000000009
 20
-14.30000000000012
 30
0
 40
0.1000000000000192
 50
90
 51
180
  0
ARC
  8
1
 62
7
 10
-98.90000000000009
 20
-14.7000000000001
 30
0
 40
0.09999999999990905
 50
180
 51
270
  0
ARC
  8
1
 62
7
 10
-97.7
 20
-15.90000000000009
 30
0
 40
0.09999999999990905
 50
180
 51
270
  0
ARC
  8
1
 62
7
 10
-97.29999999999996
 20
-15.90000000000009
 30
0
 40
0.100000000000021
 50
270
 51
0
  0
ARC
  8
1
 62
7
 10
-96.10000000000014
 20
-14.7000000000001
 30
0
 40
0.1000000000000192
 50
270
 51
0
  0
ARC
  8
1
 62
7
 10
-96.10000000000014
 20
-14.30000000000012
 30
0
 40
0.1000000000001364
 50
0
 51
90
  0
ARC
  8
1
 62
7
 10
-97.29999999999996
 20
-13.10000000000008
 30
0
 40
0.09999999999990905
 50
0
 51
90
  0
ARC
  8
1
 62
7
 10
-97.7
 20
-13.10000000000008
 30
0
 40
0.09999999999996945
 50
90
 51
180
  0
ARC
  8
1
 62
7
 10
80.73029712220225
 20
14.9439822888846
 30
0
 40
0.1999999999999993
 50
270
 51
3.645191185387187
  0
ARC
  8
1
 62
7
 10
77.2783620063062
 20
17.6439822888847
 30
0
 40
0.5
 50
90
 51
177.279550894049
  0
ARC
  8
1
 62
7
 10
80.30163799369527
 20
17.6439822888847
 30
0
 40
0.4999999999993246
 50
2.720449105951023
 51
90
  0
LINE
  8
1
 62
2
 10
67.30422801210622
 20
24.2580018910914
 30
0
 11
44.62248035771515
 21
24.2580018910914
 31
0
  0
LINE
  8
1
 62
2
 10
44.62248035771515
 20
24.2580018910914
 30
0
 11
52.35000000000011
 21
12.89700000000005
 31
0
  0
SOLID
  8
1
 62
2
 10
50.00055738568433
 20
15.53185124030173
 30
0
 11
50.76256238345047
 21
16.0501513553976
 31
0
 12
52.35000000000011
 22
12.89700000000005
 32
0
 13
52.35000000000011
 23
12.89700000000005
 33
0
  0
LINE
  8
1
 62
2
 10
182.3087056195052
 20
39.64861998126089
 30
0
 11
113.7803843151932
 21
39.64861998126089
 31
0
  0
LINE
  8
1
 62
2
 10
113.7803843151932
 20
39.64861998126089
 30
0
 11
104.0887374899682
 21
14.7439822888846
 31
0
  0
SOLID
  8
1
 62
2
 10
104.9286252952771
 20
18.17281738713234
 30
0
 11
105.7874546382438
 21
17.8386037046052
 31
0
 12
104.0887374899682
 22
14.7439822888846
 32
0
 13
104.0887374899682
 23
14.7439822888846
 33
0
  0
TEXT
  8
1
 62
2
 10
-15.55599999999993
 20
42.45579117726857
 30
0
 40
3.2
  1
(0.984)
 41
0.6300000000000001
 72
1
 73
2
 11
-8.499999999999931
 21
44.05579117726857
 31
0
  0
TEXT
  8
1
 62
2
 10
-47.80061352122408
 20
11.99446225396086
 30
0
 40
3.2
  1
(0.472DIA.     )
 50
90
 41
0.6300000000000001
 72
1
 73
2
 11
-49.40061352122408
 21
28.12246225396086
 31
0
  0
TEXT
  8
1
 62
2
 10
-48.28708355315386
 20
29.0608060271026
 30
0
 40
2
  1
%%p0.00394
 50
90
 41
0.63
 72
1
 73
2
 11
-49.28708355315386
 21
35.3608060271026
 31
0
  0
TEXT
  8
1
 62
2
 10
-22.056
 20
30.46162126422188
 30
0
 40
3.2
  1
(0.472)
 41
0.6300000000000001
 72
1
 73
2
 11
-15
 21
32.06162126422188
 31
0
  0
TEXT
  8
1
 62
2
 10
-25.28708355315385
 20
21.63080602710259
 30
0
 40
2
  1
 %%p0.00787
 50
90
 41
0.63
 72
1
 73
2
 11
-26.28708355315385
 21
28.56080602710259
 31
0
  0
TEXT
  8
1
 62
2
 10
-24.80061352122407
 20
13.02646225396086
 30
0
 40
3.2
  1
(0.217     )
 50
90
 41
0.6300000000000001
 72
1
 73
2
 11
-26.40061352122407
 21
25.12246225396086
 31
0
  0
TEXT
  8
1
 62
2
 10
-34.9999999999998
 20
11.98646225396086
 30
0
 40
3.2
  1
(0.236DIA.      )
 50
90
 41
0.6300000000000001
 72
1
 73
2
 11
-36.5999999999998
 21
29.12246225396086
 31
0
  0
TEXT
  8
1
 62
2
 10
-36.68647003192958
 20
30.99080602710261
 30
0
 40
2
  1
 0
 50
90
 41
0.63
  0
TEXT
  8
1
 62
2
 10
-34.28647003192958
 20
30.99080602710261
 30
0
 40
2
  1
-0.000787
 50
90
 41
0.63
  0
TEXT
  8
1
 62
2
 10
-124.0341215108481
 20
31.06162126422188
 30
0
 40
2
  1
 %%p0.00787
 41
0.4950000000000001
 72
1
 73
2
 11
-118.5891215108481
 21
32.06162126422188
 31
0
  0
TEXT
  8
1
 62
2
 10
-129.3394652839911
 20
30.46162126422188
 30
0
 40
3.2
  1
(0.67     )
 41
0.4949999999999999
 72
1
 73
2
 11
-120.6274652839911
 21
32.06162126422188
 31
0
  0
TEXT
  8
1
 62
2
 10
-61.28647003193009
 20
-12.86919397289739
 30
0
 40
2
  1
 %%p0.00787
 50
90
 41
0.63
 72
1
 73
2
 11
-62.28647003193009
 21
-5.939193972897389
 31
0
  0
TEXT
  8
1
 62
2
 10
-60.80000000000008
 20
-20.7095377460392
 30
0
 40
3.2
  1
(0.787     )
 50
90
 41
0.5850000000000001
 72
1
 73
2
 11
-62.40000000000009
 21
-9.477537746039193
 31
0
  0
TEXT
  8
1
 62
2
 10
-61.28647003193009
 20
17.73080602710259
 30
0
 40
2
  1
 %%p0.00787
 50
90
 41
0.63
 72
1
 73
2
 11
-62.28647003193009
 21
24.66080602710259
 31
0
  0
TEXT
  8
1
 62
2
 10
-60.80000000000008
 20
8.426462253960809
 30
0
 40
3.2
  1
(0.394     )
 50
90
 41
0.6300000000000001
 72
1
 73
2
 11
-62.40000000000009
 21
20.52246225396081
 31
0
  0
TEXT
  8
1
 62
2
 10
-73.40000000000009
 20
17.3308060271026
 30
0
 40
2
  1
 %%p0.00787
 50
90
 41
0.63
 72
1
 73
2
 11
-74.40000000000009
 21
24.2608060271026
 31
0
  0
TEXT
  8
1
 62
2
 10
-72.80000000000008
 20
8.426462253960809
 30
0
 40
3.2
  1
(0.315     )
 50
90
 41
0.6300000000000001
 72
1
 73
2
 11
-74.40000000000009
 21
20.52246225396081
 31
0
  0
TEXT
  8
1
 62
2
 10
-123.088
 20
42.80000000000001
 30
0
 40
3.2
  1
(1.969DIA.)
 41
0.6300000000000001
 72
1
 73
2
 11
-112
 21
44.40000000000001
 31
0
  0
TEXT
  8
1
 62
2
 10
11.87587840863627
 20
30.46162126422188
 30
0
 40
3.2
  1
(1.205)
 41
0.6300000000000001
 72
1
 73
2
 11
18.93187840863627
 21
32.06162126422188
 31
0
  0
TEXT
  8
1
 62
2
 10
-9.886981948455643
 20
30.46162126422188
 30
0
 40
3.2
  1
(0.157)
 41
0.4949999999999999
 72
1
 73
2
 11
-4.342981948455643
 21
32.06162126422188
 31
0
  0
TEXT
  8
1
 62
2
 10
107.0678423022582
 20
-41.28299503726051
 30
0
 40
2
  1
+1.181
 41
0.63
  0
TEXT
  8
1
 62
2
 10
107.0678423022582
 20
-43.6829950372605
 30
0
 40
2
  1
 0
 41
0.63
  0
TEXT
  8
1
 62
2
 10
95.7214985291161
 20
-42.96946506919028
 30
0
 40
3.2
  1
(11.811   )
 41
0.6300000000000001
 72
1
 73
2
 11
106.8094985291161
 21
-41.36946506919028
 31
0
  0
TEXT
  8
1
 62
2
 10
116.2440000000013
 20
-30.1694650691903
 30
0
 40
3.2
  1
(0.118)
 41
0.6300000000000001
 72
1
 73
2
 11
123.3000000000013
 21
-28.5694650691903
 31
0
  0
TEXT
  8
1
 62
2
 10
46.6470095997163
 20
25.3729389582939
 30
0
 40
3
  1
NAME PLATE
 41
0.6300000000000001
 72
1
 73
2
 11
56.0970095997163
 21
26.8729389582939
 31
0
  0
TEXT
  8
1
 62
2
 10
80.23600000000128
 20
30.46162126422188
 30
0
 40
3.2
  1
(0.0472)
 41
0.6300000000000001
 72
1
 73
2
 11
88.30000000000129
 21
32.06162126422188
 31
0
  0
TEXT
  8
1
 62
2
 10
34.74400000000129
 20
42.45579117726857
 30
0
 40
3.2
  1
(2.925)
 41
0.6300000000000001
 72
1
 73
2
 11
41.80000000000129
 21
44.05579117726857
 31
0
  0
TEXT
  8
1
 62
2
 10
102.3612280209794
 20
-10.08
 30
0
 40
3.2
  1
(1.26DIA.)
 50
90
 41
0.6300000000000001
 72
1
 73
2
 11
100.7612280209794
 21
0
 31
0
  0
TEXT
  8
1
 62
2
 10
115.1966983926502
 20
40.93369681053311
 30
0
 40
3.5
  1
LEAD WIRES (RED,BLACK)
 41
0.9
 73
2
 11
115.1966983926502
 21
42.68369681053311
 31
0
  0
TEXT
  8
1
 62
2
 10
115.1966983926502
 20
33.8370748214713
 30
0
 40
3.5
  1
UL1007 AWG22
 41
0.9
 73
2
 11
115.1966983926502
 21
35.5870748214713
 31
0
  0
TEXT
  8
1
 62
2
 10
-90.89834903357701
 20
-41.21577370074542
 30
0
 40
3.5
  1
(3-M4 DEPTH 0.197MAX)
 41
0.666
 73
2
 11
-90.89834903357701
 21
-39.46577370074542
 31
0
  0
TEXT
  8
1
 62
2
 10
-144.75
 20
93.50000000000001
 30
0
 40
5
  1
DME33B50G
 41
0.9
 72
1
 73
2
 11
-124.5
 21
96.00000000000001
 31
0
  0
TEXT
  8
1
 62
2
 10
-107.0341215108481
 20
31.06162126422188
 30
0
 40
2
  1
 %%p0.00787
 41
0.4950000000000001
 72
1
 73
2
 11
-101.5891215108481
 21
32.06162126422188
 31
0
  0
TEXT
  8
1
 62
2
 10
-112.3394652839911
 20
30.46162126422188
 30
0
 40
3.2
  1
(0.67     )
 41
0.4949999999999999
 72
1
 73
2
 11
-103.6274652839911
 21
32.06162126422188
 31
0
  0
DIMENSION
  8
1
  6
CONTINUOUS
 62
2
  2
*D0
  3
DMST_1
 10
78.30000000000015
 20
47.0162481822815
 30
0
 11
41.15000000000018
 21
49.6162481822815
 31
0
 12
0
 22
0
 32
0
 70
0
 13
4.000000000000201
 23
25
 33
0
 14
78.30000000000015
 24
14.7439822888846
 34
0
 53
0
  0
DIMENSION
  8
1
  6
CONTINUOUS
 62
2
  2
*D1
  3
DMST_2
 10
34.60000000000008
 20
35.0286347652978
 30
0
 11
19.30000000000014
 21
37.6286347652978
 31
0
 12
0
 22
0
 32
0
 70
0
 13
4.000000000000201
 23
25
 33
0
 14
34.60000000000008
 24
17.3778068896783
 34
0
 53
0
  0
DIMENSION
  8
1
  6
CONTINUOUS
 62
2
  2
*D2
  3
DMST_3
 10
-52.0599864225019
 20
14
 30
0
 11
-54.6599864225019
 21
27.286419625238
 31
0
 12
0
 22
0
 32
0
 70
0
  1
ƒÓ<>
 13
0
 23
2
 33
0
 14
0
 24
14
 34
0
 50
90
 53
0
  0
DIMENSION
  8
1
  6
CONTINUOUS
 62
2
  2
*D3
  3
DMST_4
 10
-40.0391725780563
 20
11
 30
0
 11
-43.4391725780563
 21
28.5911654211038
 31
0
 12
0
 22
0
 32
0
 70
0
  1
ƒÓ<>
 13
-20.99999999999996
 23
5
 33
0
 14
-9.000000000000002
 24
11
 34
0
 50
90
 53
0
  0
DIMENSION
  8
1
  6
CONTINUOUS
 62
2
  2
*D4
  3
DMST_5
 10
-29.00811608180306
 20
10.5
 30
0
 11
-31.60811608180306
 21
24.9411861039751
 31
0
 12
0
 22
0
 32
0
 70
0
 13
-20.99999999999996
 23
5
 33
0
 14
-20.99999999999996
 24
10.5
 34
0
 50
90
 53
0
  0
DIMENSION
  8
1
  6
CONTINUOUS
 62
2
  2
*D5
  3
DMST_1
 10
4.000000000000201
 20
47.0197793354005
 30
0
 11
-8.499999999999879
 21
49.6197793354005
 31
0
 12
0
 22
0
 32
0
 70
0
 13
-20.99999999999996
 23
10.5
 33
0
 14
4.000000000000201
 24
25
 34
0
 53
0
  0
DIMENSION
  8
1
  6
CONTINUOUS
 62
2
  2
*D6
  3
DMST_1
 10
0
 20
35.0286347652978
 30
0
 11
-4.761649665417179
 21
37.6286347652978
 31
0
 12
0
 22
0
 32
0
 70
0
 13
4.000000000000201
 23
25
 33
0
 14
0
 24
14
 34
0
 53
0
  0
DIMENSION
  8
1
  6
CONTINUOUS
 62
2
  2
*D7
  3
DMST_1
 10
-9.000000000000002
 20
35.0286347652978
 30
0
 11
-14.99999999999998
 21
37.6286347652978
 31
0
 12
0
 22
0
 32
0
 70
0
 13
-20.99999999999996
 23
10.5
 33
0
 14
-9.000000000000002
 24
10.5
 34
0
 53
0
  0
DIMENSION
  8
1
  6
CONTINUOUS
 62
2
  2
*D8
  3
DMST_5
 10
-77.08021846900411
 20
7.999999999999888
 30
0
 11
-79.6802184690041
 21
19.259530727469
 31
0
 12
0
 22
0
 32
0
 70
0
 13
-87
 23
0
 33
0
 14
-106
 24
7.99999999999989
 34
0
 50
90
 53
0
  0
DIMENSION
  8
1
  6
CONTINUOUS
 62
2
  2
*D9
  3
DMST_5
 10
-65.03292283532406
 20
9.99999999999989
 30
0
 11
-67.63292283532405
 21
18.2423022135852
 31
0
 12
0
 22
0
 32
0
 70
0
 13
-87
 23
0
 33
0
 14
-93
 24
9.99999999999989
 34
0
 50
90
 53
0
  0
DIMENSION
  8
1
  6
CONTINUOUS
 62
2
  2
*D10
  3
DMST_5
 10
-65.03292283532406
 20
0
 30
0
 11
-67.63292283532405
 21
-10.00000000000006
 31
0
 12
0
 22
0
 32
0
 70
0
 13
-110
 23
-20.00000000000011
 33
0
 14
-87
 24
0
 34
0
 50
90
 53
0
  0
DIMENSION
  8
1
  6
CONTINUOUS
 62
2
  2
*D11
  3
DMST_5
 10
-129
 20
34.9787577640941
 30
0
 11
-120.5
 21
37.5787577640941
 31
0
 12
0
 22
0
 32
0
 70
0
 13
-112
 23
24.99999999999988
 33
0
 14
-129
 24
11.99999999999989
 34
0
 53
0
  0
DIMENSION
  8
1
  6
CONTINUOUS
 62
2
  2
*D12
  3
DMST_5
 10
-95
 20
34.9787577640941
 30
0
 11
-103.5
 21
37.5787577640941
 31
0
 12
0
 22
0
 32
0
 70
0
 13
-112
 23
24.99999999999988
 33
0
 14
-95
 24
11.99999999999989
 34
0
 53
0
  0
DIMENSION
  8
1
  6
CONTINUOUS
 62
2
  2
*D13
  3
DMST_1
 10
-137
 20
46.9975727345427
 30
0
 11
-112
 21
49.5975727345427
 31
0
 12
0
 22
0
 32
0
 70
0
  1
ƒÓ<>
 13
-87
 23
0
 33
0
 14
-137
 24
-1.101341240428155e-013
 34
0
 53
0
  0
DIMENSION
  8
1
  6
CONTINUOUS
 62
2
  2
*D14
  3
DMST_6
 10
131.0209118043562
 20
-25.9916349659101
 30
0
 11
122.850015000133
 21
-23.3916349659101
 31
0
 12
0
 22
0
 32
0
 70
0
  1
(<>
 13
134.0209118043562
 23
12.6489822888847
 33
0
 14
131.0209118043562
 24
12.2539822888846
 34
0
 53
0
  0
DIMENSION
  8
1
  6
CONTINUOUS
 62
2
  2
*D15
  3
DMST_7
 10
134.0209118043562
 20
-37.9138669350218
 30
0
 11
106.1604559021782
 21
-34.5138669350218
 31
0
 12
0
 22
0
 32
0
 70
0
  1
300
 13
78.30000000000015
 23
-15
 33
0
 14
134.0209118043562
 24
12.6489822888847
 34
0
 53
0
  0
DIMENSION
  8
1
  6
CONTINUOUS
 62
2
  2
*D16
  3
DMST_6
 10
79.5000000000002
 20
35.02775553406939
 30
0
 11
88.56967048895623
 21
37.62775553406939
 31
0
 12
0
 22
0
 32
0
 70
0
  1
(<>
 13
78.30000000000015
 23
15
 33
0
 14
79.5000000000002
 24
4.599999999999881
 34
0
 53
0
  0
DIMENSION
  8
1
  6
CONTINUOUS
 62
2
  2
*D17
  3
DMST_1
 10
98.30000000000015
 20
16
 30
0
 11
95.70000000000024
 21
0
 31
0
 12
0
 22
0
 32
0
 70
0
  1
ƒÓ<>
 13
77.30000000000015
 23
-16
 33
0
 14
77.30000000000015
 24
16
 34
0
 50
90
 53
0
  0
INSERT
  8
0
  2
___R___O_______R
 10
0.5
 20
-3.75
 30
0
  0
INSERT
  8
1
  2
*D18
 10
0
 20
0
 30
0
  0
ENDSEC
  0
EOF
