  0
SECTION
  2
HEADER
  9
$ACADVER
  1
AC1009
  9
$INSBASE
 10
0
 20
0
  9
$EXTMIN
 10
-194.5
 20
-146
  9
$EXTMAX
 10
194.5
 20
146
  9
$LIMMIN
 10
-194.5
 20
-146
  9
$LIMMAX
 10
194.5
 20
146
  9
$VIEWCTR
 10
10
 20
10
  9
$VIEWSIZE
 40
10
  9
$SNAPMODE
 70
0
  9
$SNAPUNIT
 10
1
 20
1
  9
$SNAPBASE
 10
0
 20
0
  9
$SNAPANG
 50
0
  9
$SNAPSTYLE
 70
0
  9
$SNAPISOPAIR
 70
0
  9
$GRIDMODE
 70
0
  9
$GRIDUNIT
 10
0
 20
0
  9
$ORTHOMODE
 70
0
  9
$REGENMODE
 70
1
  9
$FILLMODE
 70
1
  9
$QTEXTMODE
 70
0
  9
$DRAGMODE
 70
2
  9
$LTSCALE
 40
1
  9
$OSMODE
 70
0
  9
$ATTMODE
 70
1
  9
$TEXTSIZE
 40
3.5
  9
$TRACEWID
 40
0.5
  9
$TEXTSTYLE
  7
STANDARD
  9
$CLAYER
  8
0
  9
$CELTYPE
  6
BYLAYER
  9
$CECOLOR
 62
256
  9
$DIMSCALE
 40
1
  9
$DIMASZ
 40
0.18
  9
$DIMEXO
 40
0.0625
  9
$DIMDLI
 40
0.38
  9
$DIMRND
 40
0
  9
$DIMDLE
 40
0
  9
$DIMEXE
 40
0.18
  9
$DIMTP
 40
0
  9
$DIMTM
 40
0
  9
$DIMTXT
 40
0.18
  9
$DIMCEN
 40
0.09
  9
$DIMTSZ
 40
0
  9
$DIMTOL
 70
0
  9
$DIMLIM
 70
0
  9
$DIMTIH
 70
1
  9
$DIMTOH
 70
1
  9
$DIMSE1
 70
0
  9
$DIMSE2
 70
0
  9
$DIMTAD
 70
0
  9
$DIMZIN
 70
0
  9
$DIMBLK
  1

  9
$DIMASO
 70
1
  9
$DIMSHO
 70
1
  9
$DIMPOST
  1

  9
$DIMAPOST
  1

  9
$DIMALT
 70
0
  9
$DIMALTD
 70
2
  9
$DIMALTF
 40
25.4
  9
$DIMLFAC
 40
1
  9
$DIMTOFL
 70
0
  9
$DIMTVP
 40
0
  9
$DIMTIX
 70
0
  9
$DIMSOXD
 70
0
  9
$DIMSAH
 70
0
  9
$DIMBLK1
  1

  9
$DIMBLK2
  1

  9
$DIMSTYLE
  2
*UNNAMED
  9
$DIMCLRD
 70
0
  9
$DIMCLRE
 70
0
  9
$DIMCLRT
 70
0
  9
$DIMTFAC
 40
1
  9
$DIMGAP
 40
0.09
  9
$LUNITS
 70
2
  9
$LUPREC
 70
4
  9
$AXISMODE
 70
0
  9
$AXISUNIT
 10
0
 20
0
  9
$SKETCHINC
 40
0.1
  9
$FILLETRAD
 40
2
  9
$AUNITS
 70
0
  9
$AUPREC
 70
0
  9
$MENU
  1
ACAD
  9
$ELEVATION
 40
0
  9
$THICKNESS
 40
0
  9
$VIEWDIR
 10
0
 20
0
 30
1
  9
$LIMCHECK
 70
0
  9
$BLIPMODE
 70
1
  9
$CHAMFERA
 40
0
  9
$CHAMFERB
 40
0
  9
$FASTZOOM
 70
1
  9
$SKPOLY
 70
0
  9
$ANGBASE
 50
0
  9
$ANGDIR
 70
0
  9
$PDMODE
 70
0
  9
$PDSIZE
 40
0
  9
$PLINEWID
 40
0
  9
$COORDS
 70
2
  0
ENDSEC
  0
SECTION
  2
TABLES
  0
TABLE
  2
DIMSTYLE
 70
8
  0
DIMSTYLE
  2
DMST_1
 70
0
  3

  4

  5

  6

  7

 40
1
 41
3.2
 42
1
 43
7
 44
1
 45
0
 46
0
 47
0
 48
0
140
3.2
141
0
142
0
143
25.4
144
1
145
0
146
1
147
0.09
 71
0
 72
0
 73
0
 74
0
 75
0
 76
0
 77
1
 78
9
170
0
171
2
172
0
173
0
174
0
175
0
176
2
177
2
178
2
  0
DIMSTYLE
  2
DMST_2
 70
0
  3

  4

  5

  6

  7

 40
1
 41
3
 42
1
 43
7
 44
1
 45
0
 46
0
 47
0.5
 48
0.5
140
3.2
141
0
142
0
143
25.4
144
1
145
0
146
0.6
147
0.09
 71
1
 72
0
 73
0
 74
0
 75
0
 76
0
 77
1
 78
9
170
0
171
2
172
0
173
0
174
0
175
0
176
2
177
2
178
2
  0
DIMSTYLE
  2
DMST_3
 70
0
  3

  4

  5

  6

  7

 40
1
 41
3
 42
1
 43
7
 44
1
 45
0
 46
0
 47
0.3
 48
0.3
140
3.2
141
0
142
0
143
25.4
144
1
145
0
146
0.6
147
0.09
 71
1
 72
0
 73
0
 74
0
 75
0
 76
0
 77
1
 78
9
170
0
171
2
172
0
173
0
174
0
175
0
176
2
177
2
178
2
  0
DIMSTYLE
  2
DMST_4
 70
0
  3

  4

  5

  6

  7

 40
1
 41
3
 42
1
 43
7
 44
1
 45
0
 46
0
 47
0
 48
0
140
3.2
141
0
142
0
143
25.4
144
1
145
0
146
1
147
0.09
 71
0
 72
0
 73
0
 74
0
 75
0
 76
0
 77
1
 78
9
170
0
171
2
172
0
173
0
174
0
175
0
176
2
177
2
178
2
  0
DIMSTYLE
  2
DMST_5
 70
0
  3
)
  4

  5

  6

  7

 40
1
 41
3
 42
1
 43
7
 44
1
 45
0
 46
0
 47
0
 48
0
140
3.2
141
0
142
0
143
25.4
144
1
145
0
146
1
147
0.09
 71
0
 72
0
 73
0
 74
0
 75
0
 76
0
 77
1
 78
9
170
0
171
2
172
0
173
0
174
0
175
0
176
2
177
2
178
2
  0
DIMSTYLE
  2
DMST_6
 70
0
  3
)
  4

  5

  6

  7

 40
1
 41
3
 42
1
 43
7
 44
1
 45
0
 46
0
 47
0
 48
0
140
3.2
141
0
142
0
143
25.4
144
1
145
0
146
1
147
0.09
 71
0
 72
0
 73
1
 74
1
 75
0
 76
0
 77
1
 78
9
170
0
171
2
172
0
173
0
174
0
175
0
176
2
177
2
178
2
  0
DIMSTYLE
  2
DMST_7
 70
0
  3

  4

  5

  6

  7

 40
1
 41
3
 42
1
 43
7
 44
1
 45
0
 46
0
 47
15
 48
15
140
3.2
141
0
142
0
143
25.4
144
1
145
0
146
0.6
147
0.09
 71
1
 72
0
 73
0
 74
0
 75
0
 76
0
 77
1
 78
9
170
0
171
2
172
0
173
0
174
0
175
0
176
2
177
2
178
2
  0
DIMSTYLE
  2
DMST_8
 70
0
  3

  4

  5

  6

  7

 40
1
 41
3
 42
1
 43
7
 44
1
 45
0
 46
0
 47
0
 48
0.02
140
3.2
141
0
142
0
143
25.4
144
1
145
0
146
0.6
147
0.09
 71
1
 72
0
 73
0
 74
0
 75
0
 76
0
 77
1
 78
9
170
0
171
2
172
0
173
0
174
0
175
0
176
2
177
2
178
2
  0
ENDTAB
  0
TABLE
  2
LTYPE
 70
9
  0
LTYPE
  2
CONTINUOUS
 70
64
  3
Solid line
 72
65
 73
0
 40
0
  0
LTYPE
  2
BORDER
 70
64
  3
__ __ . __ __ .
 72
65
 73
6
 40
17.91447368421053
 49
5.118421052631579
 49
-2.559210526315789
 49
5.118421052631579
 49
-2.559210526315789
 49
0
 49
-2.559210526315789
  0
LTYPE
  2
CENTER
 70
64
  3
____ _ ____ _
 72
65
 73
4
 40
20.47368421052632
 49
12.79605263157895
 49
-2.559210526315789
 49
2.559210526315789
 49
-2.559210526315789
  0
LTYPE
  2
DASHDOT
 70
64
  3
__ . __ . __ .
 72
65
 73
4
 40
10.23684210526316
 49
5.118421052631579
 49
-2.559210526315789
 49
0
 49
-2.559210526315789
  0
LTYPE
  2
DASHED
 70
64
  3
__ __ __ __ __
 72
65
 73
2
 40
7.677631578947368
 49
5.118421052631579
 49
-2.559210526315789
  0
LTYPE
  2
DIVIDE
 70
64
  3
__ . . __ . . 
 72
65
 73
6
 40
12.79605263157895
 49
5.118421052631579
 49
-2.559210526315789
 49
0
 49
-2.559210526315789
 49
0
 49
-2.559210526315789
  0
LTYPE
  2
DOT
 70
64
  3
..............
 72
65
 73
4
 40
5.118421052631579
 49
0
 49
-2.559210526315789
 49
0
 49
-2.559210526315789
  0
LTYPE
  2
HIDDEN
 70
64
  3
_ _ _ _ _ _ _
 72
65
 73
2
 40
3.838815789473684
 49
2.559210526315789
 49
-1.279605263157895
  0
LTYPE
  2
PHANTOM
 70
64
  3
_____ _ _ _____ _ _ 
 72
65
 73
6
 40
25.59210526315789
 49
12.79605263157895
 49
-2.559210526315789
 49
2.559210526315789
 49
-2.559210526315789
 49
2.559210526315789
 49
-2.559210526315789
  0
ENDTAB
  0
TABLE
  2
LAYER
 70
3
  0
LAYER
  2
1
 70
0
 62
7
  6
CONTINUOUS
  0
LAYER
  2
0
 70
0
 62
7
  6
CONTINUOUS
  0
ENDTAB
  0
TABLE
  2
STYLE
 70
4
  0
STYLE
  2
STANDARD
 70
0
 40
0
 41
1
 50
0
 71
0
 42
3.5
  3
txt
  4

  0
STYLE
  2
SIMPLEX
 70
0
 40
0
 41
1
 50
0
 71
0
 42
3.5
  3
simplex
  4

  0
STYLE
  2
COMPLEX
 70
0
 40
0
 41
1
 50
0
 71
0
 42
3.5
  3
complex
  4

  0
STYLE
  2
ITALIC
 70
0
 40
0
 41
1
 50
0
 71
0
 42
3.5
  3
italic
  4

  0
ENDTAB
  0
TABLE
  2
VIEW
 70
0
  0
ENDTAB
  0
ENDSEC
  0
SECTION
  2
BLOCKS
  0
BLOCK
  8
0
  2
___R___O_______R
 70
0
 10
0.5000000000000568
 20
-3.75
 30
0
  0
LINE
  8
1
 62
4
  6
PHANTOM
 10
-194.5
 20
-146
 30
0
 11
194.5
 21
-146
 31
0
  0
LINE
  8
1
 62
4
  6
PHANTOM
 10
194.5
 20
146
 30
0
 11
-194.5
 21
146
 31
0
  0
LINE
  8
1
 62
4
  6
PHANTOM
 10
194.5
 20
146
 30
0
 11
194.5
 21
129
 31
0
  0
LINE
  8
1
 62
4
  6
PHANTOM
 10
-194.5
 20
-146
 30
0
 11
-194.5
 21
146
 31
0
  0
LINE
  8
1
 62
4
  6
PHANTOM
 10
194.5
 20
-136.5
 30
0
 11
194.5
 21
-146
 31
0
  0
TEXT
  8
1
 62
4
 10
178.746911898274
 20
-142.6071298819256
 30
0
 40
5
  1
A3
 41
0.9
 72
1
 73
2
 11
183.246911898274
 21
-140.1071298819256
 31
0
  0
ENDBLK
  8
0
  0
BLOCK
  8
1
  2
*D0
 70
1
 10
0
 20
0
 30
0
  0
LINE
  8
1
 62
2
 10
14.0000000000001
 20
64.6774330152227
 30
0
 11
76.50000000000023
 21
64.6774330152227
 31
0
  0
LINE
  8
1
 62
2
 10
76.50000000000023
 20
13.69999999999987
 30
0
 11
76.50000000000023
 21
65.6774330152227
 31
0
  0
LINE
  8
1
 62
2
 10
14.0000000000001
 20
30.50000000000002
 30
0
 11
14.0000000000001
 21
65.6774330152227
 31
0
  0
SOLID
  8
1
 62
2
 10
14.0000000000001
 20
64.6774330152227
 30
0
 11
17.2000000000001
 21
65.0934330152227
 31
0
 12
17.2000000000001
 22
64.26143301522271
 32
0
 13
17.2000000000001
 23
64.26143301522271
 33
0
  0
SOLID
  8
1
 62
2
 10
76.50000000000023
 20
64.6774330152227
 30
0
 11
73.30000000000023
 21
64.26143301522271
 31
0
 12
73.30000000000023
 22
65.0934330152227
 32
0
 13
73.30000000000023
 23
65.0934330152227
 33
0
  0
TEXT
  8
1
 62
2
 10
40.89000000000016
 20
65.6774330152227
 30
0
 40
3.2
  1
62.5
 41
0.9
  0
ENDBLK
  8
0
  0
BLOCK
  8
1
  2
*D1
 70
1
 10
0
 20
0
 30
0
  0
LINE
  8
1
 62
2
 10
14.0000000000001
 20
52.4663625056694
 30
0
 11
43.00000000000022
 21
52.4663625056694
 31
0
  0
LINE
  8
1
 62
2
 10
43.00000000000022
 20
31.00000000000001
 30
0
 11
43.00000000000022
 21
53.4663625056694
 31
0
  0
LINE
  8
1
 62
2
 10
14.0000000000001
 20
30.50000000000001
 30
0
 11
14.0000000000001
 21
53.4663625056694
 31
0
  0
SOLID
  8
1
 62
2
 10
14.0000000000001
 20
52.4663625056694
 30
0
 11
17.2000000000001
 21
52.8823625056694
 31
0
 12
17.2000000000001
 22
52.05036250566941
 32
0
 13
17.2000000000001
 23
52.05036250566941
 33
0
  0
SOLID
  8
1
 62
2
 10
43.00000000000022
 20
52.4663625056694
 30
0
 11
39.80000000000022
 21
52.05036250566941
 31
0
 12
39.80000000000022
 22
52.8823625056694
 32
0
 13
39.80000000000022
 23
52.8823625056694
 33
0
  0
TEXT
  8
1
 62
2
 10
26.10000000000016
 20
53.4663625056694
 30
0
 40
3.2
  1
29
 41
0.9
  0
ENDBLK
  8
0
  0
BLOCK
  8
1
  2
*D2
 70
1
 10
0
 20
0
 30
0
  0
LINE
  8
1
 62
2
 10
-69.9462016085883
 20
0
 30
0
 11
-69.9462016085883
 21
-13.67285247127719
 31
0
  0
LINE
  8
1
 62
2
 10
-69.9462016085883
 20
0
 30
0
 11
-69.9462016085883
 21
10
 31
0
  0
LINE
  8
1
 62
2
 10
-100.4999999999999
 20
10
 30
0
 11
-68.9462016085883
 21
10
 31
0
  0
LINE
  8
1
 62
2
 10
-78.99999999999989
 20
0
 30
0
 11
-68.9462016085883
 21
0
 31
0
  0
SOLID
  8
1
 62
2
 10
-69.9462016085883
 20
10
 30
0
 11
-69.5562016085883
 21
7
 31
0
 12
-70.3362016085883
 22
7
 32
0
 13
-70.3362016085883
 23
7
 33
0
  0
SOLID
  8
1
 62
2
 10
-69.9462016085883
 20
0
 30
0
 11
-70.3362016085883
 21
3
 31
0
 12
-69.5562016085883
 22
3
 32
0
 13
-69.5562016085883
 23
3
 33
0
  0
TEXT
  8
1
 62
2
 10
-70.9462016085883
 20
-13.67285247127719
 30
0
 40
3.2
  1
10
 50
90
 41
0.9
  0
TEXT
  8
1
 62
2
 10
-71.5862016085883
 20
-8.232852471277191
 30
0
 40
1.92
  1
%%p0.5
 50
90
 41
0.9
  0
ENDBLK
  8
0
  0
BLOCK
  8
1
  2
*D3
 70
1
 10
0
 20
0
 30
0
  0
LINE
  8
1
 62
2
 10
-57.8809956736108
 20
-24.75
 30
0
 11
-57.8809956736108
 21
24.75
 31
0
  0
LINE
  8
1
 62
2
 10
-78.99999999999989
 20
24.75
 30
0
 11
-56.8809956736108
 21
24.75
 31
0
  0
LINE
  8
1
 62
2
 10
-78.99999999999989
 20
-24.75
 30
0
 11
-56.8809956736108
 21
-24.75
 31
0
  0
SOLID
  8
1
 62
2
 10
-57.8809956736108
 20
24.75
 30
0
 11
-57.4909956736108
 21
21.75
 31
0
 12
-58.2709956736108
 22
21.75
 32
0
 13
-58.2709956736108
 23
21.75
 33
0
  0
SOLID
  8
1
 62
2
 10
-57.8809956736108
 20
-24.75
 30
0
 11
-58.2709956736108
 21
-21.75
 31
0
 12
-57.4909956736108
 22
-21.75
 32
0
 13
-57.4909956736108
 23
-21.75
 33
0
  0
TEXT
  8
1
 62
2
 10
-58.8809956736108
 20
-7.584
 30
0
 40
3.2
  1
49.5
 50
90
 41
0.9
  0
TEXT
  8
1
 62
2
 10
-59.5209956736108
 20
2.736000000000001
 30
0
 40
1.92
  1
%%p0.3
 50
90
 41
0.9
  0
ENDBLK
  8
0
  0
BLOCK
  8
1
  2
*D4
 70
1
 10
0
 20
0
 30
0
  0
LINE
  8
1
 62
2
 10
-135.2499999999999
 20
40.4603039403511
 30
0
 11
-85.74999999999989
 21
40.4603039403511
 31
0
  0
LINE
  8
1
 62
2
 10
-85.74999999999989
 20
31.5
 30
0
 11
-85.74999999999989
 21
41.4603039403511
 31
0
  0
LINE
  8
1
 62
2
 10
-135.2499999999999
 20
31.5
 30
0
 11
-135.2499999999999
 21
41.4603039403511
 31
0
  0
SOLID
  8
1
 62
2
 10
-135.2499999999999
 20
40.4603039403511
 30
0
 11
-132.2499999999999
 21
40.8503039403511
 31
0
 12
-132.2499999999999
 22
40.0703039403511
 32
0
 13
-132.2499999999999
 23
40.0703039403511
 33
0
  0
SOLID
  8
1
 62
2
 10
-85.74999999999989
 20
40.4603039403511
 30
0
 11
-88.74999999999989
 21
40.0703039403511
 31
0
 12
-88.74999999999989
 22
40.8503039403511
 32
0
 13
-88.74999999999989
 23
40.8503039403511
 33
0
  0
TEXT
  8
1
 62
2
 10
-118.0839999999999
 20
41.4603039403511
 30
0
 40
3.2
  1
49.5
 41
0.9
  0
TEXT
  8
1
 62
2
 10
-107.7639999999999
 20
42.1003039403511
 30
0
 40
1.92
  1
%%p0.3
 41
0.9
  0
ENDBLK
  8
0
  0
BLOCK
  8
1
  2
*D5
 70
1
 10
0
 20
0
 30
0
  0
LINE
  8
1
 62
2
 10
-141
 20
52.3174890833463
 30
0
 11
-79.99999999999989
 21
52.3174890833463
 31
0
  0
LINE
  8
1
 62
2
 10
-79.99999999999989
 20
25.75
 30
0
 11
-79.99999999999989
 21
53.3174890833463
 31
0
  0
LINE
  8
1
 62
2
 10
-141
 20
25.75
 30
0
 11
-141
 21
53.3174890833463
 31
0
  0
SOLID
  8
1
 62
2
 10
-141
 20
52.3174890833463
 30
0
 11
-138
 21
52.7074890833463
 31
0
 12
-138
 22
51.9274890833463
 32
0
 13
-138
 23
51.9274890833463
 33
0
  0
SOLID
  8
1
 62
2
 10
-79.99999999999989
 20
52.3174890833463
 30
0
 11
-82.99999999999989
 21
51.9274890833463
 31
0
 12
-82.99999999999989
 22
52.7074890833463
 32
0
 13
-82.99999999999989
 23
52.7074890833463
 33
0
  0
TEXT
  8
1
 62
2
 10
-110.331111111111
 20
53.3174890833463
 30
0
 40
3.2
  1
61
 41
0.9
  0
TEXT
  8
1
 62
2
 10
-114.5088888888888
 20
53.3174890833463
 30
0
 40
3.2
  1
üá
 41
0.9
  0
ENDBLK
  8
0
  0
BLOCK
  8
1
  2
*D6
 70
1
 10
0
 20
0
 30
0
  0
LINE
  8
1
 62
2
 10
78.50000000000021
 20
52.4663625056694
 30
0
 11
91.24721920632911
 21
52.4663625056694
 31
0
  0
LINE
  8
1
 62
2
 10
76.50000000000021
 20
52.4663625056694
 30
0
 11
78.50000000000021
 21
52.4663625056694
 31
0
  0
LINE
  8
1
 62
2
 10
70.50000000000021
 20
52.4663625056694
 30
0
 11
76.50000000000021
 21
52.4663625056694
 31
0
  0
LINE
  8
1
 62
2
 10
78.50000000000021
 20
5.89999999999997
 30
0
 11
78.50000000000021
 21
53.4663625056694
 31
0
  0
LINE
  8
1
 62
2
 10
76.50000000000021
 20
13.69999999999986
 30
0
 11
76.50000000000021
 21
53.4663625056694
 31
0
  0
SOLID
  8
1
 62
2
 10
76.50000000000021
 20
52.4663625056694
 30
0
 11
73.50000000000021
 21
52.0763625056694
 31
0
 12
73.50000000000021
 22
52.8563625056694
 32
0
 13
73.50000000000021
 23
52.8563625056694
 33
0
  0
SOLID
  8
1
 62
2
 10
78.50000000000021
 20
52.4663625056694
 30
0
 11
81.50000000000021
 21
52.8563625056694
 31
0
 12
81.50000000000021
 22
52.0763625056694
 32
0
 13
81.50000000000021
 23
52.0763625056694
 33
0
  0
TEXT
  8
1
 62
2
 10
87.24721920632911
 20
53.4663625056694
 30
0
 40
3.2
  1
2
 41
0.9
  0
TEXT
  8
1
 62
2
 10
85.16721920632909
 20
53.4663625056694
 30
0
 40
3.2
  1
(
 41
0.9
  0
TEXT
  8
1
 62
2
 10
90.7672192063291
 20
53.4663625056694
 30
0
 40
3.2
  1
)
 41
0.9
  0
ENDBLK
  8
0
  0
BLOCK
  8
1
  2
*D7
 70
1
 10
0
 20
0
 30
0
  0
LINE
  8
1
 62
2
 10
124.6663646118964
 20
-22.70000000000003
 30
0
 11
116.2692297168852
 21
-22.70000000000003
 31
0
  0
LINE
  8
1
 62
2
 10
124.6663646118964
 20
-22.70000000000003
 30
0
 11
127.6663646118964
 21
-22.70000000000003
 31
0
  0
LINE
  8
1
 62
2
 10
133.6663646118964
 20
-22.70000000000003
 30
0
 11
127.6663646118964
 21
-22.70000000000003
 31
0
  0
LINE
  8
1
 62
2
 10
127.6663646118964
 20
-1.949999999999989
 30
0
 11
127.6663646118964
 21
-23.70000000000003
 31
0
  0
LINE
  8
1
 62
2
 10
124.6663646118964
 20
-2.199999999999989
 30
0
 11
124.6663646118964
 21
-23.70000000000003
 31
0
  0
SOLID
  8
1
 62
2
 10
124.6663646118964
 20
-22.70000000000003
 30
0
 11
121.6663646118964
 21
-23.09000000000003
 31
0
 12
121.6663646118964
 22
-22.31000000000003
 32
0
 13
121.6663646118964
 23
-22.31000000000003
 33
0
  0
SOLID
  8
1
 62
2
 10
127.6663646118964
 20
-22.70000000000003
 30
0
 11
130.6663646118964
 21
-22.31000000000003
 31
0
 12
130.6663646118964
 22
-23.09000000000003
 32
0
 13
130.6663646118964
 23
-23.09000000000003
 33
0
  0
TEXT
  8
1
 62
2
 10
118.3492297168852
 20
-21.70000000000003
 30
0
 40
3.2
  1
3
 41
0.9
  0
TEXT
  8
1
 62
2
 10
116.2692297168852
 20
-21.70000000000003
 30
0
 40
3.2
  1
(
 41
0.9
  0
TEXT
  8
1
 62
2
 10
121.8692297168852
 20
-21.70000000000003
 30
0
 40
3.2
  1
)
 41
0.9
  0
ENDBLK
  8
0
  0
BLOCK
  8
1
  2
*D8
 70
1
 10
0
 20
0
 30
0
  0
LINE
  8
1
 62
2
 10
76.50000000000021
 20
-34.6982017272852
 30
0
 11
127.6663646118964
 21
-34.6982017272852
 31
0
  0
LINE
  8
1
 62
2
 10
127.6663646118964
 20
-1.949999999999992
 30
0
 11
127.6663646118964
 21
-35.6982017272852
 31
0
  0
LINE
  8
1
 62
2
 10
76.50000000000021
 20
-13.69999999999999
 30
0
 11
76.50000000000021
 21
-35.6982017272852
 31
0
  0
SOLID
  8
1
 62
2
 10
76.50000000000021
 20
-34.6982017272852
 30
0
 11
79.50000000000021
 21
-34.3082017272852
 31
0
 12
79.50000000000021
 22
-35.0882017272852
 32
0
 13
79.50000000000021
 23
-35.0882017272852
 33
0
  0
SOLID
  8
1
 62
2
 10
127.6663646118964
 20
-34.6982017272852
 30
0
 11
124.6663646118964
 21
-35.0882017272852
 31
0
 12
124.6663646118964
 22
-34.3082017272852
 32
0
 13
124.6663646118964
 23
-34.3082017272852
 33
0
  0
TEXT
  8
1
 62
2
 10
96.0991823059483
 20
-33.6982017272852
 30
0
 40
3.2
  1
150
 41
0.9
  0
TEXT
  8
1
 62
2
 10
104.4191823059483
 20
-33.0582017272852
 30
0
 40
1.92
  1
%%p15
 41
0.9
  0
ENDBLK
  8
0
  0
BLOCK
  8
1
  2
*D9
 70
1
 10
0
 20
0
 30
0
  0
LINE
  8
1
 62
2
 10
98.48619935046639
 20
-12.69999999999999
 30
0
 11
98.48619935046639
 21
12.69999999999987
 31
0
  0
LINE
  8
1
 62
2
 10
77.50000000000021
 20
12.69999999999987
 30
0
 11
99.48619935046639
 21
12.69999999999987
 31
0
  0
LINE
  8
1
 62
2
 10
77.50000000000021
 20
-12.69999999999999
 30
0
 11
99.48619935046639
 21
-12.69999999999999
 31
0
  0
SOLID
  8
1
 62
2
 10
98.48619935046639
 20
12.69999999999987
 30
0
 11
98.87619935046639
 21
9.699999999999871
 31
0
 12
98.09619935046639
 22
9.699999999999871
 32
0
 13
98.09619935046639
 23
9.699999999999871
 33
0
  0
SOLID
  8
1
 62
2
 10
98.48619935046639
 20
-12.69999999999999
 30
0
 11
98.09619935046639
 21
-9.699999999999989
 31
0
 12
98.87619935046639
 22
-9.699999999999989
 32
0
 13
98.87619935046639
 23
-9.699999999999989
 33
0
  0
TEXT
  8
1
 62
2
 10
97.48619935046639
 20
-2.537777777777837
 30
0
 40
3.2
  1
25.4
 50
90
 41
0.9
  0
TEXT
  8
1
 62
2
 10
97.48619935046639
 20
-6.182222222222281
 30
0
 40
3.2
  1
âË
 50
90
 41
0.9
  0
ENDBLK
  8
0
  0
BLOCK
  8
1
  2
*D10
 70
1
 10
0
 20
0
 30
0
  0
LINE
  8
1
 62
2
 10
-20.9720487237373
 20
1.00000000000011
 30
0
 11
-20.9720487237373
 21
7.00000000000011
 31
0
  0
LINE
  8
1
 62
2
 10
-20.9720487237373
 20
7.00000000000011
 30
0
 11
-20.9720487237373
 21
12.5
 31
0
  0
LINE
  8
1
 62
2
 10
-20.9720487237373
 20
12.5
 30
0
 11
-20.9720487237373
 21
36.68634285664859
 31
0
  0
LINE
  8
1
 62
2
 10
-11.9999999999999
 20
7.00000000000011
 30
0
 11
-21.9720487237373
 21
7.00000000000011
 31
0
  0
LINE
  8
1
 62
2
 10
-11.9999999999999
 20
12.5
 30
0
 11
-21.9720487237373
 21
12.5
 31
0
  0
SOLID
  8
1
 62
2
 10
-20.9720487237373
 20
12.5
 30
0
 11
-21.3620487237373
 21
15.5
 31
0
 12
-20.5820487237373
 22
15.5
 32
0
 13
-20.5820487237373
 23
15.5
 33
0
  0
SOLID
  8
1
 62
2
 10
-20.9720487237373
 20
7.00000000000011
 30
0
 11
-20.5820487237373
 21
4.00000000000011
 31
0
 12
-21.3620487237373
 22
4.00000000000011
 32
0
 13
-21.3620487237373
 23
4.00000000000011
 33
0
  0
TEXT
  8
1
 62
2
 10
-21.9720487237373
 20
24.3983428566486
 30
0
 40
3.2
  1
5.5
 50
90
 41
0.9
  0
TEXT
  8
1
 62
2
 10
-22.6120487237373
 20
31.8383428566486
 30
0
 40
1.92
  1
%%p0.3
 50
90
 41
0.9
  0
ENDBLK
  8
0
  0
BLOCK
  8
1
  2
*D11
 70
1
 10
0
 20
0
 30
0
  0
LINE
  8
1
 62
2
 10
-10.9999999999999
 20
64.60501291049981
 30
0
 11
14.00000000000011
 21
64.60501291049981
 31
0
  0
LINE
  8
1
 62
2
 10
14.00000000000011
 20
30.5
 30
0
 11
14.00000000000011
 21
65.60501291049981
 31
0
  0
LINE
  8
1
 62
2
 10
-10.9999999999999
 20
13.5
 30
0
 11
-10.9999999999999
 21
65.60501291049981
 31
0
  0
SOLID
  8
1
 62
2
 10
14.00000000000011
 20
64.60501291049981
 30
0
 11
11.00000000000011
 21
64.21501291049981
 31
0
 12
11.00000000000011
 22
64.99501291049981
 32
0
 13
11.00000000000011
 23
64.99501291049981
 33
0
  0
SOLID
  8
1
 62
2
 10
-10.9999999999999
 20
64.60501291049981
 30
0
 11
-7.999999999999895
 21
64.99501291049981
 31
0
 12
-7.999999999999895
 22
64.21501291049981
 32
0
 13
-7.999999999999895
 23
64.21501291049981
 33
0
  0
TEXT
  8
1
 62
2
 10
-0.8999999999998949
 20
65.60501291049981
 30
0
 40
3.2
  1
25
 41
0.9
  0
ENDBLK
  8
0
  0
BLOCK
  8
1
  2
*D12
 70
1
 10
0
 20
0
 30
0
  0
LINE
  8
1
 62
2
 10
-32.9769787921154
 20
1.000000000000107
 30
0
 11
-32.9769787921154
 21
7.000000000000107
 31
0
  0
LINE
  8
1
 62
2
 10
-32.9769787921154
 20
7.000000000000107
 30
0
 11
-32.9769787921154
 21
13.00000000000023
 31
0
  0
LINE
  8
1
 62
2
 10
-32.9769787921154
 20
13.00000000000023
 30
0
 11
-32.9769787921154
 21
39.61021950402201
 31
0
  0
LINE
  8
1
 62
2
 10
-11.9999999999999
 20
7.000000000000107
 30
0
 11
-33.9769787921154
 21
7.000000000000107
 31
0
  0
LINE
  8
1
 62
2
 10
3.840572873935095
 20
13.00000000000023
 30
0
 11
-33.9769787921154
 21
13.00000000000023
 31
0
  0
SOLID
  8
1
 62
2
 10
-32.9769787921154
 20
13.00000000000023
 30
0
 11
-33.3669787921154
 21
16.00000000000023
 31
0
 12
-32.5869787921154
 22
16.00000000000023
 32
0
 13
-32.5869787921154
 23
16.00000000000023
 33
0
  0
SOLID
  8
1
 62
2
 10
-32.9769787921154
 20
7.000000000000107
 30
0
 11
-32.5869787921154
 21
4.000000000000107
 31
0
 12
-33.3669787921154
 22
4.000000000000107
 32
0
 13
-33.3669787921154
 23
4.000000000000107
 33
0
  0
TEXT
  8
1
 62
2
 10
-34.7769787921154
 20
29.32221950402202
 30
0
 40
3.2
  1
6
 50
90
 41
0.9
  0
TEXT
  8
1
 62
2
 10
-36.8569787921154
 20
32.84221950402202
 30
0
 40
1.92
  1
 0
 50
90
 41
0.9
  0
TEXT
  8
1
 62
2
 10
-33.9769787921154
 20
32.84221950402202
 30
0
 40
1.92
  1
-0.02
 50
90
 41
0.9
  0
TEXT
  8
1
 62
2
 10
-34.7769787921154
 20
25.67777505957758
 30
0
 40
3.2
  1
âË
 50
90
 41
0.9
  0
ENDBLK
  8
0
  0
BLOCK
  8
1
  2
*D13
 70
1
 10
0
 20
0
 30
0
  0
LINE
  8
1
 62
2
 10
-10.9999999999999
 20
52.4663625056694
 30
0
 11
0.9999999999999023
 21
52.4663625056694
 31
0
  0
LINE
  8
1
 62
2
 10
0.9999999999999023
 20
13.5
 30
0
 11
0.9999999999999023
 21
53.4663625056694
 31
0
  0
LINE
  8
1
 62
2
 10
-10.9999999999999
 20
13.5
 30
0
 11
-10.9999999999999
 21
53.4663625056694
 31
0
  0
SOLID
  8
1
 62
2
 10
-10.9999999999999
 20
52.4663625056694
 30
0
 11
-7.999999999999901
 21
52.8563625056694
 31
0
 12
-7.999999999999901
 22
52.0763625056694
 32
0
 13
-7.999999999999901
 23
52.0763625056694
 33
0
  0
SOLID
  8
1
 62
2
 10
0.9999999999999023
 20
52.4663625056694
 30
0
 11
-2.000000000000098
 21
52.0763625056694
 31
0
 12
-2.000000000000098
 22
52.8563625056694
 32
0
 13
-2.000000000000098
 23
52.8563625056694
 33
0
  0
TEXT
  8
1
 62
2
 10
-6.919999999999999
 20
53.4663625056694
 30
0
 40
3.2
  1
12
 41
0.9
  0
ENDBLK
  8
0
  0
BLOCK
  8
1
  2
*D14
 70
1
 10
0
 20
0
 30
0
  0
LINE
  8
1
 62
2
 10
9.000000000000012
 20
52.4663625056694
 30
0
 11
3.000000000000012
 21
52.4663625056694
 31
0
  0
LINE
  8
1
 62
2
 10
9.000000000000012
 20
52.4663625056694
 30
0
 11
14.0000000000001
 21
52.4663625056694
 31
0
  0
LINE
  8
1
 62
2
 10
20.0000000000001
 20
52.4663625056694
 30
0
 11
14.0000000000001
 21
52.4663625056694
 31
0
  0
LINE
  8
1
 62
2
 10
14.0000000000001
 20
30.50000000000001
 30
0
 11
14.0000000000001
 21
53.4663625056694
 31
0
  0
LINE
  8
1
 62
2
 10
9.000000000000012
 20
20
 30
0
 11
9.000000000000012
 21
53.4663625056694
 31
0
  0
SOLID
  8
1
 62
2
 10
9.000000000000012
 20
52.4663625056694
 30
0
 11
6.000000000000012
 21
52.0763625056694
 31
0
 12
6.000000000000012
 22
52.8563625056694
 32
0
 13
6.000000000000012
 23
52.8563625056694
 33
0
  0
SOLID
  8
1
 62
2
 10
14.0000000000001
 20
52.4663625056694
 30
0
 11
17.0000000000001
 21
52.8563625056694
 31
0
 12
17.0000000000001
 22
52.0763625056694
 32
0
 13
17.0000000000001
 23
52.0763625056694
 33
0
  0
TEXT
  8
1
 62
2
 10
3.43870643904857
 20
53.4663625056694
 30
0
 40
3.2
  1
5
 41
0.9
  0
ENDBLK
  8
0
  0
BLOCK
  8
1
  2
*D15
 70
1
 10
0
 20
0
 30
0
  0
LINE
  8
1
 62
2
 10
-44.9967980879082
 20
19
 30
0
 11
-44.9967980879082
 21
31.72407753416842
 31
0
  0
LINE
  8
1
 62
2
 10
-44.9967980879082
 20
1.0001839906908
 30
0
 11
-44.9967980879082
 21
19
 31
0
  0
LINE
  8
1
 62
2
 10
8.000000000000014
 20
19
 30
0
 11
-45.9967980879082
 21
19
 31
0
  0
LINE
  8
1
 62
2
 10
8.0000000000001
 20
1.0001839906908
 30
0
 11
-45.9967980879082
 21
1.0001839906908
 31
0
  0
SOLID
  8
1
 62
2
 10
-44.9967980879082
 20
19
 30
0
 11
-44.6067980879082
 21
16
 31
0
 12
-45.3867980879082
 22
16
 32
0
 13
-45.3867980879082
 23
16
 33
0
  0
SOLID
  8
1
 62
2
 10
-44.9967980879082
 20
1.0001839906908
 30
0
 11
-45.3867980879082
 21
4.0001839906908
 31
0
 12
-44.6067980879082
 22
4.0001839906908
 32
0
 13
-44.6067980879082
 23
4.0001839906908
 33
0
  0
TEXT
  8
1
 62
2
 10
-45.9967980879082
 20
27.88407753416842
 30
0
 40
3.2
  1
18
 50
90
 41
0.9
  0
TEXT
  8
1
 62
2
 10
-45.9967980879082
 20
24.23963308972398
 30
0
 40
3.2
  1
âË
 50
90
 41
0.9
  0
ENDBLK
  8
0
  0
BLOCK
  8
1
  2
*D16
 70
1
 10
0
 20
0
 30
0
  0
LINE
  8
1
 62
2
 10
-84.51181377609426
 20
-26.32063518199814
 30
0
 11
-73.31610602716101
 21
-40.5223539043864
 31
0
  0
LINE
  8
1
 62
2
 10
-73.31610602716101
 20
-40.5223539043864
 30
0
 11
-22.356106027161
 21
-40.5223539043864
 31
0
  0
SOLID
  8
1
 62
2
 10
-84.51181377609426
 20
-26.32063518199814
 30
0
 11
-82.34826057974618
 21
-28.43514164133375
 31
0
 12
-82.96080830072546
 22
-28.91803426865694
 32
0
 13
-82.96080830072546
 23
-28.91803426865694
 33
0
  0
TEXT
  8
1
 62
2
 10
-58.836106027161
 20
-39.5223539043864
 30
0
 40
3.2
  1
4
 41
0.9
  0
TEXT
  8
1
 62
2
 10
-68.116106027161
 20
-39.5223539043864
 30
0
 40
3.2
  1
4-M
 41
0.9
  0
TEXT
  8
1
 62
2
 10
-55.316106027161
 20
-39.5223539043864
 30
0
 40
3.2
  1
 DEPTH 6MAX
 41
0.9
  0
ENDBLK
  8
0
  0
ENDSEC
  0
SECTION
  2
ENTITIES
  0
LINE
  8
1
 62
3
 10
-79.99999999999989
 20
-24.75
 30
0
 11
-77.41979331410232
 21
-24.75
 31
0
  0
LINE
  8
1
 62
3
 10
-135.2499999999999
 20
30.5
 30
0
 11
-135.2499999999999
 21
16
 31
0
  0
LINE
  8
1
 62
3
 10
-141
 20
24.75
 30
0
 11
-144
 21
24.75
 31
0
  0
LINE
  8
1
 62
3
 10
-85.74999999999989
 20
30.5
 30
0
 11
-85.74999999999989
 21
32.77579593310037
 31
0
  0
LINE
  8
1
 62
3
 10
-79.99999999999989
 20
24.75
 30
0
 11
-78.15571212396208
 21
24.75
 31
0
  0
LINE
  8
1
 62
3
 10
-101.4999999999999
 20
10
 30
0
 11
-98.94541850249914
 21
10
 31
0
  0
LINE
  8
1
 62
3
 10
-79.99999999999989
 20
0
 30
0
 11
-75.99999999999989
 21
0
 31
0
  0
LINE
  8
1
 62
2
 10
-72.9622431925531
 20
-47.5
 30
0
 11
-22.69197273139051
 21
-47.5
 31
0
  0
LINE
  8
1
 62
2
 10
117.5202649888626
 20
19.10463769237622
 30
0
 11
186.9915661320341
 21
19.10463769237622
 31
0
  0
LINE
  8
1
 62
7
 10
-141
 20
24.75
 30
0
 11
-141
 21
-24.75
 31
0
  0
LINE
  8
1
 62
7
 10
-79.99999999999989
 20
24.75
 30
0
 11
-79.99999999999989
 21
-24.75
 31
0
  0
LINE
  8
1
 62
3
 10
-145
 20
0
 30
0
 11
-79.99999999999989
 21
0
 31
0
  0
LINE
  8
1
 62
3
 10
-135.2499999999999
 20
32.40783652817061
 30
0
 11
-135.2499999999999
 21
30.5
 31
0
  0
LINE
  8
1
 62
3
 10
-122.3108407155454
 20
10
 30
0
 11
-101.4999999999999
 21
10
 31
0
  0
LINE
  8
1
 62
3
 10
-85.74999999999989
 20
-16
 30
0
 11
-85.74999999999989
 21
-30.5
 31
0
  0
LINE
  8
1
 62
3
 10
-135.2499999999999
 20
-16
 30
0
 11
-135.2499999999999
 21
-30.5
 31
0
  0
LINE
  8
1
 62
7
 10
-112.1583123951776
 20
12.5
 30
0
 11
-108.8416876048223
 21
12.5
 31
0
  0
LINE
  8
1
 62
3
 10
-130.9999999999999
 20
16.50000000000005
 30
0
 11
-130.9999999999999
 21
8.499999999999954
 31
0
  0
LINE
  8
1
 62
3
 10
-135
 20
12.5
 30
0
 11
-127
 21
12.5
 31
0
  0
LINE
  8
1
 62
3
 10
-89.99999999999989
 20
16.50000000000005
 30
0
 11
-89.99999999999989
 21
8.499999999999954
 31
0
  0
LINE
  8
1
 62
3
 10
-94
 20
12.5
 30
0
 11
-85.99999999999984
 21
12.5
 31
0
  0
LINE
  8
1
 62
3
 10
-110.5
 20
34.5
 30
0
 11
-110.5
 21
-34.5
 31
0
  0
LINE
  8
1
 62
3
 10
-114.4999999999998
 20
-23.5
 30
0
 11
-106.5000000000002
 21
-23.5
 31
0
  0
LINE
  8
1
 62
7
 10
-135.2499999999999
 20
-30.5
 30
0
 11
-85.74999999999989
 21
-30.5
 31
0
  0
LINE
  8
1
 62
3
 10
-135.2499999999999
 20
-30.5
 30
0
 11
-135.2499999999999
 21
-33.5
 31
0
  0
LINE
  8
1
 62
3
 10
-85.74999999999989
 20
-30.5
 30
0
 11
-85.74999999999989
 21
-33.5
 31
0
  0
LINE
  8
1
 62
3
 10
-85.74999999999989
 20
16
 30
0
 11
-85.74999999999989
 21
30.5
 31
0
  0
LINE
  8
1
 62
7
 10
-135.2499999999999
 20
30.5
 30
0
 11
-85.74999999999989
 21
30.5
 31
0
  0
LINE
  8
1
 62
3
 10
-94.49999999999989
 20
-24.75
 30
0
 11
-79.99999999999989
 21
-24.75
 31
0
  0
LINE
  8
1
 62
3
 10
-144.183979702465
 20
-24.75
 30
0
 11
-126.4999999999999
 21
-24.75
 31
0
  0
LINE
  8
1
 62
3
 10
-126.6839797024649
 20
24.75
 30
0
 11
-141
 21
24.75
 31
0
  0
LINE
  8
1
 62
3
 10
-94.49999999999989
 20
24.75
 30
0
 11
-79.99999999999989
 21
24.75
 31
0
  0
LINE
  8
1
 62
7
 10
-88.99411764705872
 20
12.79999999999998
 30
0
 11
-88.59999999999991
 21
12.79999999999998
 31
0
  0
LINE
  8
1
 62
7
 10
-88.99411764705872
 20
12.19999999999999
 30
0
 11
-88.59999999999991
 21
12.19999999999999
 31
0
  0
LINE
  8
1
 62
7
 10
-89.69999999999993
 20
11.5
 30
0
 11
-89.69999999999993
 21
11.09999999999999
 31
0
  0
LINE
  8
1
 62
7
 10
-90.19999999999993
 20
14
 30
0
 11
-89.79999999999984
 21
14
 31
0
  0
LINE
  8
1
 62
7
 10
-90.19999999999993
 20
11
 30
0
 11
-89.79999999999984
 21
11
 31
0
  0
LINE
  8
1
 62
7
 10
-88.49999999999989
 20
12.69999999999999
 30
0
 11
-88.49999999999989
 21
12.29999999999998
 31
0
  0
LINE
  8
1
 62
7
 10
-91.49999999999989
 20
12.69999999999999
 30
0
 11
-91.49999999999989
 21
12.29999999999998
 31
0
  0
LINE
  8
1
 62
7
 10
-91.39999999999986
 20
12.79999999999998
 30
0
 11
-90.99999999999989
 21
12.79999999999998
 31
0
  0
LINE
  8
1
 62
7
 10
-91.39999999999986
 20
12.19999999999999
 30
0
 11
-90.99999999999989
 21
12.19999999999999
 31
0
  0
LINE
  8
1
 62
7
 10
-90.29999999999984
 20
11.09999999999999
 30
0
 11
-90.29999999999984
 21
11.5
 31
0
  0
LINE
  8
1
 62
7
 10
-90.29999999999984
 20
13.90000000000001
 30
0
 11
-90.29999999999984
 21
13.5
 31
0
  0
LINE
  8
1
 62
7
 10
-89.69999999999993
 20
13.90000000000001
 30
0
 11
-89.69999999999993
 21
13.5
 31
0
  0
LINE
  8
1
 62
7
 10
-129.9941176470587
 20
12.79999999999998
 30
0
 11
-129.5999999999999
 21
12.79999999999998
 31
0
  0
LINE
  8
1
 62
7
 10
-129.9941176470587
 20
12.19999999999999
 30
0
 11
-129.5999999999999
 21
12.19999999999999
 31
0
  0
LINE
  8
1
 62
7
 10
-130.6999999999999
 20
11.5
 30
0
 11
-130.6999999999999
 21
11.09999999999999
 31
0
  0
LINE
  8
1
 62
7
 10
-131.1999999999999
 20
14
 30
0
 11
-130.7999999999998
 21
14
 31
0
  0
LINE
  8
1
 62
7
 10
-131.1999999999999
 20
11
 30
0
 11
-130.7999999999998
 21
11
 31
0
  0
LINE
  8
1
 62
7
 10
-129.4999999999999
 20
12.69999999999999
 30
0
 11
-129.4999999999999
 21
12.29999999999998
 31
0
  0
LINE
  8
1
 62
7
 10
-132.4999999999999
 20
12.69999999999999
 30
0
 11
-132.4999999999999
 21
12.29999999999998
 31
0
  0
LINE
  8
1
 62
7
 10
-132.3999999999999
 20
12.79999999999998
 30
0
 11
-131.9999999999999
 21
12.79999999999998
 31
0
  0
LINE
  8
1
 62
7
 10
-132.3999999999999
 20
12.19999999999999
 30
0
 11
-131.9999999999999
 21
12.19999999999999
 31
0
  0
LINE
  8
1
 62
7
 10
-131.2999999999998
 20
11.09999999999999
 30
0
 11
-131.2999999999998
 21
11.5
 31
0
  0
LINE
  8
1
 62
7
 10
-131.2999999999998
 20
13.90000000000001
 30
0
 11
-131.2999999999998
 21
13.5
 31
0
  0
LINE
  8
1
 62
7
 10
-130.6999999999999
 20
13.90000000000001
 30
0
 11
-130.6999999999999
 21
13.5
 31
0
  0
LINE
  8
1
 62
7
 10
-109.4941176470588
 20
-23.20000000000002
 30
0
 11
-109.1
 21
-23.20000000000002
 31
0
  0
LINE
  8
1
 62
7
 10
-109.4941176470588
 20
-23.80000000000001
 30
0
 11
-109.1
 21
-23.80000000000001
 31
0
  0
LINE
  8
1
 62
7
 10
-110.2
 20
-24.5
 30
0
 11
-110.2
 21
-24.90000000000001
 31
0
  0
LINE
  8
1
 62
7
 10
-110.7
 20
-22
 30
0
 11
-110.3
 21
-22
 31
0
  0
LINE
  8
1
 62
7
 10
-110.7
 20
-25
 30
0
 11
-110.3
 21
-25
 31
0
  0
LINE
  8
1
 62
7
 10
-109
 20
-23.30000000000001
 30
0
 11
-109
 21
-23.70000000000002
 31
0
  0
LINE
  8
1
 62
7
 10
-112
 20
-23.30000000000001
 30
0
 11
-112
 21
-23.70000000000002
 31
0
  0
LINE
  8
1
 62
7
 10
-111.9
 20
-23.20000000000002
 30
0
 11
-111.5
 21
-23.20000000000002
 31
0
  0
LINE
  8
1
 62
7
 10
-111.9
 20
-23.80000000000001
 30
0
 11
-111.5
 21
-23.80000000000001
 31
0
  0
LINE
  8
1
 62
7
 10
-110.8
 20
-24.90000000000001
 30
0
 11
-110.8
 21
-24.5
 31
0
  0
LINE
  8
1
 62
7
 10
-110.8
 20
-22.09999999999999
 30
0
 11
-110.8
 21
-22.5
 31
0
  0
LINE
  8
1
 62
7
 10
-110.2
 20
-22.09999999999999
 30
0
 11
-110.2
 21
-22.5
 31
0
  0
LINE
  8
1
 62
7
 10
44.00000000000021
 20
16.5
 30
0
 11
44.00000000000021
 21
-16.50000000000001
 31
0
  0
LINE
  8
1
 62
7
 10
49.00000000000021
 20
11.73327006289326
 30
0
 11
49.00000000000021
 21
-11.73327006289333
 31
0
  0
LINE
  8
1
 62
7
 10
66.00000000000021
 20
11.73327006289326
 30
0
 11
49.00000000000021
 21
11.73327006289326
 31
0
  0
LINE
  8
1
 62
7
 10
66.00000000000021
 20
-11.73327006289333
 30
0
 11
66.00000000000021
 21
11.73327006289326
 31
0
  0
LINE
  8
1
 62
7
 10
49.00000000000021
 20
-11.73327006289333
 30
0
 11
66.00000000000021
 21
-11.73327006289333
 31
0
  0
LINE
  8
1
 62
7
 10
21.76859531800541
 20
31.36293933246811
 30
0
 11
34.8980065893203
 21
31.36293933246811
 31
0
  0
LINE
  8
1
 62
7
 10
127.6663646118964
 20
-0.9499999999999886
 30
0
 11
124.6663646118964
 21
-0.9499999999999886
 31
0
  0
LINE
  8
1
 62
7
 10
124.6663646118964
 20
1.19999999999987
 30
0
 11
124.6663646118964
 21
-1.199999999999989
 31
0
  0
LINE
  8
1
 62
7
 10
124.6663646118964
 20
-0.25
 30
0
 11
127.6663646118964
 21
-0.25
 31
0
  0
LINE
  8
1
 62
7
 10
124.6663646118964
 20
0.2499999999998899
 30
0
 11
127.6663646118964
 21
0.2499999999998899
 31
0
  0
LINE
  8
1
 62
7
 10
124.6663646118964
 20
0.9499999999998696
 30
0
 11
127.6663646118964
 21
0.9499999999998696
 31
0
  0
LINE
  8
1
 62
7
 10
78.50000000000021
 20
4.899999999999981
 30
0
 11
78.50000000000021
 21
-4.900000000000034
 31
0
  0
LINE
  8
1
 62
7
 10
124.6663646118964
 20
-1.199999999999989
 30
0
 11
105.2962367797537
 21
-1.199999999999989
 31
0
  0
LINE
  8
1
 62
7
 10
78.4000000000003
 20
5
 30
0
 11
76.50000000000021
 21
5
 31
0
  0
LINE
  8
1
 62
7
 10
76.50000000000021
 20
-5
 30
0
 11
78.4000000000003
 21
-5
 31
0
  0
LINE
  8
1
 62
7
 10
76.50000000000021
 20
12.69999999999987
 30
0
 11
45.0000000000001
 21
12.69999999999987
 31
0
  0
LINE
  8
1
 62
7
 10
45.00000000000011
 20
-12.69999999999999
 30
0
 11
76.50000000000021
 21
-12.69999999999999
 31
0
  0
LINE
  8
1
 62
7
 10
105.2962367797537
 20
1.19999999999987
 30
0
 11
124.6663646118964
 21
1.19999999999987
 31
0
  0
LINE
  8
1
 62
7
 10
105.2962367797537
 20
0
 30
0
 11
124.6663646118964
 21
0
 31
0
  0
LINE
  8
1
 62
7
 10
41.00000000000021
 20
30.50000000000001
 30
0
 11
41.00000000000021
 21
-30.5
 31
0
  0
LINE
  8
1
 62
7
 10
9.000000000000101
 20
1.0001839906908
 30
0
 11
15.00000000000001
 21
1.00018399069091
 31
0
  0
LINE
  8
1
 62
7
 10
15.00000000000001
 20
19.00000000000011
 30
0
 11
9.000000000000012
 21
19
 31
0
  0
LINE
  8
1
 62
7
 10
0.9999999999999023
 20
12.5
 30
0
 11
-10.9999999999999
 21
12.5
 31
0
  0
LINE
  8
1
 62
7
 10
-10.9999999999999
 20
7.00000000000011
 30
0
 11
9.000000000000012
 21
7
 31
0
  0
LINE
  8
1
 62
7
 10
-10.9999999999999
 20
12.5
 30
0
 11
-10.9999999999999
 21
7.00000000000011
 31
0
  0
LINE
  8
1
 62
7
 10
14.00000000000001
 20
20
 30
0
 11
14.0000000000001
 21
29.50000000000001
 31
0
  0
LINE
  8
1
 62
7
 10
15.00000000000001
 20
20
 30
0
 11
15.00000000000001
 21
-20
 31
0
  0
LINE
  8
1
 62
3
 10
18.08282950123639
 20
10
 30
0
 11
-14.3272811335588
 21
10
 31
0
  0
LINE
  8
1
 62
7
 10
14.00000000000001
 20
-29.5
 30
0
 11
14.00000000000001
 21
-20.00000000000012
 31
0
  0
LINE
  8
1
 62
7
 10
41.00000000000021
 20
30.50000000000001
 30
0
 11
15.0000000000001
 21
30.50000000000001
 31
0
  0
LINE
  8
1
 62
7
 10
41.00000000000021
 20
-30.5
 30
0
 11
15.00000000000001
 21
-30.5
 31
0
  0
LINE
  8
0
 62
3
 10
48.00000000000021
 20
-24.75000000000006
 30
0
 11
10.5321770138192
 21
-24.75000000000006
 31
0
  0
LINE
  8
0
 62
3
 10
9.883373556306212
 20
24.74999999999988
 30
0
 11
48.00000000000021
 21
24.75000000000001
 31
0
  0
LINE
  8
1
 62
3
 10
12.19339818226539
 20
0
 30
0
 11
81.0996915907634
 21
0
 31
0
  0
LINE
  8
1
 62
7
 10
44.33360848093702
 20
-21.29596647899229
 30
0
 11
43.10871557427498
 21
-21.2503805301909
 31
0
  0
LINE
  8
1
 62
7
 10
44.333608480937
 20
-28.20403352100784
 30
0
 11
43.10871557427497
 21
-28.24961946980925
 31
0
  0
LINE
  8
1
 62
7
 10
44.33360848093702
 20
28.20403352100775
 30
0
 11
43.10871557427498
 21
28.24961946980917
 31
0
  0
LINE
  8
1
 62
7
 10
44.333608480937
 20
21.29596647899222
 30
0
 11
43.10871557427497
 21
21.25038053019081
 31
0
  0
LINE
  8
1
 62
7
 10
41.00000000000021
 20
30.00000000000001
 30
0
 11
43.00000000000021
 21
30.00000000000001
 31
0
  0
LINE
  8
1
 62
7
 10
41.00000000000021
 20
-30
 30
0
 11
43.00000000000021
 21
-30
 31
0
  0
LINE
  8
1
 62
7
 10
4.840572873935093
 20
13.00000000000023
 30
0
 11
8.999999999999902
 21
13.00000000000039
 31
0
  0
LINE
  8
1
 62
7
 10
72.95457794793821
 20
0.8262476076185994
 30
0
 11
72.95457794793821
 21
-0.8584318988718565
 31
0
  0
LINE
  8
1
 62
7
 10
73.04875257873583
 20
0.7843922161530408
 30
0
 11
73.04875257873583
 21
-0.7956488116735727
 31
0
  0
LINE
  8
1
 62
7
 10
72.50000000000021
 20
-2
 30
0
 11
75.00000000000021
 21
-2
 31
0
  0
LINE
  8
1
 62
7
 10
72.50000000000021
 20
-1
 30
0
 11
75.00000000000021
 21
-1
 31
0
  0
LINE
  8
1
 62
7
 10
75.00000000000021
 20
1
 30
0
 11
75.00000000000021
 21
-1
 31
0
  0
LINE
  8
1
 62
7
 10
72.50000000000021
 20
1
 30
0
 11
75.00000000000021
 21
1
 31
0
  0
LINE
  8
1
 62
7
 10
72.50000000000021
 20
2
 30
0
 11
75.00000000000021
 21
2
 31
0
  0
LINE
  8
1
 62
7
 10
72.13241740795824
 20
1.100000000000021
 30
0
 11
76.50000000000021
 21
1.100000000000021
 31
0
  0
LINE
  8
1
 62
7
 10
72.13241740795824
 20
-1.099999999999966
 30
0
 11
76.50000000000021
 21
-1.099999999999966
 31
0
  0
LINE
  8
1
 62
7
 10
75.00000000000021
 20
-2
 30
0
 11
75.00000000000021
 21
-12.70000000000011
 31
0
  0
LINE
  8
1
 62
7
 10
75.00000000000021
 20
12.70000000000005
 30
0
 11
75.00000000000021
 21
2
 31
0
  0
LINE
  8
1
 62
7
 10
43.00000000000021
 20
30.00000000000001
 30
0
 11
43.00000000000021
 21
-30
 31
0
  0
LINE
  8
1
 62
7
 10
9.000000000000012
 20
19
 30
0
 11
9.000000000000101
 21
1.0001839906908
 31
0
  0
LINE
  8
1
 62
7
 10
76.50000000000021
 20
12.69999999999987
 30
0
 11
76.50000000000021
 21
-12.69999999999999
 31
0
  0
LINE
  8
1
 62
7
 10
87.29559716917035
 20
-1.199999999999989
 30
0
 11
91.98468172387183
 21
-1.199999999999989
 31
0
  0
LINE
  8
1
 62
7
 10
87.29559716917035
 20
1.199999999999875
 30
0
 11
91.98468172387183
 21
1.199999999999989
 31
0
  0
LINE
  8
1
 62
7
 10
87.29559716917035
 20
0
 30
0
 11
91.98468172387182
 21
0
 31
0
  0
LINE
  8
1
 62
7
 10
84.79559716917035
 20
1.200000000000045
 30
0
 11
84.27394669805334
 21
1.200000000000045
 31
0
  0
LINE
  8
1
 62
7
 10
83.81106902780127
 20
1.510938469322923
 30
0
 11
80.82614829352517
 21
6.106824979732778
 31
0
  0
LINE
  8
1
 62
7
 10
82.81398915369435
 20
0.2851178024483261
 30
0
 11
79.51903437114332
 21
5.600417538286194
 31
0
  0
LINE
  8
1
 62
7
 10
79.43751528276833
 20
7.039640387701525
 30
0
 11
76.50000000000021
 21
7.039640387701525
 31
0
  0
LINE
  8
1
 62
7
 10
79.02956293441228
 20
5.800000000000011
 30
0
 11
76.50000000000021
 21
5.800000000000011
 31
0
  0
LINE
  8
1
 62
7
 10
84.27394669805334
 20
-1.200000000000045
 30
0
 11
84.79559716917035
 21
-1.200000000000045
 31
0
  0
LINE
  8
1
 62
7
 10
80.82614829352517
 20
-6.106824979732778
 30
0
 11
83.81106902780127
 21
-1.510938469322923
 31
0
  0
LINE
  8
1
 62
7
 10
76.50000000000021
 20
-7.039640387701525
 30
0
 11
79.43751528276833
 21
-7.039640387701525
 31
0
  0
LINE
  8
1
 62
7
 10
79.51903437114332
 20
-5.600417538286194
 30
0
 11
82.81398915369435
 21
-0.2851178024484398
 31
0
  0
LINE
  8
1
 62
7
 10
76.50000000000021
 20
-5.800000000000011
 30
0
 11
79.02956293441228
 21
-5.800000000000011
 31
0
  0
LINE
  8
1
 62
7
 10
83.51323406331036
 20
0
 30
0
 11
84.79559716917035
 21
0
 31
0
  0
LINE
  8
1
 62
7
 10
84.79559716917035
 20
-1.648112696003864
 30
0
 11
87.29559716917035
 21
-1.648112696003864
 31
0
  0
LINE
  8
1
 62
7
 10
88.18548966995419
 20
1.412715535701466
 30
0
 11
88.05667166229021
 21
4.123731477860701
 31
0
  0
LINE
  8
1
 62
7
 10
87.55723516286433
 20
4.600000000000136
 30
0
 11
84.53395917547617
 21
4.600000000000136
 31
0
  0
LINE
  8
1
 62
7
 10
84.03452267605027
 20
4.123731477860701
 30
0
 11
83.90570466838538
 21
1.412715535701466
 31
0
  0
LINE
  8
1
 62
7
 10
87.29559716917035
 20
-1.648112696003864
 30
0
 11
87.29559716917035
 21
1.199999999999875
 31
0
  0
LINE
  8
1
 62
7
 10
84.79559716917035
 20
1.200000000000045
 30
0
 11
84.79559716917035
 21
-1.648112696003864
 31
0
  0
LINE
  8
1
 62
7
 10
84.27394669805334
 20
1.200000000000045
 30
0
 11
87.98589429137132
 21
1.200000000000045
 31
0
  0
ARC
  8
1
 62
7
 10
-91.00294117647047
 20
13.50294117647059
 30
0
 40
0.7029473295325305
 50
270.2397298960806
 51
359.760270103919
  0
ARC
  8
1
 62
7
 10
-88.9970588235293
 20
13.50294117647059
 30
0
 40
0.7029473295325518
 50
180.2397298960809
 51
270.2397298960806
  0
ARC
  8
1
 62
7
 10
-88.9970588235293
 20
11.49705882352939
 30
0
 40
0.7029473295325216
 50
89.76027010391938
 51
179.7602701039174
  0
ARC
  8
1
 62
7
 10
-91.00294117647047
 20
11.49705882352939
 30
0
 40
0.7029473295325519
 50
0.2397298960826468
 51
89.76027010391938
  0
ARC
  8
1
 62
7
 10
-132.0029411764705
 20
13.50294117647059
 30
0
 40
0.7029473295325306
 50
270.239729896083
 51
359.7602701039191
  0
ARC
  8
1
 62
7
 10
-129.9970588235293
 20
13.50294117647059
 30
0
 40
0.7029473295325234
 50
180.2397298960809
 51
270.239729896083
  0
ARC
  8
1
 62
7
 10
-129.9970588235293
 20
11.49705882352939
 30
0
 40
0.7029473295325217
 50
89.76027010391707
 51
179.7602701039173
  0
ARC
  8
1
 62
7
 10
-132.0029411764705
 20
11.49705882352939
 30
0
 40
0.7029473295326087
 50
0.2397298960826274
 51
89.76027010391707
  0
ARC
  8
1
 62
7
 10
-111.5029411764706
 20
-22.49705882352941
 30
0
 40
0.7029473295325306
 50
270.2397298960818
 51
359.760270103919
  0
ARC
  8
1
 62
7
 10
-109.4970588235294
 20
-22.49705882352941
 30
0
 40
0.7029473295325234
 50
180.2397298960809
 51
270.2397298960818
  0
ARC
  8
1
 62
7
 10
-109.4970588235294
 20
-24.50294117647061
 30
0
 40
0.7029473295325199
 50
89.76027010391822
 51
179.7602701039173
  0
ARC
  8
1
 62
7
 10
-111.5029411764706
 20
-24.50294117647061
 30
0
 40
0.7029473295325235
 50
0.2397298960826564
 51
89.76027010391822
  0
ARC
  8
1
 62
7
 10
37.60507042253543
 20
-24.73478246325702
 30
0
 40
7.999999999999994
 50
2.040035164553765
 51
21.50479479967071
  0
ARC
  8
1
 62
7
 10
37.60507042253543
 20
-24.76521753674312
 30
0
 40
8.000000000000005
 50
338.4952052003293
 51
357.9599648354464
  0
ARC
  8
1
 62
7
 10
46.47500000000028
 20
-24.75000000000006
 30
0
 40
0.9250000000000673
 50
161.0753555839502
 51
198.9246444160499
  0
ARC
  8
1
 62
7
 10
37.60507042253543
 20
24.76521753674304
 30
0
 40
7.999999999999994
 50
2.040035164553765
 51
21.50479479967064
  0
ARC
  8
1
 62
7
 10
37.60507042253543
 20
24.73478246325693
 30
0
 40
8.000000000000002
 50
338.4952052003294
 51
357.9599648354463
  0
ARC
  8
1
 62
7
 10
46.47500000000028
 20
24.75000000000001
 30
0
 40
0.9250000000000641
 50
161.0753555839508
 51
198.9246444160515
  0
ARC
  8
1
 62
7
 10
0.9999999999999023
 20
27.50000000000001
 30
0
 40
15.00000000000001
 50
270
 51
284.8351115819793
  0
ARC
  8
1
 62
7
 10
72.43863017054001
 20
-1.5
 30
0
 40
0.5037521771347242
 50
83.00253449784825
 51
276.9974655021518
  0
ARC
  8
1
 62
7
 10
72.43863017054001
 20
1.5
 30
0
 40
0.5037521771347242
 50
83.00253449784825
 51
276.9974655021518
  0
ARC
  8
1
 62
7
 10
43.50000000000021
 20
17.5
 30
0
 40
0.5000000000000142
 50
180
 51
270
  0
ARC
  8
1
 62
7
 10
43.50000000000021
 20
-17.50000000000001
 30
0
 40
0.5
 50
90
 51
180
  0
CIRCLE
  8
1
 62
7
 10
-110.5
 20
-23.5
 30
0
 40
2.999999999999816
  0
CIRCLE
  8
1
 62
7
 10
-110.5
 20
10
 30
0
 40
3
  0
CIRCLE
  8
1
 62
7
 10
-110.5
 20
10
 30
0
 40
5.249999999999901
  0
CIRCLE
  8
1
 62
7
 10
-110.5
 20
10
 30
0
 40
9.0000000000001
  0
CIRCLE
  8
1
 62
7
 10
-135.2499999999999
 20
-24.75
 30
0
 40
5.75
  0
CIRCLE
  8
1
 62
7
 10
-85.74999999999989
 20
-24.75
 30
0
 40
5.75
  0
CIRCLE
  8
1
 62
7
 10
-85.74999999999989
 20
24.75
 30
0
 40
5.75
  0
CIRCLE
  8
1
 62
7
 10
-135.2499999999999
 20
24.75
 30
0
 40
5.75
  0
CIRCLE
  8
1
 62
3
 10
-85.74999999999989
 20
-24.75
 30
0
 40
2
  0
CIRCLE
  8
1
 62
7
 10
-85.74999999999989
 20
-24.75
 30
0
 40
1.625
  0
CIRCLE
  8
1
 62
7
 10
-135.2499999999999
 20
-24.75
 30
0
 40
1.625
  0
CIRCLE
  8
1
 62
3
 10
-135.2499999999999
 20
-24.75
 30
0
 40
2
  0
CIRCLE
  8
1
 62
7
 10
-135.2499999999999
 20
24.75
 30
0
 40
1.625
  0
CIRCLE
  8
1
 62
3
 10
-135.2499999999999
 20
24.75
 30
0
 40
2
  0
CIRCLE
  8
1
 62
7
 10
-85.74999999999989
 20
24.75
 30
0
 40
1.625
  0
CIRCLE
  8
1
 62
3
 10
-85.74999999999989
 20
24.75
 30
0
 40
2
  0
CIRCLE
  8
1
 62
7
 10
-130.9999999999999
 20
12.5
 30
0
 40
2.999999999999985
  0
CIRCLE
  8
1
 62
7
 10
-89.99999999999989
 20
12.5
 30
0
 40
3.000000000000046
  0
POLYLINE
  8
1
 62
2
 66
1
  0
VERTEX
  8
1
 10
91.98468172387183
 20
1.199999999999989
 30
0
 42
-0.05436175073866433
  0
VERTEX
  8
1
 10
92.13514764957428
 20
1.020660596836399
 30
0
 42
-0.06918166927171912
  0
VERTEX
  8
1
 10
92.21667217883335
 20
0.8458517349041664
 30
0
 42
-0.07251555931778791
  0
VERTEX
  8
1
 10
92.24052696437458
 20
0.67443725581148
 30
0
 42
-0.05966672198141412
  0
VERTEX
  8
1
 10
92.2179836589235
 20
0.5052810011665299
 30
0
 42
-0.03996178692719241
  0
VERTEX
  8
1
 10
92.16031391520566
 20
0.3372468125775058
 30
0
 42
-0.02183926344434821
  0
VERTEX
  8
1
 10
92.07878938594661
 20
0.1691985316525974
 30
0
 42
-0.006803853941267714
  0
VERTEX
  8
1
 10
91.98468172387183
 20
-5.051514762044462e-015
 30
0
 42
0.005650400506468845
  0
VERTEX
  8
1
 10
91.89396618318475
 20
-0.162553544242098
 30
0
 42
0.01759122285957742
  0
VERTEX
  8
1
 10
91.81233581974385
 20
-0.3261657055970183
 30
0
 42
0.03200310916511149
  0
VERTEX
  8
1
 10
91.75006006817354
 20
-0.4898304896828724
 30
0
 42
0.05017479070444821
  0
VERTEX
  8
1
 10
91.71740836309824
 20
-0.652541902117766
 30
0
 42
0.06972643429708562
  0
VERTEX
  8
1
 10
91.72465013914224
 20
-0.8132939485198053
 30
0
 42
0.08058707428320003
  0
VERTEX
  8
1
 10
91.78205483092998
 20
-0.971080634507097
 30
0
 42
0.07380277377871414
  0
VERTEX
  8
1
 10
91.89989187308578
 20
-1.124895965697747
 30
0
  0
VERTEX
  8
1
 10
91.98468172387183
 20
-1.199999999999989
 30
0
  0
SEQEND
  8
1
  0
POLYLINE
  8
1
 62
2
 66
1
  0
VERTEX
  8
1
 10
105.2962367797537
 20
1.19999999999987
 30
0
 42
-0.054361750738804
  0
VERTEX
  8
1
 10
105.4467027054561
 20
1.020660596836325
 30
0
 42
-0.0691816692717423
  0
VERTEX
  8
1
 10
105.5282272347152
 20
0.845851734904123
 30
0
 42
-0.07251555931787491
  0
VERTEX
  8
1
 10
105.5520820202564
 20
0.6744372558114578
 30
0
 42
-0.05966672198141781
  0
VERTEX
  8
1
 10
105.5295387148053
 20
0.5052810011665205
 30
0
 42
-0.03996178692719151
  0
VERTEX
  8
1
 10
105.4718689710875
 20
0.337246812577503
 30
0
 42
-0.02183926344441503
  0
VERTEX
  8
1
 10
105.3903444418284
 20
0.1691985316525971
 30
0
 42
-0.00680385394139791
  0
VERTEX
  8
1
 10
105.2962367797537
 20
-5.051514762044462e-015
 30
0
 42
0.005650400506734452
  0
VERTEX
  8
1
 10
105.2055212390666
 20
-0.162553544242098
 30
0
 42
0.0175912228595751
  0
VERTEX
  8
1
 10
105.1238908756257
 20
-0.3261657055970183
 30
0
 42
0.03200310916496785
  0
VERTEX
  8
1
 10
105.0616151240554
 20
-0.4898304896828724
 30
0
 42
0.05017479070461135
  0
VERTEX
  8
1
 10
105.0289634189801
 20
-0.652541902117766
 30
0
 42
0.06972643429691089
  0
VERTEX
  8
1
 10
105.0362051950241
 20
-0.8132939485198053
 30
0
 42
0.08058707428335753
  0
VERTEX
  8
1
 10
105.0936098868119
 20
-0.971080634507097
 30
0
 42
0.07380277377891104
  0
VERTEX
  8
1
 10
105.2114469289677
 20
-1.124895965697747
 30
0
  0
VERTEX
  8
1
 10
105.2962367797537
 20
-1.199999999999989
 30
0
  0
SEQEND
  8
1
  0
ARC
  8
1
 62
7
 10
-91.39999999999986
 20
12.69999999999999
 30
0
 40
0.09999999999998899
 50
90
 51
180
  0
ARC
  8
1
 62
7
 10
-91.39999999999986
 20
12.29999999999998
 30
0
 40
0.1000000000000227
 50
180
 51
270
  0
ARC
  8
1
 62
7
 10
-90.19999999999993
 20
11.09999999999999
 30
0
 40
0.09999999999990905
 50
180
 51
270
  0
ARC
  8
1
 62
7
 10
-89.79999999999984
 20
11.09999999999999
 30
0
 40
0.09999999999999076
 50
270
 51
0
  0
ARC
  8
1
 62
7
 10
-88.59999999999991
 20
12.29999999999998
 30
0
 40
0.09999999999998899
 50
270
 51
0
  0
ARC
  8
1
 62
7
 10
-88.59999999999991
 20
12.69999999999999
 30
0
 40
0.1000000000000227
 50
0
 51
90
  0
ARC
  8
1
 62
7
 10
-89.79999999999984
 20
13.90000000000001
 30
0
 40
0.09999999999990905
 50
0
 51
90
  0
ARC
  8
1
 62
7
 10
-90.19999999999993
 20
13.90000000000001
 30
0
 40
0.09999999999999076
 50
90
 51
180
  0
ARC
  8
1
 62
7
 10
-132.3999999999999
 20
12.69999999999999
 30
0
 40
0.09999999999998899
 50
90
 51
180
  0
ARC
  8
1
 62
7
 10
-132.3999999999999
 20
12.29999999999998
 30
0
 40
0.09999999999999432
 50
180
 51
270
  0
ARC
  8
1
 62
7
 10
-131.1999999999999
 20
11.09999999999999
 30
0
 40
0.09999999999990905
 50
180
 51
270
  0
ARC
  8
1
 62
7
 10
-130.7999999999998
 20
11.09999999999999
 30
0
 40
0.09999999999999076
 50
270
 51
0
  0
ARC
  8
1
 62
7
 10
-129.5999999999999
 20
12.29999999999998
 30
0
 40
0.09999999999998899
 50
270
 51
0
  0
ARC
  8
1
 62
7
 10
-129.5999999999999
 20
12.69999999999999
 30
0
 40
0.1000000000000227
 50
0
 51
90
  0
ARC
  8
1
 62
7
 10
-130.7999999999998
 20
13.90000000000001
 30
0
 40
0.09999999999990905
 50
0
 51
90
  0
ARC
  8
1
 62
7
 10
-131.1999999999999
 20
13.90000000000001
 30
0
 40
0.09999999999999076
 50
90
 51
180
  0
ARC
  8
1
 62
7
 10
-111.9
 20
-23.30000000000001
 30
0
 40
0.09999999999999076
 50
90
 51
180
  0
ARC
  8
1
 62
7
 10
-111.9
 20
-23.70000000000002
 30
0
 40
0.09999999999999432
 50
180
 51
270
  0
ARC
  8
1
 62
7
 10
-110.7
 20
-24.90000000000001
 30
0
 40
0.09999999999999432
 50
180
 51
270
  0
ARC
  8
1
 62
7
 10
-110.3
 20
-24.90000000000001
 30
0
 40
0.09999999999999076
 50
270
 51
0
  0
ARC
  8
1
 62
7
 10
-109.1
 20
-23.70000000000002
 30
0
 40
0.09999999999999076
 50
270
 51
0
  0
ARC
  8
1
 62
7
 10
-109.1
 20
-23.30000000000001
 30
0
 40
0.09999999999999432
 50
0
 51
90
  0
ARC
  8
1
 62
7
 10
-110.3
 20
-22.09999999999999
 30
0
 40
0.09999999999999432
 50
0
 51
90
  0
ARC
  8
1
 62
7
 10
-110.7
 20
-22.09999999999999
 30
0
 40
0.09999999999999076
 50
90
 51
180
  0
ARC
  8
1
 62
7
 10
45.00000000000011
 20
-11.69999999999999
 30
0
 40
1
 50
180
 51
270
  0
ARC
  8
1
 62
7
 10
45.0000000000001
 20
11.69999999999987
 30
0
 40
1
 50
90
 51
180
  0
ARC
  8
1
 62
7
 10
78.4000000000003
 20
-4.900000000000034
 30
0
 40
0.09999999999996589
 50
270
 51
0
  0
ARC
  8
1
 62
7
 10
78.4000000000003
 20
4.899999999999981
 30
0
 40
0.09999999999990905
 50
0
 51
90
  0
ARC
  8
1
 62
7
 10
15.0000000000001
 20
29.50000000000001
 30
0
 40
1
 50
90
 51
180
  0
ARC
  8
1
 62
7
 10
15.00000000000001
 20
20
 30
0
 40
1
 50
180
 51
270
  0
ARC
  8
1
 62
7
 10
15.00000000000001
 20
-20
 30
0
 40
0.9999999999998792
 50
90
 51
180.0000000000069
  0
ARC
  8
1
 62
7
 10
15.00000000000001
 20
-29.5
 30
0
 40
1
 50
180
 51
270
  0
ARC
  8
1
 62
7
 10
44.30385605972313
 20
-22.09541303344851
 30
0
 40
0.8000000000000082
 50
21.50479479967025
 51
87.86864827538297
  0
ARC
  8
1
 62
7
 10
44.30385605972313
 20
-27.40458696655162
 30
0
 40
0.800000000000007
 50
272.1313517246155
 51
338.4952052003291
  0
ARC
  8
1
 62
7
 10
43.10000000000021
 20
-28.15000000000007
 30
0
 40
0.09999999999999432
 50
180
 51
274.9999999999963
  0
ARC
  8
1
 62
7
 10
43.10000000000022
 20
-21.35000000000007
 30
0
 40
0.09999999999999486
 50
85.00000000000323
 51
180
  0
ARC
  8
1
 62
7
 10
44.30385605972313
 20
27.40458696655154
 30
0
 40
0.8000000000000082
 50
21.50479479967025
 51
87.86864827538295
  0
ARC
  8
1
 62
7
 10
44.30385605972313
 20
22.09541303344843
 30
0
 40
0.7999999999999964
 50
272.1313517246155
 51
338.4952052003297
  0
ARC
  8
1
 62
7
 10
43.10000000000021
 20
21.34999999999998
 30
0
 40
0.09999999999999432
 50
180
 51
274.9999999999968
  0
ARC
  8
1
 62
7
 10
43.10000000000022
 20
28.14999999999998
 30
0
 40
0.1000000000000126
 50
85.00000000000411
 51
180
  0
ARC
  8
1
 62
7
 10
43.5000000000002
 20
16.5
 30
0
 40
0.5000000000000142
 50
0
 51
90
  0
ARC
  8
1
 62
7
 10
43.5000000000002
 20
-16.50000000000001
 30
0
 40
0.5
 50
270
 51
0
  0
ARC
  8
1
 62
7
 10
84.27394669805334
 20
1.700000000000045
 30
0
 40
0.49999999999996
 50
202.2174691218343
 51
270
  0
ARC
  8
1
 62
7
 10
79.43751528276833
 20
5.539640387701525
 30
0
 40
1.500000000000416
 50
22.21746912182134
 51
90
  0
ARC
  8
1
 62
7
 10
79.02956293441228
 20
5.099999999999966
 30
0
 40
0.6999999999999955
 50
45.63354565636264
 51
90
  0
ARC
  8
1
 62
7
 10
84.27394669805334
 20
-1.700000000000045
 30
0
 40
0.5
 50
90
 51
157.7825308781657
  0
ARC
  8
1
 62
7
 10
79.43751528276833
 20
-5.539640387701525
 30
0
 40
1.5
 50
270
 51
337.7825308781787
  0
ARC
  8
1
 62
7
 10
79.02956293441228
 20
-5.099999999999966
 30
0
 40
0.7000000000000455
 50
270
 51
314.3664543436374
  0
ARC
  8
1
 62
7
 10
83.51323406331036
 20
1
 30
0
 40
1.000000000000108
 50
225.6335456563494
 51
270
  0
ARC
  8
1
 62
7
 10
83.51323406331036
 20
-1
 30
0
 40
1
 50
90
 51
134.3664543436552
  0
ARC
  8
1
 62
7
 10
87.98589429137132
 20
1.400000000000091
 30
0
 40
0.2000000000000459
 50
270
 51
3.645191185434999
  0
ARC
  8
1
 62
7
 10
84.53395917547617
 20
4.100000000000136
 30
0
 40
0.5
 50
90
 51
177.2795508940696
  0
ARC
  8
1
 62
7
 10
87.55723516286433
 20
4.100000000000136
 30
0
 40
0.5000000000002266
 50
2.720449105930522
 51
90
  0
ARC
  8
1
 62
7
 10
84.10530004696919
 20
1.400000000000091
 30
0
 40
0.2000000000004668
 50
176.3548088145821
 51
192.347065350661
  0
LINE
  8
1
 62
2
 10
73.23758990814713
 20
22.69999999999987
 30
0
 11
50.55584225375607
 21
22.69999999999987
 31
0
  0
LINE
  8
1
 62
2
 10
50.55584225375607
 20
22.69999999999987
 30
0
 11
57.7447348897524
 21
11.73327006289326
 31
0
  0
SOLID
  8
1
 62
2
 10
55.44056800356615
 20
14.4078049041479
 30
0
 11
56.21130114001198
 21
14.91303461261062
 31
0
 12
57.7447348897524
 22
11.73327006289326
 32
0
 13
57.7447348897524
 23
11.73327006289326
 33
0
  0
LINE
  8
1
 62
2
 10
186.9915661320341
 20
26.10463769237622
 30
0
 11
119.9632448277221
 21
26.10463769237622
 31
0
  0
LINE
  8
1
 62
2
 10
119.9632448277221
 20
26.10463769237622
 30
0
 11
110.7715980024971
 21
1.19999999999987
 31
0
  0
SOLID
  8
1
 62
2
 10
111.551171762562
 20
4.643048998939694
 30
0
 11
112.4157350849879
 21
4.323961413087592
 31
0
 12
110.7715980024971
 22
1.19999999999987
 32
0
 13
110.7715980024971
 23
1.19999999999987
 33
0
  0
LINE
  8
1
 62
2
 10
40.39122033463918
 20
40.5
 30
0
 11
17.70947268024812
 21
40.5
 31
0
  0
LINE
  8
1
 62
2
 10
17.70947268024812
 20
40.5
 30
0
 11
25.06945134825721
 21
31.5
 31
0
  0
SOLID
  8
1
 62
2
 10
22.49708075561908
 20
33.91769129348906
 30
0
 11
23.21047670997505
 21
34.50108896081171
 31
0
 12
25.06945134825721
 22
31.5
 32
0
 13
25.06945134825721
 23
31.5
 33
0
  0
TEXT
  8
1
 62
2
 10
-65.58589412299281
 20
-20.588
 30
0
 40
3.2
  1
(0.394    )
 50
90
 41
0.6300000000000001
 72
1
 73
2
 11
-67.18589412299282
 21
-9.499999999999998
 31
0
  0
TEXT
  8
1
 62
2
 10
-66.18589412299282
 20
-10.42256923055042
 30
0
 40
2
  1
%%p0.0197
 50
90
 41
0.63
 72
1
 73
2
 11
-67.18589412299282
 21
-4.752569230550419
 31
0
  0
TEXT
  8
1
 62
2
 10
101.8109434490085
 20
-38.29609284331383
 30
0
 40
2
  1
%%p0.591
 41
0.63
 72
1
 73
2
 11
106.8509434490085
 21
-37.29609284331383
 31
0
  0
TEXT
  8
1
 62
2
 10
91.12459967586631
 20
-38.89609284331383
 30
0
 40
3.2
  1
(5.906    )
 41
0.6300000000000001
 72
1
 73
2
 11
102.2125996758663
 21
-37.29609284331383
 31
0
  0
TEXT
  8
1
 62
2
 10
112.6471011467515
 20
-26.89115057035792
 30
0
 40
3.2
  1
(0.118)
 41
0.6300000000000001
 72
1
 73
2
 11
119.7031011467515
 21
-25.29115057035792
 31
0
  0
TEXT
  8
1
 62
2
 10
54.39037149575728
 20
23.71493706720238
 30
0
 40
3.2
  1
NAME PLATE
 41
0.54
 72
1
 73
2
 11
63.03037149575728
 21
25.31493706720238
 31
0
  0
TEXT
  8
1
 62
2
 10
80.43600000000031
 20
48.30961381709259
 30
0
 40
3.2
  1
(0.0787)
 41
0.6300000000000001
 72
1
 73
2
 11
88.50000000000031
 21
49.90961381709259
 31
0
  0
TEXT
  8
1
 62
2
 10
-12.05599999999993
 20
48.29519469168388
 30
0
 40
3.2
  1
(0.472)
 41
0.6300000000000001
 72
1
 73
2
 11
-4.999999999999927
 21
49.89519469168388
 31
0
  0
TEXT
  8
1
 62
2
 10
102.6999350247504
 20
-7.056000000000001
 30
0
 40
3.2
  1
(1DIA.)
 50
90
 41
0.6300000000000001
 72
1
 73
2
 11
101.0999350247504
 21
0
 31
0
  0
TEXT
  8
1
 62
2
 10
-17.27357886258739
 20
29.24080602710259
 30
0
 40
2
  1
%%p0.0118
 50
90
 41
0.63
 72
1
 73
2
 11
-18.27357886258739
 21
34.91080602710259
 31
0
  0
TEXT
  8
1
 62
2
 10
-16.78710883065761
 20
19.78446225396086
 30
0
 40
3.2
  1
(0.217    )
 50
90
 41
0.6300000000000001
 72
1
 73
2
 11
-18.38710883065761
 21
30.87246225396086
 31
0
  0
TEXT
  8
1
 62
2
 10
-29.7999999999999
 20
36.04580602710259
 30
0
 40
2
  1
 0
 50
90
 41
0.5850000000000001
  0
TEXT
  8
1
 62
2
 10
-27.3999999999999
 20
36.04580602710259
 30
0
 40
2
  1
-0.000787
 50
90
 41
0.5850000000000001
  0
TEXT
  8
1
 62
2
 10
-27.9999999999999
 20
16.73646225396086
 30
0
 40
3.2
  1
(0.236DIA.      )
 50
90
 41
0.6300000000000001
 72
1
 73
2
 11
-29.5999999999999
 21
33.87246225396086
 31
0
  0
TEXT
  8
1
 62
2
 10
120.379558905179
 20
27.38971452164839
 30
0
 40
3.5
  1
LEAD WIRES (RED,BLACK)
 41
0.9
 73
2
 11
120.379558905179
 21
29.13971452164839
 31
0
  0
TEXT
  8
1
 62
2
 10
120.379558905179
 20
20.29309253258662
 30
0
 40
3.5
  1
UL1007 AWG22
 41
0.9
 73
2
 11
120.379558905179
 21
22.04309253258662
 31
0
  0
TEXT
  8
1
 62
2
 10
-68.2597364447559
 20
-46.48481685313686
 30
0
 40
3.5
  1
(4-M4 DEPTH 0.236MAX)
 41
0.6570000000000001
 73
2
 11
-68.2597364447559
 21
-44.73481685313686
 31
0
  0
TEXT
  8
1
 62
2
 10
-6.555999999999857
 20
60.24037315737758
 30
0
 40
3.2
  1
(0.984)
 41
0.6300000000000001
 72
1
 73
2
 11
0.5000000000001439
 21
61.84037315737758
 31
0
  0
TEXT
  8
1
 62
2
 10
-121.588
 20
48.26368327390348
 30
0
 40
3.2
  1
(2.402SQU.)
 41
0.6300000000000001
 72
1
 73
2
 11
-110.5
 21
49.86368327390348
 31
0
  0
TEXT
  8
1
 62
2
 10
-121.588
 20
36.26368327390348
 30
0
 40
3.2
  1
(1.949    )
 41
0.6300000000000001
 72
1
 73
2
 11
-110.5
 21
37.86368327390348
 31
0
  0
TEXT
  8
1
 62
2
 10
-40.80132974381881
 20
17.78446225396086
 30
0
 40
3.2
  1
(0.709DIA.)
 50
90
 41
0.6300000000000001
 72
1
 73
2
 11
-42.40132974381881
 21
28.87246225396086
 31
0
  0
TEXT
  8
1
 62
2
 10
-111.9384551780371
 20
36.86368327390348
 30
0
 40
2
  1
%%p0.0118
 41
0.63
 72
1
 73
2
 11
-106.2684551780371
 21
37.86368327390348
 31
0
  0
TEXT
  8
1
 62
2
 10
-0.03999999999985882
 20
48.30961381709259
 30
0
 40
3.2
  1
(0.197)
 41
0.45
 72
1
 73
2
 11
5.000000000000142
 21
49.90961381709259
 31
0
  0
TEXT
  8
1
 62
2
 10
38.44400000000015
 20
60.24037315737758
 30
0
 40
3.2
  1
(2.461)
 41
0.6300000000000001
 72
1
 73
2
 11
45.50000000000014
 21
61.84037315737758
 31
0
  0
TEXT
  8
1
 62
2
 10
21.44400000000014
 20
48.30961381709259
 30
0
 40
3.2
  1
(1.142)
 41
0.6300000000000001
 72
1
 73
2
 11
28.50000000000014
 21
49.90961381709259
 31
0
  0
TEXT
  8
1
 62
2
 10
-53.58589412299282
 20
-11.088
 30
0
 40
3.2
  1
(1.949    )
 50
90
 41
0.6300000000000001
 72
1
 73
2
 11
-55.18589412299282
 21
0
 31
0
  0
TEXT
  8
1
 62
2
 10
-54.18589412299282
 20
-1.422569230550421
 30
0
 40
2
  1
%%p0.0118
 50
90
 41
0.63
 72
1
 73
2
 11
-55.18589412299282
 21
4.247430769449579
 31
0
  0
TEXT
  8
1
 62
2
 10
21.54400192224933
 20
41.51493706720251
 30
0
 40
3.2
  1
NAME PLATE
 41
0.54
 72
1
 73
2
 11
30.18400192224933
 21
43.11493706720251
 31
0
  0
TEXT
  8
1
 62
2
 10
-142.5
 20
93.5
 30
0
 40
5
  1
DME25B6H
 41
0.9
 72
1
 73
2
 11
-124.5
 21
96
 31
0
  0
DIMENSION
  8
1
  6
CONTINUOUS
 62
2
  2
*D0
  3
DMST_1
 10
76.50000000000023
 20
64.6774330152227
 30
0
 11
45.25000000000016
 21
67.2774330152227
 31
0
 12
0
 22
0
 32
0
 70
0
 13
14.0000000000001
 23
29.50000000000001
 33
0
 14
76.50000000000021
 24
12.69999999999987
 34
0
 53
0
  0
DIMENSION
  8
1
  6
CONTINUOUS
 62
2
  2
*D1
  3
DMST_1
 10
43.00000000000022
 20
52.4663625056694
 30
0
 11
28.50000000000016
 21
55.0663625056694
 31
0
 12
0
 22
0
 32
0
 70
0
 13
14.0000000000001
 23
29.50000000000001
 33
0
 14
43.00000000000021
 24
30.00000000000001
 34
0
 53
0
  0
DIMENSION
  8
1
  6
CONTINUOUS
 62
2
  2
*D2
  3
DMST_2
 10
-69.9462016085883
 20
0
 30
0
 11
-72.54620160858829
 21
-8.52885247127719
 31
0
 12
0
 22
0
 32
0
 70
0
 13
-101.4999999999999
 23
10
 33
0
 14
-79.99999999999989
 24
0
 34
0
 50
90
 53
0
  0
DIMENSION
  8
1
  6
CONTINUOUS
 62
2
  2
*D3
  3
DMST_3
 10
-57.8809956736108
 20
24.75
 30
0
 11
-60.4809956736108
 21
-2.775557561562891e-016
 31
0
 12
0
 22
0
 32
0
 70
0
 13
-79.99999999999989
 23
-24.75
 33
0
 14
-79.99999999999989
 24
24.75
 34
0
 50
90
 53
0
  0
DIMENSION
  8
1
  6
CONTINUOUS
 62
2
  2
*D4
  3
DMST_3
 10
-135.2499999999999
 20
40.4603039403511
 30
0
 11
-110.4999999999999
 21
43.0603039403511
 31
0
 12
0
 22
0
 32
0
 70
0
 13
-85.74999999999989
 23
30.5
 33
0
 14
-135.2499999999999
 24
30.5
 34
0
 53
0
  0
DIMENSION
  8
1
  6
CONTINUOUS
 62
2
  2
*D5
  3
DMST_4
 10
-79.99999999999989
 20
52.3174890833463
 30
0
 11
-110.4999999999999
 21
54.9174890833463
 31
0
 12
0
 22
0
 32
0
 70
0
  1
üá<>
 13
-141
 23
24.75
 33
0
 14
-79.99999999999989
 24
24.75
 34
0
 53
0
  0
DIMENSION
  8
1
  6
CONTINUOUS
 62
2
  2
*D6
  3
DMST_5
 10
78.50000000000021
 20
52.4663625056694
 30
0
 11
88.2072192063291
 21
55.0663625056694
 31
0
 12
0
 22
0
 32
0
 70
0
  1
(<>
 13
76.50000000000021
 23
12.69999999999987
 33
0
 14
78.50000000000021
 24
4.899999999999981
 34
0
 53
0
  0
DIMENSION
  8
1
  6
CONTINUOUS
 62
2
  2
*D7
  3
DMST_6
 10
124.6663646118964
 20
-22.70000000000003
 30
0
 11
119.3092297168852
 21
-20.10000000000003
 31
0
 12
0
 22
0
 32
0
 70
0
  1
(<>
 13
127.6663646118964
 23
-0.9499999999999886
 33
0
 14
124.6663646118964
 24
-1.199999999999989
 34
0
 53
0
  0
DIMENSION
  8
1
  6
CONTINUOUS
 62
2
  2
*D8
  3
DMST_7
 10
76.50000000000021
 20
-34.6982017272852
 30
0
 11
102.0831823059483
 21
-32.0982017272852
 31
0
 12
0
 22
0
 32
0
 70
0
  1
150
 13
127.6663646118964
 23
-0.9499999999999886
 33
0
 14
76.50000000000021
 24
-12.69999999999999
 34
0
 53
0
  0
DIMENSION
  8
1
  6
CONTINUOUS
 62
2
  2
*D9
  3
DMST_4
 10
98.48619935046639
 20
12.69999999999987
 30
0
 11
95.8861993504664
 21
-5.861977570020827e-014
 31
0
 12
0
 22
0
 32
0
 70
0
  1
âË<>
 13
76.50000000000021
 23
-12.69999999999999
 33
0
 14
76.50000000000021
 24
12.69999999999987
 34
0
 50
90
 53
0
  0
DIMENSION
  8
1
  6
CONTINUOUS
 62
2
  2
*D10
  3
DMST_3
 10
-20.9720487237373
 20
12.5
 30
0
 11
-23.5720487237373
 21
30.5423428566486
 31
0
 12
0
 22
0
 32
0
 70
0
 13
-10.9999999999999
 23
7.00000000000011
 33
0
 14
-10.9999999999999
 24
12.5
 34
0
 50
90
 53
0
  0
DIMENSION
  8
1
  6
CONTINUOUS
 62
2
  2
*D11
  3
DMST_4
 10
14.00000000000011
 20
64.60501291049981
 30
0
 11
1.500000000000105
 21
67.2050129104998
 31
0
 12
0
 22
0
 32
0
 70
0
 13
-10.9999999999999
 23
12.5
 33
0
 14
14.0000000000001
 24
29.50000000000001
 34
0
 53
0
  0
DIMENSION
  8
1
  6
CONTINUOUS
 62
2
  2
*D12
  3
DMST_8
 10
-32.9769787921154
 20
13.00000000000023
 30
0
 11
-36.3769787921154
 21
32.6439972817998
 31
0
 12
0
 22
0
 32
0
 70
0
  1
âË<>
 13
-10.9999999999999
 23
7.00000000000011
 33
0
 14
4.840572873935093
 24
13.00000000000023
 34
0
 50
90
 53
0
  0
DIMENSION
  8
1
  6
CONTINUOUS
 62
2
  2
*D13
  3
DMST_4
 10
0.9999999999999023
 20
52.4663625056694
 30
0
 11
-4.999999999999999
 21
55.0663625056694
 31
0
 12
0
 22
0
 32
0
 70
0
 13
-10.9999999999999
 23
12.5
 33
0
 14
0.9999999999999023
 24
12.5
 34
0
 53
0
  0
DIMENSION
  8
1
  6
CONTINUOUS
 62
2
  2
*D14
  3
DMST_4
 10
9.000000000000012
 20
52.4663625056694
 30
0
 11
4.39870643904857
 21
55.0663625056694
 31
0
 12
0
 22
0
 32
0
 70
0
 13
14.0000000000001
 23
29.50000000000001
 33
0
 14
9.000000000000012
 24
19
 34
0
 53
0
  0
DIMENSION
  8
1
  6
CONTINUOUS
 62
2
  2
*D15
  3
DMST_4
 10
-44.9967980879082
 20
19
 30
0
 11
-47.5967980879082
 21
27.9818553119462
 31
0
 12
0
 22
0
 32
0
 70
0
  1
âË<>
 13
9.000000000000101
 23
1.0001839906908
 33
0
 14
9.000000000000012
 24
19
 34
0
 50
90
 53
0
  0
INSERT
  8
0
  2
___R___O_______R
 10
0.5000000000000568
 20
-3.75
 30
0
  0
INSERT
  8
1
  2
*D16
 10
0
 20
0
 30
0
  0
ENDSEC
  0
EOF
