  0
SECTION
  2
HEADER
  9
$ACADVER
  1
AC1009
  9
$INSBASE
 10
0
 20
0
  9
$EXTMIN
 10
-194.5
 20
-146
  9
$EXTMAX
 10
194.5
 20
146
  9
$LIMMIN
 10
-194.5
 20
-146
  9
$LIMMAX
 10
194.5
 20
146
  9
$VIEWCTR
 10
10
 20
10
  9
$VIEWSIZE
 40
10
  9
$SNAPMODE
 70
0
  9
$SNAPUNIT
 10
1
 20
1
  9
$SNAPBASE
 10
0
 20
0
  9
$SNAPANG
 50
0
  9
$SNAPSTYLE
 70
0
  9
$SNAPISOPAIR
 70
0
  9
$GRIDMODE
 70
0
  9
$GRIDUNIT
 10
0
 20
0
  9
$ORTHOMODE
 70
0
  9
$REGENMODE
 70
1
  9
$FILLMODE
 70
1
  9
$QTEXTMODE
 70
0
  9
$DRAGMODE
 70
2
  9
$LTSCALE
 40
1
  9
$OSMODE
 70
0
  9
$ATTMODE
 70
1
  9
$TEXTSIZE
 40
3.5
  9
$TRACEWID
 40
0.5
  9
$TEXTSTYLE
  7
STANDARD
  9
$CLAYER
  8
0
  9
$CELTYPE
  6
BYLAYER
  9
$CECOLOR
 62
256
  9
$DIMSCALE
 40
1
  9
$DIMASZ
 40
0.18
  9
$DIMEXO
 40
0.0625
  9
$DIMDLI
 40
0.38
  9
$DIMRND
 40
0
  9
$DIMDLE
 40
0
  9
$DIMEXE
 40
0.18
  9
$DIMTP
 40
0
  9
$DIMTM
 40
0
  9
$DIMTXT
 40
0.18
  9
$DIMCEN
 40
0.09
  9
$DIMTSZ
 40
0
  9
$DIMTOL
 70
0
  9
$DIMLIM
 70
0
  9
$DIMTIH
 70
1
  9
$DIMTOH
 70
1
  9
$DIMSE1
 70
0
  9
$DIMSE2
 70
0
  9
$DIMTAD
 70
0
  9
$DIMZIN
 70
0
  9
$DIMBLK
  1

  9
$DIMASO
 70
1
  9
$DIMSHO
 70
1
  9
$DIMPOST
  1

  9
$DIMAPOST
  1

  9
$DIMALT
 70
0
  9
$DIMALTD
 70
2
  9
$DIMALTF
 40
25.4
  9
$DIMLFAC
 40
1
  9
$DIMTOFL
 70
0
  9
$DIMTVP
 40
0
  9
$DIMTIX
 70
0
  9
$DIMSOXD
 70
0
  9
$DIMSAH
 70
0
  9
$DIMBLK1
  1

  9
$DIMBLK2
  1

  9
$DIMSTYLE
  2
*UNNAMED
  9
$DIMCLRD
 70
0
  9
$DIMCLRE
 70
0
  9
$DIMCLRT
 70
0
  9
$DIMTFAC
 40
1
  9
$DIMGAP
 40
0.09
  9
$LUNITS
 70
2
  9
$LUPREC
 70
4
  9
$AXISMODE
 70
0
  9
$AXISUNIT
 10
0
 20
0
  9
$SKETCHINC
 40
0.1
  9
$FILLETRAD
 40
2
  9
$AUNITS
 70
0
  9
$AUPREC
 70
0
  9
$MENU
  1
ACAD
  9
$ELEVATION
 40
0
  9
$THICKNESS
 40
0
  9
$VIEWDIR
 10
0
 20
0
 30
1
  9
$LIMCHECK
 70
0
  9
$BLIPMODE
 70
1
  9
$CHAMFERA
 40
0
  9
$CHAMFERB
 40
0
  9
$FASTZOOM
 70
1
  9
$SKPOLY
 70
0
  9
$ANGBASE
 50
0
  9
$ANGDIR
 70
0
  9
$PDMODE
 70
0
  9
$PDSIZE
 40
0
  9
$PLINEWID
 40
0
  9
$COORDS
 70
2
  0
ENDSEC
  0
SECTION
  2
TABLES
  0
TABLE
  2
DIMSTYLE
 70
10
  0
DIMSTYLE
  2
DMST_1
 70
0
  3

  4

  5

  6

  7

 40
1
 41
3.2
 42
1
 43
7
 44
1
 45
0
 46
0
 47
0
 48
0
140
3.2
141
0
142
0
143
25.4
144
1
145
0
146
1
147
0.09
 71
0
 72
0
 73
0
 74
0
 75
0
 76
0
 77
1
 78
9
170
0
171
2
172
0
173
0
174
0
175
0
176
2
177
2
178
2
  0
DIMSTYLE
  2
DMST_2
 70
0
  3

  4

  5

  6

  7

 40
1
 41
3.2
 42
1
 43
7
 44
1
 45
0
 46
0
 47
0.5
 48
0.5
140
3.2
141
0
142
0
143
25.4
144
1
145
0
146
0.6
147
0.09
 71
1
 72
0
 73
0
 74
0
 75
0
 76
0
 77
1
 78
9
170
0
171
2
172
0
173
0
174
0
175
0
176
2
177
2
178
2
  0
DIMSTYLE
  2
DMST_3
 70
0
  3

  4

  5

  6

  7

 40
1
 41
3.2
 42
1
 43
7
 44
1
 45
0
 46
0
 47
0.2
 48
0.2
140
3.2
141
0
142
0
143
25.4
144
1
145
0
146
0.6
147
0.09
 71
1
 72
0
 73
0
 74
0
 75
0
 76
0
 77
1
 78
9
170
0
171
2
172
0
173
0
174
0
175
0
176
2
177
2
178
2
  0
DIMSTYLE
  2
DMST_4
 70
0
  3

  4

  5

  6

  7

 40
1
 41
3.2
 42
1
 43
7
 44
1
 45
0
 46
0
 47
0.1
 48
0.1
140
3.2
141
0
142
0
143
25.4
144
1
145
0
146
0.6
147
0.09
 71
1
 72
0
 73
0
 74
0
 75
0
 76
0
 77
1
 78
9
170
0
171
2
172
0
173
0
174
0
175
0
176
2
177
2
178
2
  0
DIMSTYLE
  2
DMST_5
 70
0
  3
)
  4

  5

  6

  7

 40
1
 41
3
 42
1
 43
7
 44
1
 45
0
 46
0
 47
0
 48
0
140
3.2
141
0
142
0
143
25.4
144
1
145
0
146
1
147
0.09
 71
0
 72
0
 73
1
 74
1
 75
0
 76
0
 77
1
 78
9
170
0
171
2
172
0
173
0
174
0
175
0
176
2
177
2
178
2
  0
DIMSTYLE
  2
DMST_6
 70
0
  3

  4

  5

  6

  7

 40
1
 41
3
 42
1
 43
7
 44
1
 45
0
 46
0
 47
15
 48
15
140
3.2
141
0
142
0
143
25.4
144
1
145
0
146
0.5
147
0.09
 71
1
 72
0
 73
1
 74
1
 75
0
 76
0
 77
1
 78
9
170
0
171
2
172
0
173
0
174
0
175
0
176
2
177
2
178
2
  0
DIMSTYLE
  2
DMST_7
 70
0
  3
)
  4

  5

  6

  7

 40
1
 41
3
 42
1
 43
7
 44
1
 45
0
 46
0
 47
0
 48
0
140
3.2
141
0
142
0
143
25.4
144
1
145
0
146
1
147
0.09
 71
0
 72
0
 73
0
 74
0
 75
0
 76
0
 77
1
 78
9
170
0
171
2
172
0
173
0
174
0
175
0
176
2
177
2
178
2
  0
DIMSTYLE
  2
DMST_8
 70
0
  3

  4

  5

  6

  7

 40
1
 41
3
 42
1
 43
7
 44
1
 45
0
 46
0
 47
0
 48
0
140
3.2
141
0
142
0
143
25.4
144
1
145
0
146
1
147
0.09
 71
0
 72
0
 73
0
 74
0
 75
0
 76
0
 77
1
 78
9
170
0
171
2
172
0
173
0
174
0
175
0
176
2
177
2
178
2
  0
DIMSTYLE
  2
DMST_9
 70
0
  3

  4

  5

  6

  7

 40
1
 41
3.2
 42
1
 43
7
 44
1
 45
0
 46
0
 47
0
 48
0
140
3.2
141
0
142
0
143
25.4
144
1
145
0
146
0.6
147
0.09
 71
1
 72
0
 73
0
 74
0
 75
0
 76
0
 77
1
 78
9
170
0
171
2
172
0
173
0
174
0
175
0
176
2
177
2
178
2
  0
DIMSTYLE
  2
DMST_10
 70
0
  3

  4

  5

  6

  7

 40
1
 41
3.2
 42
1
 43
7
 44
1
 45
0
 46
0
 47
0.15
 48
0.15
140
3.2
141
0
142
0
143
25.4
144
1
145
0
146
0.6
147
0.09
 71
1
 72
0
 73
0
 74
0
 75
0
 76
0
 77
1
 78
9
170
0
171
2
172
0
173
0
174
0
175
0
176
2
177
2
178
2
  0
ENDTAB
  0
TABLE
  2
LTYPE
 70
9
  0
LTYPE
  2
CONTINUOUS
 70
64
  3
Solid line
 72
65
 73
0
 40
0
  0
LTYPE
  2
BORDER
 70
64
  3
__ __ . __ __ .
 72
65
 73
6
 40
17.91447368421053
 49
5.118421052631579
 49
-2.559210526315789
 49
5.118421052631579
 49
-2.559210526315789
 49
0
 49
-2.559210526315789
  0
LTYPE
  2
CENTER
 70
64
  3
____ _ ____ _
 72
65
 73
4
 40
20.47368421052632
 49
12.79605263157895
 49
-2.559210526315789
 49
2.559210526315789
 49
-2.559210526315789
  0
LTYPE
  2
DASHDOT
 70
64
  3
__ . __ . __ .
 72
65
 73
4
 40
10.23684210526316
 49
5.118421052631579
 49
-2.559210526315789
 49
0
 49
-2.559210526315789
  0
LTYPE
  2
DASHED
 70
64
  3
__ __ __ __ __
 72
65
 73
2
 40
7.677631578947368
 49
5.118421052631579
 49
-2.559210526315789
  0
LTYPE
  2
DIVIDE
 70
64
  3
__ . . __ . . 
 72
65
 73
6
 40
12.79605263157895
 49
5.118421052631579
 49
-2.559210526315789
 49
0
 49
-2.559210526315789
 49
0
 49
-2.559210526315789
  0
LTYPE
  2
DOT
 70
64
  3
..............
 72
65
 73
4
 40
5.118421052631579
 49
0
 49
-2.559210526315789
 49
0
 49
-2.559210526315789
  0
LTYPE
  2
HIDDEN
 70
64
  3
_ _ _ _ _ _ _
 72
65
 73
2
 40
3.838815789473684
 49
2.559210526315789
 49
-1.279605263157895
  0
LTYPE
  2
PHANTOM
 70
64
  3
_____ _ _ _____ _ _ 
 72
65
 73
6
 40
25.59210526315789
 49
12.79605263157895
 49
-2.559210526315789
 49
2.559210526315789
 49
-2.559210526315789
 49
2.559210526315789
 49
-2.559210526315789
  0
ENDTAB
  0
TABLE
  2
LAYER
 70
3
  0
LAYER
  2
1
 70
0
 62
7
  6
CONTINUOUS
  0
LAYER
  2
0
 70
0
 62
7
  6
CONTINUOUS
  0
ENDTAB
  0
TABLE
  2
STYLE
 70
4
  0
STYLE
  2
STANDARD
 70
0
 40
0
 41
1
 50
0
 71
0
 42
3.5
  3
txt
  4

  0
STYLE
  2
SIMPLEX
 70
0
 40
0
 41
1
 50
0
 71
0
 42
3.5
  3
simplex
  4

  0
STYLE
  2
COMPLEX
 70
0
 40
0
 41
1
 50
0
 71
0
 42
3.5
  3
complex
  4

  0
STYLE
  2
ITALIC
 70
0
 40
0
 41
1
 50
0
 71
0
 42
3.5
  3
italic
  4

  0
ENDTAB
  0
TABLE
  2
VIEW
 70
0
  0
ENDTAB
  0
ENDSEC
  0
SECTION
  2
BLOCKS
  0
BLOCK
  8
0
  2
___R___O_______R
 70
0
 10
0.5000000000000568
 20
-3.75
 30
0
  0
LINE
  8
1
 62
4
  6
PHANTOM
 10
194.5
 20
-136.5
 30
0
 11
194.5
 21
-146
 31
0
  0
LINE
  8
1
 62
4
  6
PHANTOM
 10
-194.5
 20
-146
 30
0
 11
-194.5
 21
146
 31
0
  0
LINE
  8
1
 62
4
  6
PHANTOM
 10
194.5
 20
146
 30
0
 11
194.5
 21
129
 31
0
  0
LINE
  8
1
 62
4
  6
PHANTOM
 10
194.5
 20
146
 30
0
 11
-194.5
 21
146
 31
0
  0
LINE
  8
1
 62
4
  6
PHANTOM
 10
-194.5
 20
-146
 30
0
 11
194.5
 21
-146
 31
0
  0
TEXT
  8
1
 62
4
 10
178.746911898274
 20
-142.6071298819256
 30
0
 40
5
  1
A3
 41
0.9
 72
1
 73
2
 11
183.246911898274
 21
-140.1071298819256
 31
0
  0
ENDBLK
  8
0
  0
BLOCK
  8
0
  2
TOP
 70
0
 10
-196.1221264909976
 20
-445.688301522763
 30
0
  0
LINE
  8
1
 62
2
  6
DOT
 10
-69.5
 20
-57
 30
0
 11
-69.5
 21
-86
 31
0
  0
LINE
  8
1
 62
7
 10
-84.5
 20
-53
 30
0
 11
-84.5
 21
-86
 31
0
  0
LINE
  8
1
 62
7
 10
-139.5
 20
-81
 30
0
 11
-54.5
 21
-81
 31
0
  0
LINE
  8
1
 62
7
 10
-139.5
 20
-76
 30
0
 11
-54.5
 21
-76
 31
0
  0
LINE
  8
1
 62
7
 10
-139.5
 20
-71
 30
0
 11
-54.5
 21
-71
 31
0
  0
LINE
  8
1
 62
7
 10
-139.5
 20
-61
 30
0
 11
-54.5
 21
-61
 31
0
  0
LINE
  8
1
 62
2
  6
DOT
 10
-99.5
 20
-57
 30
0
 11
-99.5
 21
-86
 31
0
  0
LINE
  8
1
 62
7
 10
-114.5
 20
-57
 30
0
 11
-54.5
 21
-57
 31
0
  0
LINE
  8
1
 62
4
  6
PHANTOM
 10
-194.5
 20
-146
 30
0
 11
-184.5
 21
-146
 31
0
  0
LINE
  8
1
 62
4
  6
PHANTOM
 10
-194.5
 20
-146
 30
0
 11
-194.5
 21
-136
 31
0
  0
LINE
  8
1
 62
7
 10
-139.5
 20
-53
 30
0
 11
-139.5
 21
-86
 31
0
  0
LINE
  8
1
 62
7
 10
-114.5
 20
-53
 30
0
 11
-114.5
 21
-86
 31
0
  0
LINE
  8
1
 62
7
 10
-139.5
 20
-86
 30
0
 11
-54.5
 21
-86
 31
0
  0
LINE
  8
1
 62
7
 10
-139.5
 20
-66
 30
0
 11
-54.5
 21
-66
 31
0
  0
LINE
  8
1
 62
7
 10
-54.5
 20
-53
 30
0
 11
-54.5
 21
-86
 31
0
  0
LINE
  8
1
 62
7
 10
-54.5
 20
-53
 30
0
 11
-139.5
 21
-53
 31
0
  0
TEXT
  8
1
 62
7
 10
-73.25
 20
-84.75
 30
0
 40
2.5
  1
１．１７３
 41
0.9
 72
1
 73
2
 11
-62
 21
-83.5
 31
0
  0
TEXT
  8
1
 62
7
 10
-86
 20
-84.75
 30
0
 40
2.5
  1
２９．８
 41
0.9
 72
1
 73
2
 11
-77
 21
-83.5
 31
0
  0
TEXT
  8
1
 62
7
 10
-73.25
 20
-79.75
 30
0
 40
2.5
  1
１．０７５
 41
0.9
 72
1
 73
2
 11
-62
 21
-78.5
 31
0
  0
TEXT
  8
1
 62
7
 10
-86
 20
-79.75
 30
0
 40
2.5
  1
２７．３
 41
0.9
 72
1
 73
2
 11
-77
 21
-78.5
 31
0
  0
TEXT
  8
1
 62
7
 10
-73.25
 20
-74.75
 30
0
 40
2.5
  1
０．９７６
 41
0.9
 72
1
 73
2
 11
-62
 21
-73.5
 31
0
  0
TEXT
  8
1
 62
7
 10
-86
 20
-74.75
 30
0
 40
2.5
  1
２４．８
 41
0.9
 72
1
 73
2
 11
-77
 21
-73.5
 31
0
  0
TEXT
  8
1
 62
7
 10
-73.25
 20
-69.75
 30
0
 40
2.5
  1
０．８７８
 41
0.9
 72
1
 73
2
 11
-62
 21
-68.5
 31
0
  0
TEXT
  8
1
 62
7
 10
-71
 20
-64.75
 30
0
 40
2.5
  1
０．７８
 41
0.9
 72
1
 73
2
 11
-62
 21
-63.5
 31
0
  0
TEXT
  8
1
 62
2
 10
-69.93800000000016
 20
-60.26000000000001
 30
0
 40
2.520000000000007
  1
(ｉｎｃｈ)
 41
0.63
 72
1
 73
2
 11
-62
 21
-59
 31
0
  0
TEXT
  8
1
 62
2
 10
-81.7628000000001
 20
-60.26000000000001
 30
0
 40
2.520000000000007
  1
(ｍｍ)
 41
0.63
 72
1
 73
2
 11
-77
 21
-59
 31
0
  0
TEXT
  8
1
 62
2
 10
-71.88140000000004
 20
-56.26000000000001
 30
0
 40
2.520000000000007
  1
Ｌ2
 41
0.63
 72
1
 73
2
 11
-69.5
 21
-55
 31
0
  0
TEXT
  8
1
 62
7
 10
-86
 20
-64.75
 30
0
 40
2.5
  1
１９．８
 41
0.9
 72
1
 73
2
 11
-77
 21
-63.5
 31
0
  0
TEXT
  8
1
 62
7
 10
-86
 20
-69.75
 30
0
 40
2.5
  1
２２．３
 41
0.9
 72
1
 73
2
 11
-77
 21
-68.5
 31
0
  0
TEXT
  8
1
 62
7
 10
-103.25
 20
-84.75
 30
0
 40
2.5
  1
２．４５３
 41
0.9
 72
1
 73
2
 11
-92
 21
-83.5
 31
0
  0
TEXT
  8
1
 62
7
 10
-138
 20
-84.75
 30
0
 40
2.5
  1
１／４００ ～ １／６００
 41
0.63
 73
2
 11
-138
 21
-83.5
 31
0
  0
TEXT
  8
1
 62
7
 10
-116
 20
-84.75
 30
0
 40
2.5
  1
６２．３
 41
0.9
 72
1
 73
2
 11
-107
 21
-83.5
 31
0
  0
TEXT
  8
1
 62
7
 10
-103.25
 20
-79.75
 30
0
 40
2.5
  1
２．３５４
 41
0.9
 72
1
 73
2
 11
-92
 21
-78.5
 31
0
  0
TEXT
  8
1
 62
7
 10
-138
 20
-79.75
 30
0
 40
2.5
  1
１／１２０ ～ １／３００
 41
0.63
 73
2
 11
-138
 21
-78.5
 31
0
  0
TEXT
  8
1
 62
7
 10
-116
 20
-79.75
 30
0
 40
2.5
  1
５９．８
 41
0.9
 72
1
 73
2
 11
-107
 21
-78.5
 31
0
  0
TEXT
  8
1
 62
7
 10
-103.25
 20
-74.75
 30
0
 40
2.5
  1
２．２５６
 41
0.9
 72
1
 73
2
 11
-92
 21
-73.5
 31
0
  0
TEXT
  8
1
 62
7
 10
-138
 20
-74.75
 30
0
 40
2.5
  1
１／５０　 ～ １／１００
 41
0.63
 73
2
 11
-138
 21
-73.5
 31
0
  0
TEXT
  8
1
 62
7
 10
-116
 20
-74.75
 30
0
 40
2.5
  1
５７．３
 41
0.9
 72
1
 73
2
 11
-107
 21
-73.5
 31
0
  0
TEXT
  8
1
 62
7
 10
-103.25
 20
-69.75
 30
0
 40
2.5
  1
２．１５７
 41
0.9
 72
1
 73
2
 11
-92
 21
-68.5
 31
0
  0
TEXT
  8
1
 62
7
 10
-103.25
 20
-64.75
 30
0
 40
2.5
  1
２．０５９
 41
0.9
 72
1
 73
2
 11
-92
 21
-63.5
 31
0
  0
TEXT
  8
1
 62
2
 10
-99.93800000000016
 20
-60.26000000000001
 30
0
 40
2.520000000000007
  1
(ｉｎｃｈ)
 41
0.63
 72
1
 73
2
 11
-92
 21
-59
 31
0
  0
TEXT
  8
1
 62
2
 10
-111.7628000000001
 20
-60.26000000000001
 30
0
 40
2.520000000000007
  1
(ｍｍ)
 41
0.63
 72
1
 73
2
 11
-107
 21
-59
 31
0
  0
TEXT
  8
1
 62
2
 10
-147.4120000000004
 20
-58.26000000000001
 30
0
 40
2.520000000000007
  1
ＤＥＣＯＬＥＲＡＴＩＯＮ　ＲＡＴＩＯ
 41
0.4499999999999998
 72
1
 73
2
 11
-127
 21
-57
 31
0
  0
TEXT
  8
1
 62
7
 10
-138
 20
-64.75
 30
0
 40
2.5
  1
１／１０
 41
0.63
 73
2
 11
-138
 21
-63.5
 31
0
  0
TEXT
  8
1
 62
7
 10
-138
 20
-69.75
 30
0
 40
2.5
  1
１／２０　 ～ １／３０
 41
0.63
 73
2
 11
-138
 21
-68.5
 31
0
  0
TEXT
  8
1
 62
2
 10
-101.8814
 20
-56.26000000000001
 30
0
 40
2.520000000000007
  1
Ｌ1
 41
0.63
 72
1
 73
2
 11
-99.5
 21
-55
 31
0
  0
TEXT
  8
1
 62
7
 10
-116
 20
-64.75
 30
0
 40
2.5
  1
５２．３
 41
0.9
 72
1
 73
2
 11
-107
 21
-63.5
 31
0
  0
TEXT
  8
1
 62
7
 10
-116
 20
-69.75
 30
0
 40
2.5
  1
５４．８
 41
0.9
 72
1
 73
2
 11
-107
 21
-68.5
 31
0
  0
ENDBLK
  8
0
  0
BLOCK
  8
0
  2
DME34B36G-04
 70
0
 10
-1.393200981718991
 20
-303.0502600399581
 30
0
  0
INSERT
  8
0
  2
TOP
 10
-196.1221264909976
 20
-445.688301522763
 30
0
  0
ENDBLK
  8
0
  0
BLOCK
  8
0
  2
DME34B36G
 70
0
 10
437.6912236417212
 20
475.007598067909
 30
0
  0
INSERT
  8
0
  2
DME34B36G-04
 10
-1.393200981718991
 20
-303.0502600399581
 30
0
  0
ENDBLK
  8
0
  0
BLOCK
  8
1
  2
*D0
 70
1
 10
0
 20
0
 30
0
  0
LINE
  8
1
 62
2
 10
0
 20
52.5543966577359
 30
0
 11
52.29999999999993
 21
52.5543966577359
 31
0
  0
LINE
  8
1
 62
2
 10
52.29999999999993
 20
13.69999999999988
 30
0
 11
52.29999999999993
 21
53.5543966577359
 31
0
  0
LINE
  8
1
 62
2
 10
0
 20
19
 30
0
 11
0
 21
53.5543966577359
 31
0
  0
SOLID
  8
1
 62
2
 10
0
 20
52.5543966577359
 30
0
 11
3.200000000000001
 21
52.9703966577359
 31
0
 12
3.200000000000001
 22
52.1383966577359
 32
0
 13
3.200000000000001
 23
52.1383966577359
 33
0
  0
SOLID
  8
1
 62
2
 10
52.29999999999993
 20
52.5543966577359
 30
0
 11
49.09999999999992
 21
52.1383966577359
 31
0
 12
49.09999999999992
 22
52.9703966577359
 32
0
 13
49.09999999999992
 23
52.9703966577359
 33
0
  0
TEXT
  8
1
 62
2
 10
28.0686338238251
 20
53.5543966577359
 30
0
 40
3.2
  1
L1
 41
0.9
  0
ENDBLK
  8
0
  0
BLOCK
  8
1
  2
*D1
 70
1
 10
0
 20
0
 30
0
  0
LINE
  8
1
 62
2
 10
-71.4316235022719
 20
7.000000000000002
 30
0
 11
-71.4316235022719
 21
23.0090107120894
 31
0
  0
LINE
  8
1
 62
2
 10
-71.4316235022719
 20
0
 30
0
 11
-71.4316235022719
 21
7.000000000000002
 31
0
  0
LINE
  8
1
 62
2
 10
-71.4316235022719
 20
-6.399999999999999
 30
0
 11
-71.4316235022719
 21
0
 31
0
  0
LINE
  8
1
 62
2
 10
-93
 20
7.000000000000002
 30
0
 11
-70.4316235022719
 21
7.000000000000002
 31
0
  0
LINE
  8
1
 62
2
 10
-80.5
 20
0
 30
0
 11
-70.4316235022719
 21
0
 31
0
  0
SOLID
  8
1
 62
2
 10
-71.4316235022719
 20
7.000000000000002
 30
0
 11
-71.8476235022719
 21
10.2
 31
0
 12
-71.01562350227191
 22
10.2
 32
0
 13
-71.01562350227191
 23
10.2
 33
0
  0
SOLID
  8
1
 62
2
 10
-71.4316235022719
 20
0
 30
0
 11
-71.01562350227191
 21
-3.200000000000001
 31
0
 12
-71.8476235022719
 22
-3.200000000000001
 32
0
 13
-71.8476235022719
 23
-3.200000000000001
 33
0
  0
TEXT
  8
1
 62
2
 10
-72.4316235022719
 20
14.6410107120894
 30
0
 40
3.2
  1
7
 50
90
 41
0.9
  0
TEXT
  8
1
 62
2
 10
-73.07162350227191
 20
18.1610107120894
 30
0
 40
1.92
  1
%%p0.5
 50
90
 41
0.9
  0
ENDBLK
  8
0
  0
BLOCK
  8
1
  2
*D2
 70
1
 10
0
 20
0
 30
0
  0
LINE
  8
1
 62
2
 10
-118.5
 20
52.5850951621166
 30
0
 11
-81.5
 21
52.5850951621166
 31
0
  0
LINE
  8
1
 62
2
 10
-81.5
 20
1
 30
0
 11
-81.5
 21
53.5850951621166
 31
0
  0
LINE
  8
1
 62
2
 10
-118.5
 20
1
 30
0
 11
-118.5
 21
53.5850951621166
 31
0
  0
SOLID
  8
1
 62
2
 10
-118.5
 20
52.5850951621166
 30
0
 11
-115.3
 21
53.0010951621166
 31
0
 12
-115.3
 22
52.16909516211661
 32
0
 13
-115.3
 23
52.16909516211661
 33
0
  0
SOLID
  8
1
 62
2
 10
-81.5
 20
52.5850951621166
 30
0
 11
-84.7
 21
52.16909516211661
 31
0
 12
-84.7
 22
53.0010951621166
 32
0
 13
-84.7
 23
53.0010951621166
 33
0
  0
TEXT
  8
1
 62
2
 10
-100.5777777777778
 20
53.5850951621166
 30
0
 40
3.2
  1
37
 41
0.9
  0
TEXT
  8
1
 62
2
 10
-104.2222222222222
 20
53.5850951621166
 30
0
 40
3.2
  1
φ
 41
0.9
  0
ENDBLK
  8
0
  0
BLOCK
  8
1
  2
*D3
 70
1
 10
0
 20
0
 30
0
  0
LINE
  8
1
 62
2
 10
-115.5
 20
40.4410838224926
 30
0
 11
-84.5
 21
40.4410838224926
 31
0
  0
LINE
  8
1
 62
2
 10
-84.5
 20
1
 30
0
 11
-84.5
 21
41.4410838224926
 31
0
  0
LINE
  8
1
 62
2
 10
-115.5
 20
1
 30
0
 11
-115.5
 21
41.4410838224926
 31
0
  0
SOLID
  8
1
 62
2
 10
-115.5
 20
40.4410838224926
 30
0
 11
-112.3
 21
40.8570838224926
 31
0
 12
-112.3
 22
40.0250838224926
 32
0
 13
-112.3
 23
40.0250838224926
 33
0
  0
SOLID
  8
1
 62
2
 10
-84.5
 20
40.4410838224926
 30
0
 11
-87.7
 21
40.0250838224926
 31
0
 12
-87.7
 22
40.8570838224926
 32
0
 13
-87.7
 23
40.8570838224926
 33
0
  0
TEXT
  8
1
 62
2
 10
-103.3217777777778
 20
41.4410838224926
 30
0
 40
3.2
  1
31
 41
0.9
  0
TEXT
  8
1
 62
2
 10
-97.88177777777779
 20
42.0810838224926
 30
0
 40
1.92
  1
%%p0.2
 41
0.9
  0
TEXT
  8
1
 62
2
 10
-106.9662222222222
 20
41.4410838224926
 30
0
 40
3.2
  1
φ
 41
0.9
  0
ENDBLK
  8
0
  0
BLOCK
  8
1
  2
*D4
 70
1
 10
0
 20
0
 30
0
  0
LINE
  8
1
 62
2
 10
-106
 20
28.5106797698132
 30
0
 11
-138.6774391658672
 21
28.5106797698132
 31
0
  0
LINE
  8
1
 62
2
 10
-106
 20
28.5106797698132
 30
0
 11
-94
 21
28.5106797698132
 31
0
  0
LINE
  8
1
 62
2
 10
-94
 20
8
 30
0
 11
-94
 21
29.5106797698132
 31
0
  0
LINE
  8
1
 62
2
 10
-106
 20
8
 30
0
 11
-106
 21
29.5106797698132
 31
0
  0
SOLID
  8
1
 62
2
 10
-106
 20
28.5106797698132
 30
0
 11
-102.8
 21
28.9266797698132
 31
0
 12
-102.8
 22
28.0946797698132
 32
0
 13
-102.8
 23
28.0946797698132
 33
0
  0
SOLID
  8
1
 62
2
 10
-94
 20
28.5106797698132
 30
0
 11
-97.2
 21
28.0946797698132
 31
0
 12
-97.2
 22
28.9266797698132
 32
0
 13
-97.2
 23
28.9266797698132
 33
0
  0
TEXT
  8
1
 62
2
 10
-135.0329947214228
 20
29.5106797698132
 30
0
 40
3.2
  1
12
 41
0.9
  0
TEXT
  8
1
 62
2
 10
-129.5929947214228
 20
30.1506797698132
 30
0
 40
1.92
  1
%%p0.1
 41
0.9
  0
TEXT
  8
1
 62
2
 10
-138.6774391658672
 20
29.5106797698132
 30
0
 40
3.2
  1
φ
 41
0.9
  0
ENDBLK
  8
0
  0
BLOCK
  8
1
  2
*D5
 70
1
 10
0
 20
0
 30
0
  0
LINE
  8
1
 62
2
 10
106.8928580159
 20
-22.73764185217914
 30
0
 11
97.020593499699
 21
-22.73764185217914
 31
0
  0
LINE
  8
1
 62
2
 10
106.8928580159
 20
-22.73764185217914
 30
0
 11
109.8928580159
 21
-22.73764185217914
 31
0
  0
LINE
  8
1
 62
2
 10
115.8928580159
 20
-22.73764185217914
 30
0
 11
109.8928580159
 21
-22.73764185217914
 31
0
  0
LINE
  8
1
 62
2
 10
109.8928580159
 20
-2
 30
0
 11
109.8928580159
 21
-23.73764185217914
 31
0
  0
LINE
  8
1
 62
2
 10
106.8928580159
 20
-2.199999999999989
 30
0
 11
106.8928580159
 21
-23.73764185217914
 31
0
  0
SOLID
  8
1
 62
2
 10
106.8928580159
 20
-22.73764185217914
 30
0
 11
103.8928580159
 21
-23.12764185217914
 31
0
 12
103.8928580159
 22
-22.34764185217914
 32
0
 13
103.8928580159
 23
-22.34764185217914
 33
0
  0
SOLID
  8
1
 62
2
 10
109.8928580159
 20
-22.73764185217914
 30
0
 11
112.8928580159
 21
-22.34764185217914
 31
0
 12
112.8928580159
 22
-23.12764185217914
 32
0
 13
112.8928580159
 23
-23.12764185217914
 33
0
  0
TEXT
  8
1
 62
2
 10
99.100593499699
 20
-21.73764185217914
 30
0
 40
3.2
  1
3
 41
0.9
  0
TEXT
  8
1
 62
2
 10
97.02059349969899
 20
-21.73764185217914
 30
0
 40
3.2
  1
(
 41
0.9
  0
TEXT
  8
1
 62
2
 10
102.620593499699
 20
-21.73764185217914
 30
0
 40
3.2
  1
)
 41
0.9
  0
ENDBLK
  8
0
  0
BLOCK
  8
1
  2
*D6
 70
1
 10
0
 20
0
 30
0
  0
LINE
  8
1
 62
2
 10
52.29999999999993
 20
-34.8263315518523
 30
0
 11
109.8928580159
 21
-34.8263315518523
 31
0
  0
LINE
  8
1
 62
2
 10
109.8928580159
 20
-1.999999999999996
 30
0
 11
109.8928580159
 21
-35.8263315518523
 31
0
  0
LINE
  8
1
 62
2
 10
52.29999999999993
 20
-13.69999999999999
 30
0
 11
52.29999999999993
 21
-35.8263315518523
 31
0
  0
SOLID
  8
1
 62
2
 10
52.29999999999993
 20
-34.8263315518523
 30
0
 11
55.29999999999993
 21
-34.4363315518523
 31
0
 12
55.29999999999993
 22
-35.2163315518523
 32
0
 13
55.29999999999993
 23
-35.2163315518523
 33
0
  0
SOLID
  8
1
 62
2
 10
109.8928580159
 20
-34.8263315518523
 30
0
 11
106.8928580159
 21
-35.2163315518523
 31
0
 12
106.8928580159
 22
-34.4363315518523
 32
0
 13
106.8928580159
 23
-34.4363315518523
 33
0
  0
TEXT
  8
1
 62
2
 10
75.41642900794997
 20
-33.8263315518523
 30
0
 40
3.2
  1
150
 41
0.9
  0
TEXT
  8
1
 62
2
 10
83.73642900794997
 20
-33.02633155185229
 30
0
 40
1.6
  1
%%p15
 41
0.9
  0
ENDBLK
  8
0
  0
BLOCK
  8
1
  2
*D7
 70
1
 10
0
 20
0
 30
0
  0
LINE
  8
1
 62
2
 10
54.3
 20
40.4377812577139
 30
0
 11
65.45547194537363
 21
40.4377812577139
 31
0
  0
LINE
  8
1
 62
2
 10
52.29999999999993
 20
40.4377812577139
 30
0
 11
54.3
 21
40.4377812577139
 31
0
  0
LINE
  8
1
 62
2
 10
46.29999999999993
 20
40.4377812577139
 30
0
 11
52.29999999999993
 21
40.4377812577139
 31
0
  0
LINE
  8
1
 62
2
 10
54.3
 20
6
 30
0
 11
54.3
 21
41.4377812577139
 31
0
  0
LINE
  8
1
 62
2
 10
52.29999999999993
 20
13.69999999999987
 30
0
 11
52.29999999999993
 21
41.4377812577139
 31
0
  0
SOLID
  8
1
 62
2
 10
52.29999999999993
 20
40.4377812577139
 30
0
 11
49.29999999999993
 21
40.0477812577139
 31
0
 12
49.29999999999993
 22
40.8277812577139
 32
0
 13
49.29999999999993
 23
40.8277812577139
 33
0
  0
SOLID
  8
1
 62
2
 10
54.3
 20
40.4377812577139
 30
0
 11
57.3
 21
40.8277812577139
 31
0
 12
57.3
 22
40.0477812577139
 32
0
 13
57.3
 23
40.0477812577139
 33
0
  0
TEXT
  8
1
 62
2
 10
61.45547194537364
 20
41.4377812577139
 30
0
 40
3.2
  1
2
 41
0.9
  0
TEXT
  8
1
 62
2
 10
59.37547194537364
 20
41.4377812577139
 30
0
 40
3.2
  1
(
 41
0.9
  0
TEXT
  8
1
 62
2
 10
64.97547194537364
 20
41.4377812577139
 30
0
 40
3.2
  1
)
 41
0.9
  0
ENDBLK
  8
0
  0
BLOCK
  8
1
  2
*D8
 70
1
 10
0
 20
0
 30
0
  0
LINE
  8
1
 62
2
 10
74.32482500806589
 20
-12.69999999999999
 30
0
 11
74.32482500806589
 21
12.69999999999987
 31
0
  0
LINE
  8
1
 62
2
 10
53.29999999999993
 20
12.69999999999987
 30
0
 11
75.32482500806589
 21
12.69999999999987
 31
0
  0
LINE
  8
1
 62
2
 10
53.29999999999993
 20
-12.69999999999999
 30
0
 11
75.32482500806589
 21
-12.69999999999999
 31
0
  0
SOLID
  8
1
 62
2
 10
74.32482500806589
 20
12.69999999999987
 30
0
 11
74.71482500806589
 21
9.69999999999987
 31
0
 12
73.93482500806589
 22
9.69999999999987
 32
0
 13
73.93482500806589
 23
9.69999999999987
 33
0
  0
SOLID
  8
1
 62
2
 10
74.32482500806589
 20
-12.69999999999999
 30
0
 11
73.93482500806589
 21
-9.69999999999999
 31
0
 12
74.71482500806589
 22
-9.69999999999999
 32
0
 13
74.71482500806589
 23
-9.69999999999999
 33
0
  0
TEXT
  8
1
 62
2
 10
73.32482500806589
 20
-2.537777777777838
 30
0
 40
3.2
  1
25.4
 50
90
 41
0.9
  0
TEXT
  8
1
 62
2
 10
73.32482500806589
 20
-6.182222222222283
 30
0
 40
3.2
  1
φ
 50
90
 41
0.9
  0
ENDBLK
  8
0
  0
BLOCK
  8
1
  2
*D9
 70
1
 10
0
 20
0
 30
0
  0
LINE
  8
1
 62
2
 10
0
 20
40.4377812577139
 30
0
 11
19.8
 21
40.4377812577139
 31
0
  0
LINE
  8
1
 62
2
 10
19.8
 20
18.25
 30
0
 11
19.8
 21
41.4377812577139
 31
0
  0
LINE
  8
1
 62
2
 10
0
 20
19
 30
0
 11
0
 21
41.4377812577139
 31
0
  0
SOLID
  8
1
 62
2
 10
0
 20
40.4377812577139
 30
0
 11
3.200000000000001
 21
40.8537812577139
 31
0
 12
3.200000000000001
 22
40.0217812577139
 32
0
 13
3.200000000000001
 23
40.0217812577139
 33
0
  0
SOLID
  8
1
 62
2
 10
19.8
 20
40.4377812577139
 30
0
 11
16.6
 21
40.0217812577139
 31
0
 12
16.6
 22
40.8537812577139
 32
0
 13
16.6
 23
40.8537812577139
 33
0
  0
TEXT
  8
1
 62
2
 10
7.5
 20
41.4377812577139
 30
0
 40
3.2
  1
L2
 41
0.9
  0
ENDBLK
  8
0
  0
BLOCK
  8
1
  2
*D10
 70
1
 10
0
 20
0
 30
0
  0
LINE
  8
1
 62
2
 10
-42.9540336730988
 20
10
 30
0
 11
-42.9540336730988
 21
31.16374732728852
 31
0
  0
LINE
  8
1
 62
2
 10
-42.9540336730988
 20
4
 30
0
 11
-42.9540336730988
 21
10
 31
0
  0
LINE
  8
1
 62
2
 10
-42.9540336730988
 20
-2.399999999999999
 30
0
 11
-42.9540336730988
 21
4
 31
0
  0
LINE
  8
1
 62
2
 10
-10
 20
10
 30
0
 11
-43.9540336730988
 21
10
 31
0
  0
LINE
  8
1
 62
2
 10
-22
 20
4
 30
0
 11
-43.9540336730988
 21
4
 31
0
  0
SOLID
  8
1
 62
2
 10
-42.9540336730988
 20
4
 30
0
 11
-42.5380336730988
 21
0.7999999999999994
 31
0
 12
-43.3700336730988
 22
0.7999999999999994
 32
0
 13
-43.3700336730988
 23
0.7999999999999994
 33
0
  0
SOLID
  8
1
 62
2
 10
-42.9540336730988
 20
10
 30
0
 11
-43.3700336730988
 21
13.2
 31
0
 12
-42.5380336730988
 22
13.2
 32
0
 13
-42.5380336730988
 23
13.2
 33
0
  0
TEXT
  8
1
 62
2
 10
-44.7540336730988
 20
20.87574732728852
 30
0
 40
3.2
  1
6
 50
90
 41
0.9
  0
TEXT
  8
1
 62
2
 10
-46.83403367309879
 20
24.39574732728853
 30
0
 40
1.92
  1
 0
 50
90
 41
0.9
  0
TEXT
  8
1
 62
2
 10
-43.9540336730988
 20
24.39574732728853
 30
0
 40
1.92
  1
-0.02
 50
90
 41
0.9
  0
TEXT
  8
1
 62
2
 10
-44.7540336730988
 20
17.23130288284408
 30
0
 40
3.2
  1
φ
 50
90
 41
0.9
  0
ENDBLK
  8
0
  0
BLOCK
  8
1
  2
*D11
 70
1
 10
0
 20
0
 30
0
  0
LINE
  8
1
 62
2
 10
-30.93352917155655
 20
9.5
 30
0
 11
-30.93352917155655
 21
31.4249173863507
 31
0
  0
LINE
  8
1
 62
2
 10
-30.93352917155655
 20
4
 30
0
 11
-30.93352917155655
 21
9.5
 31
0
  0
LINE
  8
1
 62
2
 10
-30.93352917155655
 20
-2.399999999999999
 30
0
 11
-30.93352917155655
 21
4
 31
0
  0
LINE
  8
1
 62
2
 10
-22
 20
9.5
 30
0
 11
-31.93352917155655
 21
9.5
 31
0
  0
LINE
  8
1
 62
2
 10
-22
 20
4
 30
0
 11
-31.93352917155655
 21
4
 31
0
  0
SOLID
  8
1
 62
2
 10
-30.93352917155655
 20
4
 30
0
 11
-30.51752917155655
 21
0.7999999999999994
 31
0
 12
-31.34952917155655
 22
0.7999999999999994
 32
0
 13
-31.34952917155655
 23
0.7999999999999994
 33
0
  0
SOLID
  8
1
 62
2
 10
-30.93352917155655
 20
9.5
 30
0
 11
-31.34952917155655
 21
12.7
 31
0
 12
-30.51752917155655
 22
12.7
 32
0
 13
-30.51752917155655
 23
12.7
 33
0
  0
TEXT
  8
1
 62
2
 10
-31.93352917155655
 20
17.9849173863507
 30
0
 40
3.2
  1
5.5
 50
90
 41
0.9
  0
TEXT
  8
1
 62
2
 10
-32.57352917155655
 20
25.4249173863507
 30
0
 40
1.92
  1
%%p0.15
 50
90
 41
0.9
  0
ENDBLK
  8
0
  0
BLOCK
  8
1
  2
*D12
 70
1
 10
0
 20
0
 30
0
  0
LINE
  8
1
 62
2
 10
-21
 20
28.4777309018375
 30
0
 11
-9
 21
28.4777309018375
 31
0
  0
LINE
  8
1
 62
2
 10
-9
 20
11
 30
0
 11
-9
 21
29.4777309018375
 31
0
  0
LINE
  8
1
 62
2
 10
-21
 20
10.5
 30
0
 11
-21
 21
29.4777309018375
 31
0
  0
SOLID
  8
1
 62
2
 10
-21
 20
28.4777309018375
 30
0
 11
-17.8
 21
28.8937309018375
 31
0
 12
-17.8
 22
28.0617309018375
 32
0
 13
-17.8
 23
28.0617309018375
 33
0
  0
SOLID
  8
1
 62
2
 10
-9
 20
28.4777309018375
 30
0
 11
-12.2
 21
28.0617309018375
 31
0
 12
-12.2
 22
28.8937309018375
 32
0
 13
-12.2
 23
28.8937309018375
 33
0
  0
TEXT
  8
1
 62
2
 10
-16.92
 20
29.4777309018375
 30
0
 40
3.2
  1
12
 41
0.9
  0
ENDBLK
  8
0
  0
BLOCK
  8
1
  2
*D13
 70
1
 10
0
 20
0
 30
0
  0
LINE
  8
1
 62
2
 10
-21
 20
52.4645067881646
 30
0
 11
0
 21
52.4645067881646
 31
0
  0
LINE
  8
1
 62
2
 10
0
 20
19
 30
0
 11
0
 21
53.4645067881646
 31
0
  0
LINE
  8
1
 62
2
 10
-21
 20
10.5
 30
0
 11
-21
 21
53.4645067881646
 31
0
  0
SOLID
  8
1
 62
2
 10
0
 20
52.4645067881646
 30
0
 11
-3.200000000000001
 21
52.0485067881646
 31
0
 12
-3.200000000000001
 22
52.8805067881646
 32
0
 13
-3.200000000000001
 23
52.8805067881646
 33
0
  0
SOLID
  8
1
 62
2
 10
-21
 20
52.4645067881646
 30
0
 11
-17.8
 21
52.8805067881646
 31
0
 12
-17.8
 22
52.0485067881646
 32
0
 13
-17.8
 23
52.0485067881646
 33
0
  0
TEXT
  8
1
 62
2
 10
-12.42
 20
53.4645067881646
 30
0
 40
3.2
  1
21
 41
0.9
  0
ENDBLK
  8
0
  0
BLOCK
  8
1
  2
*D14
 70
1
 10
0
 20
0
 30
0
  0
LINE
  8
1
 62
2
 10
-6.000000000000031
 20
40.4711188450011
 30
0
 11
-13.57157612812182
 21
40.4711188450011
 31
0
  0
LINE
  8
1
 62
2
 10
-6.000000000000031
 20
40.4711188450011
 30
0
 11
0
 21
40.4711188450011
 31
0
  0
LINE
  8
1
 62
2
 10
6.4
 20
40.4711188450011
 30
0
 11
0
 21
40.4711188450011
 31
0
  0
LINE
  8
1
 62
2
 10
0
 20
19
 30
0
 11
0
 21
41.4711188450011
 31
0
  0
LINE
  8
1
 62
2
 10
-6.000000000000031
 20
14
 30
0
 11
-6.000000000000031
 21
41.4711188450011
 31
0
  0
SOLID
  8
1
 62
2
 10
-6.000000000000031
 20
40.4711188450011
 30
0
 11
-9.200000000000031
 21
40.0551188450011
 31
0
 12
-9.200000000000031
 22
40.8871188450011
 32
0
 13
-9.200000000000031
 23
40.8871188450011
 33
0
  0
SOLID
  8
1
 62
2
 10
0
 20
40.4711188450011
 30
0
 11
3.200000000000001
 21
40.8871188450011
 31
0
 12
3.200000000000001
 22
40.0551188450011
 32
0
 13
3.200000000000001
 23
40.0551188450011
 33
0
  0
TEXT
  8
1
 62
2
 10
-13.57157612812182
 20
41.4711188450011
 30
0
 40
3.2
  1
6
 41
0.9
  0
ENDBLK
  8
0
  0
BLOCK
  8
1
  2
*D15
 70
1
 10
0
 20
0
 30
0
  0
LINE
  8
1
 62
2
 10
-78.57787750755851
 20
-21.4949187298652
 30
0
 11
-27.6178775075585
 21
-21.4949187298652
 31
0
  0
LINE
  8
1
 62
2
 10
-90.95830177209062
 20
-14.18596551791544
 30
0
 11
-78.57787750755851
 21
-21.4949187298652
 31
0
  0
SOLID
  8
1
 62
2
 10
-90.95830177209062
 20
-14.18596551791544
 30
0
 11
-87.99119231798345
 21
-15.45455429578943
 31
0
 12
-88.41416545378446
 22
-16.17101624620317
 32
0
 13
-88.41416545378446
 23
-16.17101624620317
 33
0
  0
TEXT
  8
1
 62
2
 10
-64.09787750755849
 20
-20.4949187298652
 30
0
 40
3.2
  1
3
 41
0.9
  0
TEXT
  8
1
 62
2
 10
-73.3778775075585
 20
-20.4949187298652
 30
0
 40
3.2
  1
3-M
 41
0.9
  0
TEXT
  8
1
 62
2
 10
-60.5778775075585
 20
-20.4949187298652
 30
0
 40
3.2
  1
 DEPTH 4MAX
 41
0.9
  0
ENDBLK
  8
0
  0
ENDSEC
  0
SECTION
  2
ENTITIES
  0
LINE
  8
1
 62
3
 10
-24
 20
7
 30
0
 11
3
 21
7
 31
0
  0
LINE
  8
1
 62
3
 10
-81.5
 20
0
 30
0
 11
-78.5
 21
0
 31
0
  0
LINE
  8
1
 62
3
 10
-94
 20
7
 30
0
 11
-92
 21
7
 31
0
  0
LINE
  8
1
 62
2
 10
-78.5
 20
-35.5
 30
0
 11
-27.26879150363793
 21
-35.5
 31
0
  0
LINE
  8
1
 62
7
 10
18.99999999999999
 20
17.25
 30
0
 11
19.8
 21
17.25
 31
0
  0
LINE
  8
1
 62
7
 10
19.8
 20
-17.25
 30
0
 11
18.99999999999999
 21
-17.25
 31
0
  0
LINE
  8
1
 62
7
 10
18.99999999999999
 20
-18.5
 30
0
 11
0.5
 21
-18.5
 31
0
  0
LINE
  8
1
 62
7
 10
18.99999999999999
 20
18.5
 30
0
 11
18.99999999999999
 21
-18.5
 31
0
  0
LINE
  8
1
 62
7
 10
0.5
 20
18.5
 30
0
 11
18.99999999999999
 21
18.5
 31
0
  0
LINE
  8
1
 62
3
 10
-109.25
 20
16.02146997001211
 30
0
 11
-106.3101159327435
 21
10.92944139716138
 31
0
  0
LINE
  8
1
 62
3
 10
-109.25
 20
-16.02146997001211
 30
0
 11
-106.3899763259442
 21
-11.06776365569772
 31
0
  0
LINE
  8
1
 62
3
 10
-90.75
 20
16.02146997001211
 30
0
 11
-93.9457610082363
 21
10.48624953489951
 31
0
  0
LINE
  8
1
 62
3
 10
-93.7734983288898
 20
-10.78461724777543
 30
0
 11
-90.75
 21
-16.02146997001211
 31
0
  0
LINE
  8
1
 62
3
 10
-116.0214699700121
 20
9.25
 30
0
 11
-110.4470875108881
 21
6.0316287866587
 31
0
  0
LINE
  8
1
 62
3
 10
-89.13927622745601
 20
6.270441793672489
 30
0
 11
-83.97853002998791
 21
9.25
 31
0
  0
LINE
  8
1
 62
3
 10
-100
 20
21.43419207851377
 30
0
 11
-100
 21
-21.7195057833859
 31
0
  0
LINE
  8
1
 62
7
 10
-102
 20
-8.930285549745918
 30
0
 11
-102
 21
-1.930285549745918
 31
0
  0
LINE
  8
1
 62
7
 10
-98
 20
-1.930285549745918
 30
0
 11
-98
 21
-8.930285549745918
 31
0
  0
LINE
  8
1
 62
7
 10
-101.5139022425508
 20
9.589999999999975
 30
0
 11
-98.4860977574494
 21
9.589999999999975
 31
0
  0
LINE
  8
1
 62
3
 10
-109.2370311952331
 20
7
 30
0
 11
-94
 21
7
 31
0
  0
LINE
  8
1
 62
3
 10
-81.5
 20
0
 30
0
 11
-122.2330704521557
 21
0
 31
0
  0
LINE
  8
1
 62
7
 10
-100.6717514421272
 20
-15.9596194077713
 30
0
 11
-100.4596194077712
 21
-15.74748737341542
 31
0
  0
LINE
  8
1
 62
7
 10
-100.4596194077712
 20
-15.25251262658469
 30
0
 11
-100.6717514421272
 21
-15.0403805922287
 31
0
  0
LINE
  8
1
 62
7
 10
-100.6717514421272
 20
-14.96966991411011
 30
0
 11
-100.5303300858899
 21
-14.82824855787283
 31
0
  0
LINE
  8
1
 62
7
 10
-100.4596194077712
 20
-14.82824855787283
 30
0
 11
-100.2474873734153
 21
-15.04038059222881
 31
0
  0
LINE
  8
1
 62
7
 10
-99.7525126265847
 20
-15.04038059222881
 30
0
 11
-99.5403805922287
 21
-14.82824855787288
 31
0
  0
LINE
  8
1
 62
7
 10
-99.46966991411
 20
-14.82824855787283
 30
0
 11
-99.3282485578728
 21
-14.96966991411011
 31
0
  0
LINE
  8
1
 62
7
 10
-99.3282485578727
 20
-15.0403805922287
 30
0
 11
-99.5403805922287
 21
-15.25251262658469
 31
0
  0
LINE
  8
1
 62
7
 10
-99.5403805922287
 20
-15.74748737341542
 30
0
 11
-99.3282485578728
 21
-15.9596194077713
 31
0
  0
LINE
  8
1
 62
7
 10
-99.3282485578728
 20
-16.03033008588989
 30
0
 11
-99.4696699141101
 21
-16.17175144212717
 31
0
  0
LINE
  8
1
 62
7
 10
-99.5403805922287
 20
-16.17175144212717
 30
0
 11
-99.7525126265847
 21
-15.9596194077713
 31
0
  0
LINE
  8
1
 62
7
 10
-100.2474873734153
 20
-15.9596194077713
 30
0
 11
-100.4596194077712
 21
-16.17175144212717
 31
0
  0
LINE
  8
1
 62
7
 10
-100.53033008589
 20
-16.17175144212717
 30
0
 11
-100.6717514421272
 21
-16.03033008588989
 31
0
  0
LINE
  8
1
 62
7
 10
-112.8055734356313
 20
7.220096189432184
 30
0
 11
-113.0653810567667
 21
7.370096189432275
 31
0
  0
LINE
  8
1
 62
7
 10
-113.5434899480912
 20
7.241987298107688
 30
0
 11
-113.6934899480912
 21
6.982179676972407
 31
0
  0
LINE
  8
1
 62
7
 10
-113.7617912182804
 20
6.963878406783124
 30
0
 11
-113.9349962990372
 21
7.06387840678309
 31
0
  0
LINE
  8
1
 62
7
 10
-113.9532975692265
 20
7.132179676972271
 30
0
 11
-113.8032975692265
 21
7.391987298107722
 31
0
  0
LINE
  8
1
 62
7
 10
-113.9314064605511
 20
7.870096189432275
 30
0
 11
-114.1912140816864
 21
8.020096189432309
 31
0
  0
LINE
  8
1
 62
7
 10
-114.2095153518756
 20
8.08839745962149
 30
0
 11
-114.1095153518757
 21
8.261602540378419
 31
0
  0
LINE
  8
1
 62
7
 10
-114.0412140816864
 20
8.279903810567475
 30
0
 11
-113.7814064605511
 21
8.129903810567498
 31
0
  0
LINE
  8
1
 62
7
 10
-113.3032975692265
 20
8.258012701892085
 30
0
 11
-113.1532975692265
 21
8.517820323027422
 31
0
  0
LINE
  8
1
 62
7
 10
-113.0849962990372
 20
8.536121593216706
 30
0
 11
-112.9117912182804
 21
8.436121593216683
 31
0
  0
LINE
  8
1
 62
7
 10
-112.8934899480912
 20
8.367820323027388
 30
0
 11
-113.0434899480912
 21
8.108012701892108
 31
0
  0
LINE
  8
1
 62
7
 10
-112.9153810567667
 20
7.629903810567498
 30
0
 11
-112.6555734356313
 21
7.479903810567521
 31
0
  0
LINE
  8
1
 62
7
 10
-112.6372721654421
 20
7.411602540378283
 30
0
 11
-112.737272165442
 21
7.238397459621524
 31
0
  0
LINE
  8
1
 62
7
 10
-86.3065100519088
 20
6.982179676972407
 30
0
 11
-86.45651005190881
 21
7.241987298107688
 31
0
  0
LINE
  8
1
 62
7
 10
-86.9346189432334
 20
7.370096189432275
 30
0
 11
-87.1944265643687
 21
7.220096189432297
 31
0
  0
LINE
  8
1
 62
7
 10
-87.26272783455791
 20
7.238397459621524
 30
0
 11
-87.362727834558
 21
7.411602540378283
 31
0
  0
LINE
  8
1
 62
7
 10
-87.3444265643687
 20
7.479903810567521
 30
0
 11
-87.08461894323341
 21
7.629903810567612
 31
0
  0
LINE
  8
1
 62
7
 10
-86.95651005190881
 20
8.108012701892221
 30
0
 11
-87.1065100519088
 21
8.367820323027502
 31
0
  0
LINE
  8
1
 62
7
 10
-87.0882087817196
 20
8.436121593216683
 30
0
 11
-86.9150037009627
 21
8.536121593216706
 31
0
  0
LINE
  8
1
 62
7
 10
-86.8467024307736
 20
8.517820323027479
 30
0
 11
-86.6967024307735
 21
8.258012701892085
 31
0
  0
LINE
  8
1
 62
7
 10
-86.218593539449
 20
8.129903810567612
 30
0
 11
-85.95878591831351
 21
8.279903810567589
 31
0
  0
LINE
  8
1
 62
7
 10
-85.8904846481243
 20
8.261602540378419
 30
0
 11
-85.79048464812441
 21
8.08839745962149
 31
0
  0
LINE
  8
1
 62
7
 10
-85.8087859183135
 20
8.020096189432309
 30
0
 11
-86.068593539449
 21
7.870096189432275
 31
0
  0
LINE
  8
1
 62
7
 10
-86.1967024307735
 20
7.391987298107722
 30
0
 11
-86.04670243077351
 21
7.132179676972271
 31
0
  0
LINE
  8
1
 62
7
 10
-86.06500370096271
 20
7.06387840678309
 30
0
 11
-86.23820878171951
 21
6.963878406783124
 31
0
  0
LINE
  8
1
 62
2
 10
92.25237542301693
 20
19.10463769237622
 30
0
 11
163.4770955659919
 21
19.10463769237622
 31
0
  0
LINE
  8
1
 62
7
 10
52.29999999999993
 20
-12.69999999999999
 30
0
 11
52.29999999999993
 21
12.69999999999987
 31
0
  0
LINE
  8
1
 62
7
 10
52.29999999999993
 20
-12.69999999999999
 30
0
 11
50.8
 21
-12.69999999999999
 31
0
  0
LINE
  8
1
 62
7
 10
52.29999999999993
 20
12.69999999999987
 30
0
 11
50.8
 21
12.69999999999987
 31
0
  0
LINE
  8
1
 62
7
 10
52.29999999999993
 20
-5
 30
0
 11
54.3
 21
-5
 31
0
  0
LINE
  8
1
 62
7
 10
54.3
 20
5
 30
0
 11
54.3
 21
-5
 31
0
  0
LINE
  8
1
 62
7
 10
54.3
 20
5
 30
0
 11
52.29999999999993
 21
5
 31
0
  0
LINE
  8
1
 62
7
 10
106.8928580159
 20
-1.199999999999989
 30
0
 11
80.57412507433487
 21
-1.199999999999989
 31
0
  0
LINE
  8
1
 62
7
 10
80.57412507433487
 20
1.19999999999987
 30
0
 11
106.8928580159
 21
1.19999999999987
 31
0
  0
LINE
  8
1
 62
7
 10
80.57412507433487
 20
0
 30
0
 11
106.8928580159
 21
0
 31
0
  0
LINE
  8
1
 62
7
 10
106.8928580159
 20
1.19999999999987
 30
0
 11
106.8928580159
 21
-1.199999999999989
 31
0
  0
LINE
  8
1
 62
7
 10
109.8928580159
 20
-1
 30
0
 11
106.8928580159
 21
-1
 31
0
  0
LINE
  8
1
 62
7
 10
106.8928580159
 20
-0.1999999999999904
 30
0
 11
109.8928580159
 21
-0.1999999999999904
 31
0
  0
LINE
  8
1
 62
7
 10
106.8928580159
 20
0.1999999999998696
 30
0
 11
109.8928580159
 21
0.1999999999998696
 31
0
  0
LINE
  8
1
 62
7
 10
106.8928580159
 20
1
 30
0
 11
109.8928580159
 21
1
 31
0
  0
LINE
  8
1
 62
7
 10
50.8
 20
-12.69999999999999
 30
0
 11
50.8
 21
8.24526720563949
 31
0
  0
LINE
  8
1
 62
3
 10
55.87956029063001
 20
0
 30
0
 11
-2.596765164432842
 21
0
 31
0
  0
LINE
  8
1
 62
7
 10
50.8
 20
12.69999999999987
 30
0
 11
20.8
 21
12.69999999999987
 31
0
  0
LINE
  8
1
 62
7
 10
27.05
 20
12.69999999999987
 30
0
 11
27.05
 21
7.07158388319948
 31
0
  0
LINE
  8
1
 62
7
 10
27.05
 20
7.07158388319948
 30
0
 11
44.05
 21
7.07158388319948
 31
0
  0
LINE
  8
1
 62
7
 10
44.05
 20
7.07158388319948
 30
0
 11
44.05
 21
12.69999999999987
 31
0
  0
LINE
  8
1
 62
7
 10
48.3
 20
9.6594807680126
 30
0
 11
50.8
 21
9.6594807680126
 31
0
  0
LINE
  8
1
 62
7
 10
50.8
 20
8.24526720563949
 30
0
 11
48.3
 21
8.24526720563949
 31
0
  0
LINE
  8
1
 62
7
 10
48.3
 20
8.24526720563949
 30
0
 11
48.3
 21
9.6594807680126
 31
0
  0
LINE
  8
1
 62
7
 10
50.8
 20
9.6594807680126
 30
0
 11
50.8
 21
12.69999999999987
 31
0
  0
LINE
  8
1
 62
7
 10
50.8
 20
-12.69999999999999
 30
0
 11
20.8
 21
-12.69999999999999
 31
0
  0
LINE
  8
1
 62
7
 10
0
 20
13
 30
0
 11
-6.000000000000028
 21
13
 31
0
  0
LINE
  8
1
 62
7
 10
-6.000000000000028
 20
13
 30
0
 11
-6.000000000000028
 21
1
 31
0
  0
LINE
  8
1
 62
7
 10
-6.000000000000028
 20
1
 30
0
 11
5.684341886080801e-014
 21
1
 31
0
  0
LINE
  8
1
 62
7
 10
-9
 20
10
 30
0
 11
-9
 21
9.5
 31
0
  0
LINE
  8
1
 62
7
 10
-9
 20
9.5
 30
0
 11
-21
 21
9.5
 31
0
  0
LINE
  8
1
 62
7
 10
-6
 20
10
 30
0
 11
-9
 21
10
 31
0
  0
LINE
  8
1
 62
7
 10
-21
 20
9.5
 30
0
 11
-21
 21
4
 31
0
  0
LINE
  8
1
 62
7
 10
-21
 20
4
 30
0
 11
-6
 21
4
 31
0
  0
LINE
  8
1
 62
7
 10
0
 20
18
 30
0
 11
0
 21
-18
 31
0
  0
LINE
  8
1
 62
7
 10
19.8
 20
17.25
 30
0
 11
19.8
 21
-17.25
 31
0
  0
LINE
  8
1
 62
2
 10
-78.5
 20
-28.5
 30
0
 11
-27.26879150363792
 21
-28.5
 31
0
  0
LINE
  8
1
 62
7
 10
63.09559716917008
 20
-1.199999999999989
 30
0
 11
67.78468172387154
 21
-1.199999999999989
 31
0
  0
LINE
  8
1
 62
7
 10
63.09559716917008
 20
1.199999999999875
 30
0
 11
67.78468172387154
 21
1.199999999999989
 31
0
  0
LINE
  8
1
 62
7
 10
63.09559716917008
 20
0
 30
0
 11
67.78468172387154
 21
0
 31
0
  0
LINE
  8
1
 62
7
 10
60.59559716917008
 20
1.200000000000045
 30
0
 11
60.07394669805306
 21
1.200000000000045
 31
0
  0
LINE
  8
1
 62
7
 10
59.61106902780099
 20
1.510938469322923
 30
0
 11
56.62614829352489
 21
6.106824979732778
 31
0
  0
LINE
  8
1
 62
7
 10
58.61398915369407
 20
0.2851178024483261
 30
0
 11
55.31903437114304
 21
5.600417538286194
 31
0
  0
LINE
  8
1
 62
7
 10
55.23751528276805
 20
7.039640387701525
 30
0
 11
52.29999999999993
 21
7.039640387701525
 31
0
  0
LINE
  8
1
 62
7
 10
54.829562934412
 20
5.800000000000011
 30
0
 11
52.29999999999993
 21
5.800000000000011
 31
0
  0
LINE
  8
1
 62
7
 10
60.07394669805306
 20
-1.200000000000045
 30
0
 11
60.59559716917008
 21
-1.200000000000045
 31
0
  0
LINE
  8
1
 62
7
 10
56.62614829352489
 20
-6.106824979732778
 30
0
 11
59.61106902780099
 21
-1.510938469322923
 31
0
  0
LINE
  8
1
 62
7
 10
52.29999999999993
 20
-7.039640387701525
 30
0
 11
55.23751528276805
 21
-7.039640387701525
 31
0
  0
LINE
  8
1
 62
7
 10
55.31903437114304
 20
-5.600417538286194
 30
0
 11
58.61398915369407
 21
-0.2851178024484398
 31
0
  0
LINE
  8
1
 62
7
 10
52.29999999999993
 20
-5.800000000000011
 30
0
 11
54.829562934412
 21
-5.800000000000011
 31
0
  0
LINE
  8
1
 62
7
 10
59.31323406331009
 20
0
 30
0
 11
60.59559716917008
 21
0
 31
0
  0
LINE
  8
1
 62
7
 10
60.59559716917008
 20
-1.648112696003864
 30
0
 11
63.09559716917008
 21
-1.648112696003864
 31
0
  0
LINE
  8
1
 62
7
 10
63.98548966995392
 20
1.412715535701466
 30
0
 11
63.85667166228993
 21
4.123731477860701
 31
0
  0
LINE
  8
1
 62
7
 10
63.35723516286405
 20
4.600000000000136
 30
0
 11
60.33395917547589
 21
4.600000000000136
 31
0
  0
LINE
  8
1
 62
7
 10
59.83452267605
 20
4.123731477860701
 30
0
 11
59.7057046683851
 21
1.412715535701466
 31
0
  0
LINE
  8
1
 62
7
 10
63.09559716917008
 20
-1.648112696003864
 30
0
 11
63.09559716917008
 21
1.199999999999875
 31
0
  0
LINE
  8
1
 62
7
 10
60.59559716917008
 20
1.200000000000045
 30
0
 11
60.59559716917008
 21
-1.648112696003864
 31
0
  0
LINE
  8
1
 62
7
 10
60.07394669805306
 20
1.200000000000045
 30
0
 11
63.78589429137104
 21
1.200000000000045
 31
0
  0
ARC
  8
1
 62
7
 10
-100
 20
0
 30
0
 40
12.5
 50
121.6326096964343
 51
243.2563160495969
  0
ARC
  8
1
 62
7
 10
-100
 20
7
 30
0
 40
7.500000000000024
 50
150.9407189319599
 51
243.256316049597
  0
ARC
  8
1
 62
7
 10
-100
 20
7
 30
0
 40
7.500000000000003
 50
296.743683950403
 51
29.05928106804014
  0
ARC
  8
1
 62
7
 10
-100
 20
0
 30
0
 40
12.49999999999997
 50
296.7436839504031
 51
58.36739030356571
  0
ARC
  8
1
 62
7
 10
-100
 20
7
 30
0
 40
6
 50
180
 51
0
  0
ARC
  8
1
 62
3
  6
CENTER
 10
-100
 20
0
 30
0
 40
15.5
 50
180
 51
0
  0
ARC
  8
1
 62
7
 10
-100
 20
0
 30
0
 40
18.5
 50
0
 51
180
  0
ARC
  8
1
 62
3
  6
CENTER
 10
-100
 20
0
 30
0
 40
15.5
 50
0
 51
180
  0
ARC
  8
1
 62
7
 10
-100
 20
7
 30
0
 40
6
 50
0
 51
180
  0
ARC
  8
1
 62
7
 10
-100
 20
0
 30
0
 40
18.5
 50
180
 51
0
  0
CIRCLE
  8
1
 62
7
 10
-100
 20
7
 30
0
 40
3
  0
CIRCLE
  8
1
 62
7
 10
-107.75
 20
13.42339375865879
 30
0
 40
1.800000000000196
  0
CIRCLE
  8
1
 62
7
 10
-107.75
 20
-13.42339375865879
 30
0
 40
1.800000000000196
  0
CIRCLE
  8
1
 62
7
 10
-92.25
 20
13.42339375865879
 30
0
 40
1
  0
CIRCLE
  8
1
 62
7
 10
-115.5
 20
0
 30
0
 40
1
  0
CIRCLE
  8
1
 62
7
 10
-92.25
 20
-13.42339375865879
 30
0
 40
1
  0
CIRCLE
  8
1
 62
2
 10
-92.25
 20
13.42339375865879
 30
0
 40
1.5
  0
CIRCLE
  8
1
 62
2
 10
-115.5
 20
0
 30
0
 40
1.5
  0
CIRCLE
  8
1
 62
2
 10
-92.25
 20
-13.42339375865879
 30
0
 40
1.5
  0
CIRCLE
  8
1
 62
7
 10
-100
 20
-15.5
 30
0
 40
2
  0
CIRCLE
  8
1
 62
7
 10
-113.4233937586588
 20
7.75
 30
0
 40
2
  0
CIRCLE
  8
1
 62
7
 10
-113.4233937586588
 20
7.75
 30
0
 40
1.5
  0
CIRCLE
  8
1
 62
7
 10
-100
 20
-15.5
 30
0
 40
1.5
  0
CIRCLE
  8
1
 62
7
 10
-84.5
 20
0
 30
0
 40
1.799999999999997
  0
CIRCLE
  8
1
 62
7
 10
-86.57660624134121
 20
7.75
 30
0
 40
1.5
  0
CIRCLE
  8
1
 62
7
 10
-86.57660624134121
 20
7.75
 30
0
 40
2
  0
POLYLINE
  8
1
 62
2
 66
1
  0
VERTEX
  8
1
 10
67.78468172387154
 20
1.199999999999989
 30
0
 42
-0.05436175073866433
  0
VERTEX
  8
1
 10
67.93514764957399
 20
1.020660596836399
 30
0
 42
-0.06918166927171912
  0
VERTEX
  8
1
 10
68.01667217883306
 20
0.8458517349041664
 30
0
 42
-0.0725155593178686
  0
VERTEX
  8
1
 10
68.04052696437428
 20
0.67443725581148
 30
0
 42
-0.05966672198149783
  0
VERTEX
  8
1
 10
68.01798365892321
 20
0.5052810011665299
 30
0
 42
-0.03996178692734716
  0
VERTEX
  8
1
 10
67.96031391520538
 20
0.3372468125775058
 30
0
 42
-0.02183926344441664
  0
VERTEX
  8
1
 10
67.87878938594631
 20
0.1691985316525974
 30
0
 42
-0.006803853941139392
  0
VERTEX
  8
1
 10
67.78468172387156
 20
-5.051514762044462e-015
 30
0
 42
0.005650400506667766
  0
VERTEX
  8
1
 10
67.69396618318446
 20
-0.162553544242098
 30
0
 42
0.01759122285957742
  0
VERTEX
  8
1
 10
67.61233581974356
 20
-0.3261657055970183
 30
0
 42
0.0320031091650396
  0
VERTEX
  8
1
 10
67.55006006817327
 20
-0.4898304896828724
 30
0
 42
0.05017479070469084
  0
VERTEX
  8
1
 10
67.51740836309796
 20
-0.652541902117766
 30
0
 42
0.06972643429708562
  0
VERTEX
  8
1
 10
67.52465013914195
 20
-0.8132939485198053
 30
0
 42
0.0805870742832788
  0
VERTEX
  8
1
 10
67.58205483092971
 20
-0.971080634507097
 30
0
 42
0.07380277377884149
  0
VERTEX
  8
1
 10
67.69989187308551
 20
-1.124895965697747
 30
0
  0
VERTEX
  8
1
 10
67.78468172387154
 20
-1.199999999999989
 30
0
  0
SEQEND
  8
1
  0
POLYLINE
  8
1
 62
2
 66
1
  0
VERTEX
  8
1
 10
80.57412507433487
 20
1.19999999999987
 30
0
 42
-0.05436175073875769
  0
VERTEX
  8
1
 10
80.72459100003732
 20
1.020660596836325
 30
0
 42
-0.06918166927173258
  0
VERTEX
  8
1
 10
80.80611552929639
 20
0.845851734904123
 30
0
 42
-0.0725155593176423
  0
VERTEX
  8
1
 10
80.82997031483762
 20
0.6744372558114578
 30
0
 42
-0.05966672198158363
  0
VERTEX
  8
1
 10
80.80742700938654
 20
0.5052810011665205
 30
0
 42
-0.03996178692719151
  0
VERTEX
  8
1
 10
80.74975726566871
 20
0.337246812577503
 30
0
 42
-0.02183926344441503
  0
VERTEX
  8
1
 10
80.66823273640964
 20
0.1691985316525971
 30
0
 42
-0.006803853941268339
  0
VERTEX
  8
1
 10
80.57412507433489
 20
-5.051514762044462e-015
 30
0
 42
0.005650400506468352
  0
VERTEX
  8
1
 10
80.48340953364777
 20
-0.162553544242098
 30
0
 42
0.01759122285951029
  0
VERTEX
  8
1
 10
80.40177917020689
 20
-0.3261657055970183
 30
0
 42
0.0320031091650396
  0
VERTEX
  8
1
 10
80.3395034186366
 20
-0.4898304896828724
 30
0
 42
0.05017479070469084
  0
VERTEX
  8
1
 10
80.30685171356129
 20
-0.652541902117766
 30
0
 42
0.06972643429708562
  0
VERTEX
  8
1
 10
80.31409348960528
 20
-0.8132939485198053
 30
0
 42
0.0805870742832788
  0
VERTEX
  8
1
 10
80.37149818139304
 20
-0.971080634507097
 30
0
 42
0.07380277377865634
  0
VERTEX
  8
1
 10
80.48933522354882
 20
-1.124895965697747
 30
0
  0
VERTEX
  8
1
 10
80.57412507433487
 20
-1.199999999999989
 30
0
  0
SEQEND
  8
1
  0
ARC
  8
1
 62
7
 10
0.5
 20
-18
 30
0
 40
0.5
 50
180
 51
270
  0
ARC
  8
1
 62
7
 10
0.5
 20
18
 30
0
 40
0.5
 50
90
 51
180
  0
ARC
  8
1
 62
7
 10
-104.5
 20
-1.930285549745918
 30
0
 40
2.5
 50
0
 51
63.2563160495974
  0
ARC
  8
1
 62
7
 10
-95.5
 20
-1.930285549745918
 30
0
 40
2.500000000000035
 50
116.7436839504026
 51
180
  0
ARC
  8
1
 62
7
 10
-95.5
 20
-8.930285549745918
 30
0
 40
2.5
 50
180
 51
296.7436839504038
  0
ARC
  8
1
 62
7
 10
-104.5
 20
-8.930285549745918
 30
0
 40
2.499999999999932
 50
243.2563160495962
 51
0
  0
ARC
  8
1
 62
7
 10
-100
 20
-14.7928932188135
 30
0
 40
0.3500000000000169
 50
225.0000000000017
 51
314.9999999999984
  0
ARC
  8
1
 62
7
 10
-100.7071067811865
 20
-15.50000000000011
 30
0
 40
0.3500000000000169
 50
314.9999999999984
 51
45.0000000000144
  0
ARC
  8
1
 62
7
 10
-100
 20
-16.20710678118661
 30
0
 40
0.3500000000000169
 50
45.00000000000165
 51
134.9999999999984
  0
ARC
  8
1
 62
7
 10
-99.2928932188134
 20
-15.50000000000011
 30
0
 40
0.3500000000000948
 50
134.9999999999856
 51
225.0000000000017
  0
ARC
  8
1
 62
7
 10
-100.6363961030679
 20
-15.00502525316938
 30
0
 40
0.04999999999994589
 50
135.0000000000302
 51
225.0000000000101
  0
ARC
  8
1
 62
7
 10
-100.4949747468306
 20
-14.86360389693209
 30
0
 40
0.0499999999999999
 50
44.99999999989349
 51
135.0000000000374
  0
ARC
  8
1
 62
7
 10
-100.6363961030678
 20
-15.99497474683062
 30
0
 40
0.05000000000005141
 50
135.0000000000705
 51
224.9999999998892
  0
ARC
  8
1
 62
7
 10
-100.4949747468306
 20
-16.1363961030678
 30
0
 40
0.05000000000008783
 50
224.9999999999712
 51
315.0000000000172
  0
ARC
  8
1
 62
7
 10
-99.50502525316941
 20
-16.1363961030678
 30
0
 40
0.05000000000000744
 50
225.0000000000633
 51
314.9999999999482
  0
ARC
  8
1
 62
7
 10
-99.36360389693211
 20
-15.99497474683062
 30
0
 40
0.04999999999994589
 50
315.0000000000302
 51
45.00000000001008
  0
ARC
  8
1
 62
7
 10
-99.36360389693211
 20
-15.00502525316932
 30
0
 40
0.05000000000009411
 50
315.0000000000216
 51
44.99999999992083
  0
ARC
  8
1
 62
7
 10
-99.50502525316941
 20
-14.86360389693209
 30
0
 40
0.05000000000000995
 50
44.99999999988197
 51
135.0000000000677
  0
ARC
  8
1
 62
7
 10
-114.106406460551
 20
7.566987298107676
 30
0
 40
0.3499999999999292
 50
330.0000000000021
 51
60.0000000000183
  0
ARC
  8
1
 62
7
 10
-113.2403810567666
 20
7.066987298107676
 30
0
 40
0.3499999999999889
 50
60.0000000000183
 51
150.0000000000031
  0
ARC
  8
1
 62
7
 10
-112.7403810567666
 20
7.93301270189221
 30
0
 40
0.3499999999999997
 50
150.0000000000193
 51
239.9999999999972
  0
ARC
  8
1
 62
7
 10
-113.606406460551
 20
8.43301270189221
 30
0
 40
0.3500000000001854
 50
239.9999999999993
 51
329.9999999999778
  0
ARC
  8
1
 62
7
 10
-113.7367912182805
 20
7.007179676972385
 30
0
 40
0.04999999999997963
 50
240.0000000001295
 51
330.0000000000692
  0
ARC
  8
1
 62
7
 10
-113.9099962990373
 20
7.107179676972407
 30
0
 40
0.0499999999999162
 50
150.0000000001251
 51
240.000000000162
  0
ARC
  8
1
 62
7
 10
-112.7805734356312
 20
7.263397459621501
 30
0
 40
0.05000000000013545
 50
239.9999999999505
 51
330.0000000000123
  0
ARC
  8
1
 62
7
 10
-112.6805734356313
 20
7.436602540378317
 30
0
 40
0.05000000000000146
 50
329.9999999999559
 51
59.99999999998405
  0
ARC
  8
1
 62
7
 10
-112.9367912182805
 20
8.392820323027479
 30
0
 40
0.05000000000011604
 50
329.9999999999564
 51
59.99999999988533
  0
ARC
  8
1
 62
7
 10
-113.1099962990373
 20
8.492820323027388
 30
0
 40
0.05000000000013545
 50
59.99999999995048
 51
149.9999999999477
  0
ARC
  8
1
 62
7
 10
-114.0662140816864
 20
8.236602540378271
 30
0
 40
0.04999999999998014
 50
59.99999999999815
 51
149.9999999999
  0
ARC
  8
1
 62
7
 10
-114.1662140816864
 20
8.063397459621513
 30
0
 40
0.04999999999996074
 50
150.0000000000041
 51
239.9999999999981
  0
ARC
  8
1
 62
7
 10
-87.25961894323331
 20
7.93301270189221
 30
0
 40
0.3499999999999874
 50
299.9999999999819
 51
30.00000000000611
  0
ARC
  8
1
 62
7
 10
-86.75961894323331
 20
7.066987298107676
 30
0
 40
0.3499999999999586
 50
30.00000000000624
 51
120.0000000000099
  0
ARC
  8
1
 62
7
 10
-85.8935935394489
 20
7.566987298107676
 30
0
 40
0.3500000000000884
 50
120.0000000000099
 51
209.9999999999898
  0
ARC
  8
1
 62
7
 10
-86.3935935394489
 20
8.43301270189221
 30
0
 40
0.3500000000001011
 50
210.0000000000141
 51
299.9999999999819
  0
ARC
  8
1
 62
7
 10
-87.2194265643687
 20
7.263397459621501
 30
0
 40
0.04999999999997304
 50
209.9999999999878
 51
300.000000000016
  0
ARC
  8
1
 62
7
 10
-87.3194265643687
 20
7.436602540378317
 30
0
 40
0.04999999999998725
 50
120.0000000000159
 51
209.9999999999872
  0
ARC
  8
1
 62
7
 10
-86.2632087817196
 20
7.007179676972271
 30
0
 40
0.0499999999999162
 50
209.9999999998749
 51
300.0000000001331
  0
ARC
  8
1
 62
7
 10
-86.09000370096281
 20
7.107179676972407
 30
0
 40
0.05000000000013545
 50
300.0000000000495
 51
29.99999999981793
  0
ARC
  8
1
 62
7
 10
-85.83378591831361
 20
8.063397459621513
 30
0
 40
0.050000000000037
 50
300.0000000001147
 51
29.99999999998775
  0
ARC
  8
1
 62
7
 10
-85.9337859183135
 20
8.236602540378385
 30
0
 40
0.05000000000000146
 50
30.00000000004416
 51
120.0000000000159
  0
ARC
  8
1
 62
7
 10
-86.89000370096281
 20
8.492820323027388
 30
0
 40
0.05000000000002988
 50
30.00000000010057
 51
119.999999999838
  0
ARC
  8
1
 62
7
 10
-87.06320878171961
 20
8.392820323027479
 30
0
 40
0.04999999999998014
 50
120.0000000000019
 51
209.9999999999959
  0
ARC
  8
1
 62
7
 10
20.8
 20
-11.69999999999999
 30
0
 40
0.9999999999999396
 50
180
 51
270
  0
ARC
  8
1
 62
7
 10
20.8
 20
11.69999999999987
 30
0
 40
1
 50
90
 51
180
  0
ARC
  8
1
 62
7
 10
60.07394669805306
 20
1.700000000000045
 30
0
 40
0.49999999999996
 50
202.2174691218343
 51
270
  0
ARC
  8
1
 62
7
 10
55.23751528276805
 20
5.539640387701525
 30
0
 40
1.500000000000423
 50
22.21746912182123
 51
90
  0
ARC
  8
1
 62
7
 10
54.829562934412
 20
5.099999999999966
 30
0
 40
0.6999999999999955
 50
45.63354565636264
 51
90
  0
ARC
  8
1
 62
7
 10
60.07394669805306
 20
-1.700000000000045
 30
0
 40
0.5
 50
90
 51
157.7825308781657
  0
ARC
  8
1
 62
7
 10
55.23751528276805
 20
-5.539640387701525
 30
0
 40
1.5
 50
270
 51
337.7825308781788
  0
ARC
  8
1
 62
7
 10
54.829562934412
 20
-5.099999999999966
 30
0
 40
0.7000000000000455
 50
270
 51
314.3664543436374
  0
ARC
  8
1
 62
7
 10
59.31323406331009
 20
1
 30
0
 40
1.000000000000113
 50
225.6335456563491
 51
270
  0
ARC
  8
1
 62
7
 10
59.31323406331009
 20
-1
 30
0
 40
1
 50
90
 51
134.3664543436555
  0
ARC
  8
1
 62
7
 10
63.78589429137104
 20
1.400000000000091
 30
0
 40
0.2000000000000459
 50
270
 51
3.645191185434741
  0
ARC
  8
1
 62
7
 10
60.33395917547589
 20
4.100000000000136
 30
0
 40
0.5
 50
90
 51
177.2795508940695
  0
ARC
  8
1
 62
7
 10
63.35723516286405
 20
4.100000000000136
 30
0
 40
0.5000000000002266
 50
2.720449105930522
 51
90
  0
ARC
  8
1
 62
7
 10
59.90530004696891
 20
1.400000000000091
 30
0
 40
0.2000000000004668
 50
176.3548088145821
 51
192.3470653506605
  0
LINE
  8
1
 62
2
 10
48.77486715733593
 20
22.69999999999987
 30
0
 11
26.09311950294487
 21
22.69999999999987
 31
0
  0
LINE
  8
1
 62
2
 10
26.09311950294487
 20
22.69999999999987
 30
0
 11
33.45309817095398
 21
13.10000000000002
 31
0
  0
SOLID
  8
1
 62
2
 10
30.95791035458673
 20
15.59727039335647
 30
0
 11
31.68927295625434
 21
16.15798009615369
 31
0
 12
33.45309817095398
 22
13.10000000000002
 32
0
 13
33.45309817095398
 23
13.10000000000002
 33
0
  0
LINE
  8
1
 62
2
 10
163.4770955659919
 20
26.10463769237622
 30
0
 11
94.94877426167999
 21
26.10463769237622
 31
0
  0
LINE
  8
1
 62
2
 10
94.94877426167999
 20
26.10463769237622
 30
0
 11
85.25712743645504
 21
1.19999999999987
 31
0
  0
SOLID
  8
1
 62
2
 10
86.09701524176394
 20
4.628835098247615
 30
0
 11
86.95584458473064
 21
4.294621415720477
 31
0
 12
85.25712743645504
 22
1.19999999999987
 32
0
 13
85.25712743645504
 23
1.19999999999987
 33
0
  0
TEXT
  8
1
 62
2
 10
-77.56790206166305
 20
-34.39970405969791
 30
0
 40
3.5
  1
P=120%%d
 41
0.9
 72
1
 73
2
 11
-64.96790206166305
 21
-32.64970405969791
 31
0
  0
TEXT
  8
1
 62
2
 10
80.60784230225703
 20
-38.45274551184114
 30
0
 40
2
  1
%%p0.591
 41
0.63
 72
1
 73
2
 11
85.64784230225703
 21
-37.45274551184114
 31
0
  0
TEXT
  8
1
 62
2
 10
70.42149852911484
 20
-39.05274551184114
 30
0
 40
3.2
  1
(5.906    )
 41
0.6300000000000001
 72
1
 73
2
 11
81.50949852911485
 21
-37.45274551184114
 31
0
  0
TEXT
  8
1
 62
2
 10
93.944
 20
-26.89639656337263
 30
0
 40
3.2
  1
(0.118)
 41
0.6300000000000001
 72
1
 73
2
 11
101
 21
-25.29639656337263
 31
0
  0
TEXT
  8
1
 62
2
 10
29.92764874494608
 20
23.71493706720239
 30
0
 40
3.2
  1
NAME PLATE
 41
0.54
 72
1
 73
2
 11
38.56764874494608
 21
25.31493706720239
 31
0
  0
TEXT
  8
1
 62
2
 10
53.93600000000004
 20
36.30182510987542
 30
0
 40
3.2
  1
(0.0787)
 41
0.6300000000000001
 72
1
 73
2
 11
62.00000000000004
 21
37.90182510987542
 31
0
  0
TEXT
  8
1
 62
2
 10
78.48471102866084
 20
-7.056000000000001
 30
0
 40
3.2
  1
(1DIA.)
 50
90
 41
0.6300000000000001
 72
1
 73
2
 11
76.88471102866083
 21
0
 31
0
  0
TEXT
  8
1
 62
2
 10
97.36508833913689
 20
27.38971452164838
 30
0
 40
3.5
  1
LEAD WIRES (RED,BLACK)
 41
0.9
 73
2
 11
97.36508833913689
 21
29.13971452164838
 31
0
  0
TEXT
  8
1
 62
2
 10
97.36508833913689
 20
20.29309253258662
 30
0
 40
3.5
  1
UL1007 AWG22
 41
0.9
 73
2
 11
97.36508833913689
 21
22.04309253258662
 31
0
  0
TEXT
  8
1
 62
2
 10
-144.75
 20
93.49999999999999
 30
0
 40
5
  1
DME25B36G
 41
0.9
 72
1
 73
2
 11
-124.5
 21
95.99999999999999
 31
0
  0
TEXT
  8
1
 62
2
 10
-130.5342855073226
 20
24.86321680235099
 30
0
 40
2
  1
%%p0.00394
 41
0.63
 72
1
 73
2
 11
-124.2342855073226
 21
25.86321680235099
 31
0
  0
TEXT
  8
1
 62
2
 10
-147.9006292804644
 20
24.26321680235099
 30
0
 40
3.2
  1
(0.472DIA.     )
 41
0.6300000000000001
 72
1
 73
2
 11
-131.7726292804644
 21
25.86321680235099
 31
0
  0
TEXT
  8
1
 62
2
 10
-21.85600000000001
 20
24.30182510987542
 30
0
 40
3.2
  1
(0.472)
 41
0.6300000000000001
 72
1
 73
2
 11
-14.80000000000001
 21
25.90182510987542
 31
0
  0
TEXT
  8
1
 62
2
 10
-27.19572801402973
 20
22.50420862868931
 30
0
 40
2
  1
%%p0.0591
 50
90
 41
0.63
 72
1
 73
2
 11
-28.19572801402973
 21
28.17420862868931
 31
0
  0
TEXT
  8
1
 62
2
 10
-26.59572801402973
 20
13.54786485554754
 30
0
 40
3.2
  1
(0.217    )
 50
90
 41
0.6300000000000001
 72
1
 73
2
 11
-28.19572801402973
 21
24.63586485554754
 31
0
  0
TEXT
  8
1
 62
2
 10
-39.59999999999995
 20
26.30420862868933
 30
0
 40
2
  1
 0
 50
90
 41
0.63
  0
TEXT
  8
1
 62
2
 10
-37.19999999999995
 20
26.30420862868933
 30
0
 40
2
  1
-0.000787
 50
90
 41
0.63
  0
TEXT
  8
1
 62
2
 10
-37.79999999999995
 20
7.499864855547536
 30
0
 40
3.2
  1
(0.236DIA.      )
 50
90
 41
0.6300000000000001
 72
1
 73
2
 11
-39.39999999999995
 21
24.63586485554754
 31
0
  0
TEXT
  8
1
 62
2
 10
-73.7974932522028
 20
-27.48481685313686
 30
0
 40
3.5
  1
(3-M3 DEPTH 0.157MAX)
 41
0.675
 73
2
 11
-73.7974932522028
 21
-25.73481685313686
 31
0
  0
TEXT
  8
1
 62
2
 10
-16.8559999999999
 20
48.30182510987539
 30
0
 40
3.2
  1
(0.827)
 41
0.6300000000000001
 72
1
 73
2
 11
-9.799999999999898
 21
49.90182510987539
 31
0
  0
TEXT
  8
1
 62
2
 10
-111.088
 20
48.30182510987539
 30
0
 40
3.2
  1
(1.457DIA.)
 41
0.6300000000000001
 72
1
 73
2
 11
-100
 21
49.90182510987539
 31
0
  0
TEXT
  8
1
 62
2
 10
-115.12
 20
36.30182510987539
 30
0
 40
3.2
  1
(1.22DIA.     )
 41
0.6300000000000001
 72
1
 73
2
 11
-100
 21
37.90182510987539
 31
0
  0
TEXT
  8
1
 62
2
 10
-67.29928158107747
 20
7.02646225396086
 30
0
 40
3.2
  1
(0.276  　 )
 50
90
 41
0.6300000000000001
 72
1
 73
2
 11
-68.89928158107747
 21
19.12246225396086
 31
0
  0
TEXT
  8
1
 62
2
 10
-100.068455178037
 20
36.90182510987539
 30
0
 40
2
  1
%%p0.00787
 41
0.63
 72
1
 73
2
 11
-93.76845517803702
 21
37.90182510987539
 31
0
  0
TEXT
  8
1
 62
2
 10
-67.89928158107747
 20
17.99989302341045
 30
0
 40
2
  1
%%p0.0197
 50
90
 41
0.63
 72
1
 73
2
 11
-68.89928158107747
 21
23.66989302341045
 31
0
  0
TEXT
  8
1
 62
2
 10
-19.8559999999999
 20
36.30182510987542
 30
0
 40
3.2
  1
(0.236)
 41
0.6300000000000001
 72
1
 73
2
 11
-12.7999999999999
 21
37.90182510987542
 31
0
  0
DIMENSION
  8
1
  6
CONTINUOUS
 62
2
  2
*D0
  3
DMST_1
 10
52.29999999999993
 20
52.5543966577359
 30
0
 11
29.9886338238251
 21
55.1543966577359
 31
0
 12
0
 22
0
 32
0
 70
0
  1
L1
 13
0
 23
18
 33
0
 14
52.29999999999993
 24
12.69999999999987
 34
0
 53
0
  0
DIMENSION
  8
1
  6
CONTINUOUS
 62
2
  2
*D1
  3
DMST_2
 10
-71.4316235022719
 20
7.000000000000002
 30
0
 11
-74.0316235022719
 21
18.8250107120894
 31
0
 12
0
 22
0
 32
0
 70
0
 13
-81.5
 23
0
 33
0
 14
-94
 24
7
 34
0
 50
90
 53
0
  0
DIMENSION
  8
1
  6
CONTINUOUS
 62
2
  2
*D2
  3
DMST_1
 10
-81.5
 20
52.5850951621166
 30
0
 11
-100
 21
55.1850951621166
 31
0
 12
0
 22
0
 32
0
 70
0
  1
φ<>
 13
-118.5
 23
0
 33
0
 14
-81.5
 24
0
 34
0
 53
0
  0
DIMENSION
  8
1
  6
CONTINUOUS
 62
2
  2
*D3
  3
DMST_3
 10
-84.5
 20
40.4410838224926
 30
0
 11
-100
 21
43.0410838224926
 31
0
 12
0
 22
0
 32
0
 70
0
  1
φ<>
 13
-115.5
 23
0
 33
0
 14
-84.5
 24
0
 34
0
 53
0
  0
DIMENSION
  8
1
  6
CONTINUOUS
 62
2
  2
*D4
  3
DMST_4
 10
-106
 20
28.5106797698132
 30
0
 11
-131.999216943645
 21
31.1106797698132
 31
0
 12
0
 22
0
 32
0
 70
0
  1
φ<>
 13
-94
 23
7
 33
0
 14
-106
 24
7
 34
0
 53
0
  0
DIMENSION
  8
1
  6
CONTINUOUS
 62
2
  2
*D5
  3
DMST_5
 10
106.8928580159
 20
-22.73764185217914
 30
0
 11
100.060593499699
 21
-20.13764185217914
 31
0
 12
0
 22
0
 32
0
 70
0
  1
(<>
 13
109.8928580159
 23
-1
 33
0
 14
106.8928580159
 24
-1.199999999999989
 34
0
 53
0
  0
DIMENSION
  8
1
  6
CONTINUOUS
 62
2
  2
*D6
  3
DMST_6
 10
109.8928580159
 20
-34.8263315518523
 30
0
 11
81.09642900794997
 21
-32.2263315518523
 31
0
 12
0
 22
0
 32
0
 70
0
  1
150
 13
52.29999999999993
 23
-12.69999999999999
 33
0
 14
109.8928580159
 24
-1
 34
0
 53
0
  0
DIMENSION
  8
1
  6
CONTINUOUS
 62
2
  2
*D7
  3
DMST_7
 10
54.3
 20
40.4377812577139
 30
0
 11
62.41547194537364
 21
43.0377812577139
 31
0
 12
0
 22
0
 32
0
 70
0
  1
(<>
 13
52.29999999999993
 23
12.69999999999987
 33
0
 14
54.3
 24
5
 34
0
 53
0
  0
DIMENSION
  8
1
  6
CONTINUOUS
 62
2
  2
*D8
  3
DMST_8
 10
74.32482500806589
 20
12.69999999999987
 30
0
 11
71.72482500806589
 21
-6.039613253960852e-014
 31
0
 12
0
 22
0
 32
0
 70
0
  1
φ<>
 13
52.29999999999993
 23
-12.69999999999999
 33
0
 14
52.29999999999993
 24
12.69999999999987
 34
0
 50
90
 53
0
  0
DIMENSION
  8
1
  6
CONTINUOUS
 62
2
  2
*D9
  3
DMST_1
 10
19.8
 20
40.4377812577139
 30
0
 11
9.9
 21
43.0377812577139
 31
0
 12
0
 22
0
 32
0
 70
0
  1
L2
 13
0
 23
18
 33
0
 14
19.8
 24
17.25
 34
0
 53
0
  0
DIMENSION
  8
1
  6
CONTINUOUS
 62
2
  2
*D10
  3
DMST_9
 10
-42.9540336730988
 20
10
 30
0
 11
-46.3540336730988
 21
24.1975251050663
 31
0
 12
0
 22
0
 32
0
 70
0
  1
φ<>
 13
-21
 23
4
 33
0
 14
-9
 24
10
 34
0
 50
90
 53
0
  0
DIMENSION
  8
1
  6
CONTINUOUS
 62
2
  2
*D11
  3
DMST_10
 10
-30.93352917155655
 20
9.5
 30
0
 11
-33.53352917155655
 21
24.7049173863507
 31
0
 12
0
 22
0
 32
0
 70
0
 13
-21
 23
4
 33
0
 14
-21
 24
9.5
 34
0
 50
90
 53
0
  0
DIMENSION
  8
1
  6
CONTINUOUS
 62
2
  2
*D12
  3
DMST_1
 10
-9
 20
28.4777309018375
 30
0
 11
-15
 21
31.0777309018375
 31
0
 12
0
 22
0
 32
0
 70
0
 13
-21
 23
9.5
 33
0
 14
-9
 24
10
 34
0
 53
0
  0
DIMENSION
  8
1
  6
CONTINUOUS
 62
2
  2
*D13
  3
DMST_1
 10
0
 20
52.4645067881646
 30
0
 11
-10.5
 21
55.0645067881646
 31
0
 12
0
 22
0
 32
0
 70
0
 13
-21
 23
9.5
 33
0
 14
0
 24
18
 34
0
 53
0
  0
DIMENSION
  8
1
  6
CONTINUOUS
 62
2
  2
*D14
  3
DMST_1
 10
-6.000000000000031
 20
40.4711188450011
 30
0
 11
-12.61157612812182
 21
43.0711188450011
 31
0
 12
0
 22
0
 32
0
 70
0
 13
0
 23
18
 33
0
 14
-6.000000000000028
 24
13
 34
0
 53
0
  0
INSERT
  8
0
  2
___R___O_______R
 10
0.5000000000000568
 20
-3.75
 30
0
  0
INSERT
  8
0
  2
DME34B36G
 10
437.6912236417212
 20
475.007598067909
 30
0
  0
INSERT
  8
1
  2
*D15
 10
0
 20
0
 30
0
  0
ENDSEC
  0
EOF
