  0
SECTION
  2
HEADER
  9
$ACADVER
  1
AC1009
  9
$INSBASE
 10
0
 20
0
  9
$EXTMIN
 10
-194.5
 20
-146
  9
$EXTMAX
 10
194.5
 20
146
  9
$LIMMIN
 10
-194.5
 20
-146
  9
$LIMMAX
 10
194.5
 20
146
  9
$VIEWCTR
 10
10
 20
10
  9
$VIEWSIZE
 40
10
  9
$SNAPMODE
 70
0
  9
$SNAPUNIT
 10
1
 20
1
  9
$SNAPBASE
 10
0
 20
0
  9
$SNAPANG
 50
0
  9
$SNAPSTYLE
 70
0
  9
$SNAPISOPAIR
 70
0
  9
$GRIDMODE
 70
0
  9
$GRIDUNIT
 10
0
 20
0
  9
$ORTHOMODE
 70
0
  9
$REGENMODE
 70
1
  9
$FILLMODE
 70
1
  9
$QTEXTMODE
 70
0
  9
$DRAGMODE
 70
2
  9
$LTSCALE
 40
1
  9
$OSMODE
 70
0
  9
$ATTMODE
 70
1
  9
$TEXTSIZE
 40
3.5
  9
$TRACEWID
 40
0.5
  9
$TEXTSTYLE
  7
STANDARD
  9
$CLAYER
  8
0
  9
$CELTYPE
  6
BYLAYER
  9
$CECOLOR
 62
256
  9
$DIMSCALE
 40
1
  9
$DIMASZ
 40
0.18
  9
$DIMEXO
 40
0.0625
  9
$DIMDLI
 40
0.38
  9
$DIMRND
 40
0
  9
$DIMDLE
 40
0
  9
$DIMEXE
 40
0.18
  9
$DIMTP
 40
0
  9
$DIMTM
 40
0
  9
$DIMTXT
 40
0.18
  9
$DIMCEN
 40
0.09
  9
$DIMTSZ
 40
0
  9
$DIMTOL
 70
0
  9
$DIMLIM
 70
0
  9
$DIMTIH
 70
1
  9
$DIMTOH
 70
1
  9
$DIMSE1
 70
0
  9
$DIMSE2
 70
0
  9
$DIMTAD
 70
0
  9
$DIMZIN
 70
0
  9
$DIMBLK
  1

  9
$DIMASO
 70
1
  9
$DIMSHO
 70
1
  9
$DIMPOST
  1

  9
$DIMAPOST
  1

  9
$DIMALT
 70
0
  9
$DIMALTD
 70
2
  9
$DIMALTF
 40
25.4
  9
$DIMLFAC
 40
1
  9
$DIMTOFL
 70
0
  9
$DIMTVP
 40
0
  9
$DIMTIX
 70
0
  9
$DIMSOXD
 70
0
  9
$DIMSAH
 70
0
  9
$DIMBLK1
  1

  9
$DIMBLK2
  1

  9
$DIMSTYLE
  2
*UNNAMED
  9
$DIMCLRD
 70
0
  9
$DIMCLRE
 70
0
  9
$DIMCLRT
 70
0
  9
$DIMTFAC
 40
1
  9
$DIMGAP
 40
0.09
  9
$LUNITS
 70
2
  9
$LUPREC
 70
4
  9
$AXISMODE
 70
0
  9
$AXISUNIT
 10
0
 20
0
  9
$SKETCHINC
 40
0.1
  9
$FILLETRAD
 40
2
  9
$AUNITS
 70
0
  9
$AUPREC
 70
0
  9
$MENU
  1
ACAD
  9
$ELEVATION
 40
0
  9
$THICKNESS
 40
0
  9
$VIEWDIR
 10
0
 20
0
 30
1
  9
$LIMCHECK
 70
0
  9
$BLIPMODE
 70
1
  9
$CHAMFERA
 40
0
  9
$CHAMFERB
 40
0
  9
$FASTZOOM
 70
1
  9
$SKPOLY
 70
0
  9
$ANGBASE
 50
0
  9
$ANGDIR
 70
0
  9
$PDMODE
 70
0
  9
$PDSIZE
 40
0
  9
$PLINEWID
 40
0
  9
$COORDS
 70
2
  0
ENDSEC
  0
SECTION
  2
TABLES
  0
TABLE
  2
DIMSTYLE
 70
6
  0
DIMSTYLE
  2
DMST_1
 70
0
  3

  4

  5

  6

  7

 40
1
 41
3.2
 42
1
 43
7
 44
1
 45
0
 46
0
 47
0.2
 48
0.2
140
3.2
141
0
142
0
143
25.4
144
1
145
0
146
0.5
147
0.09
 71
1
 72
0
 73
0
 74
0
 75
0
 76
0
 77
1
 78
9
170
0
171
2
172
0
173
0
174
0
175
0
176
2
177
2
178
2
  0
DIMSTYLE
  2
DMST_2
 70
0
  3

  4

  5

  6

  7

 40
1
 41
3.2
 42
1
 43
7
 44
1
 45
0
 46
0
 47
0
 48
0
140
3.2
141
0
142
0
143
25.4
144
1
145
0
146
1
147
0.09
 71
0
 72
0
 73
0
 74
0
 75
0
 76
0
 77
1
 78
9
170
0
171
2
172
0
173
0
174
0
175
0
176
2
177
2
178
2
  0
DIMSTYLE
  2
DMST_3
 70
0
  3

  4

  5

  6

  7

 40
1
 41
3.2
 42
1
 43
7
 44
1
 45
0
 46
0
 47
0
 48
0.01
140
3.5
141
0
142
0
143
25.4
144
1
145
0
146
0.5
147
0.09
 71
1
 72
0
 73
0
 74
0
 75
0
 76
0
 77
1
 78
9
170
0
171
2
172
0
173
0
174
0
175
0
176
2
177
2
178
2
  0
DIMSTYLE
  2
DMST_4
 70
0
  3

  4

  5

  6

  7

 40
1
 41
3.2
 42
1
 43
7
 44
1
 45
0
 46
0
 47
0
 48
0.1
140
3.2
141
0
142
0
143
25.4
144
1
145
0
146
0.5
147
0.09
 71
1
 72
0
 73
0
 74
0
 75
0
 76
0
 77
1
 78
9
170
0
171
2
172
0
173
0
174
0
175
0
176
2
177
2
178
2
  0
DIMSTYLE
  2
DMST_5
 70
0
  3
)
  4

  5

  6

  7

 40
1
 41
3.2
 42
1
 43
7
 44
1
 45
0
 46
0
 47
0
 48
0
140
3.2
141
0
142
0
143
25.4
144
1
145
0
146
1
147
0.09
 71
0
 72
0
 73
1
 74
1
 75
0
 76
0
 77
1
 78
9
170
0
171
2
172
0
173
0
174
0
175
0
176
2
177
2
178
2
  0
DIMSTYLE
  2
DMST_6
 70
0
  3

  4

  5

  6

  7

 40
1
 41
3.2
 42
1
 43
7
 44
1
 45
0
 46
0
 47
15
 48
15
140
3.2
141
0
142
0
143
25.4
144
1
145
0
146
0.6
147
0.09
 71
1
 72
0
 73
1
 74
1
 75
0
 76
0
 77
1
 78
9
170
0
171
2
172
0
173
0
174
0
175
0
176
2
177
2
178
2
  0
ENDTAB
  0
TABLE
  2
LTYPE
 70
9
  0
LTYPE
  2
CONTINUOUS
 70
64
  3
Solid line
 72
65
 73
0
 40
0
  0
LTYPE
  2
BORDER
 70
64
  3
__ __ . __ __ .
 72
65
 73
6
 40
17.91447368421053
 49
5.118421052631579
 49
-2.559210526315789
 49
5.118421052631579
 49
-2.559210526315789
 49
0
 49
-2.559210526315789
  0
LTYPE
  2
CENTER
 70
64
  3
____ _ ____ _
 72
65
 73
4
 40
20.47368421052632
 49
12.79605263157895
 49
-2.559210526315789
 49
2.559210526315789
 49
-2.559210526315789
  0
LTYPE
  2
DASHDOT
 70
64
  3
__ . __ . __ .
 72
65
 73
4
 40
10.23684210526316
 49
5.118421052631579
 49
-2.559210526315789
 49
0
 49
-2.559210526315789
  0
LTYPE
  2
DASHED
 70
64
  3
__ __ __ __ __
 72
65
 73
2
 40
7.677631578947368
 49
5.118421052631579
 49
-2.559210526315789
  0
LTYPE
  2
DIVIDE
 70
64
  3
__ . . __ . . 
 72
65
 73
6
 40
12.79605263157895
 49
5.118421052631579
 49
-2.559210526315789
 49
0
 49
-2.559210526315789
 49
0
 49
-2.559210526315789
  0
LTYPE
  2
DOT
 70
64
  3
..............
 72
65
 73
4
 40
5.118421052631579
 49
0
 49
-2.559210526315789
 49
0
 49
-2.559210526315789
  0
LTYPE
  2
HIDDEN
 70
64
  3
_ _ _ _ _ _ _
 72
65
 73
2
 40
3.838815789473684
 49
2.559210526315789
 49
-1.279605263157895
  0
LTYPE
  2
PHANTOM
 70
64
  3
_____ _ _ _____ _ _ 
 72
65
 73
6
 40
25.59210526315789
 49
12.79605263157895
 49
-2.559210526315789
 49
2.559210526315789
 49
-2.559210526315789
 49
2.559210526315789
 49
-2.559210526315789
  0
ENDTAB
  0
TABLE
  2
LAYER
 70
3
  0
LAYER
  2
1
 70
0
 62
7
  6
CONTINUOUS
  0
LAYER
  2
0
 70
0
 62
7
  6
CONTINUOUS
  0
ENDTAB
  0
TABLE
  2
STYLE
 70
4
  0
STYLE
  2
STANDARD
 70
0
 40
0
 41
1
 50
0
 71
0
 42
3.5
  3
txt
  4

  0
STYLE
  2
SIMPLEX
 70
0
 40
0
 41
1
 50
0
 71
0
 42
3.5
  3
simplex
  4

  0
STYLE
  2
COMPLEX
 70
0
 40
0
 41
1
 50
0
 71
0
 42
3.5
  3
complex
  4

  0
STYLE
  2
ITALIC
 70
0
 40
0
 41
1
 50
0
 71
0
 42
3.5
  3
italic
  4

  0
ENDTAB
  0
TABLE
  2
VIEW
 70
0
  0
ENDTAB
  0
ENDSEC
  0
SECTION
  2
BLOCKS
  0
BLOCK
  8
0
  2
___R___O_______R
 70
0
 10
0.5
 20
-3.75
 30
0
  0
LINE
  8
1
 62
4
  6
PHANTOM
 10
-194.5
 20
-146
 30
0
 11
194.5
 21
-146
 31
0
  0
LINE
  8
1
 62
4
  6
PHANTOM
 10
194.5
 20
146
 30
0
 11
-194.5
 21
146
 31
0
  0
LINE
  8
1
 62
4
  6
PHANTOM
 10
194.5
 20
146
 30
0
 11
194.5
 21
129
 31
0
  0
LINE
  8
1
 62
4
  6
PHANTOM
 10
-194.5
 20
-146
 30
0
 11
-194.5
 21
146
 31
0
  0
LINE
  8
1
 62
4
  6
PHANTOM
 10
194.5
 20
-136.5
 30
0
 11
194.5
 21
-146
 31
0
  0
TEXT
  8
1
 62
4
 10
178.746911898274
 20
-142.6071298819256
 30
0
 40
5
  1
A3
 41
0.9
 72
1
 73
2
 11
183.246911898274
 21
-140.1071298819256
 31
0
  0
ENDBLK
  8
0
  0
BLOCK
  8
1
  2
*D0
 70
1
 10
0
 20
0
 30
0
  0
LINE
  8
1
 62
2
 10
-103.5
 20
22.7434984515298
 30
0
 11
-86.5
 21
22.7434984515298
 31
0
  0
LINE
  8
1
 62
2
 10
-86.5
 20
22.7434984515298
 30
0
 11
-64.29826747464537
 21
22.7434984515298
 31
0
  0
LINE
  8
1
 62
2
 10
-103.5
 20
2.5
 30
0
 11
-103.5
 21
23.7434984515298
 31
0
  0
LINE
  8
1
 62
2
 10
-86.5
 20
2.5
 30
0
 11
-86.5
 21
23.7434984515298
 31
0
  0
SOLID
  8
1
 62
2
 10
-86.5
 20
22.7434984515298
 30
0
 11
-89.7
 21
22.3274984515298
 31
0
 12
-89.7
 22
23.1594984515298
 32
0
 13
-89.7
 23
23.1594984515298
 33
0
  0
SOLID
  8
1
 62
2
 10
-103.5
 20
22.7434984515298
 30
0
 11
-100.3
 21
23.1594984515298
 31
0
 12
-100.3
 22
22.3274984515298
 32
0
 13
-100.3
 23
22.3274984515298
 33
0
  0
TEXT
  8
1
 62
2
 10
-73.77826747464538
 20
23.7434984515298
 30
0
 40
3.2
  1
17
 41
0.9
  0
TEXT
  8
1
 62
2
 10
-68.33826747464538
 20
24.5434984515298
 30
0
 40
1.6
  1
%%p0.2
 41
0.9
  0
TEXT
  8
1
 62
2
 10
-77.42271191908982
 20
23.7434984515298
 30
0
 40
3.2
  1
ƒÓ
 41
0.9
  0
ENDBLK
  8
0
  0
BLOCK
  8
1
  2
*D1
 70
1
 10
0
 20
0
 30
0
  0
LINE
  8
1
 62
2
 10
0
 20
46.6416457513804
 30
0
 11
12
 21
46.6416457513804
 31
0
  0
LINE
  8
1
 62
2
 10
0
 20
2
 30
0
 11
0
 21
47.6416457513804
 31
0
  0
LINE
  8
1
 62
2
 10
12
 20
12.70000000000005
 30
0
 11
12
 21
47.6416457513804
 31
0
  0
SOLID
  8
1
 62
2
 10
0
 20
46.6416457513804
 30
0
 11
3.200000000000001
 21
47.0576457513804
 31
0
 12
3.200000000000001
 22
46.22564575138041
 32
0
 13
3.200000000000001
 23
46.22564575138041
 33
0
  0
SOLID
  8
1
 62
2
 10
12
 20
46.6416457513804
 30
0
 11
8.799999999999999
 21
46.22564575138041
 31
0
 12
8.799999999999999
 22
47.0576457513804
 32
0
 13
8.799999999999999
 23
47.0576457513804
 33
0
  0
TEXT
  8
1
 62
2
 10
4.08
 20
47.6416457513804
 30
0
 40
3.2
  1
12
 41
0.9
  0
ENDBLK
  8
0
  0
BLOCK
  8
1
  2
*D2
 70
1
 10
0
 20
0
 30
0
  0
LINE
  8
1
 62
2
 10
-13.0935494216811
 20
-7.399999999999999
 30
0
 11
-13.0935494216811
 21
-1
 31
0
  0
LINE
  8
1
 62
2
 10
-13.0935494216811
 20
-1
 30
0
 11
-13.0935494216811
 21
1
 31
0
  0
LINE
  8
1
 62
2
 10
-13.0935494216811
 20
1
 30
0
 11
-13.0935494216811
 21
24.85595850750705
 31
0
  0
LINE
  8
1
 62
2
 10
-1
 20
-1
 30
0
 11
-14.0935494216811
 21
-1
 31
0
  0
LINE
  8
1
 62
2
 10
-1
 20
1
 30
0
 11
-14.0935494216811
 21
1
 31
0
  0
SOLID
  8
1
 62
2
 10
-13.0935494216811
 20
1
 30
0
 11
-13.5095494216811
 21
4.200000000000001
 31
0
 12
-12.6775494216811
 22
4.200000000000001
 32
0
 13
-12.6775494216811
 23
4.200000000000001
 33
0
  0
SOLID
  8
1
 62
2
 10
-13.0935494216811
 20
-1
 30
0
 11
-12.6775494216811
 21
-4.200000000000001
 31
0
 12
-13.5095494216811
 22
-4.200000000000001
 32
0
 13
-13.5095494216811
 23
-4.200000000000001
 33
0
  0
TEXT
  8
1
 62
2
 10
-14.5310494216811
 20
15.36220850750706
 30
0
 40
3.5
  1
2
 50
90
 41
0.9
  0
TEXT
  8
1
 62
2
 10
-16.7185494216811
 20
19.21220850750706
 30
0
 40
1.75
  1
 0
 50
90
 41
0.9
  0
TEXT
  8
1
 62
2
 10
-14.0935494216811
 20
19.21220850750706
 30
0
 40
1.75
  1
-0.01
 50
90
 41
0.9
  0
TEXT
  8
1
 62
2
 10
-14.5310494216811
 20
11.37609739639595
 30
0
 40
3.5
  1
ƒÓ
 50
90
 41
0.9
  0
ENDBLK
  8
0
  0
BLOCK
  8
1
  2
*D3
 70
1
 10
0
 20
0
 30
0
  0
LINE
  8
1
 62
2
 10
-26.0700774780588
 20
3.749999999999998
 30
0
 11
-26.0700774780588
 21
24.78596609107532
 31
0
  0
LINE
  8
1
 62
2
 10
-26.0700774780588
 20
-3.75
 30
0
 11
-26.0700774780588
 21
3.749999999999998
 31
0
  0
LINE
  8
1
 62
2
 10
-26.0700774780588
 20
-10.15
 30
0
 11
-26.0700774780588
 21
-3.75
 31
0
  0
LINE
  8
1
 62
2
 10
9
 20
3.749999999999998
 30
0
 11
-27.0700774780588
 21
3.749999999999998
 31
0
  0
LINE
  8
1
 62
2
 10
9
 20
-3.75
 30
0
 11
-27.0700774780588
 21
-3.75
 31
0
  0
SOLID
  8
1
 62
2
 10
-26.0700774780588
 20
3.749999999999998
 30
0
 11
-26.4860774780588
 21
6.949999999999999
 31
0
 12
-25.6540774780588
 22
6.949999999999999
 32
0
 13
-25.6540774780588
 23
6.949999999999999
 33
0
  0
SOLID
  8
1
 62
2
 10
-26.0700774780588
 20
-3.75
 30
0
 11
-25.6540774780588
 21
-6.950000000000001
 31
0
 12
-26.4860774780588
 22
-6.950000000000001
 32
0
 13
-26.4860774780588
 23
-6.950000000000001
 33
0
  0
TEXT
  8
1
 62
2
 10
-27.4700774780588
 20
13.62596609107532
 30
0
 40
3.2
  1
7.5
 50
90
 41
0.9
  0
TEXT
  8
1
 62
2
 10
-29.4700774780588
 20
21.06596609107532
 30
0
 40
1.6
  1
 0
 50
90
 41
0.9
  0
TEXT
  8
1
 62
2
 10
-27.0700774780588
 20
21.06596609107532
 30
0
 40
1.6
  1
-0.1
 50
90
 41
0.9
  0
TEXT
  8
1
 62
2
 10
-27.4700774780588
 20
9.981521646630876
 30
0
 40
3.2
  1
ƒÓ
 50
90
 41
0.9
  0
ENDBLK
  8
0
  0
BLOCK
  8
1
  2
*D4
 70
1
 10
0
 20
0
 30
0
  0
LINE
  8
1
 62
2
 10
73.52154405521792
 20
-12.69999999999998
 30
0
 11
73.52154405521792
 21
12.70000000000005
 31
0
  0
LINE
  8
1
 62
2
 10
45.5
 20
-12.69999999999998
 30
0
 11
74.52154405521792
 21
-12.69999999999998
 31
0
  0
LINE
  8
1
 62
2
 10
45.5
 20
12.70000000000005
 30
0
 11
74.52154405521792
 21
12.70000000000005
 31
0
  0
SOLID
  8
1
 62
2
 10
73.52154405521792
 20
12.70000000000005
 30
0
 11
73.93754405521791
 21
9.50000000000005
 31
0
 12
73.10554405521792
 22
9.50000000000005
 32
0
 13
73.10554405521792
 23
9.50000000000005
 33
0
  0
SOLID
  8
1
 62
2
 10
73.52154405521792
 20
-12.69999999999998
 30
0
 11
73.10554405521792
 21
-9.499999999999979
 31
0
 12
73.93754405521791
 22
-9.499999999999979
 32
0
 13
73.93754405521791
 23
-9.499999999999979
 33
0
  0
TEXT
  8
1
 62
2
 10
72.52154405521792
 20
-2.537777777777748
 30
0
 40
3.2
  1
25.4
 50
90
 41
0.9
  0
TEXT
  8
1
 62
2
 10
72.52154405521792
 20
-6.182222222222192
 30
0
 40
3.2
  1
ƒÓ
 50
90
 41
0.9
  0
ENDBLK
  8
0
  0
BLOCK
  8
1
  2
*D5
 70
1
 10
0
 20
0
 30
0
  0
LINE
  8
1
 62
2
 10
116.0996931672752
 20
-22.70141406043121
 30
0
 11
109.6996931672752
 21
-22.70141406043121
 31
0
  0
LINE
  8
1
 62
2
 10
106.6996931672752
 20
-22.70141406043121
 30
0
 11
109.6996931672752
 21
-22.70141406043121
 31
0
  0
LINE
  8
1
 62
2
 10
106.6996931672752
 20
-22.70141406043121
 30
0
 11
96.83720308763904
 21
-22.70141406043121
 31
0
  0
LINE
  8
1
 62
2
 10
106.6996931672752
 20
-2.199999999999989
 30
0
 11
106.6996931672752
 21
-23.70141406043121
 31
0
  0
LINE
  8
1
 62
2
 10
109.6996931672752
 20
-1.899999999999981
 30
0
 11
109.6996931672752
 21
-23.70141406043121
 31
0
  0
SOLID
  8
1
 62
2
 10
106.6996931672752
 20
-22.70141406043121
 30
0
 11
103.4996931672752
 21
-23.11741406043121
 31
0
 12
103.4996931672752
 22
-22.28541406043121
 32
0
 13
103.4996931672752
 23
-22.28541406043121
 33
0
  0
SOLID
  8
1
 62
2
 10
109.6996931672752
 20
-22.70141406043121
 30
0
 11
112.8996931672752
 21
-22.28541406043121
 31
0
 12
112.8996931672752
 22
-23.11741406043121
 32
0
 13
112.8996931672752
 23
-23.11741406043121
 33
0
  0
TEXT
  8
1
 62
2
 10
98.91720308763904
 20
-21.70141406043121
 30
0
 40
3.2
  1
3
 41
0.9
  0
TEXT
  8
1
 62
2
 10
96.83720308763903
 20
-21.70141406043121
 30
0
 40
3.2
  1
(
 41
0.9
  0
TEXT
  8
1
 62
2
 10
102.437203087639
 20
-21.70141406043121
 30
0
 40
3.2
  1
)
 41
0.9
  0
ENDBLK
  8
0
  0
BLOCK
  8
1
  2
*D6
 70
1
 10
0
 20
0
 30
0
  0
LINE
  8
1
 62
2
 10
44.49999999999999
 20
-34.68711574755421
 30
0
 11
109.6996931672752
 21
-34.68711574755421
 31
0
  0
LINE
  8
1
 62
2
 10
44.49999999999999
 20
-13.69999999999998
 30
0
 11
44.49999999999999
 21
-35.68711574755421
 31
0
  0
LINE
  8
1
 62
2
 10
109.6996931672752
 20
-1.899999999999977
 30
0
 11
109.6996931672752
 21
-35.68711574755421
 31
0
  0
SOLID
  8
1
 62
2
 10
44.49999999999999
 20
-34.68711574755421
 30
0
 11
47.7
 21
-34.27111574755421
 31
0
 12
47.7
 22
-35.10311574755421
 32
0
 13
47.7
 23
-35.10311574755421
 33
0
  0
SOLID
  8
1
 62
2
 10
109.6996931672752
 20
-34.68711574755421
 30
0
 11
106.4996931672752
 21
-35.10311574755421
 31
0
 12
106.4996931672752
 22
-34.27111574755421
 32
0
 13
106.4996931672752
 23
-34.27111574755421
 33
0
  0
TEXT
  8
1
 62
2
 10
71.11584658363761
 20
-33.68711574755421
 30
0
 40
3.2
  1
150
 41
0.9
  0
TEXT
  8
1
 62
2
 10
79.4358465836376
 20
-33.04711574755421
 30
0
 40
1.92
  1
%%p15
 41
0.9
  0
ENDBLK
  8
0
  0
BLOCK
  8
1
  2
*D7
 70
1
 10
0
 20
0
 30
0
  0
LINE
  8
1
 62
2
 10
38.09999999999999
 20
34.71054166345029
 30
0
 11
44.5
 21
34.71054166345029
 31
0
  0
LINE
  8
1
 62
2
 10
44.5
 20
34.71054166345029
 30
0
 11
46.5
 21
34.71054166345029
 31
0
  0
LINE
  8
1
 62
2
 10
46.5
 20
34.71054166345029
 30
0
 11
56.82388904537773
 21
34.71054166345029
 31
0
  0
LINE
  8
1
 62
2
 10
44.5
 20
13.70000000000006
 30
0
 11
44.5
 21
35.71054166345029
 31
0
  0
LINE
  8
1
 62
2
 10
46.5
 20
5.999999999999996
 30
0
 11
46.5
 21
35.71054166345029
 31
0
  0
SOLID
  8
1
 62
2
 10
44.5
 20
34.71054166345029
 30
0
 11
41.3
 21
34.29454166345029
 31
0
 12
41.3
 22
35.12654166345028
 32
0
 13
41.3
 23
35.12654166345028
 33
0
  0
SOLID
  8
1
 62
2
 10
46.5
 20
34.71054166345029
 30
0
 11
49.7
 21
35.12654166345028
 31
0
 12
49.7
 22
34.29454166345029
 32
0
 13
49.7
 23
34.29454166345029
 33
0
  0
TEXT
  8
1
 62
2
 10
52.82388904537773
 20
35.71054166345029
 30
0
 40
3.2
  1
2
 41
0.9
  0
TEXT
  8
1
 62
2
 10
50.74388904537773
 20
35.71054166345029
 30
0
 40
3.2
  1
(
 41
0.9
  0
TEXT
  8
1
 62
2
 10
56.34388904537773
 20
35.71054166345029
 30
0
 40
3.2
  1
)
 41
0.9
  0
ENDBLK
  8
0
  0
BLOCK
  8
1
  2
*D8
 70
1
 10
0
 20
0
 30
0
  0
LINE
  8
1
 62
2
 10
3.600000000000001
 20
34.72768085066898
 30
0
 11
10
 21
34.72768085066898
 31
0
  0
LINE
  8
1
 62
2
 10
10
 20
34.72768085066898
 30
0
 11
12
 21
34.72768085066898
 31
0
  0
LINE
  8
1
 62
2
 10
12
 20
34.72768085066898
 30
0
 11
19.92048845451333
 21
34.72768085066898
 31
0
  0
LINE
  8
1
 62
2
 10
10
 20
4.75
 30
0
 11
10
 21
35.72768085066898
 31
0
  0
LINE
  8
1
 62
2
 10
12
 20
12.70000000000005
 30
0
 11
12
 21
35.72768085066898
 31
0
  0
SOLID
  8
1
 62
2
 10
10
 20
34.72768085066898
 30
0
 11
6.800000000000003
 21
34.31168085066899
 31
0
 12
6.800000000000003
 22
35.14368085066898
 32
0
 13
6.800000000000003
 23
35.14368085066898
 33
0
  0
SOLID
  8
1
 62
2
 10
12
 20
34.72768085066898
 30
0
 11
15.20000000000001
 21
35.14368085066898
 31
0
 12
15.20000000000001
 22
34.31168085066899
 32
0
 13
15.20000000000001
 23
34.31168085066899
 33
0
  0
TEXT
  8
1
 62
2
 10
18.00048845451333
 20
35.72768085066898
 30
0
 40
3.2
  1
2
 41
0.9
  0
ENDBLK
  8
0
  0
BLOCK
  8
1
  2
*D9
 70
1
 10
0
 20
0
 30
0
  0
LINE
  8
1
 62
2
 10
12
 20
46.5890824671408
 30
0
 11
44.5
 21
46.5890824671408
 31
0
  0
LINE
  8
1
 62
2
 10
12
 20
12.70000000000005
 30
0
 11
12
 21
47.5890824671408
 31
0
  0
LINE
  8
1
 62
2
 10
44.5
 20
13.70000000000005
 30
0
 11
44.5
 21
47.5890824671408
 31
0
  0
SOLID
  8
1
 62
2
 10
12
 20
46.5890824671408
 30
0
 11
15.2
 21
47.0050824671408
 31
0
 12
15.2
 22
46.1730824671408
 32
0
 13
15.2
 23
46.1730824671408
 33
0
  0
SOLID
  8
1
 62
2
 10
44.5
 20
46.5890824671408
 30
0
 11
41.3
 21
46.1730824671408
 31
0
 12
41.3
 22
47.0050824671408
 32
0
 13
41.3
 23
47.0050824671408
 33
0
  0
TEXT
  8
1
 62
2
 10
23.89
 20
47.5890824671408
 30
0
 40
3.2
  1
32.5
 41
0.9
  0
ENDBLK
  8
0
  0
BLOCK
  8
1
  2
*D10
 70
1
 10
0
 20
0
 30
0
  0
LINE
  8
1
 62
2
 10
-104.2779161053869
 20
-1.282515704769189
 30
0
 11
-123.3361175612375
 21
-32.70292531259671
 31
0
  0
LINE
  8
1
 62
2
 10
-123.3361175612375
 20
-32.70292531259671
 30
0
 11
-71.97611756123747
 21
-32.70292531259671
 31
0
  0
SOLID
  8
1
 62
2
 10
-104.2779161053869
 20
-1.282515704769189
 30
0
 11
-105.5817861080897
 21
-4.234291274837446
 31
0
 12
-106.2931548190017
 22
-3.802807141716159
 32
0
 13
-106.2931548190017
 23
-3.802807141716159
 33
0
  0
TEXT
  8
1
 62
2
 10
-118.1361175612375
 20
-31.70292531259671
 30
0
 40
3.2
  1
2-M3
 41
0.9
  0
TEXT
  8
1
 62
2
 10
-105.9761175612375
 20
-31.70292531259671
 30
0
 40
3.2
  1
 DEPTH 4MAX.
 41
0.9
  0
ENDBLK
  8
0
  0
ENDSEC
  0
SECTION
  2
ENTITIES
  0
LINE
  8
1
 62
7
 10
52.27394669805312
 20
1.200000000000045
 30
0
 11
55.9858942913711
 21
1.200000000000045
 31
0
  0
LINE
  8
1
 62
7
 10
52.79559716917015
 20
1.200000000000045
 30
0
 11
52.79559716917015
 21
-1.648112696003864
 31
0
  0
LINE
  8
1
 62
7
 10
55.29559716917015
 20
-1.648112696003864
 30
0
 11
55.29559716917015
 21
1.200000000000045
 31
0
  0
LINE
  8
1
 62
7
 10
52.03452267605007
 20
4.123731477860701
 30
0
 11
51.90570466838517
 21
1.412715535701465
 31
0
  0
LINE
  8
1
 62
7
 10
55.55723516286412
 20
4.600000000000136
 30
0
 11
52.53395917547596
 21
4.600000000000136
 31
0
  0
LINE
  8
1
 62
7
 10
56.18548966995399
 20
1.412715535701465
 30
0
 11
56.05667166229
 21
4.123731477860701
 31
0
  0
LINE
  8
1
 62
7
 10
52.79559716917015
 20
-1.648112696003864
 30
0
 11
55.29559716917015
 21
-1.648112696003864
 31
0
  0
LINE
  8
1
 62
7
 10
51.51323406331016
 20
0
 30
0
 11
52.79559716917015
 21
0
 31
0
  0
LINE
  8
1
 62
7
 10
44.5
 20
-5.800000000000011
 30
0
 11
47.02956293441207
 21
-5.800000000000011
 31
0
  0
LINE
  8
1
 62
7
 10
47.51903437114311
 20
-5.600417538286196
 30
0
 11
50.81398915369414
 21
-0.2851178024484398
 31
0
  0
LINE
  8
1
 62
7
 10
44.5
 20
-7.039640387701525
 30
0
 11
47.43751528276812
 21
-7.039640387701525
 31
0
  0
LINE
  8
1
 62
7
 10
48.82614829352496
 20
-6.10682497973278
 30
0
 11
51.81106902780106
 21
-1.510938469322921
 31
0
  0
LINE
  8
1
 62
7
 10
52.27394669805312
 20
-1.200000000000045
 30
0
 11
52.79559716917015
 21
-1.200000000000045
 31
0
  0
LINE
  8
1
 62
7
 10
47.02956293441207
 20
5.800000000000011
 30
0
 11
44.5
 21
5.800000000000011
 31
0
  0
LINE
  8
1
 62
7
 10
47.43751528276812
 20
7.039640387701525
 30
0
 11
44.5
 21
7.039640387701525
 31
0
  0
LINE
  8
1
 62
7
 10
50.81398915369414
 20
0.2851178024483261
 30
0
 11
47.51903437114311
 21
5.600417538286196
 31
0
  0
LINE
  8
1
 62
7
 10
51.81106902780106
 20
1.510938469322921
 30
0
 11
48.82614829352496
 21
6.10682497973278
 31
0
  0
LINE
  8
1
 62
7
 10
52.79559716917015
 20
1.200000000000045
 30
0
 11
52.27394669805312
 21
1.200000000000045
 31
0
  0
LINE
  8
1
 62
3
 10
-86.5
 20
1.5
 30
0
 11
-86.5
 21
-2.5
 31
0
  0
LINE
  8
1
 62
3
 10
-103.5
 20
1.5
 30
0
 11
-103.5
 21
-2.5
 31
0
  0
LINE
  8
1
 62
7
 10
19.25
 20
11.73327006289344
 30
0
 11
19.25
 21
-11.73327006289332
 31
0
  0
LINE
  8
1
 62
7
 10
36.25
 20
11.73327006289344
 30
0
 11
19.25
 21
11.73327006289344
 31
0
  0
LINE
  8
1
 62
7
 10
36.25
 20
-11.73327006289332
 30
0
 11
36.25
 21
11.73327006289344
 31
0
  0
LINE
  8
1
 62
7
 10
19.25
 20
-11.73327006289332
 30
0
 11
36.25
 21
-11.73327006289332
 31
0
  0
LINE
  8
1
 62
7
 10
106.6996931672752
 20
-0.8999999999999773
 30
0
 11
109.6996931672752
 21
-0.8999999999999773
 31
0
  0
LINE
  8
1
 62
7
 10
106.6996931672752
 20
-0.2999999999999545
 30
0
 11
109.6996931672752
 21
-0.2999999999999545
 31
0
  0
LINE
  8
1
 62
7
 10
106.6996931672752
 20
0.3000000000000114
 30
0
 11
109.6996931672752
 21
0.3000000000000114
 31
0
  0
LINE
  8
1
 62
7
 10
106.6996931672752
 20
0.8955267243601384
 30
0
 11
109.6996931672752
 21
0.8955267243601384
 31
0
  0
LINE
  8
1
 62
7
 10
106.6996931672752
 20
-1.199999999999989
 30
0
 11
106.6996931672752
 21
1.200000000000045
 31
0
  0
LINE
  8
1
 62
7
 10
80.51166482739245
 20
0
 30
0
 11
106.6996931672752
 21
0
 31
0
  0
LINE
  8
1
 62
7
 10
80.39233272227045
 20
1.200000000000045
 30
0
 11
106.6996931672752
 21
1.200000000000045
 31
0
  0
LINE
  8
1
 62
7
 10
0
 20
-1
 30
0
 11
10
 21
-1
 31
0
  0
LINE
  8
1
 62
7
 10
0
 20
1
 30
0
 11
0
 21
-1
 31
0
  0
LINE
  8
1
 62
7
 10
10
 20
1
 30
0
 11
0
 21
1
 31
0
  0
LINE
  8
1
 62
3
 10
-95
 20
14.69999999999998
 30
0
 11
-95
 21
-14.69999999999998
 31
0
  0
LINE
  8
1
 62
3
 10
-103.5
 20
2.5
 30
0
 11
-103.5
 21
1.5
 31
0
  0
LINE
  8
1
 62
3
 10
-86.5
 20
2.5
 30
0
 11
-86.5
 21
1.5
 31
0
  0
LINE
  8
1
 62
3
 10
-96
 20
8.5
 30
0
 11
-94
 21
8.5
 31
0
  0
LINE
  8
1
 62
3
 10
-109.7
 20
0
 30
0
 11
-80.30000000000001
 21
0
 31
0
  0
LINE
  8
1
 62
3
 10
-2.989126611378818
 20
0
 30
0
 11
48.48717572208132
 21
0
 31
0
  0
LINE
  8
1
 62
7
 10
10
 20
-3.75
 30
0
 11
12
 21
-3.75
 31
0
  0
LINE
  8
1
 62
7
 10
12
 20
3.75
 30
0
 11
10
 21
3.75
 31
0
  0
LINE
  8
1
 62
7
 10
10
 20
3.75
 30
0
 11
10
 21
-3.75
 31
0
  0
LINE
  8
1
 62
7
 10
12
 20
11.70000000000005
 30
0
 11
12
 21
-11.69999999999998
 31
0
  0
LINE
  8
1
 62
7
 10
44.5
 20
-4.999999999999886
 30
0
 11
46.5
 21
-4.999999999999886
 31
0
  0
LINE
  8
1
 62
7
 10
46.5
 20
5
 30
0
 11
44.5
 21
5
 31
0
  0
LINE
  8
1
 62
7
 10
43
 20
12.70000000000005
 30
0
 11
43
 21
2
 31
0
  0
LINE
  8
1
 62
7
 10
44.5
 20
12.70000000000005
 30
0
 11
13
 21
12.70000000000005
 31
0
  0
LINE
  8
1
 62
7
 10
43
 20
-2
 30
0
 11
43
 21
-12.69999999999998
 31
0
  0
LINE
  8
1
 62
7
 10
13
 20
-12.69999999999998
 30
0
 11
44.5
 21
-12.69999999999998
 31
0
  0
LINE
  8
1
 62
7
 10
55.35277454540227
 20
-1.199999999999989
 30
0
 11
67.2098510012363
 21
-1.199999999999989
 31
0
  0
LINE
  8
1
 62
7
 10
106.6996931672752
 20
-1.199999999999989
 30
0
 11
80.48220514205246
 21
-1.199999999999989
 31
0
  0
LINE
  8
1
 62
7
 10
55.35277454540227
 20
1.200000000000045
 30
0
 11
67.06068586983429
 21
1.200000000000045
 31
0
  0
LINE
  8
1
 62
7
 10
55.35277454540227
 20
0
 30
0
 11
67.09051889611527
 21
0
 31
0
  0
LINE
  8
1
 62
7
 10
44.5
 20
12.70000000000005
 30
0
 11
44.5
 21
-12.69999999999998
 31
0
  0
LINE
  8
1
 62
7
 10
46.5
 20
5
 30
0
 11
46.5
 21
-4.999999999999886
 31
0
  0
LINE
  8
1
 62
7
 10
40.13241740795798
 20
-1.100000000000023
 30
0
 11
44.5
 21
-1.100000000000023
 31
0
  0
LINE
  8
1
 62
7
 10
40.13241740795798
 20
1.100000000000023
 30
0
 11
44.5
 21
1.100000000000023
 31
0
  0
LINE
  8
1
 62
7
 10
40.5
 20
2
 30
0
 11
43
 21
2
 31
0
  0
LINE
  8
1
 62
7
 10
40.5
 20
1
 30
0
 11
43
 21
1
 31
0
  0
LINE
  8
1
 62
7
 10
43
 20
1
 30
0
 11
43
 21
-1
 31
0
  0
LINE
  8
1
 62
7
 10
40.5
 20
-1
 30
0
 11
43
 21
-1
 31
0
  0
LINE
  8
1
 62
7
 10
40.5
 20
-2
 30
0
 11
43
 21
-2
 31
0
  0
LINE
  8
1
 62
7
 10
41.04875257873556
 20
0.7843922161530372
 30
0
 11
41.04875257873556
 21
-0.7956488116735727
 31
0
  0
LINE
  8
1
 62
7
 10
40.95457794793799
 20
0.8262476076185976
 30
0
 11
40.95457794793799
 21
-0.8584318988719701
 31
0
  0
LINE
  8
1
 62
2
 10
96.30024177609893
 20
19.10463769237635
 30
0
 11
167.5249619190739
 21
19.10463769237635
 31
0
  0
LINE
  8
1
 62
2
 10
-123.213284424432
 20
-39.69999999999998
 30
0
 11
-71.97740792174579
 21
-39.69999999999998
 31
0
  0
ARC
  8
1
 62
7
 10
40.4386301705398
 20
1.5
 30
0
 40
0.5037521771347233
 50
83.00253449784904
 51
276.997465502151
  0
ARC
  8
1
 62
7
 10
40.4386301705398
 20
-1.5
 30
0
 40
0.5037521771347233
 50
83.00253449784904
 51
276.997465502151
  0
CIRCLE
  8
1
 62
7
 10
-86.5
 20
0
 30
0
 40
1.199999999999989
  0
CIRCLE
  8
1
 62
7
 10
-103.5
 20
0
 30
0
 40
1.200000000000003
  0
CIRCLE
  8
1
 62
7
 10
-95
 20
0
 30
0
 40
12.69999999999999
  0
CIRCLE
  8
1
 62
1
 10
-86.5
 20
0
 30
0
 40
1.5
  0
CIRCLE
  8
1
 62
7
 10
-95
 20
0
 30
0
 40
1
  0
CIRCLE
  8
1
 62
7
 10
-95
 20
0
 30
0
 40
3.75
  0
CIRCLE
  8
1
 62
7
 10
-95
 20
8.5
 30
0
 40
0.5
  0
CIRCLE
  8
1
 62
7
 10
-95
 20
0
 30
0
 40
3.599999999999966
  0
CIRCLE
  8
1
 62
1
 10
-103.5
 20
0
 30
0
 40
1.5
  0
POLYLINE
  8
1
 62
2
 66
1
  0
VERTEX
  8
1
 10
80.39233272227045
 20
1.200000000000045
 30
0
 42
-0.005198082039321136
  0
VERTEX
  8
1
 10
80.55633372126393
 20
1.074554052332843
 30
0
 42
-0.01729337036607105
  0
VERTEX
  8
1
 10
80.70673018460609
 20
0.9487046139490467
 30
0
 42
-0.03553118916602144
  0
VERTEX
  8
1
 10
80.82991757664561
 20
0.822048194132061
 30
0
 42
-0.06715837066878297
  0
VERTEX
  8
1
 10
80.91229136173118
 20
0.6941813021652913
 30
0
 42
-0.1137117900365638
  0
VERTEX
  8
1
 10
80.94024700421147
 20
0.5647004473321431
 30
0
 42
-0.09323114121949731
  0
VERTEX
  8
1
 10
80.91431620052904
 20
0.4538051311907287
 30
0
 42
-0.05658461579899423
  0
VERTEX
  8
1
 10
80.84915272051958
 20
0.3416783263626014
 30
0
 42
-0.0316983665068007
  0
VERTEX
  8
1
 10
80.75409642466944
 20
0.2285291348719671
 30
0
 42
-0.01639953596966079
  0
VERTEX
  8
1
 10
80.63848717346494
 20
0.1145666587430314
 30
0
 42
-0.005873990793202256
  0
VERTEX
  8
1
 10
80.51166482739245
 20
0
 30
0
 42
0.003907025439783212
  0
VERTEX
  8
1
 10
80.36182417129932
 20
-0.1341272779120077
 30
0
 42
0.01578903007159247
  0
VERTEX
  8
1
 10
80.22345913558583
 20
-0.2681637020394545
 30
0
 42
0.03361673662305881
  0
VERTEX
  8
1
 10
80.11059619601123
 20
-0.4014804221473898
 30
0
 42
0.06413207051355517
  0
VERTEX
  8
1
 10
80.03726182833475
 20
-0.5334485880008623
 30
0
 42
0.1145556864117171
  0
VERTEX
  8
1
 10
80.0174825083156
 20
-0.6634393493649213
 30
0
 42
0.1090716939172881
  0
VERTEX
  8
1
 10
80.05071892903732
 20
-0.7730540989882875
 30
0
 42
0.04133572540825483
  0
VERTEX
  8
1
 10
80.12376075377614
 20
-0.8811337689474184
 30
0
 42
0.04465395332692867
  0
VERTEX
  8
1
 10
80.22665663152779
 20
-0.9880621291583732
 30
0
 42
0.001253376453351498
  0
VERTEX
  8
1
 10
80.34945521128799
 20
-1.09422294953721
 30
0
 42
0.0187805094581564
  0
VERTEX
  8
1
 10
80.48220514205246
 20
-1.199999999999989
 30
0
  0
SEQEND
  8
1
  0
POLYLINE
  8
1
 62
2
 66
1
  0
VERTEX
  8
1
 10
67.06068586983429
 20
1.200000000000045
 30
0
 42
-0.004844942787156904
  0
VERTEX
  8
1
 10
67.18073569816636
 20
1.09227538547053
 30
0
 42
-0.01569550124672772
  0
VERTEX
  8
1
 10
67.2920030204515
 20
0.9840320327121466
 30
0
 42
-0.03042914231082204
  0
VERTEX
  8
1
 10
67.38570533064282
 20
0.8747512034960282
 30
0
 42
-0.05249230308355132
  0
VERTEX
  8
1
 10
67.45306012269337
 20
0.7639141595933067
 30
0
 42
-0.08230541111984117
  0
VERTEX
  8
1
 10
67.48528489055627
 20
0.6510021627751144
 30
0
 42
-0.09344499784144868
  0
VERTEX
  8
1
 10
67.47334479414033
 20
0.5243629317805442
 30
0
 42
-0.06138000060460654
  0
VERTEX
  8
1
 10
67.41822985709354
 20
0.3952728121349007
 30
0
 42
-0.03629755157451151
  0
VERTEX
  8
1
 10
67.32960836881063
 20
0.2644020917090308
 30
0
 42
-0.02013763035965092
  0
VERTEX
  8
1
 10
67.21714861868632
 20
0.1324210583737817
 30
0
 42
-0.009108286659897566
  0
VERTEX
  8
1
 10
67.09051889611527
 20
0
 30
0
 42
0.0008798202304397258
  0
VERTEX
  8
1
 10
66.94833659477392
 20
-0.1436737691122868
 30
0
 42
0.0130320669315297
  0
VERTEX
  8
1
 10
66.81562256727619
 20
-0.285460549777008
 30
0
 42
0.0306310493714664
  0
VERTEX
  8
1
 10
66.70717457444972
 20
-0.423745958870772
 30
0
 42
0.06182213214792928
  0
VERTEX
  8
1
 10
66.6377903771222
 20
-0.5569156132701871
 30
0
 42
0.1178812857803298
  0
VERTEX
  8
1
 10
66.62226773612127
 20
-0.6833551298518614
 30
0
 42
0.1313210309056275
  0
VERTEX
  8
1
 10
66.66628475195871
 20
-0.7956168938811707
 30
0
 42
0.04202633022929975
  0
VERTEX
  8
1
 10
66.75930152591987
 20
-0.9019234645773576
 30
0
 42
0.05133018760139994
  0
VERTEX
  8
1
 10
66.8890681184738
 20
-1.003763640273703
 30
0
 42
0.01609913222113423
  0
VERTEX
  8
1
 10
67.04333459008959
 20
-1.102626219303486
 30
0
 42
0.004289559746647489
  0
VERTEX
  8
1
 10
67.2098510012363
 20
-1.199999999999989
 30
0
  0
SEQEND
  8
1
  0
ARC
  8
1
 62
7
 10
52.10530004696898
 20
1.400000000000091
 30
0
 40
0.2000000000004667
 50
176.3548088145824
 51
192.3470653506604
  0
ARC
  8
1
 62
7
 10
55.55723516286412
 20
4.100000000000136
 30
0
 40
0.5000000000002266
 50
2.720449105930522
 51
90
  0
ARC
  8
1
 62
7
 10
52.53395917547596
 20
4.100000000000136
 30
0
 40
0.5
 50
90
 51
177.2795508940695
  0
ARC
  8
1
 62
7
 10
55.9858942913711
 20
1.400000000000091
 30
0
 40
0.2000000000000459
 50
270
 51
3.645191185434423
  0
ARC
  8
1
 62
7
 10
51.51323406331016
 20
-1
 30
0
 40
1
 50
90
 51
134.3664543436555
  0
ARC
  8
1
 62
7
 10
51.51323406331016
 20
1
 30
0
 40
1.000000000000113
 50
225.6335456563491
 51
270
  0
ARC
  8
1
 62
7
 10
47.02956293441207
 20
-5.099999999999966
 30
0
 40
0.7000000000000455
 50
270
 51
314.3664543436372
  0
ARC
  8
1
 62
7
 10
47.43751528276812
 20
-5.539640387701525
 30
0
 40
1.5
 50
270
 51
337.7825308781788
  0
ARC
  8
1
 62
7
 10
52.27394669805312
 20
-1.700000000000045
 30
0
 40
0.5
 50
90
 51
157.7825308781651
  0
ARC
  8
1
 62
7
 10
47.02956293441207
 20
5.099999999999966
 30
0
 40
0.6999999999999975
 50
45.63354565636279
 51
90
  0
ARC
  8
1
 62
7
 10
47.43751528276812
 20
5.539640387701525
 30
0
 40
1.500000000000424
 50
22.2174691218213
 51
90
  0
ARC
  8
1
 62
7
 10
52.27394669805312
 20
1.700000000000045
 30
0
 40
0.4999999999999542
 50
202.2174691218349
 51
270
  0
ARC
  8
1
 62
7
 10
13
 20
11.70000000000005
 30
0
 40
1
 50
90
 51
180
  0
ARC
  8
1
 62
7
 10
13
 20
-11.69999999999998
 30
0
 40
1
 50
180
 51
270
  0
LINE
  8
1
 62
2
 10
167.5249619190739
 20
26.10463769237634
 30
0
 11
98.99664061476203
 21
26.10463769237634
 31
0
  0
LINE
  8
1
 62
2
 10
98.99664061476203
 20
26.10463769237634
 30
0
 11
89.30499378953702
 21
1.200000000000045
 31
0
  0
SOLID
  8
1
 62
2
 10
90.14488159484594
 20
4.628835098247787
 30
0
 11
91.00371093781264
 21
4.294621415720648
 31
0
 12
89.30499378953702
 22
1.200000000000045
 32
0
 13
89.30499378953702
 23
1.200000000000045
 33
0
  0
LINE
  8
1
 62
2
 10
37.85412720235144
 20
22.70000000000005
 30
0
 11
15.17237954796036
 21
22.70000000000005
 31
0
  0
LINE
  8
1
 62
2
 10
15.17237954796036
 20
22.70000000000005
 30
0
 11
22.89989919024532
 21
11.73327006289344
 31
0
  0
SOLID
  8
1
 62
2
 10
20.50722738401927
 20
14.32892860826747
 30
0
 11
21.26056156490377
 21
14.85975272022928
 31
0
 12
22.89989919024532
 22
11.73327006289344
 32
0
 13
22.89989919024532
 23
11.73327006289344
 33
0
  0
TEXT
  8
1
 62
2
 10
-138
 20
93.5
 30
0
 40
5
  1
DME25B
 41
0.9
 72
1
 73
2
 11
-124.5
 21
96
 31
0
  0
TEXT
  8
1
 62
2
 10
-118.992341623507
 20
-38.68481685313687
 30
0
 40
3.5
  1
(2-M3 DEPTH 0.157MAX)
 41
0.693
 73
2
 11
-118.992341623507
 21
-36.93481685313687
 31
0
  0
TEXT
  8
1
 62
2
 10
100.412954692219
 20
20.29309253258674
 30
0
 40
3.5
  1
UL1007 AWG24
 41
0.9
 73
2
 11
100.412954692219
 21
22.04309253258674
 31
0
  0
TEXT
  8
1
 62
2
 10
100.412954692219
 20
27.38971452164856
 30
0
 40
3.5
  1
LEAD WIRES (RED,BLACK)
 41
0.9
 73
2
 11
100.412954692219
 21
29.13971452164856
 31
0
  0
TEXT
  8
1
 62
2
 10
-8.000000000000004
 20
1.478462253960796
 30
0
 40
3.2
  1
(0.0787DIA.      )
 50
90
 41
0.6300000000000001
 72
1
 73
2
 11
-9.600000000000001
 21
19.6224622539608
 31
0
  0
TEXT
  8
1
 62
2
 10
-9.800000000000003
 20
22.1908060271026
 30
0
 40
2
  1
 0
 50
90
 41
0.63
  0
TEXT
  8
1
 62
2
 10
-7.400000000000002
 20
22.1908060271026
 30
0
 40
2
  1
-0.000394
 50
90
 41
0.63
  0
TEXT
  8
1
 62
2
 10
-20.99455918300732
 20
1.494462253960798
 30
0
 40
3.2
  1
(0.295DIA.     )
 50
90
 41
0.6300000000000001
 72
1
 73
2
 11
-22.59455918300732
 21
17.6224622539608
 31
0
  0
TEXT
  8
1
 62
2
 10
-22.6810292149371
 20
19.9208060271026
 30
0
 40
2
  1
 0
 50
90
 41
0.63
  0
TEXT
  8
1
 62
2
 10
-20.2810292149371
 20
19.9208060271026
 30
0
 40
2
  1
-0.00394
 50
90
 41
0.63
  0
TEXT
  8
1
 62
2
 10
77.69910565776202
 20
-7.056000000000001
 30
0
 40
3.2
  1
(1DIA.)
 50
90
 41
0.6300000000000001
 72
1
 73
2
 11
76.09910565776201
 21
0
 31
0
  0
TEXT
  8
1
 62
2
 10
-1.25599999999891
 20
42.48458216447905
 30
0
 40
3.2
  1
(0.472)
 41
0.6300000000000001
 72
1
 73
2
 11
5.800000000001091
 21
44.08458216447905
 31
0
  0
TEXT
  8
1
 62
2
 10
22.45200000000114
 20
42.48458216447905
 30
0
 40
3.2
  1
(1.28)
 41
0.6300000000000001
 72
1
 73
2
 11
28.50000000000114
 21
44.08458216447905
 31
0
  0
TEXT
  8
1
 62
2
 10
10.93600000000114
 20
30.50563111185166
 30
0
 40
3.2
  1
(0.0787)
 41
0.6300000000000001
 72
1
 73
2
 11
19.00000000000114
 21
32.10563111185166
 31
0
  0
TEXT
  8
1
 62
2
 10
45.43600000000114
 20
30.50563111185166
 30
0
 40
3.2
  1
(0.0787)
 41
0.6300000000000001
 72
1
 73
2
 11
53.50000000000114
 21
32.10563111185166
 31
0
  0
TEXT
  8
1
 62
2
 10
20.00690878996152
 20
23.71493706720255
 30
0
 40
3.2
  1
NAME PLATE
 41
0.54
 72
1
 73
2
 11
28.64690878996152
 21
25.31493706720255
 31
0
  0
TEXT
  8
1
 62
2
 10
93.4440000000011
 20
-26.90756519928356
 30
0
 40
3.2
  1
(0.118)
 41
0.6300000000000001
 72
1
 73
2
 11
100.5000000000011
 21
-25.30756519928356
 31
0
  0
TEXT
  8
1
 62
2
 10
67.61449852911595
 20
-38.95167843723058
 30
0
 40
3
  1
(5.906    )
 41
0.6300000000000001
 72
1
 73
2
 11
78.00949852911595
 21
-37.45167843723058
 31
0
  0
TEXT
  8
1
 62
2
 10
77.40784230225812
 20
-38.45167843723058
 30
0
 40
2
  1
%%p0.591
 41
0.63
 72
1
 73
2
 11
82.44784230225812
 21
-37.45167843723058
 31
0
  0
TEXT
  8
1
 62
2
 10
-87.03377820999206
 20
18.49999999999999
 30
0
 40
3.2
  1
(0.669DIA.     )
 41
0.6300000000000001
 72
1
 73
2
 11
-70.90577820999206
 21
20.09999999999999
 31
0
  0
TEXT
  8
1
 62
2
 10
-69.55090741297467
 20
19.09999999999999
 30
0
 40
2
  1
%%p0.00787
 41
0.63
 72
1
 73
2
 11
-63.25090741297466
 21
20.09999999999999
 31
0
  0
DIMENSION
  8
1
  6
CONTINUOUS
 62
2
  2
*D0
  3
DMST_1
 10
-86.5
 20
22.7434984515298
 30
0
 11
-70.8604896968676
 21
25.3434984515298
 31
0
 12
0
 22
0
 32
0
 70
0
  1
ƒÓ<>
 13
-103.5
 23
1.5
 33
0
 14
-86.5
 24
1.5
 34
0
 53
0
  0
DIMENSION
  8
1
  6
CONTINUOUS
 62
2
  2
*D1
  3
DMST_2
 10
0
 20
46.6416457513804
 30
0
 11
6
 21
49.2416457513804
 31
0
 12
0
 22
0
 32
0
 70
0
 13
12
 23
11.70000000000005
 33
0
 14
0
 24
1
 34
0
 53
0
  0
DIMENSION
  8
1
  6
CONTINUOUS
 62
2
  2
*D2
  3
DMST_3
 10
-13.0935494216811
 20
1
 30
0
 11
-16.2810494216811
 21
18.1160279519515
 31
0
 12
0
 22
0
 32
0
 70
0
  1
ƒÓ<>
 13
0
 23
-1
 33
0
 14
0
 24
1
 34
0
 50
90
 53
0
  0
DIMENSION
  8
1
  6
CONTINUOUS
 62
2
  2
*D3
  3
DMST_4
 10
-26.0700774780588
 20
3.749999999999998
 30
0
 11
-29.0700774780588
 21
17.3837438688531
 31
0
 12
0
 22
0
 32
0
 70
0
  1
ƒÓ<>
 13
10
 23
-3.75
 33
0
 14
10
 24
3.75
 34
0
 50
90
 53
0
  0
DIMENSION
  8
1
  6
CONTINUOUS
 62
2
  2
*D4
  3
DMST_2
 10
73.52154405521792
 20
-12.69999999999998
 30
0
 11
70.92154405521792
 21
3.019806626980426e-014
 31
0
 12
0
 22
0
 32
0
 70
0
  1
ƒÓ<>
 13
44.5
 23
12.70000000000005
 33
0
 14
44.5
 24
-12.69999999999998
 34
0
 50
90
 53
0
  0
DIMENSION
  8
1
  6
CONTINUOUS
 62
2
  2
*D5
  3
DMST_5
 10
106.6996931672752
 20
-22.70141406043121
 30
0
 11
99.87720308763903
 21
-20.10141406043121
 31
0
 12
0
 22
0
 32
0
 70
0
  1
(<>
 13
109.6996931672752
 23
-0.8999999999999773
 33
0
 14
106.6996931672752
 24
-1.199999999999989
 34
0
 53
0
  0
DIMENSION
  8
1
  6
CONTINUOUS
 62
2
  2
*D6
  3
DMST_6
 10
44.49999999999999
 20
-34.68711574755421
 30
0
 11
77.0998465836376
 21
-32.08711574755421
 31
0
 12
0
 22
0
 32
0
 70
0
  1
150
 13
109.6996931672752
 23
-0.8999999999999773
 33
0
 14
44.5
 24
-12.69999999999998
 34
0
 53
0
  0
DIMENSION
  8
1
  6
CONTINUOUS
 62
2
  2
*D7
  3
DMST_5
 10
46.5
 20
34.71054166345029
 30
0
 11
53.78388904537773
 21
37.31054166345029
 31
0
 12
0
 22
0
 32
0
 70
0
  1
(<>
 13
44.5
 23
12.70000000000005
 33
0
 14
46.5
 24
5
 34
0
 53
0
  0
DIMENSION
  8
1
  6
CONTINUOUS
 62
2
  2
*D8
  3
DMST_2
 10
12
 20
34.72768085066898
 30
0
 11
18.96048845451333
 21
37.32768085066898
 31
0
 12
0
 22
0
 32
0
 70
0
 13
10
 23
3.75
 33
0
 14
12
 24
11.70000000000005
 34
0
 53
0
  0
DIMENSION
  8
1
  6
CONTINUOUS
 62
2
  2
*D9
  3
DMST_2
 10
12
 20
46.5890824671408
 30
0
 11
28.25
 21
49.1890824671408
 31
0
 12
0
 22
0
 32
0
 70
0
 13
44.5
 23
12.70000000000005
 33
0
 14
12
 24
11.70000000000005
 34
0
 53
0
  0
INSERT
  8
0
  2
___R___O_______R
 10
0.5
 20
-3.75
 30
0
  0
INSERT
  8
1
  2
*D10
 10
0
 20
0
 30
0
  0
ENDSEC
  0
EOF
