  0
SECTION
  2
HEADER
  9
$ACADVER
  1
AC1009
  9
$INSBASE
 10
0
 20
0
  9
$EXTMIN
 10
-184.0532171178944
 20
-106.1675252967333
  9
$EXTMAX
 10
185.2000000000003
 20
104.2
  9
$LIMMIN
 10
-184.0532171178944
 20
-106.1675252967333
  9
$LIMMAX
 10
185.2000000000003
 20
104.2
  9
$VIEWCTR
 10
10
 20
10
  9
$VIEWSIZE
 40
10
  9
$SNAPMODE
 70
0
  9
$SNAPUNIT
 10
1
 20
1
  9
$SNAPBASE
 10
0
 20
0
  9
$SNAPANG
 50
0
  9
$SNAPSTYLE
 70
0
  9
$SNAPISOPAIR
 70
0
  9
$GRIDMODE
 70
0
  9
$GRIDUNIT
 10
0
 20
0
  9
$ORTHOMODE
 70
0
  9
$REGENMODE
 70
1
  9
$FILLMODE
 70
1
  9
$QTEXTMODE
 70
0
  9
$DRAGMODE
 70
2
  9
$LTSCALE
 40
1
  9
$OSMODE
 70
0
  9
$ATTMODE
 70
1
  9
$TEXTSIZE
 40
3.5
  9
$TRACEWID
 40
0.5
  9
$TEXTSTYLE
  7
STANDARD
  9
$CLAYER
  8
0
  9
$CELTYPE
  6
BYLAYER
  9
$CECOLOR
 62
256
  9
$DIMSCALE
 40
1
  9
$DIMASZ
 40
0.18
  9
$DIMEXO
 40
0.0625
  9
$DIMDLI
 40
0.38
  9
$DIMRND
 40
0
  9
$DIMDLE
 40
0
  9
$DIMEXE
 40
0.18
  9
$DIMTP
 40
0
  9
$DIMTM
 40
0
  9
$DIMTXT
 40
0.18
  9
$DIMCEN
 40
0.09
  9
$DIMTSZ
 40
0
  9
$DIMTOL
 70
0
  9
$DIMLIM
 70
0
  9
$DIMTIH
 70
1
  9
$DIMTOH
 70
1
  9
$DIMSE1
 70
0
  9
$DIMSE2
 70
0
  9
$DIMTAD
 70
0
  9
$DIMZIN
 70
0
  9
$DIMBLK
  1

  9
$DIMASO
 70
1
  9
$DIMSHO
 70
1
  9
$DIMPOST
  1

  9
$DIMAPOST
  1

  9
$DIMALT
 70
0
  9
$DIMALTD
 70
2
  9
$DIMALTF
 40
25.4
  9
$DIMLFAC
 40
1
  9
$DIMTOFL
 70
0
  9
$DIMTVP
 40
0
  9
$DIMTIX
 70
0
  9
$DIMSOXD
 70
0
  9
$DIMSAH
 70
0
  9
$DIMBLK1
  1

  9
$DIMBLK2
  1

  9
$DIMSTYLE
  2
*UNNAMED
  9
$DIMCLRD
 70
0
  9
$DIMCLRE
 70
0
  9
$DIMCLRT
 70
0
  9
$DIMTFAC
 40
1
  9
$DIMGAP
 40
0.09
  9
$LUNITS
 70
2
  9
$LUPREC
 70
4
  9
$AXISMODE
 70
0
  9
$AXISUNIT
 10
0
 20
0
  9
$SKETCHINC
 40
0.1
  9
$FILLETRAD
 40
2
  9
$AUNITS
 70
0
  9
$AUPREC
 70
0
  9
$MENU
  1
ACAD
  9
$ELEVATION
 40
0
  9
$THICKNESS
 40
0
  9
$VIEWDIR
 10
0
 20
0
 30
1
  9
$LIMCHECK
 70
0
  9
$BLIPMODE
 70
1
  9
$CHAMFERA
 40
0
  9
$CHAMFERB
 40
0
  9
$FASTZOOM
 70
1
  9
$SKPOLY
 70
0
  9
$ANGBASE
 50
0
  9
$ANGDIR
 70
0
  9
$PDMODE
 70
0
  9
$PDSIZE
 40
0
  9
$PLINEWID
 40
0
  9
$COORDS
 70
2
  0
ENDSEC
  0
SECTION
  2
TABLES
  0
TABLE
  2
DIMSTYLE
 70
10
  0
DIMSTYLE
  2
DMST_1
 70
0
  3

  4

  5

  6

  7

 40
1
 41
0
 42
1
 43
7
 44
1
 45
0
 46
0
 47
0
 48
0
140
3.2
141
0
142
0
143
25.4
144
1
145
0
146
1
147
0.09
 71
0
 72
0
 73
0
 74
0
 75
0
 76
0
 77
1
 78
9
170
0
171
2
172
0
173
0
174
0
175
0
176
2
177
2
178
2
  0
DIMSTYLE
  2
DMST_2
 70
0
  3
×T0.5
  4

  5

  6

  7

 40
1
 41
3.2
 42
1
 43
7
 44
1
 45
0
 46
0
 47
0
 48
0
140
3.2
141
0
142
0
143
25.4
144
1
145
0
146
1
147
0.09
 71
0
 72
0
 73
0
 74
0
 75
0
 76
0
 77
1
 78
9
170
0
171
2
172
0
173
0
174
0
175
0
176
2
177
2
178
2
  0
DIMSTYLE
  2
DMST_3
 70
0
  3

  4

  5

  6

  7
DOT
 40
1
 41
3.2
 42
1
 43
7
 44
1
 45
0
 46
0
 47
0
 48
0
140
3.2
141
0
142
0
143
25.4
144
1
145
0
146
1
147
0.09
 71
0
 72
0
 73
0
 74
0
 75
0
 76
0
 77
1
 78
9
170
0
171
2
172
0
173
1
174
0
175
0
176
2
177
2
178
2
  0
DIMSTYLE
  2
DMST_4
 70
0
  3

  4

  5

  6

  7

 40
1
 41
3.2
 42
1
 43
7
 44
1
 45
0
 46
0
 47
0
 48
0
140
3.2
141
0
142
0
143
25.4
144
1
145
0
146
1
147
0.09
 71
0
 72
0
 73
0
 74
0
 75
0
 76
0
 77
1
 78
9
170
0
171
2
172
0
173
0
174
0
175
0
176
2
177
2
178
2
  0
DIMSTYLE
  2
DMST_5
 70
0
  3
)
  4

  5

  6

  7

 40
1
 41
3.2
 42
1
 43
7
 44
1
 45
0
 46
0
 47
0
 48
0
140
3.2
141
0
142
0
143
25.4
144
1
145
0
146
1
147
0.09
 71
0
 72
0
 73
0
 74
0
 75
0
 76
0
 77
1
 78
9
170
0
171
2
172
0
173
0
174
0
175
0
176
2
177
2
178
2
  0
DIMSTYLE
  2
DMST_6
 70
0
  3

  4

  5

  6

  7

 40
1
 41
3.2
 42
1
 43
7
 44
1
 45
0
 46
0
 47
0.3
 48
0.3
140
3.2
141
0
142
0
143
25.4
144
1
145
0
146
0.6
147
0.09
 71
1
 72
0
 73
0
 74
0
 75
0
 76
0
 77
1
 78
9
170
0
171
2
172
0
173
0
174
0
175
0
176
2
177
2
178
2
  0
DIMSTYLE
  2
DMST_7
 70
0
  3

  4

  5

  6

  7

 40
1
 41
3.2
 42
1
 43
7
 44
1
 45
0
 46
0
 47
0.5
 48
0.5
140
3.2
141
0
142
0
143
25.4
144
1
145
0
146
0.6
147
0.09
 71
1
 72
0
 73
0
 74
0
 75
0
 76
0
 77
1
 78
9
170
0
171
2
172
0
173
0
174
0
175
0
176
2
177
2
178
2
  0
DIMSTYLE
  2
DMST_8
 70
0
  3

  4

  5

  6

  7

 40
1
 41
3.2
 42
1
 43
7
 44
1
 45
0
 46
0
 47
0.03
 48
0
140
3.2
141
0
142
0
143
25.4
144
1
145
0
146
0.6
147
0.09
 71
1
 72
0
 73
0
 74
0
 75
0
 76
0
 77
1
 78
9
170
0
171
2
172
0
173
0
174
0
175
0
176
2
177
2
178
2
  0
DIMSTYLE
  2
DMST_9
 70
0
  3

  4

  5

  6

  7

 40
1
 41
3.2
 42
1
 43
7
 44
1
 45
0
 46
0
 47
0
 48
0
140
3.2
141
0
142
0
143
25.4
144
1
145
0
146
0.6
147
0.09
 71
1
 72
0
 73
0
 74
0
 75
0
 76
0
 77
1
 78
9
170
0
171
2
172
0
173
0
174
0
175
0
176
2
177
2
178
2
  0
DIMSTYLE
  2
DMST_10
 70
0
  3

  4

  5

  6

  7

 40
1
 41
3.2
 42
1
 43
7
 44
1
 45
0
 46
0
 47
0
 48
0
140
3.2
141
0
142
0
143
25.4
144
1
145
0
146
1
147
0.09
 71
0
 72
0
 73
1
 74
1
 75
0
 76
0
 77
1
 78
9
170
0
171
2
172
0
173
0
174
0
175
0
176
2
177
2
178
2
  0
ENDTAB
  0
TABLE
  2
LTYPE
 70
9
  0
LTYPE
  2
CONTINUOUS
 70
64
  3
Solid line
 72
65
 73
0
 40
0
  0
LTYPE
  2
BORDER
 70
64
  3
__ __ . __ __ .
 72
65
 73
6
 40
17.00508236727147
 49
4.858594962077562
 49
-2.429297481038781
 49
4.858594962077562
 49
-2.429297481038781
 49
0
 49
-2.429297481038781
  0
LTYPE
  2
CENTER
 70
64
  3
____ _ ____ _
 72
65
 73
4
 40
19.43437984831025
 49
12.1464874051939
 49
-2.429297481038781
 49
2.429297481038781
 49
-2.429297481038781
  0
LTYPE
  2
DASHDOT
 70
64
  3
__ . __ . __ .
 72
65
 73
4
 40
9.717189924155123
 49
4.858594962077562
 49
-2.429297481038781
 49
0
 49
-2.429297481038781
  0
LTYPE
  2
DASHED
 70
64
  3
__ __ __ __ __
 72
65
 73
2
 40
7.287892443116343
 49
4.858594962077562
 49
-2.429297481038781
  0
LTYPE
  2
DIVIDE
 70
64
  3
__ . . __ . . 
 72
65
 73
6
 40
12.1464874051939
 49
4.858594962077562
 49
-2.429297481038781
 49
0
 49
-2.429297481038781
 49
0
 49
-2.429297481038781
  0
LTYPE
  2
DOT
 70
64
  3
..............
 72
65
 73
4
 40
4.858594962077562
 49
0
 49
-2.429297481038781
 49
0
 49
-2.429297481038781
  0
LTYPE
  2
HIDDEN
 70
64
  3
_ _ _ _ _ _ _
 72
65
 73
2
 40
3.643946221558172
 49
2.429297481038781
 49
-1.21464874051939
  0
LTYPE
  2
PHANTOM
 70
64
  3
_____ _ _ _____ _ _ 
 72
65
 73
6
 40
24.29297481038781
 49
12.1464874051939
 49
-2.429297481038781
 49
2.429297481038781
 49
-2.429297481038781
 49
2.429297481038781
 49
-2.429297481038781
  0
ENDTAB
  0
TABLE
  2
LAYER
 70
4
  0
LAYER
  2
1
 70
0
 62
7
  6
CONTINUOUS
  0
LAYER
  2
CONSTRUCTION
 70
0
 62
7
  6
CONTINUOUS
  0
LAYER
  2
0
 70
0
 62
7
  6
CONTINUOUS
  0
ENDTAB
  0
TABLE
  2
STYLE
 70
4
  0
STYLE
  2
STANDARD
 70
0
 40
0
 41
1
 50
0
 71
0
 42
3.5
  3
txt
  4

  0
STYLE
  2
SIMPLEX
 70
0
 40
0
 41
1
 50
0
 71
0
 42
3.5
  3
simplex
  4

  0
STYLE
  2
COMPLEX
 70
0
 40
0
 41
1
 50
0
 71
0
 42
3.5
  3
complex
  4

  0
STYLE
  2
ITALIC
 70
0
 40
0
 41
1
 50
0
 71
0
 42
3.5
  3
italic
  4

  0
ENDTAB
  0
TABLE
  2
VIEW
 70
0
  0
ENDTAB
  0
ENDSEC
  0
SECTION
  2
BLOCKS
  0
BLOCK
  8
1
  2
*D0
 70
1
 10
0
 20
0
 30
0
  0
LINE
  8
1
 62
2
 10
82.33479550040204
 20
-25.71778633849899
 30
0
 11
92.33479550025794
 21
-25.71778633849899
 31
0
  0
LINE
  8
1
 62
2
 10
92.33479550025794
 20
-46.5
 30
0
 11
92.33479550025794
 21
-24.71778633849899
 31
0
  0
LINE
  8
1
 62
2
 10
82.33479550040204
 20
-41.50012336132797
 30
0
 11
82.33479550040204
 21
-24.71778633849899
 31
0
  0
TEXT
  8
1
 62
2
 10
85.41479550033002
 20
-24.71778633849899
 30
0
 40
3.2
  1
10
 41
0.9
  0
ENDBLK
  8
0
  0
BLOCK
  8
1
  2
*D1
 70
1
 10
0
 20
0
 30
0
  0
LINE
  8
1
 62
2
 10
107.3347955002579
 20
-46.49999999999999
 30
0
 11
107.3347955002579
 21
-19.02865121410152
 31
0
  0
LINE
  8
1
 62
2
 10
107.3347955002579
 20
-53.49999999999999
 30
0
 11
107.3347955002579
 21
-46.49999999999999
 31
0
  0
LINE
  8
1
 62
2
 10
107.3347955002579
 20
-59.89999999999999
 30
0
 11
107.3347955002579
 21
-53.49999999999999
 31
0
  0
LINE
  8
1
 62
2
 10
92.33479550025793
 20
-46.49999999999999
 30
0
 11
108.3347955002579
 21
-46.49999999999999
 31
0
  0
LINE
  8
1
 62
2
 10
92.33479550025793
 20
-53.49999999999999
 30
0
 11
108.3347955002579
 21
-53.49999999999999
 31
0
  0
SOLID
  8
1
 62
2
 10
107.3347955002579
 20
-46.49999999999999
 30
0
 11
106.9187955002579
 21
-43.29999999999998
 31
0
 12
107.7507955002579
 22
-43.29999999999998
 32
0
 13
107.7507955002579
 23
-43.29999999999998
 33
0
  0
SOLID
  8
1
 62
2
 10
107.3347955002579
 20
-53.49999999999999
 30
0
 11
107.7507955002579
 21
-56.69999999999999
 31
0
 12
106.9187955002579
 22
-56.69999999999999
 32
0
 13
106.9187955002579
 23
-56.69999999999999
 33
0
  0
TEXT
  8
1
 62
2
 10
106.3347955002579
 20
-35.51335709645446
 30
0
 40
3.2
  1
7
 50
90
 41
0.9
  0
TEXT
  8
1
 62
2
 10
106.3347955002579
 20
-41.59335709645445
 30
0
 40
3.2
  1
2-
 50
90
 41
0.9
  0
TEXT
  8
1
 62
2
 10
106.3347955002579
 20
-31.99335709645446
 30
0
 40
3.2
  1
×T0.5
 50
90
 41
0.9
  0
ENDBLK
  8
0
  0
BLOCK
  8
1
  2
*D2
 70
1
 10
0
 20
0
 30
0
  0
LINE
  8
1
 62
2
 10
80.93479550040195
 20
-25.71778633849899
 30
0
 11
71.6401120090482
 21
-25.71778633849899
 31
0
  0
LINE
  8
1
 62
2
 10
80.93479550040195
 20
-25.71778633849899
 30
0
 11
82.33479550040204
 21
-25.71778633849899
 31
0
  0
LINE
  8
1
 62
2
 10
82.33479550040204
 20
-41.50012336132797
 30
0
 11
82.33479550040204
 21
-24.71778633849899
 31
0
  0
LINE
  8
1
 62
2
 10
80.93479550040195
 20
-34.71778633849903
 30
0
 11
80.93479550040195
 21
-24.71778633849899
 31
0
  0
SOLID
  8
1
 62
2
 10
80.93479550040195
 20
-25.71778633849899
 30
0
 11
77.73479550040194
 21
-26.13378633849899
 31
0
 12
77.73479550040194
 22
-25.30178633849899
 32
0
 13
77.73479550040194
 23
-25.30178633849899
 33
0
  0
CIRCLE
  8
1
 62
2
 10
82.33479550040204
 20
-25.71778633849899
 30
0
 40
0.75
  0
TEXT
  8
1
 62
2
 10
71.6401120090482
 20
-24.71778633849899
 30
0
 40
3.2
  1
1.4
 41
0.9
  0
ENDBLK
  8
0
  0
BLOCK
  8
1
  2
*D3
 70
1
 10
0
 20
0
 30
0
  0
LINE
  8
1
 62
2
 10
92.33479550025794
 20
-33.85701902388884
 30
0
 11
98.73479550025795
 21
-33.85701902388884
 31
0
  0
LINE
  8
1
 62
2
 10
88.33479550025794
 20
-33.85701902388884
 30
0
 11
92.33479550025794
 21
-33.85701902388884
 31
0
  0
LINE
  8
1
 62
2
 10
81.93479550025793
 20
-33.85701902388884
 30
0
 11
88.33479550025794
 21
-33.85701902388884
 31
0
  0
LINE
  8
1
 62
2
 10
92.33479550025794
 20
-46.49999999999999
 30
0
 11
92.33479550025794
 21
-32.85701902388884
 31
0
  0
LINE
  8
1
 62
2
 10
88.33479550025794
 20
-45.39999999999938
 30
0
 11
88.33479550025794
 21
-32.85701902388884
 31
0
  0
SOLID
  8
1
 62
2
 10
88.33479550025794
 20
-33.85701902388884
 30
0
 11
85.13479550025794
 21
-34.27301902388884
 31
0
 12
85.13479550025794
 22
-33.44101902388884
 32
0
 13
85.13479550025794
 23
-33.44101902388884
 33
0
  0
SOLID
  8
1
 62
2
 10
92.33479550025794
 20
-33.85701902388884
 30
0
 11
95.53479550025794
 21
-33.44101902388884
 31
0
 12
95.53479550025794
 22
-34.27301902388884
 32
0
 13
95.53479550025794
 23
-34.27301902388884
 33
0
  0
TEXT
  8
1
 62
2
 10
96.384524942271
 20
-32.85701902388884
 30
0
 40
3.2
  1
4
 41
0.9
  0
ENDBLK
  8
0
  0
BLOCK
  8
1
  2
*D4
 70
1
 10
0
 20
0
 30
0
  0
LINE
  8
1
 62
2
 10
122.33479550033
 20
0.8000000000000114
 30
0
 11
122.33479550033
 21
39.19999999999999
 31
0
  0
LINE
  8
1
 62
2
 10
68.73479550040189
 20
0.8000000000000114
 30
0
 11
123.33479550033
 21
0.8000000000000114
 31
0
  0
LINE
  8
1
 62
2
 10
68.73479550040189
 20
39.19999999999999
 30
0
 11
123.33479550033
 21
39.19999999999999
 31
0
  0
SOLID
  8
1
 62
2
 10
122.33479550033
 20
39.19999999999999
 30
0
 11
122.75079550033
 21
35.99999999999999
 31
0
 12
121.91879550033
 22
35.99999999999999
 32
0
 13
121.91879550033
 23
35.99999999999999
 33
0
  0
SOLID
  8
1
 62
2
 10
122.33479550033
 20
0.8000000000000114
 30
0
 11
121.91879550033
 21
4.000000000000012
 31
0
 12
122.75079550033
 22
4.000000000000012
 32
0
 13
122.75079550033
 23
4.000000000000012
 33
0
  0
TEXT
  8
1
 62
2
 10
121.33479550033
 20
17.56
 30
0
 40
3.2
  1
38.4
 50
90
 41
0.9
  0
TEXT
  8
1
 62
2
 10
121.33479550033
 20
13.72
 30
0
 40
3.2
  1
%%c
 50
90
 41
0.9
  0
ENDBLK
  8
0
  0
BLOCK
  8
1
  2
*D5
 70
1
 10
0
 20
0
 30
0
  0
LINE
  8
1
 62
2
 10
184.2000000000003
 20
2.999999999999968
 30
0
 11
184.2000000000003
 21
37.00000000000117
 31
0
  0
LINE
  8
1
 62
2
 10
153.5861380996323
 20
2.999999999999968
 30
0
 11
185.2000000000003
 21
2.999999999999968
 31
0
  0
LINE
  8
1
 62
2
 10
153.5861380996323
 20
37.00000000000117
 30
0
 11
185.2000000000003
 21
37.00000000000117
 31
0
  0
SOLID
  8
1
 62
2
 10
184.2000000000003
 20
37.00000000000117
 30
0
 11
184.6160000000003
 21
33.80000000000116
 31
0
 12
183.7840000000003
 22
33.80000000000116
 32
0
 13
183.7840000000003
 23
33.80000000000116
 33
0
  0
SOLID
  8
1
 62
2
 10
184.2000000000003
 20
2.999999999999968
 30
0
 11
183.7840000000003
 21
6.199999999999969
 31
0
 12
184.6160000000003
 22
6.199999999999969
 32
0
 13
184.6160000000003
 23
6.199999999999969
 33
0
  0
TEXT
  8
1
 62
2
 10
183.2000000000003
 20
17.60000000000057
 30
0
 40
3.2
  1
34
 50
90
 41
0.9
  0
TEXT
  8
1
 62
2
 10
183.2000000000003
 20
15.52000000000057
 30
0
 40
3.2
  1
(
 50
90
 41
0.9
  0
TEXT
  8
1
 62
2
 10
183.2000000000003
 20
24.00000000000057
 30
0
 40
3.2
  1
)
 50
90
 41
0.9
  0
ENDBLK
  8
0
  0
BLOCK
  8
1
  2
*D6
 70
1
 10
0
 20
0
 30
0
  0
LINE
  8
1
 62
2
 10
102.33479550033
 20
12.69999999999993
 30
0
 11
102.33479550033
 21
27.30000000000007
 31
0
  0
LINE
  8
1
 62
2
 10
87.33479550032996
 20
12.69999999999993
 30
0
 11
103.33479550033
 21
12.69999999999993
 31
0
  0
LINE
  8
1
 62
2
 10
87.33479550032996
 20
27.30000000000007
 30
0
 11
103.33479550033
 21
27.30000000000007
 31
0
  0
SOLID
  8
1
 62
2
 10
102.33479550033
 20
27.30000000000007
 30
0
 11
102.75079550033
 21
24.10000000000007
 31
0
 12
101.91879550033
 22
24.10000000000007
 32
0
 13
101.91879550033
 23
24.10000000000007
 33
0
  0
SOLID
  8
1
 62
2
 10
102.33479550033
 20
12.69999999999993
 30
0
 11
101.91879550033
 21
15.89999999999993
 31
0
 12
102.75079550033
 22
15.89999999999993
 32
0
 13
102.75079550033
 23
15.89999999999993
 33
0
  0
TEXT
  8
1
 62
2
 10
101.33479550033
 20
18.04
 30
0
 40
3.2
  1
14.6
 50
90
 41
0.9
  0
TEXT
  8
1
 62
2
 10
101.33479550033
 20
14.2
 30
0
 40
3.2
  1
%%c
 50
90
 41
0.9
  0
ENDBLK
  8
0
  0
BLOCK
  8
1
  2
*D7
 70
1
 10
0
 20
0
 30
0
  0
LINE
  8
1
 62
2
 10
112.33479550033
 20
1.400000000000492
 30
0
 11
112.33479550033
 21
38.60000000000048
 31
0
  0
LINE
  8
1
 62
2
 10
83.33479550040202
 20
1.400000000000492
 30
0
 11
113.33479550033
 21
1.400000000000492
 31
0
  0
LINE
  8
1
 62
2
 10
83.33479550040202
 20
38.60000000000048
 30
0
 11
113.33479550033
 21
38.60000000000048
 31
0
  0
SOLID
  8
1
 62
2
 10
112.33479550033
 20
38.60000000000048
 30
0
 11
112.75079550033
 21
35.40000000000048
 31
0
 12
111.91879550033
 22
35.40000000000048
 32
0
 13
111.91879550033
 23
35.40000000000048
 33
0
  0
SOLID
  8
1
 62
2
 10
112.33479550033
 20
1.400000000000492
 30
0
 11
111.91879550033
 21
4.600000000000494
 31
0
 12
112.75079550033
 22
4.600000000000494
 32
0
 13
112.75079550033
 23
4.600000000000494
 33
0
  0
TEXT
  8
1
 62
2
 10
111.33479550033
 20
17.56000000000051
 30
0
 40
3.2
  1
37.2
 50
90
 41
0.9
  0
TEXT
  8
1
 62
2
 10
111.33479550033
 20
13.72000000000051
 30
0
 40
3.2
  1
%%c
 50
90
 41
0.9
  0
ENDBLK
  8
0
  0
BLOCK
  8
1
  2
*D8
 70
1
 10
0
 20
0
 30
0
  0
LINE
  8
1
 62
2
 10
75.23479550040199
 20
80
 30
0
 11
81.63479550040199
 21
80
 31
0
  0
LINE
  8
1
 62
2
 10
81.63479550040199
 20
80
 30
0
 11
87.33479550032996
 21
80
 31
0
  0
LINE
  8
1
 62
2
 10
87.33479550032996
 20
80
 30
0
 11
99.89859799087391
 21
80
 31
0
  0
LINE
  8
1
 62
2
 10
81.63479550040199
 20
39.21804153555615
 30
0
 11
81.63479550040199
 21
81
 31
0
  0
LINE
  8
1
 62
2
 10
87.33479550032996
 20
27.30000000000006
 30
0
 11
87.33479550032996
 21
81
 31
0
  0
SOLID
  8
1
 62
2
 10
81.63479550040199
 20
80
 30
0
 11
78.43479550040199
 21
79.584
 31
0
 12
78.43479550040199
 22
80.416
 32
0
 13
78.43479550040199
 23
80.416
 33
0
  0
SOLID
  8
1
 62
2
 10
87.33479550032996
 20
80
 30
0
 11
90.53479550032996
 21
80.416
 31
0
 12
90.53479550032996
 22
79.584
 32
0
 13
90.53479550032996
 23
79.584
 33
0
  0
TEXT
  8
1
 62
2
 10
91.97859799087391
 20
81
 30
0
 40
3.2
  1
5.7
 41
0.9
  0
TEXT
  8
1
 62
2
 10
89.89859799087391
 20
81
 30
0
 40
3.2
  1
(
 41
0.9
  0
TEXT
  8
1
 62
2
 10
99.41859799087391
 20
81
 30
0
 40
3.2
  1
)
 41
0.9
  0
ENDBLK
  8
0
  0
BLOCK
  8
1
  2
*D9
 70
1
 10
0
 20
0
 30
0
  0
LINE
  8
1
 62
2
 10
-171.9152044995981
 20
90
 30
0
 11
-105.4152044995981
 21
90
 31
0
  0
LINE
  8
1
 62
2
 10
-171.9152044995981
 20
64.25972660357525
 30
0
 11
-171.9152044995981
 21
91
 31
0
  0
LINE
  8
1
 62
2
 10
-105.4152044995981
 20
63.18016123378902
 30
0
 11
-105.4152044995981
 21
91
 31
0
  0
SOLID
  8
1
 62
2
 10
-171.9152044995981
 20
90
 30
0
 11
-168.7152044995981
 21
90.416
 31
0
 12
-168.7152044995981
 22
89.584
 32
0
 13
-168.7152044995981
 23
89.584
 33
0
  0
SOLID
  8
1
 62
2
 10
-105.4152044995981
 20
90
 30
0
 11
-108.6152044995981
 21
89.584
 31
0
 12
-108.6152044995981
 22
90.416
 32
0
 13
-108.6152044995981
 23
90.416
 33
0
  0
TEXT
  8
1
 62
2
 10
-146.2492044995981
 20
91
 30
0
 40
3.2
  1
66.5
 41
0.9
  0
TEXT
  8
1
 62
2
 10
-135.9292044995981
 20
91.64
 30
0
 40
1.92
  1
%%p0.3
 41
0.9
  0
ENDBLK
  8
0
  0
BLOCK
  8
1
  2
*D10
 70
1
 10
0
 20
0
 30
0
  0
LINE
  8
1
 62
2
 10
-78.66520449959801
 20
-13.25
 30
0
 11
-78.66520449959801
 21
53.25
 31
0
  0
LINE
  8
1
 62
2
 10
-93.32591252623649
 20
53.25
 30
0
 11
-77.66520449959801
 21
53.25
 31
0
  0
LINE
  8
1
 62
2
 10
-94.4054778960227
 20
-13.25
 30
0
 11
-77.66520449959801
 21
-13.25
 31
0
  0
SOLID
  8
1
 62
2
 10
-78.66520449959801
 20
53.25
 30
0
 11
-78.24920449959801
 21
50.05
 31
0
 12
-79.081204499598
 22
50.05
 32
0
 13
-79.081204499598
 23
50.05
 33
0
  0
SOLID
  8
1
 62
2
 10
-78.66520449959801
 20
-13.25
 30
0
 11
-79.081204499598
 21
-10.05
 31
0
 12
-78.24920449959801
 22
-10.05
 32
0
 13
-78.24920449959801
 23
-10.05
 33
0
  0
TEXT
  8
1
 62
2
 10
-79.66520449959801
 20
12.416
 30
0
 40
3.2
  1
66.5
 50
90
 41
0.9
  0
TEXT
  8
1
 62
2
 10
-80.30520449959801
 20
22.736
 30
0
 40
1.92
  1
%%p0.3
 50
90
 41
0.9
  0
ENDBLK
  8
0
  0
BLOCK
  8
1
  2
*D11
 70
1
 10
0
 20
0
 30
0
  0
LINE
  8
1
 62
2
 10
-88.66520449959806
 20
20
 30
0
 11
-88.66520449959806
 21
35
 31
0
  0
LINE
  8
1
 62
2
 10
-88.66520449959806
 20
20
 30
0
 11
-88.66520449959806
 21
5.692064145872569
 31
0
  0
LINE
  8
1
 62
2
 10
-94.09666294813596
 20
20
 30
0
 11
-87.66520449959806
 21
20
 31
0
  0
LINE
  8
1
 62
2
 10
-117.7408709825743
 20
35
 30
0
 11
-87.66520449959806
 21
35
 31
0
  0
SOLID
  8
1
 62
2
 10
-88.66520449959806
 20
20
 30
0
 11
-89.08120449959806
 21
23.2
 31
0
 12
-88.24920449959807
 22
23.2
 32
0
 13
-88.24920449959807
 23
23.2
 33
0
  0
SOLID
  8
1
 62
2
 10
-88.66520449959806
 20
35
 30
0
 11
-88.24920449959807
 21
31.8
 31
0
 12
-89.08120449959806
 22
31.8
 32
0
 13
-89.08120449959806
 23
31.8
 33
0
  0
TEXT
  8
1
 62
2
 10
-89.66520449959806
 20
5.692064145872569
 30
0
 40
3.2
  1
15
 50
90
 41
0.9
  0
TEXT
  8
1
 62
2
 10
-90.30520449959806
 20
11.13206414587257
 30
0
 40
1.92
  1
%%p0.5
 50
90
 41
0.9
  0
ENDBLK
  8
0
  0
BLOCK
  8
1
  2
*D12
 70
1
 10
0
 20
0
 30
0
  0
LINE
  8
1
 62
2
 10
-127.2652044995981
 20
70
 30
0
 11
-133.6652044995981
 21
70
 31
0
  0
LINE
  8
1
 62
2
 10
-136.1652044995981
 20
70
 30
0
 11
-133.6652044995981
 21
70
 31
0
  0
LINE
  8
1
 62
2
 10
-136.1652044995981
 20
70
 30
0
 11
-143.239788286302
 21
70
 31
0
  0
LINE
  8
1
 62
2
 10
-136.1652044995981
 20
38.00000000000001
 30
0
 11
-136.1652044995981
 21
71
 31
0
  0
LINE
  8
1
 62
2
 10
-133.6652044995981
 20
36.00000000000001
 30
0
 11
-133.6652044995981
 21
71
 31
0
  0
SOLID
  8
1
 62
2
 10
-136.1652044995981
 20
70
 30
0
 11
-139.3652044995981
 21
69.584
 31
0
 12
-139.3652044995981
 22
70.416
 32
0
 13
-139.3652044995981
 23
70.416
 33
0
  0
SOLID
  8
1
 62
2
 10
-133.6652044995981
 20
70
 30
0
 11
-130.4652044995981
 21
70.416
 31
0
 12
-130.4652044995981
 22
69.584
 32
0
 13
-130.4652044995981
 23
69.584
 33
0
  0
TEXT
  8
1
 62
2
 10
-143.239788286302
 20
71
 30
0
 40
3.2
  1
2.5
 41
0.9
  0
ENDBLK
  8
0
  0
BLOCK
  8
1
  2
*D13
 70
1
 10
0
 20
0
 30
0
  0
LINE
  8
1
 62
2
 10
-44.36520449959805
 20
70
 30
0
 11
-19.36520449959803
 21
70
 31
0
  0
LINE
  8
1
 62
2
 10
-44.36520449959805
 20
38.00000000000001
 30
0
 11
-44.36520449959805
 21
71
 31
0
  0
LINE
  8
1
 62
2
 10
-19.36520449959803
 20
36.00000000000001
 30
0
 11
-19.36520449959803
 21
71
 31
0
  0
SOLID
  8
1
 62
2
 10
-44.36520449959805
 20
70
 30
0
 11
-41.16520449959805
 21
70.416
 31
0
 12
-41.16520449959805
 22
69.584
 32
0
 13
-41.16520449959805
 23
69.584
 33
0
  0
SOLID
  8
1
 62
2
 10
-19.36520449959803
 20
70
 30
0
 11
-22.56520449959803
 21
69.584
 31
0
 12
-22.56520449959803
 22
70.416
 32
0
 13
-22.56520449959803
 23
70.416
 33
0
  0
TEXT
  8
1
 62
2
 10
-34.26520449959804
 20
71
 30
0
 40
3.2
  1
25
 41
0.9
  0
ENDBLK
  8
0
  0
BLOCK
  8
1
  2
*D14
 70
1
 10
0
 20
0
 30
0
  0
LINE
  8
1
 62
2
 10
-57.06973320901634
 20
26.60000000000006
 30
0
 11
-57.06973320901634
 21
33.00000000000006
 31
0
  0
LINE
  8
1
 62
2
 10
-57.06973320901634
 20
33.00000000000006
 30
0
 11
-57.06973320901634
 21
37
 31
0
  0
LINE
  8
1
 62
2
 10
-57.06973320901634
 20
37
 30
0
 11
-57.06973320901634
 21
53.91855677346029
 31
0
  0
LINE
  8
1
 62
2
 10
-45.36520449959805
 20
33.00000000000006
 30
0
 11
-58.06973320901634
 21
33.00000000000006
 31
0
  0
LINE
  8
1
 62
2
 10
-45.36520449959805
 20
37
 30
0
 11
-58.06973320901634
 21
37
 31
0
  0
SOLID
  8
1
 62
2
 10
-57.06973320901634
 20
37
 30
0
 11
-57.48573320901635
 21
40.2
 31
0
 12
-56.65373320901635
 22
40.2
 32
0
 13
-56.65373320901635
 23
40.2
 33
0
  0
SOLID
  8
1
 62
2
 10
-57.06973320901634
 20
33.00000000000006
 30
0
 11
-56.65373320901635
 21
29.80000000000006
 31
0
 12
-57.48573320901635
 22
29.80000000000006
 32
0
 13
-57.48573320901635
 23
29.80000000000006
 33
0
  0
TEXT
  8
1
 62
2
 10
-58.86973320901635
 20
43.63055677346029
 30
0
 40
3.2
  1
4
 50
90
 41
0.9
  0
TEXT
  8
1
 62
2
 10
-60.94973320901634
 20
47.15055677346029
 30
0
 40
1.92
  1
+0.03
 50
90
 41
0.9
  0
TEXT
  8
1
 62
2
 10
-58.06973320901635
 20
47.15055677346029
 30
0
 40
1.92
  1
 0
 50
90
 41
0.9
  0
ENDBLK
  8
0
  0
BLOCK
  8
1
  2
*D15
 70
1
 10
0
 20
0
 30
0
  0
LINE
  8
1
 62
2
 10
-67.61386475040156
 20
30
 30
0
 11
-67.61386475040156
 21
40
 31
0
  0
LINE
  8
1
 62
2
 10
-67.61386475040156
 20
40
 30
0
 11
-67.61386475040156
 21
58.80696278134317
 31
0
  0
LINE
  8
1
 62
2
 10
-44.86520449959805
 20
30
 30
0
 11
-68.61386475040156
 21
30
 31
0
  0
LINE
  8
1
 62
2
 10
-44.86520449959805
 20
40
 30
0
 11
-68.61386475040156
 21
40
 31
0
  0
SOLID
  8
1
 62
2
 10
-67.61386475040156
 20
40
 30
0
 11
-67.19786475040156
 21
36.8
 31
0
 12
-68.02986475040156
 22
36.8
 32
0
 13
-68.02986475040156
 23
36.8
 33
0
  0
SOLID
  8
1
 62
2
 10
-67.61386475040156
 20
30
 30
0
 11
-68.02986475040156
 21
33.2
 31
0
 12
-67.19786475040156
 22
33.2
 32
0
 13
-67.19786475040156
 23
33.2
 33
0
  0
TEXT
  8
1
 62
2
 10
-69.41386475040157
 20
46.59896278134318
 30
0
 40
3.2
  1
10
 50
90
 41
0.9
  0
TEXT
  8
1
 62
2
 10
-71.49386475040157
 20
52.03896278134317
 30
0
 40
1.92
  1
 0
 50
90
 41
0.9
  0
TEXT
  8
1
 62
2
 10
-68.61386475040156
 20
52.03896278134317
 30
0
 40
1.92
  1
-0.02
 50
90
 41
0.9
  0
TEXT
  8
1
 62
2
 10
-69.41386475040157
 20
42.75896278134317
 30
0
 40
3.2
  1
%%c
 50
90
 41
0.9
  0
ENDBLK
  8
0
  0
BLOCK
  8
1
  2
*D16
 70
1
 10
0
 20
0
 30
0
  0
LINE
  8
1
 62
2
 10
-178.6652044995981
 20
100
 30
0
 11
-98.66520449959808
 21
100
 31
0
  0
LINE
  8
1
 62
2
 10
-178.6652044995981
 20
54.25000000000001
 30
0
 11
-178.6652044995981
 21
101
 31
0
  0
LINE
  8
1
 62
2
 10
-98.66520449959808
 20
54.25000000000001
 30
0
 11
-98.66520449959808
 21
101
 31
0
  0
SOLID
  8
1
 62
2
 10
-178.6652044995981
 20
100
 30
0
 11
-175.4652044995981
 21
100.416
 31
0
 12
-175.4652044995981
 22
99.584
 32
0
 13
-175.4652044995981
 23
99.584
 33
0
  0
SOLID
  8
1
 62
2
 10
-98.66520449959808
 20
100
 30
0
 11
-101.8652044995981
 21
99.584
 31
0
 12
-101.8652044995981
 22
100.416
 32
0
 13
-101.8652044995981
 23
100.416
 33
0
  0
TEXT
  8
1
 62
2
 10
-138.994616264304
 20
101
 30
0
 40
3.2
  1
80
 41
0.9
  0
TEXT
  8
1
 62
2
 10
-143.1357927348922
 20
101
 30
0
 40
3.2
  1
□
 41
0.9
  0
ENDBLK
  8
0
  0
BLOCK
  8
1
  2
*D17
 70
1
 10
0
 20
0
 30
0
  0
LINE
  8
1
 62
2
 10
-44.36520449959807
 20
90
 30
0
 11
-9.365204499598018
 21
90
 31
0
  0
LINE
  8
1
 62
2
 10
-44.36520449959807
 20
40.50000000000001
 30
0
 11
-44.36520449959807
 21
91
 31
0
  0
LINE
  8
1
 62
2
 10
-9.365204499598018
 20
60.24999999999994
 30
0
 11
-9.365204499598018
 21
91
 31
0
  0
SOLID
  8
1
 62
2
 10
-44.36520449959807
 20
90
 30
0
 11
-41.16520449959806
 21
90.416
 31
0
 12
-41.16520449959806
 22
89.584
 32
0
 13
-41.16520449959806
 23
89.584
 33
0
  0
SOLID
  8
1
 62
2
 10
-9.365204499598018
 20
90
 30
0
 11
-12.56520449959802
 21
89.584
 31
0
 12
-12.56520449959802
 22
90.416
 32
0
 13
-12.56520449959802
 23
90.416
 33
0
  0
TEXT
  8
1
 62
2
 10
-29.26520449959804
 20
91
 30
0
 40
3.2
  1
35
 41
0.9
  0
ENDBLK
  8
0
  0
BLOCK
  8
1
  2
*D18
 70
1
 10
0
 20
0
 30
0
  0
LINE
  8
1
 62
2
 10
-14.36520449959803
 20
80
 30
0
 11
-9.365204499598026
 21
80
 31
0
  0
LINE
  8
1
 62
2
 10
-14.36520449959803
 20
80
 30
0
 11
-20.76520449959804
 21
80
 31
0
  0
LINE
  8
1
 62
2
 10
-9.365204499598026
 20
80
 30
0
 11
-2.965204499598025
 21
80
 31
0
  0
LINE
  8
1
 62
2
 10
-14.36520449959803
 20
49.63000000000005
 30
0
 11
-14.36520449959803
 21
81
 31
0
  0
LINE
  8
1
 62
2
 10
-9.365204499598026
 20
60.24999999999994
 30
0
 11
-9.365204499598026
 21
81
 31
0
  0
SOLID
  8
1
 62
2
 10
-14.36520449959803
 20
80
 30
0
 11
-17.56520449959804
 21
79.584
 31
0
 12
-17.56520449959804
 22
80.416
 32
0
 13
-17.56520449959804
 23
80.416
 33
0
  0
SOLID
  8
1
 62
2
 10
-9.365204499598026
 20
80
 30
0
 11
-6.165204499598024
 21
80.416
 31
0
 12
-6.165204499598024
 22
79.584
 32
0
 13
-6.165204499598024
 23
79.584
 33
0
  0
TEXT
  8
1
 62
2
 10
-12.82520449959803
 20
81
 30
0
 40
3.2
  1
5
 41
0.9
  0
ENDBLK
  8
0
  0
BLOCK
  8
1
  2
*D19
 70
1
 10
0
 20
0
 30
0
  0
LINE
  8
1
 62
2
 10
-9.365204499598022
 20
80
 30
0
 11
22.63479550040199
 21
80
 31
0
  0
LINE
  8
1
 62
2
 10
-9.365204499598022
 20
60.24999999999994
 30
0
 11
-9.365204499598022
 21
81
 31
0
  0
LINE
  8
1
 62
2
 10
22.63479550040199
 20
61
 30
0
 11
22.63479550040199
 21
81
 31
0
  0
SOLID
  8
1
 62
2
 10
-9.365204499598022
 20
80
 30
0
 11
-6.165204499598021
 21
80.416
 31
0
 12
-6.165204499598021
 22
79.584
 32
0
 13
-6.165204499598021
 23
79.584
 33
0
  0
SOLID
  8
1
 62
2
 10
22.63479550040199
 20
80
 30
0
 11
19.43479550040199
 21
79.584
 31
0
 12
19.43479550040199
 22
80.416
 32
0
 13
19.43479550040199
 23
80.416
 33
0
  0
TEXT
  8
1
 62
2
 10
4.234795500401988
 20
81
 30
0
 40
3.2
  1
L2
 41
0.9
  0
ENDBLK
  8
0
  0
BLOCK
  8
1
  2
*D20
 70
1
 10
0
 20
0
 30
0
  0
LINE
  8
1
 62
2
 10
-9.365204499598022
 20
90
 30
0
 11
87.33479550032996
 21
90
 31
0
  0
LINE
  8
1
 62
2
 10
-9.365204499598022
 20
60.24999999999994
 30
0
 11
-9.365204499598022
 21
91
 31
0
  0
LINE
  8
1
 62
2
 10
87.33479550032996
 20
27.30000000000007
 30
0
 11
87.33479550032996
 21
91
 31
0
  0
SOLID
  8
1
 62
2
 10
-9.365204499598022
 20
90
 30
0
 11
-6.165204499598021
 21
90.416
 31
0
 12
-6.165204499598021
 22
89.584
 32
0
 13
-6.165204499598021
 23
89.584
 33
0
  0
SOLID
  8
1
 62
2
 10
87.33479550032996
 20
90
 30
0
 11
84.13479550032996
 21
89.584
 31
0
 12
84.13479550032996
 22
90.416
 32
0
 13
84.13479550032996
 23
90.416
 33
0
  0
TEXT
  8
1
 62
2
 10
37.06479550036597
 20
91
 30
0
 40
3.2
  1
L1
 41
0.9
  0
ENDBLK
  8
0
  0
BLOCK
  8
1
  2
*D21
 70
1
 10
0
 20
0
 30
0
  0
LINE
  8
1
 62
2
 10
-155.6652044995981
 20
80
 30
0
 11
-121.6652044995981
 21
80
 31
0
  0
LINE
  8
1
 62
2
 10
-155.6652044995981
 20
36.00000000000001
 30
0
 11
-155.6652044995981
 21
81
 31
0
  0
LINE
  8
1
 62
2
 10
-121.6652044995981
 20
36.00000000000001
 30
0
 11
-121.6652044995981
 21
81
 31
0
  0
SOLID
  8
1
 62
2
 10
-121.6652044995981
 20
80
 30
0
 11
-124.8652044995981
 21
79.584
 31
0
 12
-124.8652044995981
 22
80.416
 32
0
 13
-124.8652044995981
 23
80.416
 33
0
  0
SOLID
  8
1
 62
2
 10
-155.6652044995981
 20
80
 30
0
 11
-152.4652044995981
 21
80.416
 31
0
 12
-152.4652044995981
 22
79.584
 32
0
 13
-152.4652044995981
 23
79.584
 33
0
  0
TEXT
  8
1
 62
2
 10
-139.1452044995981
 20
81
 30
0
 40
3.2
  1
34
 41
0.9
  0
TEXT
  8
1
 62
2
 10
-142.9852044995981
 20
81
 30
0
 40
3.2
  1
%%c
 41
0.9
  0
ENDBLK
  8
0
  0
BLOCK
  8
1
  2
*D22
 70
1
 10
0
 20
0
 30
0
  0
LINE
  8
1
 62
2
 10
-20.78173633734916
 20
33.08700107066368
 30
0
 11
-17.28308350201945
 21
21.6160767578294
 31
0
  0
LINE
  8
1
 62
2
 10
-17.28308350201945
 20
21.6160767578294
 30
0
 11
-28.24308350201945
 21
21.6160767578294
 31
0
  0
SOLID
  8
1
 62
2
 10
-20.78173633734916
 20
33.08700107066368
 30
0
 11
-19.45028350044902
 21
30.14756416147332
 31
0
 12
-20.24609105505293
 22
29.90484140597779
 32
0
 13
-20.24609105505293
 23
29.90484140597779
 33
0
  0
TEXT
  8
1
 62
2
 10
-24.40308350201945
 20
22.6160767578294
 30
0
 40
3.2
  1
2
 41
0.9
  0
TEXT
  8
1
 62
2
 10
-28.24308350201945
 20
22.6160767578294
 30
0
 40
3.2
  1
R
 41
0.9
  0
ENDBLK
  8
0
  0
BLOCK
  8
1
  2
*D23
 70
1
 10
0
 20
0
 30
0
  0
LINE
  8
1
 62
2
 10
99.64554293329901
 20
-66.07642522580082
 30
0
 11
112.6960460021284
 21
-66.07642522580082
 31
0
  0
LINE
  8
1
 62
2
 10
89.48562630246721
 20
-51.63572261239073
 30
0
 11
99.64554293329901
 21
-66.07642522580082
 31
0
  0
SOLID
  8
1
 62
2
 10
89.48562630246721
 20
-51.63572261239073
 30
0
 11
91.66718588937931
 21
-54.01350598535638
 31
0
 12
90.98672528262476
 22
-54.49225159907543
 32
0
 13
90.98672528262476
 23
-54.49225159907543
 33
0
  0
TEXT
  8
1
 62
2
 10
110.7760460021284
 20
-65.07642522580082
 30
0
 40
3.2
  1
4
 41
0.9
  0
TEXT
  8
1
 62
2
 10
101.4960460021284
 20
-65.07642522580082
 30
0
 40
3.2
  1
2-%%c
 41
0.9
  0
ENDBLK
  8
0
  0
ENDSEC
  0
SECTION
  2
ENTITIES
  0
LINE
  8
1
 62
2
 10
-29.58808820482742
 20
-67.03267296689353
 30
0
 11
-29.58808820482742
 21
-88.03267296689353
 31
0
  0
LINE
  8
1
 62
2
 10
-115.5586579659483
 20
-67.03267296689353
 30
0
 11
-115.5586579659483
 21
-88.03267296689353
 31
0
  0
LINE
  8
1
 62
2
 10
44.39046538464589
 20
-80
 30
0
 11
129.0511366834779
 21
-80
 31
0
  0
LINE
  8
1
 62
3
 10
80.93479550040195
 20
-57.49987663867203
 30
0
 11
80.93479550040195
 21
-66.07642522580079
 31
0
  0
LINE
  8
1
 62
3
 10
80.93479550040195
 20
-58.49987663867203
 30
0
 11
79.93479550040195
 21
-57.49987663867203
 31
0
  0
LINE
  8
1
 62
3
 10
82.33479550040204
 20
-57.50012336132796
 30
0
 11
71.24448220850576
 21
-57.50012336132885
 31
0
  0
LINE
  8
1
 62
3
 10
79.93479550040195
 20
-42.50012336132796
 30
0
 11
80.93479550040195
 21
-41.50012336132799
 31
0
  0
LINE
  8
1
 62
3
 10
76.93479550040195
 20
-42.49987663866977
 30
0
 11
76.93479550040195
 21
-44.49987663867203
 31
0
  0
LINE
  8
1
 62
3
 10
76.93479550040195
 20
-55.50012336132796
 30
0
 11
76.93479550040195
 21
-57.50012336133015
 31
0
  0
LINE
  8
1
 62
1
 10
94.89479550025783
 20
-49.99999999999999
 30
0
 11
65.73479550025803
 21
-49.99999999999999
 31
0
  0
LINE
  8
1
 62
3
 10
91.33479550025794
 20
-46.49999999999999
 30
0
 11
83.33479550040204
 21
-46.49999999999999
 31
0
  0
LINE
  8
1
 62
3
 10
92.33479550025794
 20
-47.49999999999999
 30
0
 11
92.33479550025794
 21
-52.49999999999999
 31
0
  0
LINE
  8
1
 62
3
 10
92.33479550025794
 20
-47.49999999999999
 30
0
 11
91.33479550025794
 21
-46.49999999999999
 31
0
  0
LINE
  8
1
 62
3
 10
92.33479550025794
 20
-52.49999999999999
 30
0
 11
91.33479550025794
 21
-53.49999999999999
 31
0
  0
LINE
  8
1
 62
1
 10
88.33479550025794
 20
-46.39999999999939
 30
0
 11
88.33479550025794
 21
-53.6000000000006
 31
0
  0
LINE
  8
1
 62
1
 10
65.73479550025803
 20
-49.99999999999999
 30
0
 11
94.89479550025783
 21
-49.99999999999999
 31
0
  0
LINE
  8
1
 62
3
 10
83.33479550040204
 20
-53.49999999999999
 30
0
 11
91.33479550025794
 21
-53.49999999999999
 31
0
  0
LINE
  8
1
 62
3
 10
82.33479550040204
 20
-47.99999999999999
 30
0
 11
82.33479550040204
 21
-42.50012336132796
 31
0
  0
LINE
  8
1
 62
3
 10
76.93479550040195
 20
-47.99999999999999
 30
0
 11
82.33479550040204
 21
-47.99999999999999
 31
0
  0
LINE
  8
1
 62
3
 10
76.93479550040195
 20
-51.99999999999999
 30
0
 11
76.93479550040195
 21
-47.99999999999999
 31
0
  0
LINE
  8
1
 62
3
 10
82.33479550040204
 20
-51.99999999999954
 30
0
 11
76.93479550040195
 21
-51.99999999999999
 31
0
  0
LINE
  8
1
 62
3
 10
82.33479550040204
 20
-57.50012336132796
 30
0
 11
82.33479550040204
 21
-51.99999999999954
 31
0
  0
LINE
  8
1
 62
3
 10
79.33479550040204
 20
-42.50012336132796
 30
0
 11
79.33479550040204
 21
-44.50012336132799
 31
0
  0
LINE
  8
1
 62
3
 10
79.33479550040204
 20
-44.50012336132799
 30
0
 11
76.93479550040195
 21
-44.50012336132799
 31
0
  0
LINE
  8
1
 62
3
 10
79.33479550040204
 20
-55.50012336132799
 30
0
 11
79.33479550040204
 21
-57.50012336132796
 31
0
  0
LINE
  8
1
 62
3
 10
76.93479550040195
 20
-55.50012336132796
 30
0
 11
79.33479550040204
 21
-55.50012336132799
 31
0
  0
LINE
  8
1
 62
3
 10
80.93479550040195
 20
-35.71778633849902
 30
0
 11
80.93479550040195
 21
-42.50012336132799
 31
0
  0
LINE
  8
1
 62
3
 10
72.06346519718352
 20
-42.50003285525957
 30
0
 11
82.33479550040204
 21
-42.50012336132796
 31
0
  0
LINE
  8
1
 62
3
 10
82.33479550040204
 20
-47.11933954086346
 30
0
 11
83.33479550040204
 21
-46.49999999999999
 31
0
  0
LINE
  8
1
 62
3
 10
83.33479550040204
 20
-53.49999999999999
 30
0
 11
82.33479550040204
 21
-52.88066045913693
 31
0
  0
LINE
  8
1
 62
2
 10
-86.901801378908
 20
-67.03267296689353
 30
0
 11
-86.901801378908
 21
-88.03267296689353
 31
0
  0
LINE
  8
1
 62
2
 10
-58.24494479186771
 20
-67.03267296689353
 30
0
 11
-58.24494479186771
 21
-88.03267296689353
 31
0
  0
LINE
  8
1
 62
2
 10
-141.97012987013
 20
-67.03267296689353
 30
0
 11
-141.97012987013
 21
-88.03267296689353
 31
0
  0
LINE
  8
1
 62
2
 10
-141.97012987013
 20
-74.03267296689353
 30
0
 11
-0.9312316177870699
 21
-74.03267296689353
 31
0
  0
LINE
  8
1
 62
2
 10
-0.9312316177870699
 20
-88.03267296689353
 30
0
 11
-141.97012987013
 21
-88.03267296689353
 31
0
  0
LINE
  8
1
 62
2
 10
-141.97012987013
 20
-67.03267296689353
 30
0
 11
-0.9312316177870628
 21
-67.03267296689353
 31
0
  0
LINE
  8
1
 62
2
 10
-0.9312316177870628
 20
-67.03267296689353
 30
0
 11
-0.9312316177870699
 21
-88.03267296689353
 31
0
  0
LINE
  8
1
 62
2
 10
-0.9312316177870699
 20
-81.03267296689353
 30
0
 11
-115.5586579659483
 21
-81.03267296689353
 31
0
  0
LINE
  8
1
 62
3
 10
27.7347955004019
 20
39.19999999999999
 30
0
 11
67.7347955004019
 21
39.19999999999999
 31
0
  0
LINE
  8
1
 62
3
 10
67.7347955004019
 20
0.8000000000000114
 30
0
 11
27.7347955004019
 21
0.8000000000000114
 31
0
  0
LINE
  8
1
 62
3
 10
27.7347955004019
 20
0.8000000000000114
 30
0
 11
27.73479550040191
 21
7.679667434020985
 31
0
  0
LINE
  8
1
 62
3
 10
27.73479550040191
 20
8.873842784196199
 30
0
 11
67.7347955004019
 21
8.873842784196199
 31
0
  0
LINE
  8
1
 62
3
 10
27.73479550040191
 20
8.873842784196199
 30
0
 11
27.7347955004019
 21
39.19999999999999
 31
0
  0
LINE
  8
1
 62
3
 10
67.7347955004019
 20
7.679667434020985
 30
0
 11
27.73479550040191
 21
7.679667434020985
 31
0
  0
LINE
  8
1
 62
3
 10
27.73479550040188
 20
7.306455869544493
 30
0
 11
67.7347955004019
 21
7.306455869544493
 31
0
  0
LINE
  8
1
 62
3
 10
134.8232361875273
 20
9.24705434867326
 30
0
 11
134.3523603821793
 21
8.873842784196711
 31
0
  0
LINE
  8
1
 62
3
 10
136.0655317480839
 20
7.679667434021553
 30
0
 11
135.5946559427359
 21
7.306455869545061
 31
0
  0
LINE
  8
1
 62
1
 10
147.3767271302738
 20
3
 30
0
 11
152.5861380996321
 21
3
 31
0
  0
LINE
  8
1
 62
1
 10
152.5861380996321
 20
37.00000000000119
 30
0
 11
147.3767271302739
 21
37.00000000000119
 31
0
  0
LINE
  8
1
 62
1
 10
127.1200000000009
 20
20.00000000000051
 30
0
 11
172.880000000001
 21
20.00000000000051
 31
0
  0
LINE
  8
1
 62
2
 10
145.7500616806644
 20
1.892045276127476
 30
0
 11
145.7500616806644
 21
2.920830691107369
 31
0
  0
LINE
  8
1
 62
3
 10
149.0000000000005
 20
1.426901174010595
 30
0
 11
149.0000000000005
 21
2.750000000000568
 31
0
  0
LINE
  8
1
 62
3
 10
151.0000000000005
 20
10.80000000000666
 30
0
 11
151.0000000000005
 21
3.250000000000568
 31
0
  0
LINE
  8
1
 62
2
 10
154.2499383193364
 20
2.920830691107369
 30
0
 11
154.2499383193364
 21
1.892045276127476
 31
0
  0
LINE
  8
1
 62
3
 10
148.2500000000005
 20
3.250000000000568
 30
0
 11
151.7500000000005
 21
3.250000000000568
 31
0
  0
LINE
  8
1
 62
2
 10
151.2500000000005
 20
3.250000000000568
 30
0
 11
151.2500000000005
 21
2.750000000000568
 31
0
  0
LINE
  8
1
 62
3
 10
151.7500000000005
 20
2.750000000000568
 30
0
 11
148.2500000000005
 21
2.750000000000568
 31
0
  0
LINE
  8
1
 62
2
 10
148.7500000000005
 20
3.250000000000568
 30
0
 11
148.7500000000005
 21
2.750000000000568
 31
0
  0
LINE
  8
1
 62
3
 10
148.2500000000005
 20
2.750000000000568
 30
0
 11
148.2500000000005
 21
3.250000000000568
 31
0
  0
LINE
  8
1
 62
3
 10
151.7500000000005
 20
3.250000000000568
 30
0
 11
151.7500000000005
 21
2.750000000000568
 31
0
  0
LINE
  8
1
 62
3
 10
149.0000000000005
 20
3.250000000000568
 30
0
 11
149.0000000000005
 21
10.80000000000666
 31
0
  0
LINE
  8
1
 62
3
 10
151.0000000000005
 20
2.750000000000568
 30
0
 11
151.0000000000005
 21
1.426901174010482
 31
0
  0
LINE
  8
1
 62
3
 10
146.2499383193365
 20
1.781958464445722
 30
0
 11
146.2499383193365
 21
10.80000000000666
 31
0
  0
LINE
  8
1
 62
3
 10
146.2499383193365
 20
10.80000000000666
 30
0
 11
153.7499383193364
 21
10.80000000000666
 31
0
  0
LINE
  8
1
 62
3
 10
153.7499383193364
 20
10.80000000000666
 30
0
 11
153.7499383193364
 21
1.781933071778667
 31
0
  0
LINE
  8
1
 62
2
 10
145.7500616806644
 20
37.07916930889445
 30
0
 11
145.7500616806644
 21
38.10795472387429
 31
0
  0
LINE
  8
1
 62
3
 10
149.0000000000005
 20
37.25000000000119
 30
0
 11
149.0000000000005
 21
38.57309882599128
 31
0
  0
LINE
  8
1
 62
3
 10
151.0000000000005
 20
36.75000000000119
 30
0
 11
151.0000000000005
 21
29.1999999999951
 31
0
  0
LINE
  8
1
 62
2
 10
154.2499383193365
 20
38.10795472387429
 30
0
 11
154.2499383193365
 21
37.07916930889445
 31
0
  0
LINE
  8
1
 62
3
 10
151.7500000000005
 20
36.75000000000119
 30
0
 11
148.2500000000005
 21
36.75000000000119
 31
0
  0
LINE
  8
1
 62
2
 10
151.2500000000005
 20
37.25000000000119
 30
0
 11
151.2500000000005
 21
36.75000000000119
 31
0
  0
LINE
  8
1
 62
3
 10
148.2500000000005
 20
37.25000000000119
 30
0
 11
151.7500000000005
 21
37.25000000000119
 31
0
  0
LINE
  8
1
 62
2
 10
148.7500000000005
 20
37.25000000000119
 30
0
 11
148.7500000000005
 21
36.75000000000119
 31
0
  0
LINE
  8
1
 62
3
 10
148.2500000000005
 20
36.75000000000119
 30
0
 11
148.2500000000005
 21
37.25000000000119
 31
0
  0
LINE
  8
1
 62
3
 10
151.7500000000005
 20
37.25000000000119
 30
0
 11
151.7500000000005
 21
36.75000000000119
 31
0
  0
LINE
  8
1
 62
3
 10
149.0000000000005
 20
29.1999999999951
 30
0
 11
149.0000000000005
 21
36.75000000000119
 31
0
  0
LINE
  8
1
 62
3
 10
151.0000000000005
 20
38.57309882599128
 30
0
 11
151.0000000000005
 21
37.25000000000119
 31
0
  0
LINE
  8
1
 62
3
 10
146.2499383193365
 20
29.1999999999951
 30
0
 11
146.2499383193365
 21
38.21804153555621
 31
0
  0
LINE
  8
1
 62
3
 10
153.7499383193365
 20
29.1999999999951
 30
0
 11
146.2499383193365
 21
29.1999999999951
 31
0
  0
LINE
  8
1
 62
3
 10
153.7499383193365
 20
38.2180669282231
 30
0
 11
153.7499383193365
 21
29.1999999999951
 31
0
  0
LINE
  8
1
 62
1
 10
158.2873574488435
 20
10.12351198723047
 30
0
 11
161.1347943248011
 21
6.73006886062268
 31
0
  0
LINE
  8
1
 62
1
 10
141.7126425511581
 20
29.87648801277175
 30
0
 11
138.8652056752004
 21
33.26993113937948
 31
0
  0
LINE
  8
1
 62
1
 10
150
 20
42.88000000000051
 30
0
 11
150.0000000000005
 21
-2.879999999999029
 31
0
  0
LINE
  8
1
 62
1
 10
138.8652056751998
 20
6.73006886062268
 30
0
 11
141.7126425511577
 21
10.12351198723053
 31
0
  0
LINE
  8
1
 62
1
 10
161.1347943248007
 20
33.26993113937948
 30
0
 11
158.2873574488428
 21
29.87648801277175
 31
0
  0
LINE
  8
1
 62
3
 10
34.13479550040199
 20
29.10565662694194
 30
0
 11
34.13479550040199
 21
39.19999999999999
 31
0
  0
LINE
  8
1
 62
3
 10
55.13479550040199
 20
29.10565662694194
 30
0
 11
55.13479550040198
 21
39.19999999999999
 31
0
  0
LINE
  8
1
 62
3
 10
35.33479550040273
 20
27.90565662694127
 30
0
 11
53.9347955004031
 21
27.90565662694121
 31
0
  0
LINE
  8
1
 62
3
 10
82.33479550040202
 20
38.60000000000048
 30
0
 11
67.7347955004019
 21
38.59999999999997
 31
0
  0
LINE
  8
1
 62
3
 10
81.63479550040198
 20
27.30000000000007
 30
0
 11
86.33479550032996
 21
27.30000000000007
 31
0
  0
LINE
  8
1
 62
3
 10
86.33479550032996
 20
12.69999999999993
 30
0
 11
81.63479550040199
 21
12.69999999999993
 31
0
  0
LINE
  8
1
 62
3
 10
87.33479550032996
 20
26.30000000000007
 30
0
 11
87.33479550032996
 21
13.69999999999993
 31
0
  0
LINE
  8
1
 62
3
 10
67.7347955004019
 20
1.399999999999977
 30
0
 11
82.33479550040204
 21
1.400000000000489
 31
0
  0
LINE
  8
1
 62
3
 10
67.7347955004019
 20
39.19999999999999
 30
0
 11
67.7347955004019
 21
8.873842784196199
 31
0
  0
LINE
  8
1
 62
3
 10
67.7347955004019
 20
7.679667434020985
 30
0
 11
67.7347955004019
 21
0.8000000000000114
 31
0
  0
LINE
  8
1
 62
1
 10
85.33479550032996
 20
38.21804153555615
 30
0
 11
85.33479550032996
 21
35.64119421522088
 31
0
  0
LINE
  8
1
 62
2
 10
82.83479550040215
 20
37.25000000000114
 30
0
 11
82.83479550040215
 21
36.75000000000114
 31
0
  0
LINE
  8
1
 62
3
 10
87.33479550032996
 20
36.75000000000114
 30
0
 11
82.33479550040204
 21
36.75000000000114
 31
0
  0
LINE
  8
1
 62
3
 10
82.33479550040204
 20
37.25000000000114
 30
0
 11
87.33479550032996
 21
37.25000000000114
 31
0
  0
LINE
  8
1
 62
2
 10
86.83479550032995
 20
37.25000000000114
 30
0
 11
86.83479550032996
 21
36.75000000000114
 31
0
  0
LINE
  8
1
 62
3
 10
87.33479550032996
 20
37.25000000000114
 30
0
 11
87.33479550032996
 21
36.75000000000114
 31
0
  0
LINE
  8
1
 62
3
 10
82.33479550040204
 20
29.19999999999504
 30
0
 11
81.63479550040199
 21
29.19999999999504
 31
0
  0
LINE
  8
1
 62
3
 10
82.33479550040202
 20
38.60000000000048
 30
0
 11
82.33479550040204
 21
29.19999999999504
 31
0
  0
LINE
  8
1
 62
3
 10
68.33479550040204
 20
38.21804153555615
 30
0
 11
68.33479550040202
 21
38.60000000000048
 31
0
  0
LINE
  8
1
 62
3
 10
68.33479550040204
 20
38.21804153555615
 30
0
 11
82.33479550040204
 21
38.21804153555615
 31
0
  0
LINE
  8
1
 62
1
 10
85.33479550032996
 20
4.358805784780088
 30
0
 11
85.33479550032996
 21
1.781958464444813
 31
0
  0
LINE
  8
1
 62
2
 10
82.83479550040215
 20
3.249999999999886
 30
0
 11
82.83479550040215
 21
2.749999999999886
 31
0
  0
LINE
  8
1
 62
3
 10
82.33479550040204
 20
3.249999999999886
 30
0
 11
87.33479550032996
 21
3.249999999999886
 31
0
  0
LINE
  8
1
 62
3
 10
87.33479550032996
 20
2.749999999999886
 30
0
 11
82.33479550040204
 21
2.749999999999886
 31
0
  0
LINE
  8
1
 62
2
 10
86.83479550032996
 20
3.249999999999886
 30
0
 11
86.83479550032996
 21
2.749999999999886
 31
0
  0
LINE
  8
1
 62
3
 10
87.33479550032996
 20
3.249999999999886
 30
0
 11
87.33479550032996
 21
2.749999999999886
 31
0
  0
LINE
  8
1
 62
3
 10
82.33479550040204
 20
10.80000000000592
 30
0
 11
82.33479550040204
 21
1.400000000000489
 31
0
  0
LINE
  8
1
 62
3
 10
81.63479550040199
 20
10.80000000000592
 30
0
 11
82.33479550040204
 21
10.80000000000592
 31
0
  0
LINE
  8
1
 62
3
 10
68.33479550040202
 20
1.400000000000489
 30
0
 11
68.33479550040204
 21
1.781958464444813
 31
0
  0
LINE
  8
1
 62
3
 10
82.33479550040204
 20
1.781958464444813
 30
0
 11
68.33479550040204
 21
1.781958464444813
 31
0
  0
LINE
  8
1
 62
3
 10
81.63479550040198
 20
38.21804153555615
 30
0
 11
81.63479550040198
 21
1.781958464444813
 31
0
  0
LINE
  8
1
 62
1
 10
90.92279695316995
 20
20
 30
0
 11
-17.99999999999999
 21
20
 31
0
  0
LINE
  8
1
 62
3
 10
26.13479550040199
 20
1.400000000000034
 30
0
 11
27.7347955004019
 21
1.400000000000034
 31
0
  0
LINE
  8
1
 62
3
 10
24.13479550040199
 20
3.399999999999977
 30
0
 11
24.13479550040199
 21
36.59999999999997
 31
0
  0
LINE
  8
1
 62
3
 10
27.73479550040189
 20
38.59999999999997
 30
0
 11
26.13479550040199
 21
38.59999999999997
 31
0
  0
LINE
  8
1
 62
3
 10
-140.965204499598
 20
-12.29999999999996
 30
0
 11
-140.965204499598
 21
-11.7000000000001
 31
0
  0
LINE
  8
1
 62
3
 10
-140.265204499598
 20
-12.39999999999998
 30
0
 11
-140.865204499598
 21
-12.39999999999998
 31
0
  0
LINE
  8
1
 62
3
 10
-139.0652044995981
 20
-14.19999999999999
 30
0
 11
-139.0652044995981
 21
-13.59999999999997
 31
0
  0
LINE
  8
1
 62
3
 10
-138.365204499598
 20
-14.29999999999996
 30
0
 11
-138.965204499598
 21
-14.29999999999996
 31
0
  0
LINE
  8
1
 62
3
 10
-138.265204499598
 20
-13.59999999999997
 30
0
 11
-138.265204499598
 21
-14.19999999999999
 31
0
  0
LINE
  8
1
 62
3
 10
-137.0652044995981
 20
-12.39999999999998
 30
0
 11
-136.465204499598
 21
-12.39999999999998
 31
0
  0
LINE
  8
1
 62
3
 10
-136.365204499598
 20
-11.7000000000001
 30
0
 11
-136.365204499598
 21
-12.29999999999996
 31
0
  0
LINE
  8
1
 62
3
 10
-137.0652044995981
 20
-11.59999999999997
 30
0
 11
-136.465204499598
 21
-11.59999999999997
 31
0
  0
LINE
  8
1
 62
3
 10
-138.265204499598
 20
-9.799999999999955
 30
0
 11
-138.265204499598
 21
-10.40000000000009
 31
0
  0
LINE
  8
1
 62
3
 10
-138.965204499598
 20
-9.699999999999989
 30
0
 11
-138.365204499598
 21
-9.699999999999989
 31
0
  0
LINE
  8
1
 62
3
 10
-139.0652044995981
 20
-10.40000000000009
 30
0
 11
-139.0652044995981
 21
-9.799999999999955
 31
0
  0
LINE
  8
1
 62
3
 10
-140.865204499598
 20
-11.59999999999997
 30
0
 11
-140.265204499598
 21
-11.59999999999997
 31
0
  0
LINE
  8
1
 62
3
 10
-113.465204499598
 20
35.70000000000005
 30
0
 11
-113.465204499598
 21
36.2999999999999
 31
0
  0
LINE
  8
1
 62
3
 10
-112.765204499598
 20
35.60000000000002
 30
0
 11
-113.3652044995981
 21
35.60000000000002
 31
0
  0
LINE
  8
1
 62
3
 10
-111.5652044995981
 20
33.80000000000001
 30
0
 11
-111.5652044995981
 21
34.40000000000003
 31
0
  0
LINE
  8
1
 62
3
 10
-110.8652044995981
 20
33.70000000000005
 30
0
 11
-111.465204499598
 21
33.70000000000005
 31
0
  0
LINE
  8
1
 62
3
 10
-110.765204499598
 20
34.40000000000003
 30
0
 11
-110.765204499598
 21
33.80000000000001
 31
0
  0
LINE
  8
1
 62
3
 10
-109.5652044995981
 20
35.60000000000002
 30
0
 11
-108.965204499598
 21
35.60000000000002
 31
0
  0
LINE
  8
1
 62
3
 10
-108.8652044995981
 20
36.2999999999999
 30
0
 11
-108.8652044995981
 21
35.70000000000005
 31
0
  0
LINE
  8
1
 62
3
 10
-109.5652044995981
 20
36.40000000000003
 30
0
 11
-108.965204499598
 21
36.40000000000003
 31
0
  0
LINE
  8
1
 62
3
 10
-110.765204499598
 20
38.20000000000005
 30
0
 11
-110.765204499598
 21
37.59999999999991
 31
0
  0
LINE
  8
1
 62
3
 10
-111.465204499598
 20
38.30000000000001
 30
0
 11
-110.8652044995981
 21
38.30000000000001
 31
0
  0
LINE
  8
1
 62
3
 10
-111.5652044995981
 20
37.59999999999991
 30
0
 11
-111.5652044995981
 21
38.20000000000005
 31
0
  0
LINE
  8
1
 62
3
 10
-113.3652044995981
 20
36.40000000000003
 30
0
 11
-112.765204499598
 21
36.40000000000003
 31
0
  0
LINE
  8
1
 62
3
 10
-168.465204499598
 20
35.70000000000005
 30
0
 11
-168.465204499598
 21
36.2999999999999
 31
0
  0
LINE
  8
1
 62
3
 10
-167.765204499598
 20
35.60000000000002
 30
0
 11
-168.365204499598
 21
35.60000000000002
 31
0
  0
LINE
  8
1
 62
3
 10
-166.5652044995981
 20
33.80000000000001
 30
0
 11
-166.5652044995981
 21
34.40000000000003
 31
0
  0
LINE
  8
1
 62
3
 10
-165.865204499598
 20
33.70000000000005
 30
0
 11
-166.465204499598
 21
33.70000000000005
 31
0
  0
LINE
  8
1
 62
3
 10
-165.765204499598
 20
34.40000000000003
 30
0
 11
-165.765204499598
 21
33.80000000000001
 31
0
  0
LINE
  8
1
 62
3
 10
-164.5652044995981
 20
35.60000000000002
 30
0
 11
-163.965204499598
 21
35.60000000000002
 31
0
  0
LINE
  8
1
 62
3
 10
-163.865204499598
 20
36.2999999999999
 30
0
 11
-163.865204499598
 21
35.70000000000005
 31
0
  0
LINE
  8
1
 62
3
 10
-164.5652044995981
 20
36.40000000000003
 30
0
 11
-163.965204499598
 21
36.40000000000003
 31
0
  0
LINE
  8
1
 62
3
 10
-165.765204499598
 20
38.20000000000005
 30
0
 11
-165.765204499598
 21
37.59999999999991
 31
0
  0
LINE
  8
1
 62
3
 10
-166.465204499598
 20
38.30000000000001
 30
0
 11
-165.865204499598
 21
38.30000000000001
 31
0
  0
LINE
  8
1
 62
3
 10
-166.5652044995981
 20
37.59999999999991
 30
0
 11
-166.5652044995981
 21
38.20000000000005
 31
0
  0
LINE
  8
1
 62
3
 10
-168.365204499598
 20
36.40000000000003
 30
0
 11
-167.765204499598
 21
36.40000000000003
 31
0
  0
LINE
  8
1
 62
3
 10
-178.6652044995981
 20
53.25
 30
0
 11
-178.6652044995981
 21
-13.25
 31
0
  0
LINE
  8
1
 62
1
 10
-184.0532171178944
 20
20
 30
0
 11
-95.09666294813596
 21
20
 31
0
  0
LINE
  8
1
 62
1
 10
-158.8476979980046
 20
35
 30
0
 11
-155.6652044995981
 21
35
 31
0
  0
LINE
  8
1
 62
3
 10
-101.4152044995981
 20
-13.25
 30
0
 11
-101.4152044995981
 21
-10.94059892324145
 31
0
  0
LINE
  8
1
 62
1
 10
-101.4152044995981
 20
-13.25
 30
0
 11
-95.40547789602275
 21
-13.25
 31
0
  0
LINE
  8
1
 62
3
 10
-101.4152044995981
 20
-15.55940107675849
 30
0
 11
-101.4152044995981
 21
-13.25
 31
0
  0
LINE
  8
1
 62
3
 10
-105.4152044995981
 20
-17.8688021535171
 30
0
 11
-101.4152044995981
 21
-15.55940107675849
 31
0
  0
LINE
  8
1
 62
1
 10
-105.4152044995981
 20
-17.8688021535171
 30
0
 11
-105.4152044995981
 21
-23.25972660357519
 31
0
  0
LINE
  8
1
 62
3
 10
-109.4152044995981
 20
-15.55940107675849
 30
0
 11
-105.4152044995981
 21
-17.8688021535171
 31
0
  0
LINE
  8
1
 62
3
 10
-109.4152044995981
 20
-10.94059892324145
 30
0
 11
-109.4152044995981
 21
-15.55940107675849
 31
0
  0
LINE
  8
1
 62
3
 10
-105.4152044995981
 20
-8.631197846482962
 30
0
 11
-109.4152044995981
 21
-10.94059892324145
 31
0
  0
LINE
  8
1
 62
1
 10
-105.4152044995981
 20
-8.631197846482962
 30
0
 11
-105.4152044995981
 21
-17.8688021535171
 31
0
  0
LINE
  8
1
 62
3
 10
-101.4152044995981
 20
-10.94059892324145
 30
0
 11
-105.4152044995981
 21
-8.631197846482962
 31
0
  0
LINE
  8
1
 62
1
 10
-171.9152044995981
 20
-17.25000000000006
 30
0
 11
-171.9152044995981
 21
-15.75000000000006
 31
0
  0
LINE
  8
1
 62
3
 10
-167.9152044995981
 20
-15.55940107675855
 30
0
 11
-167.9152044995981
 21
-10.94059892324157
 31
0
  0
LINE
  8
1
 62
3
 10
-171.9152044995981
 20
-17.86880215351687
 30
0
 11
-167.9152044995981
 21
-15.55940107675855
 31
0
  0
LINE
  8
1
 62
1
 10
-176.5340066531149
 20
-13.25
 30
0
 11
-175.9152044995981
 21
-13.25
 31
0
  0
LINE
  8
1
 62
3
 10
-175.9152044995981
 20
-15.55940107675855
 30
0
 11
-171.9152044995981
 21
-17.86880215351687
 31
0
  0
LINE
  8
1
 62
3
 10
-175.9152044995981
 20
-10.94059892324157
 30
0
 11
-175.9152044995981
 21
-15.55940107675855
 31
0
  0
LINE
  8
1
 62
3
 10
-171.9152044995981
 20
-8.631197846483076
 30
0
 11
-175.9152044995981
 21
-10.94059892324157
 31
0
  0
LINE
  8
1
 62
1
 10
-175.9152044995981
 20
-13.25
 30
0
 11
-161.4131890772355
 21
-13.25
 31
0
  0
LINE
  8
1
 62
3
 10
-167.9152044995981
 20
-10.94059892324157
 30
0
 11
-171.9152044995981
 21
-8.631197846483076
 31
0
  0
LINE
  8
1
 62
3
 10
-101.4152044995981
 20
53.25
 30
0
 11
-101.4152044995981
 21
55.55940107675855
 31
0
  0
LINE
  8
1
 62
1
 10
-101.4152044995981
 20
53.25
 30
0
 11
-94.32591252623655
 21
53.25
 31
0
  0
LINE
  8
1
 62
3
 10
-101.4152044995981
 20
50.94059892324151
 30
0
 11
-101.4152044995981
 21
53.25
 31
0
  0
LINE
  8
1
 62
3
 10
-105.4152044995981
 20
48.63119784648291
 30
0
 11
-101.4152044995981
 21
50.94059892324151
 31
0
  0
LINE
  8
1
 62
1
 10
-105.4152044995981
 20
48.63119784648291
 30
0
 11
-105.4152044995981
 21
43.82754994742385
 31
0
  0
LINE
  8
1
 62
3
 10
-109.4152044995981
 20
50.94059892324151
 30
0
 11
-105.4152044995981
 21
48.63119784648291
 31
0
  0
LINE
  8
1
 62
3
 10
-109.4152044995981
 20
55.55940107675855
 30
0
 11
-109.4152044995981
 21
50.94059892324151
 31
0
  0
LINE
  8
1
 62
3
 10
-105.4152044995981
 20
57.86880215351704
 30
0
 11
-109.4152044995981
 21
55.55940107675855
 31
0
  0
LINE
  8
1
 62
1
 10
-105.4152044995981
 20
57.86880215351704
 30
0
 11
-105.4152044995981
 21
48.63119784648291
 31
0
  0
LINE
  8
1
 62
3
 10
-101.4152044995981
 20
55.55940107675855
 30
0
 11
-105.4152044995981
 21
57.86880215351704
 31
0
  0
LINE
  8
1
 62
3
 10
-175.9152044995981
 20
53.25
 30
0
 11
-175.9152044995981
 21
50.94059892324151
 31
0
  0
LINE
  8
1
 62
1
 10
-175.9152044995981
 20
53.25
 30
0
 11
-174.4152044995981
 21
53.25
 31
0
  0
LINE
  8
1
 62
3
 10
-167.9152044995981
 20
50.94059892324151
 30
0
 11
-167.9152044995981
 21
55.55940107675855
 31
0
  0
LINE
  8
1
 62
3
 10
-171.9152044995981
 20
48.63119784648291
 30
0
 11
-167.9152044995981
 21
50.94059892324151
 31
0
  0
LINE
  8
1
 62
1
 10
-171.9152044995981
 20
48.63119784648291
 30
0
 11
-171.9152044995981
 21
42.1310900806169
 31
0
  0
LINE
  8
1
 62
3
 10
-175.9152044995981
 20
50.94059892324151
 30
0
 11
-171.9152044995981
 21
48.63119784648291
 31
0
  0
LINE
  8
1
 62
3
 10
-175.9152044995981
 20
55.55940107675855
 30
0
 11
-175.9152044995981
 21
53.25
 31
0
  0
LINE
  8
1
 62
3
 10
-171.9152044995981
 20
57.86880215351704
 30
0
 11
-175.9152044995981
 21
55.55940107675855
 31
0
  0
LINE
  8
1
 62
1
 10
-171.9152044995981
 20
57.86880215351704
 30
0
 11
-171.9152044995981
 21
48.63119784648291
 31
0
  0
LINE
  8
1
 62
3
 10
-167.9152044995981
 20
55.55940107675855
 30
0
 11
-171.9152044995981
 21
57.86880215351704
 31
0
  0
LINE
  8
1
 62
1
 10
-171.9152044995981
 20
-15.75000000000006
 30
0
 11
-171.9152044995981
 21
-15.25000000000006
 31
0
  0
LINE
  8
1
 62
1
 10
-171.9152044995981
 20
-15.25000000000006
 30
0
 11
-171.9152044995981
 21
-8.631197846483076
 31
0
  0
LINE
  8
1
 62
1
 10
-102.9152044995981
 20
-13.25
 30
0
 11
-101.4152044995981
 21
-13.25
 31
0
  0
LINE
  8
1
 62
1
 10
-103.4152044995981
 20
-13.25
 30
0
 11
-102.9152044995981
 21
-13.25
 31
0
  0
LINE
  8
1
 62
1
 10
-102.9152044995981
 20
53.25
 30
0
 11
-101.4152044995981
 21
53.25
 31
0
  0
LINE
  8
1
 62
1
 10
-103.4152044995981
 20
53.25
 30
0
 11
-102.9152044995981
 21
53.25
 31
0
  0
LINE
  8
1
 62
1
 10
-174.4152044995981
 20
53.25
 30
0
 11
-173.9152044995981
 21
53.25
 31
0
  0
LINE
  8
1
 62
1
 10
-173.9152044995981
 20
53.25
 30
0
 11
-161.4131890772355
 21
53.25
 31
0
  0
LINE
  8
1
 62
1
 10
-114.9918781764295
 20
-13.25
 30
0
 11
-103.4152044995981
 21
-13.25
 31
0
  0
LINE
  8
1
 62
1
 10
-138.6652044995981
 20
65.20695887783882
 30
0
 11
-138.6652044995981
 21
-26.5483958279014
 31
0
  0
LINE
  8
1
 62
1
 10
-144.6652044995981
 20
-12
 30
0
 11
-132.6652044995981
 21
-12
 31
0
  0
LINE
  8
1
 62
1
 10
-172.1652044995981
 20
36
 30
0
 11
-160.1652044995981
 21
36
 31
0
  0
LINE
  8
1
 62
1
 10
-166.1652044995981
 20
42
 30
0
 11
-166.1652044995981
 21
30
 31
0
  0
LINE
  8
1
 62
1
 10
-117.1652044995981
 20
36
 30
0
 11
-105.1652044995981
 21
36
 31
0
  0
LINE
  8
1
 62
1
 10
-111.1652044995981
 20
42
 30
0
 11
-111.1652044995981
 21
30
 31
0
  0
LINE
  8
1
 62
3
 10
-105.4152044995981
 20
-20
 30
0
 11
-171.9152044995981
 21
-20
 31
0
  0
LINE
  8
1
 62
1
 10
-171.9152044995981
 20
63.25972660357525
 30
0
 11
-171.9152044995981
 21
57.86880215351704
 31
0
  0
LINE
  8
1
 62
1
 10
-182.5418256001939
 20
53.25
 30
0
 11
-175.9152044995981
 21
53.25
 31
0
  0
LINE
  8
1
 62
1
 10
-105.4152044995981
 20
62.18016123378902
 30
0
 11
-105.4152044995981
 21
57.86880215351704
 31
0
  0
LINE
  8
1
 62
1
 10
-115.1461018006846
 20
53.25
 30
0
 11
-103.4152044995981
 21
53.25
 31
0
  0
LINE
  8
1
 62
1
 10
-105.4152044995981
 20
-3.210655450403067
 30
0
 11
-105.4152044995981
 21
-8.631197846482962
 31
0
  0
LINE
  8
1
 62
1
 10
-171.9152044995981
 20
-3.673326323168567
 30
0
 11
-171.9152044995981
 21
-24.03084472485097
 31
0
  0
LINE
  8
1
 62
1
 10
-182.0791547274284
 20
-13.25
 30
0
 11
-176.5340066531149
 21
-13.25
 31
0
  0
LINE
  8
1
 62
3
 10
-98.66520449959805
 20
53.25
 30
0
 11
-98.66520449959805
 21
-13.25
 31
0
  0
LINE
  8
1
 62
3
 10
-171.9152044995981
 20
60
 30
0
 11
-105.4152044995981
 21
60
 31
0
  0
LINE
  8
1
 62
3
 10
-15.06520449959795
 20
50.75
 30
0
 11
-15.06520449959795
 21
49.78499999999991
 31
0
  0
LINE
  8
1
 62
3
 10
-26.86520449959802
 20
50.75
 30
0
 11
-15.06520449959795
 21
50.75
 31
0
  0
LINE
  8
1
 62
3
 10
-10.36520449959801
 20
49.78499999999991
 30
0
 11
-10.36520449959801
 21
56.71500000000003
 31
0
  0
LINE
  8
1
 62
3
 10
-12.71520449959805
 20
50.94
 30
0
 11
-10.66862809007893
 21
50.94
 31
0
  0
LINE
  8
1
 62
3
 10
-12.71520449959805
 20
55.56
 30
0
 11
-10.66862809007893
 21
55.56
 31
0
  0
LINE
  8
1
 62
3
 10
-12.71520449959805
 20
57.87000000000001
 30
0
 11
-10.66862809007893
 21
57.87000000000001
 31
0
  0
LINE
  8
1
 62
3
 10
-12.71520449959805
 20
48.63000000000005
 30
0
 11
-10.66862809007893
 21
48.63000000000005
 31
0
  0
LINE
  8
1
 62
3
 10
-15.06520449959795
 20
56.71500000000003
 30
0
 11
-15.06520449959795
 21
50.75
 31
0
  0
LINE
  8
1
 62
3
 10
-14.76178090911714
 20
50.94
 30
0
 11
-12.71520449959805
 21
50.94
 31
0
  0
LINE
  8
1
 62
3
 10
-14.76178090911714
 20
55.56
 30
0
 11
-12.71520449959805
 21
55.56
 31
0
  0
LINE
  8
1
 62
3
 10
-14.76178090911714
 20
57.87000000000001
 30
0
 11
-12.71520449959805
 21
57.87000000000001
 31
0
  0
LINE
  8
1
 62
3
 10
-14.76178090911714
 20
48.63000000000005
 30
0
 11
-12.71520449959805
 21
48.63000000000005
 31
0
  0
LINE
  8
1
 62
3
 10
-10.36520449959801
 20
48.25
 30
0
 11
-9.365204499598013
 21
48.25
 31
0
  0
LINE
  8
1
 62
3
 10
-10.36520449959801
 20
58.25
 30
0
 11
-10.36520449959801
 21
48.25
 31
0
  0
LINE
  8
1
 62
3
 10
-9.365204499598013
 20
58.25
 30
0
 11
-10.36520449959801
 21
58.25
 31
0
  0
LINE
  8
1
 62
3
 10
-27.36520449959802
 20
-11.25
 30
0
 11
-27.36520449959802
 21
-15.25
 31
0
  0
LINE
  8
1
 62
3
 10
-26.86520449959802
 20
-10.75
 30
0
 11
-26.86520449959802
 21
-15.75
 31
0
  0
LINE
  8
1
 62
3
 10
-27.36520449959802
 20
-15.25
 30
0
 11
-26.86520449959802
 21
-15.75
 31
0
  0
LINE
  8
1
 62
3
 10
-26.86520449959802
 20
-10.75
 30
0
 11
-27.36520449959802
 21
-11.25
 31
0
  0
LINE
  8
1
 62
3
 10
-15.06520449959795
 20
-10.75
 30
0
 11
-15.06520449959795
 21
-11.25
 31
0
  0
LINE
  8
1
 62
3
 10
-26.86520449959802
 20
-10.75
 30
0
 11
-15.06520449959795
 21
-10.75
 31
0
  0
LINE
  8
1
 62
3
 10
-15.06520449959795
 20
-15.75
 30
0
 11
-15.06520449959795
 21
-16.71500000000009
 31
0
  0
LINE
  8
1
 62
3
 10
-26.86520449959802
 20
-15.75
 30
0
 11
-15.06520449959795
 21
-15.75
 31
0
  0
LINE
  8
1
 62
3
 10
-15.06520449959795
 20
-15.25
 30
0
 11
-15.06520449959795
 21
-15.75
 31
0
  0
LINE
  8
1
 62
1
 10
-27.36520449959802
 20
-15.25
 30
0
 11
-15.06520449959795
 21
-15.25
 31
0
  0
LINE
  8
1
 62
3
 10
-15.06520449959795
 20
-11.25
 30
0
 11
-15.06520449959795
 21
-15.25
 31
0
  0
LINE
  8
1
 62
1
 10
-27.36520449959802
 20
-11.25
 30
0
 11
-15.06520449959795
 21
-11.25
 31
0
  0
LINE
  8
1
 62
3
 10
-10.36520449959802
 20
-16.71500000000009
 30
0
 11
-10.36520449959802
 21
-9.784999999999968
 31
0
  0
LINE
  8
1
 62
3
 10
-12.71520449959805
 20
-15.56
 30
0
 11
-10.66862809007894
 21
-15.56
 31
0
  0
LINE
  8
1
 62
3
 10
-12.71520449959805
 20
-10.94
 30
0
 11
-10.66862809007894
 21
-10.94
 31
0
  0
LINE
  8
1
 62
3
 10
-12.71520449959805
 20
-8.629999999999996
 30
0
 11
-10.66862809007894
 21
-8.629999999999996
 31
0
  0
LINE
  8
1
 62
3
 10
-12.71520449959805
 20
-17.86999999999995
 30
0
 11
-10.66862809007894
 21
-17.86999999999995
 31
0
  0
LINE
  8
1
 62
3
 10
-15.06520449959795
 20
-9.784999999999968
 30
0
 11
-15.06520449959795
 21
-10.75
 31
0
  0
LINE
  8
1
 62
3
 10
-14.76178090911715
 20
-15.56
 30
0
 11
-12.71520449959805
 21
-15.56
 31
0
  0
LINE
  8
1
 62
3
 10
-14.76178090911715
 20
-10.94
 30
0
 11
-12.71520449959805
 21
-10.94
 31
0
  0
LINE
  8
1
 62
3
 10
-14.76178090911715
 20
-8.629999999999996
 30
0
 11
-12.71520449959805
 21
-8.629999999999996
 31
0
  0
LINE
  8
1
 62
3
 10
-14.76178090911715
 20
-17.86999999999995
 30
0
 11
-12.71520449959805
 21
-17.86999999999995
 31
0
  0
LINE
  8
1
 62
3
 10
-10.36520449959802
 20
-18.25
 30
0
 11
-9.36520449959802
 21
-18.25
 31
0
  0
LINE
  8
1
 62
3
 10
-10.36520449959802
 20
-8.25
 30
0
 11
-10.36520449959802
 21
-18.25
 31
0
  0
LINE
  8
1
 62
3
 10
-9.36520449959802
 20
-8.25
 30
0
 11
-10.36520449959802
 21
-8.25
 31
0
  0
LINE
  8
1
 62
3
 10
-26.86520449959802
 20
50.75
 30
0
 11
-27.36520449959802
 21
51.25
 31
0
  0
LINE
  8
1
 62
3
 10
-26.86520449959802
 20
55.75
 30
0
 11
-27.36520449959802
 21
55.25
 31
0
  0
LINE
  8
1
 62
3
 10
-26.86520449959802
 20
55.75
 30
0
 11
-26.86520449959802
 21
50.75
 31
0
  0
LINE
  8
1
 62
3
 10
-27.36520449959802
 20
55.25
 30
0
 11
-27.36520449959802
 21
51.25
 31
0
  0
LINE
  8
1
 62
1
 10
-27.36520449959802
 20
51.25
 30
0
 11
-15.06520449959795
 21
51.25
 31
0
  0
LINE
  8
1
 62
1
 10
-27.36520449959802
 20
55.25
 30
0
 11
-15.06520449959795
 21
55.25
 31
0
  0
LINE
  8
1
 62
3
 10
-26.86520449959802
 20
55.75
 30
0
 11
-15.06520449959795
 21
55.75
 31
0
  0
LINE
  8
1
 62
3
 10
-3.314686163758054
 20
60.73955815186582
 30
0
 11
14.68531383624194
 21
60.73955815186582
 31
0
  0
LINE
  8
1
 62
1
 10
-29.55461492149902
 20
53.25
 30
0
 11
27.6721375992767
 21
53.25
 31
0
  0
LINE
  8
1
 62
1
 10
-29.60123020820588
 20
-13.25
 30
0
 11
27.67213759927671
 21
-13.25
 31
0
  0
LINE
  8
1
 62
3
 10
23.96840398133878
 20
-8.773682435249953
 30
0
 11
22.7435110746768
 21
-8.728096486448465
 31
0
  0
LINE
  8
1
 62
3
 10
23.96840398133878
 20
-17.70441405119846
 30
0
 11
22.7435110746768
 21
-17.75
 31
0
  0
LINE
  8
1
 62
3
 10
23.96840398133877
 20
57.72631756475005
 30
0
 11
22.74351107467679
 21
57.77190351355142
 31
0
  0
LINE
  8
1
 62
3
 10
23.96840398133878
 20
48.79558594880143
 30
0
 11
22.7435110746768
 21
48.75
 31
0
  0
LINE
  8
1
 62
3
 10
24.13479550040199
 20
40.25
 30
0
 11
24.13479550040199
 21
-0.25
 31
0
  0
LINE
  8
1
 62
3
 10
22.63479550040199
 20
41.25
 30
0
 11
22.63479550040199
 21
60
 31
0
  0
LINE
  8
1
 62
3
 10
22.63479550040199
 20
41.25
 30
0
 11
22.63479550040199
 21
-1.215893349960993
 31
0
  0
LINE
  8
1
 62
3
 10
22.63479550040199
 20
-1.25
 30
0
 11
22.63479550040199
 21
-20
 31
0
  0
LINE
  8
1
 62
3
 10
22.63479550040199
 20
-1.25
 30
0
 11
22.63479550040199
 21
-1.215893349960993
 31
0
  0
LINE
  8
1
 62
3
 10
22.63479550040199
 20
60
 30
0
 11
20.63479550040199
 21
60
 31
0
  0
LINE
  8
1
 62
3
 10
20.63479550040199
 20
-20
 30
0
 11
22.63479550040199
 21
-20
 31
0
  0
LINE
  8
1
 62
3
 10
23.13479550040199
 20
40.75
 30
0
 11
23.63479550040199
 21
40.75
 31
0
  0
LINE
  8
1
 62
3
 10
23.13479550040199
 20
-0.75
 30
0
 11
23.63479550040199
 21
-0.75
 31
0
  0
LINE
  8
1
 62
1
 10
-118.7408709825743
 20
35
 30
0
 11
-155.6652044995981
 21
35
 31
0
  0
LINE
  8
1
 62
3
 10
-136.1652044995981
 20
33.00000000000006
 30
0
 11
-134.0826288046423
 21
33.00000000000006
 31
0
  0
LINE
  8
1
 62
3
 10
-136.1652044995981
 20
37
 30
0
 11
-136.1652044995981
 21
33.00000000000006
 31
0
  0
LINE
  8
1
 62
3
 10
-134.0826288046423
 20
37
 30
0
 11
-136.1652044995981
 21
37
 31
0
  0
LINE
  8
1
 62
2
 10
-43.86520449959806
 20
33.00000000000006
 30
0
 11
-43.86520449959806
 21
30
 31
0
  0
LINE
  8
1
 62
2
 10
-43.86520449959806
 20
40
 30
0
 11
-43.86520449959806
 21
37
 31
0
  0
LINE
  8
1
 62
3
 10
-44.36520449959806
 20
30.5
 30
0
 11
-43.86520449959806
 21
30
 31
0
  0
LINE
  8
1
 62
3
 10
-44.36520449959806
 20
39.5
 30
0
 11
-43.86520449959806
 21
40
 31
0
  0
LINE
  8
1
 62
1
 10
-48.59857313149853
 20
35
 30
0
 11
-2.36520449959802
 21
35
 31
0
  0
LINE
  8
1
 62
3
 10
-44.36520449959806
 20
30.5
 30
0
 11
-44.36520449959806
 21
33.00000000000006
 31
0
  0
LINE
  8
1
 62
3
 10
-44.36520449959806
 20
37
 30
0
 11
-21.36520449959803
 21
37
 31
0
  0
LINE
  8
1
 62
3
 10
-44.36520449959806
 20
37
 30
0
 11
-44.36520449959806
 21
39.5
 31
0
  0
LINE
  8
1
 62
3
 10
-21.36520449959803
 20
33.00000000000006
 30
0
 11
-44.36520449959806
 21
33.00000000000006
 31
0
  0
LINE
  8
1
 62
3
 10
-44.36520449959806
 20
33.00000000000006
 30
0
 11
-44.36520449959806
 21
37
 31
0
  0
LINE
  8
1
 62
3
 10
-43.86520449959806
 20
40
 30
0
 11
-14.36520449959802
 21
40
 31
0
  0
LINE
  8
1
 62
3
 10
-43.86520449959806
 20
30
 30
0
 11
-14.36520449959802
 21
30
 31
0
  0
LINE
  8
1
 62
1
 10
-47.72536790138044
 20
35
 30
0
 11
-4.883507476243905
 21
35
 31
0
  0
LINE
  8
1
 62
3
 10
20.63479550040198
 20
-18.99999999999994
 30
0
 11
19.63479550040198
 21
-18.99999999999994
 31
0
  0
LINE
  8
1
 62
3
 10
-6.86520449959802
 20
-19.74999999999994
 30
0
 11
19.63479550040198
 21
-20.08618421052626
 31
0
  0
LINE
  8
1
 62
3
 10
-8.86520449959802
 20
-19.74999999999994
 30
0
 11
-6.86520449959802
 21
-19.74999999999994
 31
0
  0
LINE
  8
1
 62
3
 10
-9.36520449959802
 20
-6.799999999999955
 30
0
 11
-9.36520449959802
 21
-19.24999999999994
 31
0
  0
LINE
  8
1
 62
3
 10
-9.36520449959802
 20
-6.799999999999955
 30
0
 11
-8.86520449959802
 21
-6.799999999999955
 31
0
  0
LINE
  8
1
 62
3
 10
-9.36520449959802
 20
18
 30
0
 11
-13.86520449959802
 21
18
 31
0
  0
LINE
  8
1
 62
3
 10
-14.36520449959803
 20
48.63000000000005
 30
0
 11
-14.36520449959802
 21
18.5
 31
0
  0
LINE
  8
1
 62
3
 10
20.63479550040199
 20
60
 30
0
 11
20.63479550040199
 21
-20
 31
0
  0
LINE
  8
1
 62
3
 10
-6.86520449959802
 20
59.74999999999994
 30
0
 11
-8.86520449959802
 21
59.74999999999994
 31
0
  0
LINE
  8
1
 62
3
 10
-9.36520449959802
 20
59.24999999999994
 30
0
 11
-9.36520449959802
 21
46.79999999999995
 31
0
  0
LINE
  8
1
 62
3
 10
-8.86520449959802
 20
46.79999999999995
 30
0
 11
-9.36520449959802
 21
46.79999999999995
 31
0
  0
LINE
  8
1
 62
3
 10
-8.86520449959802
 20
-14.69999999999993
 30
0
 11
-8.86520449959802
 21
54.69999999999993
 31
0
  0
LINE
  8
1
 62
3
 10
19.63479550040198
 20
60.08618421052625
 30
0
 11
-6.86520449959802
 21
59.74999999999994
 31
0
  0
LINE
  8
1
 62
3
 10
19.63479550040198
 20
58.99999999999994
 30
0
 11
20.63479550040198
 21
58.99999999999994
 31
0
  0
LINE
  8
1
 62
3
 10
19.63479550040198
 20
60.08618421052625
 30
0
 11
19.63479550040198
 21
-20.08618421052626
 31
0
  0
ARC
  8
1
 62
3
 10
150.0000000000002
 20
20.00000000000051
 30
0
 40
19.19999999999948
 50
221.3855060057457
 51
215.4144939942526
  0
ARC
  8
1
 62
3
 10
150.0000000000002
 20
20.00000000000051
 30
0
 40
17.60000000000121
 50
102.3024219278002
 51
257.6975780721986
  0
ARC
  8
1
 62
3
 10
150.0000000000002
 20
20.00000000000051
 30
0
 40
18.59999999999963
 50
270
 51
78.36890089693895
  0
ARC
  8
1
 62
3
 10
150.0000000000002
 20
20.00000000000051
 30
0
 40
17.5999999999992
 50
282.3020108937138
 51
77.69798910628686
  0
ARC
  8
1
 62
3
 10
150.0000000000002
 20
20.00000000000051
 30
0
 40
18.60000000000066
 50
78.36890089693895
 51
270
  0
ARC
  8
1
 62
1
 10
150.0000000000002
 20
20.00000000000051
 30
0
 40
14.99999999999968
 50
302.0832660772906
 51
317.7157356079422
  0
ARC
  8
1
 62
1
 10
150.0000000000002
 20
20.00000000000051
 30
0
 40
14.99999999999946
 50
222.2842643920581
 51
237.9167339227101
  0
ARC
  8
1
 62
1
 10
150.0000000000002
 20
20.00000000000051
 30
0
 40
15.00000000000046
 50
42.28426439206166
 51
57.91673392271171
  0
ARC
  8
1
 62
1
 10
150.0000000000002
 20
20.00000000000051
 30
0
 40
15.00000000000054
 50
122.0832660772876
 51
137.7157356079381
  0
ARC
  8
1
 62
3
 10
-105.4152044995981
 20
53.25
 30
0
 40
6.75
 50
90
 51
0
  0
ARC
  8
1
 62
3
 10
-171.9152044995981
 20
-13.25
 30
0
 40
6.75
 50
270
 51
180
  0
ARC
  8
1
 62
3
 10
-171.9152044995981
 20
53.25
 30
0
 40
6.75
 50
90
 51
180
  0
ARC
  8
1
 62
3
 10
-105.4152044995981
 20
-13.25
 30
0
 40
6.75
 50
270
 51
0
  0
ARC
  8
1
 62
3
 10
-171.9152044995981
 20
53.25
 30
0
 40
6.75
 50
180
 51
90
  0
ARC
  8
1
 62
3
 10
-105.4152044995981
 20
53.25
 30
0
 40
6.750000000000057
 50
0
 51
90
  0
ARC
  8
1
 62
3
 10
-105.4152044995981
 20
-13.25
 30
0
 40
6.750000000000057
 50
0
 51
270
  0
ARC
  8
1
 62
3
 10
-171.9152044995981
 20
-13.25
 30
0
 40
6.75
 50
180
 51
270
  0
ARC
  8
1
 62
3
 10
-19.31006911387671
 20
53.25
 30
0
 40
8.944864614278702
 50
345.0338261958172
 51
14.96617380418284
  0
ARC
  8
1
 62
3
 10
-12.71520449959805
 20
49.78499999999991
 30
0
 40
2.349999999999968
 50
330.5614799140786
 51
29.43852008592629
  0
ARC
  8
1
 62
3
 10
-12.71520449959805
 20
56.71500000000003
 30
0
 40
2.350000000000052
 50
330.5614799140749
 51
29.43852008592403
  0
ARC
  8
1
 62
3
 10
-6.120339885319195
 20
53.25
 30
0
 40
8.94486461427886
 50
165.0338261958174
 51
194.9661738041826
  0
ARC
  8
1
 62
3
 10
-12.71520449959805
 20
49.78499999999991
 30
0
 40
2.350000000000053
 50
150.5614799140734
 51
209.4385200859218
  0
ARC
  8
1
 62
3
 10
-12.71520449959805
 20
56.71500000000003
 30
0
 40
2.350000000000001
 50
150.5614799140756
 51
209.4385200859254
  0
ARC
  8
1
 62
3
 10
-19.31006911387671
 20
-13.25
 30
0
 40
8.944864614278691
 50
345.0338261958172
 51
14.96617380418285
  0
ARC
  8
1
 62
3
 10
-12.71520449959805
 20
-16.71500000000009
 30
0
 40
2.349999999999961
 50
330.5614799140784
 51
29.43852008592645
  0
ARC
  8
1
 62
3
 10
-12.71520449959805
 20
-9.784999999999968
 30
0
 40
2.350000000000044
 50
330.5614799140747
 51
29.438520085924
  0
ARC
  8
1
 62
3
 10
-6.120339885319202
 20
-13.25
 30
0
 40
8.944864614278862
 50
165.0338261958174
 51
194.9661738041826
  0
ARC
  8
1
 62
3
 10
-12.71520449959805
 20
-16.71500000000009
 30
0
 40
2.350000000000062
 50
150.5614799140734
 51
209.4385200859218
  0
ARC
  8
1
 62
3
 10
-12.71520449959805
 20
-9.784999999999968
 30
0
 40
2.350000000000005
 50
150.5614799140759
 51
209.4385200859254
  0
ARC
  8
1
 62
3
 10
26.72409344908356
 20
-13.25
 30
0
 40
0.7517523941143495
 50
156.4800993873253
 51
203.5199006126712
  0
ARC
  8
1
 62
3
 10
23.9732329164508
 20
-10.4443076734114
 30
0
 40
1.670632217155009
 50
32.36499987074326
 51
90.1656127446187
  0
ARC
  8
1
 62
3
 10
16.78583661921436
 20
-12.9572006206476
 30
0
 40
9.248961684147949
 50
0.0446066519409147
 51
21.61619621490573
  0
ARC
  8
1
 62
3
 10
23.85115753468409
 20
-15.77838608834657
 30
0
 40
1.929593336156753
 50
273.483566724868
 51
322.6139950970407
  0
ARC
  8
1
 62
3
 10
17.74374927285987
 20
-13.72605781338245
 30
0
 40
8.292915283595642
 50
337.1227217188453
 51
1.216475414306304
  0
ARC
  8
1
 62
3
 10
26.72409344908356
 20
53.25
 30
0
 40
0.75175239411435
 50
156.4800993873252
 51
203.51990061267
  0
ARC
  8
1
 62
3
 10
23.9732329164508
 20
56.05569232658854
 30
0
 40
1.670632217155045
 50
32.36499987074517
 51
90.16561274461904
  0
ARC
  8
1
 62
3
 10
16.78583661921435
 20
53.54279937935235
 30
0
 40
9.248961684147959
 50
0.04460665194122277
 51
21.61619621490602
  0
ARC
  8
1
 62
3
 10
23.85115753468409
 20
50.72161391165344
 30
0
 40
1.929593336156875
 50
273.4835667248677
 51
322.6139950970403
  0
ARC
  8
1
 62
3
 10
17.74374927285986
 20
52.77394218661743
 30
0
 40
8.292915283595596
 50
337.1227217188461
 51
1.2164754143072
  0
ARC
  8
1
 62
2
 10
-138.6652044995981
 20
35
 30
0
 40
4.500000000000038
 50
26.38779996124276
 51
333.6122000387579
  0
ARC
  8
1
 62
3
 10
-138.6652044995981
 20
35
 30
0
 40
4.99999999999994
 50
270
 51
0
  0
ARC
  8
1
 62
3
 10
-138.6652044995981
 20
35
 30
0
 40
5
 50
0
 51
270
  0
CIRCLE
  8
1
 62
3
 10
88.33479550025794
 20
-49.99999999999999
 30
0
 40
2
  0
CIRCLE
  8
1
 62
3
 10
150.0000000000002
 20
20.00000000000051
 30
0
 40
2.500000000000313
  0
CIRCLE
  8
1
 62
3
 10
159.6418141452984
 20
8.509333353216391
 30
0
 40
1.249999999999886
  0
CIRCLE
  8
1
 62
3
 10
140.3581858547025
 20
8.509333353216164
 30
0
 40
1.250000000000284
  0
CIRCLE
  8
1
 62
3
 10
159.6418141452984
 20
31.49066664678549
 30
0
 40
1.249999999999886
  0
CIRCLE
  8
1
 62
3
 10
140.3581858547022
 20
31.49066664678577
 30
0
 40
1.25
  0
CIRCLE
  8
1
 62
3
 10
150.0000000000002
 20
20.00000000000051
 30
0
 40
7.699999999994191
  0
CIRCLE
  8
1
 62
3
 10
150.0000000000002
 20
20.00000000000051
 30
0
 40
5.000000000000114
  0
CIRCLE
  8
1
 62
3
 10
-138.6652044995981
 20
35
 30
0
 40
17
  0
CIRCLE
  8
1
 62
3
 10
-105.4152044995981
 20
-13.25
 30
0
 40
4
  0
CIRCLE
  8
1
 62
3
 10
-171.9152044995981
 20
-13.25
 30
0
 40
4.00000000000006
  0
CIRCLE
  8
1
 62
3
 10
-105.4152044995981
 20
53.25
 30
0
 40
4
  0
CIRCLE
  8
1
 62
3
 10
-171.9152044995981
 20
53.25
 30
0
 40
4
  0
CIRCLE
  8
1
 62
3
 10
-171.9152044995981
 20
-13.25
 30
0
 40
2.50000000000006
  0
CIRCLE
  8
1
 62
2
 10
-171.9152044995981
 20
-13.25
 30
0
 40
2.00000000000006
  0
CIRCLE
  8
1
 62
3
 10
-105.4152044995981
 20
-13.25
 30
0
 40
2.5
  0
CIRCLE
  8
1
 62
2
 10
-105.4152044995981
 20
-13.25
 30
0
 40
2
  0
CIRCLE
  8
1
 62
3
 10
-105.4152044995981
 20
53.25
 30
0
 40
2.5
  0
CIRCLE
  8
1
 62
2
 10
-105.4152044995981
 20
53.25
 30
0
 40
2
  0
CIRCLE
  8
1
 62
3
 10
-171.9152044995981
 20
53.25
 30
0
 40
2.5
  0
CIRCLE
  8
1
 62
2
 10
-171.9152044995981
 20
53.25
 30
0
 40
2
  0
CIRCLE
  8
1
 62
3
 10
-138.6652044995981
 20
35
 30
0
 40
9.75
  0
CIRCLE
  8
1
 62
3
 10
-166.1652044995981
 20
36
 30
0
 40
3.5
  0
CIRCLE
  8
1
 62
3
 10
-111.1652044995981
 20
36
 30
0
 40
3.5
  0
CIRCLE
  8
1
 62
3
 10
-138.6652044995981
 20
-12
 30
0
 40
3.5
  0
CIRCLE
  8
1
 62
3
 10
-166.1652044995981
 20
36
 30
0
 40
4
  0
CIRCLE
  8
1
 62
3
 10
-111.1652044995981
 20
36
 30
0
 40
4
  0
CIRCLE
  8
1
 62
3
 10
-138.6652044995981
 20
-12
 30
0
 40
4
  0
POLYLINE
  8
1
 62
2
 66
1
  0
VERTEX
  8
1
 10
80.93479550040195
 20
-66.07642522580079
 30
0
 42
-0.01005852143308062
  0
VERTEX
  8
1
 10
77.8711475935841
 20
-64.4988615625245
 30
0
 42
-0.01646437977546763
  0
VERTEX
  8
1
 10
75.68466474966526
 20
-63.21346969256803
 30
0
 42
-0.02683999452812634
  0
VERTEX
  8
1
 10
74.20121954384801
 20
-62.14630135949322
 30
0
 42
-0.04027086203882478
  0
VERTEX
  8
1
 10
73.24668455133492
 20
-61.22340830686197
 30
0
 42
-0.04583609455675601
  0
VERTEX
  8
1
 10
72.64693234732853
 20
-60.37084227823615
 30
0
 42
-0.02667786452514094
  0
VERTEX
  8
1
 10
72.22783550703142
 20
-59.51465501717763
 30
0
 42
0.006936605872729487
  0
VERTEX
  8
1
 10
71.8152666056461
 20
-58.58089826724829
 30
0
 42
0.02822998967556023
  0
VERTEX
  8
1
 10
71.1702096896742
 20
-57.37126119942408
 30
0
 42
-0.01570029030558964
  0
VERTEX
  8
1
 10
70.287814689459
 20
-55.7797710810625
 30
0
 42
-0.05002181059961729
  0
VERTEX
  8
1
 10
69.54671416925629
 20
-53.90331177311595
 30
0
 42
-0.08020966863929593
  0
VERTEX
  8
1
 10
69.29051551463479
 20
-51.73650826339343
 30
0
 42
-0.06278493683939081
  0
VERTEX
  8
1
 10
69.79634359519115
 20
-49.10571702302258
 30
0
 42
-0.01618707348193858
  0
VERTEX
  8
1
 10
70.75029429685446
 20
-46.37684103840174
 30
0
 42
0.01155335340129294
  0
VERTEX
  8
1
 10
71.57091486991092
 20
-44.04359994633657
 30
0
 42
-0.002626207983636798
  0
VERTEX
  8
1
 10
72.17500852061093
 20
-42.16229445209825
 30
0
 42
-0.02676045954596087
  0
VERTEX
  8
1
 10
72.82664454154529
 20
-40.47648575486475
 30
0
 42
-0.05403970518532184
  0
VERTEX
  8
1
 10
73.69691671483061
 20
-39.00139686100439
 30
0
 42
-0.07196945542772236
  0
VERTEX
  8
1
 10
74.95691882258352
 20
-37.75225077688548
 30
0
 42
-0.06709682068464248
  0
VERTEX
  8
1
 10
76.77774464692067
 20
-36.74427050887631
 30
0
 42
-0.04863535937786854
  0
VERTEX
  8
1
 10
79.33048796995868
 20
-35.99267906334521
 30
0
  0
VERTEX
  8
1
 10
80.93479550040195
 20
-35.71778633849902
 30
0
  0
SEQEND
  8
1
  0
ARC
  8
1
 62
3
 10
53.93479550040311
 20
29.10565662694194
 30
0
 40
1.200000000000731
 50
270
 51
0
  0
ARC
  8
1
 62
3
 10
35.33479550040274
 20
29.10565662694194
 30
0
 40
1.200000000000749
 50
180
 51
270
  0
ARC
  8
1
 62
3
 10
86.33479550032996
 20
26.30000000000007
 30
0
 40
1
 50
0
 51
90
  0
ARC
  8
1
 62
3
 10
86.33479550032996
 20
13.69999999999993
 30
0
 40
1
 50
270
 51
0
  0
ARC
  8
1
 62
3
 10
26.13479550040199
 20
36.60000000000002
 30
0
 40
1.99999999999995
 50
90
 51
180
  0
ARC
  8
1
 62
3
 10
26.13479550040198
 20
3.399999999999977
 30
0
 40
1.999999999999993
 50
180
 51
270
  0
ARC
  8
1
 62
3
 10
-136.465204499598
 20
-11.7000000000001
 30
0
 40
0.09999999999999432
 50
0
 51
90
  0
ARC
  8
1
 62
3
 10
-136.465204499598
 20
-12.29999999999996
 30
0
 40
0.100000000000021
 50
270
 51
0
  0
ARC
  8
1
 62
3
 10
-138.365204499598
 20
-14.19999999999999
 30
0
 40
0.09999999999996945
 50
270
 51
0
  0
ARC
  8
1
 62
3
 10
-138.965204499598
 20
-14.19999999999999
 30
0
 40
0.100000000000108
 50
180
 51
270
  0
ARC
  8
1
 62
3
 10
-140.865204499598
 20
-12.29999999999996
 30
0
 40
0.09999999999999432
 50
180
 51
270
  0
ARC
  8
1
 62
3
 10
-140.865204499598
 20
-11.7000000000001
 30
0
 40
0.1000000000001311
 50
90
 51
180
  0
ARC
  8
1
 62
3
 10
-138.365204499598
 20
-9.799999999999955
 30
0
 40
0.09999999999999432
 50
0
 51
90
  0
ARC
  8
1
 62
3
 10
-138.965204499598
 20
-9.799999999999955
 30
0
 40
0.09999999999996589
 50
90
 51
180
  0
ARC
  8
1
 62
3
 10
-137.0652044995981
 20
-13.59999999999997
 30
0
 40
1.199999999999989
 50
90
 51
180
  0
ARC
  8
1
 62
3
 10
-140.265204499598
 20
-13.59999999999997
 30
0
 40
1.199999999999903
 50
0
 51
90
  0
ARC
  8
1
 62
3
 10
-137.0652044995981
 20
-10.40000000000009
 30
0
 40
1.199999999999903
 50
180
 51
270
  0
ARC
  8
1
 62
3
 10
-140.265204499598
 20
-10.40000000000009
 30
0
 40
1.19999999999988
 50
270
 51
0
  0
ARC
  8
1
 62
3
 10
-108.965204499598
 20
36.2999999999999
 30
0
 40
0.09999999999990905
 50
0
 51
90
  0
ARC
  8
1
 62
3
 10
-108.965204499598
 20
35.70000000000005
 30
0
 40
0.1000000000000298
 50
270
 51
0
  0
ARC
  8
1
 62
3
 10
-110.8652044995981
 20
33.80000000000001
 30
0
 40
0.09999999999995879
 50
270
 51
0
  0
ARC
  8
1
 62
3
 10
-111.465204499598
 20
33.80000000000001
 30
0
 40
0.1000000000000938
 50
180
 51
270
  0
ARC
  8
1
 62
3
 10
-113.3652044995981
 20
35.70000000000005
 30
0
 40
0.09999999999990905
 50
180
 51
270
  0
ARC
  8
1
 62
3
 10
-113.3652044995981
 20
36.2999999999999
 30
0
 40
0.1000000000001293
 50
90
 51
180
  0
ARC
  8
1
 62
3
 10
-110.8652044995981
 20
38.20000000000005
 30
0
 40
0.1000000000000938
 50
0
 51
90
  0
ARC
  8
1
 62
3
 10
-111.465204499598
 20
38.20000000000005
 30
0
 40
0.09999999999995879
 50
90
 51
180
  0
ARC
  8
1
 62
3
 10
-109.5652044995981
 20
34.40000000000003
 30
0
 40
1.199999999999996
 50
90
 51
180
  0
ARC
  8
1
 62
3
 10
-112.765204499598
 20
34.40000000000003
 30
0
 40
1.199999999999903
 50
0
 51
90
  0
ARC
  8
1
 62
3
 10
-109.5652044995981
 20
37.59999999999991
 30
0
 40
1.199999999999903
 50
180
 51
270
  0
ARC
  8
1
 62
3
 10
-112.765204499598
 20
37.59999999999991
 30
0
 40
1.199999999999882
 50
270
 51
0
  0
ARC
  8
1
 62
3
 10
-163.965204499598
 20
36.2999999999999
 30
0
 40
0.09999999999999432
 50
0
 51
90
  0
ARC
  8
1
 62
3
 10
-163.965204499598
 20
35.70000000000005
 30
0
 40
0.1000000000000298
 50
270
 51
0
  0
ARC
  8
1
 62
3
 10
-165.865204499598
 20
33.80000000000001
 30
0
 40
0.09999999999995879
 50
270
 51
0
  0
ARC
  8
1
 62
3
 10
-166.465204499598
 20
33.80000000000001
 30
0
 40
0.100000000000108
 50
180
 51
270
  0
ARC
  8
1
 62
3
 10
-168.365204499598
 20
35.70000000000005
 30
0
 40
0.09999999999999432
 50
180
 51
270
  0
ARC
  8
1
 62
3
 10
-168.365204499598
 20
36.2999999999999
 30
0
 40
0.1000000000001293
 50
90
 51
180
  0
ARC
  8
1
 62
3
 10
-165.865204499598
 20
38.20000000000005
 30
0
 40
0.09999999999999432
 50
0
 51
90
  0
ARC
  8
1
 62
3
 10
-166.465204499598
 20
38.20000000000005
 30
0
 40
0.09999999999995879
 50
90
 51
180
  0
ARC
  8
1
 62
3
 10
-164.5652044995981
 20
34.40000000000003
 30
0
 40
1.199999999999996
 50
90
 51
180
  0
ARC
  8
1
 62
3
 10
-167.765204499598
 20
34.40000000000003
 30
0
 40
1.199999999999903
 50
0
 51
90
  0
ARC
  8
1
 62
3
 10
-164.5652044995981
 20
37.59999999999991
 30
0
 40
1.199999999999903
 50
180
 51
270
  0
ARC
  8
1
 62
3
 10
-167.765204499598
 20
37.59999999999991
 30
0
 40
1.199999999999882
 50
270
 51
0
  0
ARC
  8
1
 62
3
 10
22.73479550040196
 20
-17.65038053019077
 30
0
 40
0.099999999999973
 50
180
 51
275.0000000000384
  0
ARC
  8
1
 62
3
 10
22.73479550040196
 20
-8.827715956257691
 30
0
 40
0.1000000000000583
 50
84.99999999996145
 51
180
  0
ARC
  8
1
 62
3
 10
22.73479550040196
 20
48.84961946980911
 30
0
 40
0.09999999999998011
 50
180
 51
275.0000000000442
  0
ARC
  8
1
 62
3
 10
22.73479550040196
 20
57.67228404374225
 30
0
 40
0.1000000000000007
 50
84.99999999996469
 51
180
  0
ARC
  8
1
 62
3
 10
23.13479550040199
 20
41.25
 30
0
 40
0.5
 50
180
 51
270
  0
ARC
  8
1
 62
3
 10
23.63479550040199
 20
40.25
 30
0
 40
0.5
 50
0
 51
90
  0
ARC
  8
1
 62
3
 10
23.13479550040199
 20
-1.25
 30
0
 40
0.5
 50
90
 51
180
  0
ARC
  8
1
 62
3
 10
23.63479550040199
 20
-0.25
 30
0
 40
0.5
 50
270
 51
0
  0
ARC
  8
1
 62
3
 10
-21.36520449959803
 20
35
 30
0
 40
2
 50
0
 51
90
  0
ARC
  8
1
 62
3
 10
-21.36520449959803
 20
35
 30
0
 40
1.999999999999943
 50
270
 51
0
  0
ARC
  8
1
 62
3
 10
-8.86520449959802
 20
-19.24999999999994
 30
0
 40
0.5
 50
180
 51
270
  0
ARC
  8
1
 62
3
 10
-13.86520449959802
 20
18.5
 30
0
 40
0.5
 50
180
 51
270
  0
ARC
  8
1
 62
3
 10
-9.36520449959802
 20
17.5
 30
0
 40
0.5
 50
0
 51
90
  0
ARC
  8
1
 62
3
 10
-8.86520449959802
 20
59.24999999999994
 30
0
 40
0.5
 50
90
 51
180
  0
LINE
  8
1
 62
2
 10
96.93044096903896
 20
-25.71778633849902
 30
0
 11
91.33479550025794
 21
-25.71778633849902
 31
0
  0
SOLID
  8
1
 62
2
 10
94.53479550025794
 20
-25.29649834621936
 30
0
 11
94.53479550025794
 21
-26.13907433077869
 31
0
 12
91.33479550025794
 22
-25.71778633849902
 32
0
 13
91.33479550025794
 23
-25.71778633849902
 33
0
  0
LINE
  8
1
 62
2
 10
183.4705744347962
 20
-9.199999999999477
 30
0
 11
154.4705744347962
 21
-9.199999999999477
 31
0
  0
LINE
  8
1
 62
2
 10
154.4705744347962
 20
-9.199999999999477
 30
0
 11
151.7500000000005
 21
2.750000000000568
 31
0
  0
SOLID
  8
1
 62
2
 10
152.976228126172
 20
-0.5603906475013725
 30
0
 11
152.0776532696888
 21
-0.7649630142208932
 31
0
 12
151.7500000000005
 22
2.750000000000568
 32
0
 13
151.7500000000005
 23
2.750000000000568
 33
0
  0
LINE
  8
1
 62
2
 10
116.5294255652049
 20
49.20000000000056
 30
0
 11
145.5294255652049
 21
49.20000000000056
 31
0
  0
LINE
  8
1
 62
2
 10
145.5294255652049
 20
49.20000000000056
 30
0
 11
148.2500000000005
 21
37.25000000000119
 31
0
  0
SOLID
  8
1
 62
2
 10
147.0237718738291
 20
40.56039064750312
 30
0
 11
147.9223467303122
 21
40.76496301422264
 31
0
 12
148.2500000000005
 22
37.25000000000119
 32
0
 13
148.2500000000005
 23
37.25000000000119
 33
0
  0
LINE
  8
1
 62
2
 10
62.55620848491017
 20
-14.19999999999999
 30
0
 11
33.47133892214004
 21
-14.19999999999999
 31
0
  0
LINE
  8
1
 62
2
 10
33.47133892214004
 20
-14.19999999999999
 30
0
 11
42.13159295998442
 21
0.8000000000000114
 31
0
  0
SOLID
  8
1
 62
2
 10
40.78064338582266
 20
-2.461480784023467
 30
0
 11
39.98254253414618
 21
-2.000697042467582
 31
0
 12
42.13159295998442
 22
0.8000000000000114
 32
0
 13
42.13159295998442
 23
0.8000000000000114
 33
0
  0
LINE
  8
1
 62
2
 10
59.9955012974667
 20
50.50000000000028
 30
0
 11
31.33240478913607
 21
50.50000000000028
 31
0
  0
LINE
  8
1
 62
2
 10
31.33240478913607
 20
50.50000000000028
 30
0
 11
43.02536113697317
 21
39.19999999999999
 31
0
  0
SOLID
  8
1
 62
2
 10
40.18835047836537
 20
41.30087890641701
 30
0
 11
40.82876674480141
 21
41.96356558322067
 31
0
 12
43.02536113697317
 22
39.19999999999999
 32
0
 13
43.02536113697317
 23
39.19999999999999
 33
0
  0
LINE
  8
1
 62
2
 10
19.69570459829443
 20
70
 30
0
 11
-6.312252774508582
 21
70
 31
0
  0
LINE
  8
1
 62
2
 10
-6.312252774508582
 20
70
 30
0
 11
2.948189073625592
 21
60.73955815186582
 31
0
  0
SOLID
  8
1
 62
2
 10
0.1474920311580013
 20
62.88860857770406
 30
0
 11
0.7991386477873532
 21
63.54025519433341
 31
0
 12
2.948189073625592
 22
60.73955815186582
 32
0
 13
2.948189073625592
 23
60.73955815186582
 33
0
  0
LINE
  8
1
 62
2
 10
-41.35639882167321
 20
-28.53407567543468
 30
0
 11
-29.47719010609503
 21
-28.53407567543468
 31
0
  0
LINE
  8
1
 62
2
 10
-29.47719010609503
 20
-28.53407567543468
 30
0
 11
-20.69311443066034
 21
-15.75
 31
0
  0
SOLID
  8
1
 62
2
 10
-22.29542862523795
 20
-18.89561772603368
 30
0
 11
-23.05497686914202
 21
-18.37372397141384
 31
0
 12
-20.69311443066034
 22
-15.75
 32
0
 13
-20.69311443066034
 23
-15.75
 33
0
  0
TEXT
  8
1
 62
2
 10
-26.59965991130723
 20
-73.18267296689351
 30
0
 40
3.5
  1
ＢＯＬＴ
 41
0.8100000000000001
 72
1
 73
2
 11
-15.25965991130723
 21
-71.43267296689351
 31
0
  0
TEXT
  8
1
 62
2
 10
-29.43465991130723
 20
-80.18267296689351
 30
0
 40
3.5
  1
Ｍ５×５０
 41
0.8100000000000001
 72
1
 73
2
 11
-15.25965991130723
 21
-78.43267296689351
 31
0
  0
TEXT
  8
1
 62
2
 10
-29.43465991130723
 20
-87.18267296689351
 30
0
 40
3.5
  1
Ｍ５×６０
 41
0.8100000000000001
 72
1
 73
2
 11
-15.25965991130723
 21
-85.43267296689351
 31
0
  0
TEXT
  8
1
 62
2
 10
-123.9102296724281
 20
-73.18267296689351
 30
0
 40
3.5
  1
８ＤＧＦ　減速比
 41
0.8100000000000001
 72
1
 73
2
 11
-101.2302296724281
 21
-71.43267296689351
 31
0
  0
TEXT
  8
1
 62
2
 10
-147.0676678004936
 20
-82.90475088897141
 30
0
 40
3.5
  1
ＤＭＮ３７Ｊ
 41
0.8100000000000001
 72
1
 73
2
 11
-130.0576678004936
 21
-81.15475088897141
 31
0
  0
TEXT
  8
1
 62
2
 10
13.25479550025794
 20
-79.14999999999998
 30
0
 40
3.5
  1
ＤＥＴＡＩＬ　ＤＲＡＷＩＮＧ　　(+)、(-)　ＴＥＲＭＩＮＡＬ
 41
0.72
 72
1
 73
2
 11
86.33479550025794
 21
-77.39999999999998
 31
0
  0
TEXT
  8
1
 62
2
 10
-17.88162874449048
 20
-106.1675252967333
 30
0
 40
5
  1
DMN37J8HFPB+8DGF
 41
0.9
  0
TEXT
  8
1
 62
2
 10
145.0335382300913
 20
-8.403338888214478
 30
0
 40
3.5
  1
(-)ＴＥＲＭＩＮＡＬ
 41
0.72
 72
1
 73
2
 11
168.9735382300913
 21
-6.653338888214478
 31
0
  0
TEXT
  8
1
 62
2
 10
151.3335382300913
 20
-14.00333888821444
 30
0
 40
3.5
  1
（ＢＬＡＣＫ）
 41
0.72
 72
1
 73
2
 11
168.9735382300913
 21
-12.25333888821444
 31
0
  0
TEXT
  8
1
 62
2
 10
107.0923893605
 20
49.99666111178556
 30
0
 40
3.5
  1
(+)ＴＥＲＭＩＮＡＬ
 41
0.72
 72
1
 73
2
 11
131.0323893605
 21
51.74666111178556
 31
0
  0
TEXT
  8
1
 62
2
 10
118.4323893605
 20
44.39666111178559
 30
0
 40
3.5
  1
（ＲＥＤ）
 41
0.72
 72
1
 73
2
 11
131.0323893605
 21
46.14666111178559
 31
0
  0
TEXT
  8
1
 62
2
 10
29.34890389848713
 20
-13.34999999999997
 30
0
 40
3.5
  1
ＢＡＣＫＹＯＫＥ
 41
0.72
 72
1
 73
2
 11
49.50890389848713
 21
-11.59999999999997
 31
0
  0
TEXT
  8
1
 62
2
 10
20.16996976548316
 20
51.35000000000031
 30
0
 40
3.5
  1
ＮＡＭＥ　ＰＬＡＴＥ
 41
0.72
 72
1
 73
2
 11
45.36996976548316
 21
53.10000000000031
 31
0
  0
TEXT
  8
1
 62
2
 10
-15.42468779816149
 20
70.85000000000002
 30
0
 40
3.5
  1
ＮＡＭＥ　ＰＬＡＴＥ
 41
0.6300000000000001
 72
1
 73
2
 11
6.625312201838508
 21
72.60000000000002
 31
0
  0
TEXT
  8
1
 62
2
 10
-45.39883384532611
 20
-27.68407567543466
 30
0
 40
3.5
  1
ＢＯＬＴ
 41
0.72
 72
1
 73
2
 11
-35.31883384532611
 21
-25.93407567543466
 31
0
  0
TEXT
  8
1
 62
2
 10
-78.2433730853878
 20
-73.18267296689351
 30
0
 40
3.5
  1
Ｌ１
 41
0.8100000000000001
 72
1
 73
2
 11
-72.5733730853878
 21
-71.43267296689351
 31
0
  0
TEXT
  8
1
 62
2
 10
-49.58651649834755
 20
-73.18267296689351
 30
0
 40
3.5
  1
Ｌ２
 41
0.8100000000000001
 72
1
 73
2
 11
-43.91651649834755
 21
-71.43267296689351
 31
0
  0
TEXT
  8
1
 62
2
 10
-83.9133730853878
 20
-80.18267296689351
 30
0
 40
3.5
  1
９６．７
 41
0.8100000000000001
 72
1
 73
2
 11
-72.5733730853878
 21
-78.43267296689351
 31
0
  0
TEXT
  8
1
 62
2
 10
-86.7483730853878
 20
-87.18267296689351
 30
0
 40
3.5
  1
１０６．７
 41
0.8100000000000001
 72
1
 73
2
 11
-72.5733730853878
 21
-85.43267296689351
 31
0
  0
TEXT
  8
1
 62
2
 10
-49.58651649834755
 20
-80.18267296689351
 30
0
 40
3.5
  1
３２
 41
0.8100000000000001
 72
1
 73
2
 11
-43.91651649834755
 21
-78.43267296689351
 31
0
  0
TEXT
  8
1
 62
2
 10
-49.58651649834755
 20
-87.18267296689351
 30
0
 40
3.5
  1
４２
 41
0.8100000000000001
 72
1
 73
2
 11
-43.91651649834755
 21
-85.43267296689351
 31
0
  0
TEXT
  8
1
 62
2
 10
-124.9370882697303
 20
-87.18267296689351
 30
0
 40
3.5
  1
１／２５～１８０
 41
0.8100000000000001
 72
1
 73
2
 11
-102.2570882697303
 21
-85.43267296689351
 31
0
  0
TEXT
  8
1
 62
2
 10
-122.2670882697303
 20
-80.18267296689351
 30
0
 40
3.5
  1
１／３～１８
 41
0.8100000000000001
 72
1
 73
2
 11
-105.2570882697303
 21
-78.43267296689351
 31
0
  0
TEXT
  8
1
 62
2
 10
121.48479550033
 20
7.013527434475614
 30
0
 40
3.5
  1
※
 50
90
 41
0.8100000000000001
 72
1
 73
2
 11
119.73479550033
 21
9.848527434475614
 31
0
  0
DIMENSION
  8
1
  6
CONTINUOUS
 62
2
  2
*D0
  3
DMST_1
 10
92.33479550025794
 20
-25.71778633849899
 30
0
 11
87.33479550033002
 21
-23.11778633849899
 31
0
 12
0
 22
0
 32
0
 70
0
 13
82.33479550040204
 23
-42.50012336132796
 33
0
 14
92.33479550025794
 24
-47.49999999999999
 34
0
 53
0
  0
DIMENSION
  8
1
  6
CONTINUOUS
 62
2
  2
*D1
  3
DMST_2
 10
107.3347955002579
 20
-46.49999999999999
 30
0
 11
104.7347955002579
 21
-30.31100415527799
 31
0
 12
0
 22
0
 32
0
 70
0
  1
2-<>
 13
91.33479550025794
 23
-53.49999999999999
 33
0
 14
91.33479550025794
 24
-46.49999999999999
 34
0
 50
90
 53
0
  0
DIMENSION
  8
1
  6
CONTINUOUS
 62
2
  2
*D2
  3
DMST_3
 10
80.93479550040195
 20
-25.71778633849899
 30
0
 11
74.16011200904819
 21
-23.11778633849899
 31
0
 12
0
 22
0
 32
0
 70
0
 13
82.33479550040204
 23
-42.50012336132796
 33
0
 14
80.93479550040195
 24
-35.71778633849902
 34
0
 53
0
  0
DIMENSION
  8
1
  6
CONTINUOUS
 62
2
  2
*D3
  3
DMST_4
 10
92.33479550025794
 20
-33.85701902388884
 30
0
 11
97.34452494227099
 21
-31.25701902388884
 31
0
 12
0
 22
0
 32
0
 70
0
 13
88.33479550025794
 23
-46.39999999999939
 33
0
 14
92.33479550025794
 24
-47.49999999999999
 34
0
 53
0
  0
DIMENSION
  8
1
  6
CONTINUOUS
 62
2
  2
*D4
  3
DMST_4
 10
122.33479550033
 20
0.8000000000000114
 30
0
 11
119.73479550033
 21
20
 31
0
 12
0
 22
0
 32
0
 70
0
  1
%%c<>
 13
67.7347955004019
 23
39.19999999999999
 33
0
 14
67.7347955004019
 24
0.8000000000000114
 34
0
 50
90
 53
0
  0
DIMENSION
  8
1
  6
CONTINUOUS
 62
2
  2
*D5
  3
DMST_5
 10
184.2000000000003
 20
2.999999999999968
 30
0
 11
181.6000000000003
 21
20.00000000000057
 31
0
 12
0
 22
0
 32
0
 70
0
  1
(<>
 13
152.5861380996321
 23
37.00000000000119
 33
0
 14
152.5861380996321
 24
3
 34
0
 50
90
 53
0
  0
DIMENSION
  8
1
  6
CONTINUOUS
 62
2
  2
*D6
  3
DMST_4
 10
102.33479550033
 20
12.69999999999993
 30
0
 11
99.73479550032997
 21
20
 31
0
 12
0
 22
0
 32
0
 70
0
  1
%%c<>
 13
86.33479550032996
 23
27.30000000000007
 33
0
 14
86.33479550032996
 24
12.69999999999993
 34
0
 50
90
 53
0
  0
DIMENSION
  8
1
  6
CONTINUOUS
 62
2
  2
*D7
  3
DMST_4
 10
112.33479550033
 20
38.60000000000048
 30
0
 11
109.73479550033
 21
20.00000000000051
 31
0
 12
0
 22
0
 32
0
 70
0
  1
%%c<>
 13
82.33479550040204
 23
1.400000000000489
 33
0
 14
82.33479550040202
 24
38.60000000000048
 34
0
 50
90
 53
0
  0
DIMENSION
  8
1
  6
CONTINUOUS
 62
2
  2
*D8
  3
DMST_5
 10
87.33479550032996
 20
80
 30
0
 11
94.89859799087391
 21
82.59999999999999
 31
0
 12
0
 22
0
 32
0
 70
0
  1
(<>
 13
81.63479550040198
 23
38.21804153555615
 33
0
 14
87.33479550032996
 24
26.30000000000007
 34
0
 53
0
  0
DIMENSION
  8
1
  6
CONTINUOUS
 62
2
  2
*D9
  3
DMST_6
 10
-171.9152044995981
 20
90
 30
0
 11
-138.6652044995981
 21
92.59999999999999
 31
0
 12
0
 22
0
 32
0
 70
0
 13
-105.4152044995981
 23
62.18016123378902
 33
0
 14
-171.9152044995981
 24
63.25972660357525
 34
0
 53
0
  0
DIMENSION
  8
1
  6
CONTINUOUS
 62
2
  2
*D10
  3
DMST_6
 10
-78.66520449959801
 20
53.25
 30
0
 11
-81.265204499598
 21
20
 31
0
 12
0
 22
0
 32
0
 70
0
 13
-95.40547789602275
 23
-13.25
 33
0
 14
-94.32591252623655
 24
53.25
 34
0
 50
90
 53
0
  0
DIMENSION
  8
1
  6
CONTINUOUS
 62
2
  2
*D11
  3
DMST_7
 10
-88.66520449959806
 20
20
 30
0
 11
-91.26520449959806
 21
10.83606414587257
 31
0
 12
0
 22
0
 32
0
 70
0
 13
-118.7408709825743
 23
35
 33
0
 14
-95.09666294813596
 24
20
 34
0
 50
90
 53
0
  0
DIMENSION
  8
1
  6
CONTINUOUS
 62
2
  2
*D12
  3
DMST_4
 10
-136.1652044995981
 20
70
 30
0
 11
-140.319788286302
 21
72.59999999999999
 31
0
 12
0
 22
0
 32
0
 70
0
 13
-133.6652044995981
 23
35
 33
0
 14
-136.1652044995981
 24
37
 34
0
 53
0
  0
DIMENSION
  8
1
  6
CONTINUOUS
 62
2
  2
*D13
  3
DMST_4
 10
-44.36520449959805
 20
70
 30
0
 11
-31.86520449959804
 21
72.59999999999999
 31
0
 12
0
 22
0
 32
0
 70
0
 13
-19.36520449959803
 23
35
 33
0
 14
-44.36520449959806
 24
37
 34
0
 53
0
  0
DIMENSION
  8
1
  6
CONTINUOUS
 62
2
  2
*D14
  3
DMST_8
 10
-57.06973320901634
 20
37
 30
0
 11
-60.46973320901635
 21
48.77455677346029
 31
0
 12
0
 22
0
 32
0
 70
0
 13
-44.36520449959806
 23
33.00000000000006
 33
0
 14
-44.36520449959806
 24
37
 34
0
 50
90
 53
0
  0
DIMENSION
  8
1
  6
CONTINUOUS
 62
2
  2
*D15
  3
DMST_9
 10
-67.61386475040156
 20
40
 30
0
 11
-71.01386475040157
 21
50.78296278134317
 31
0
 12
0
 22
0
 32
0
 70
0
  1
%%c<>
 13
-43.86520449959806
 23
30
 33
0
 14
-43.86520449959806
 24
40
 34
0
 50
90
 53
0
  0
DIMENSION
  8
1
  6
CONTINUOUS
 62
2
  2
*D16
  3
DMST_4
 10
-178.6652044995981
 20
100
 30
0
 11
-138.6652044995981
 21
102.6
 31
0
 12
0
 22
0
 32
0
 70
0
  1
□<>
 13
-98.66520449959805
 23
53.25
 33
0
 14
-178.6652044995981
 24
53.25
 34
0
 53
0
  0
DIMENSION
  8
1
  6
CONTINUOUS
 62
2
  2
*D17
  3
DMST_4
 10
-44.36520449959807
 20
90
 30
0
 11
-26.86520449959804
 21
92.59999999999999
 31
0
 12
0
 22
0
 32
0
 70
0
 13
-9.36520449959802
 23
59.24999999999994
 33
0
 14
-44.36520449959806
 24
39.5
 34
0
 53
0
  0
DIMENSION
  8
1
  6
CONTINUOUS
 62
2
  2
*D18
  3
DMST_4
 10
-14.36520449959803
 20
80
 30
0
 11
-11.86520449959803
 21
82.59999999999999
 31
0
 12
0
 22
0
 32
0
 70
0
 13
-9.36520449959802
 23
59.24999999999994
 33
0
 14
-14.36520449959803
 24
48.63000000000005
 34
0
 53
0
  0
DIMENSION
  8
1
  6
CONTINUOUS
 62
2
  2
*D19
  3
DMST_4
 10
22.63479550040199
 20
80
 30
0
 11
6.634795500401989
 21
82.59999999999999
 31
0
 12
0
 22
0
 32
0
 70
0
  1
L2
 13
-9.36520449959802
 23
59.24999999999994
 33
0
 14
22.63479550040199
 24
60
 34
0
 53
0
  0
DIMENSION
  8
1
  6
CONTINUOUS
 62
2
  2
*D20
  3
DMST_4
 10
-9.365204499598022
 20
90
 30
0
 11
38.98479550036597
 21
92.59999999999999
 31
0
 12
0
 22
0
 32
0
 70
0
  1
L1
 13
87.33479550032996
 23
26.30000000000007
 33
0
 14
-9.36520449959802
 24
59.24999999999994
 34
0
 53
0
  0
DIMENSION
  8
1
  6
CONTINUOUS
 62
2
  2
*D21
  3
DMST_4
 10
-155.6652044995981
 20
80
 30
0
 11
-138.6652044995981
 21
82.59999999999999
 31
0
 12
0
 22
0
 32
0
 70
0
  1
%%c<>
 13
-121.6652044995981
 23
35
 33
0
 14
-155.6652044995981
 24
35
 34
0
 53
0
  0
DIMENSION
  8
1
  6
CONTINUOUS
 62
2
  2
*D22
  3
DMST_10
 10
-21.36520449959803
 20
35
 30
0
 11
-25.36308350201945
 21
24.2160767578294
 31
0
 12
0
 22
0
 32
0
 70
4
 15
-20.78173633734918
 25
33.08700107066373
 35
0
 40
0
 53
0
  0
DIMENSION
  8
1
  6
CONTINUOUS
 62
2
  2
*D23
  3
DMST_10
 10
87.18396469804867
 20
-48.36427738760926
 30
0
 11
107.0960460021284
 21
-63.47642522580082
 31
0
 12
0
 22
0
 32
0
 70
3
  1
2-%%c<>
 15
89.48562630246721
 25
-51.63572261239073
 35
0
 40
0
 53
0
  0
ENDSEC
  0
EOF
