  0
SECTION
  2
HEADER
  9
$ACADVER
  1
AC1009
  9
$INSBASE
 10
0
 20
0
  9
$EXTMIN
 10
88.36849195642299
 20
-82.50833384340214
  9
$EXTMAX
 10
359.1192371512132
 20
62.80009837402753
  9
$LIMMIN
 10
88.36849195642299
 20
-82.50833384340214
  9
$LIMMAX
 10
359.1192371512132
 20
62.80009837402753
  9
$VIEWCTR
 10
10
 20
10
  9
$VIEWSIZE
 40
10
  9
$SNAPMODE
 70
0
  9
$SNAPUNIT
 10
1
 20
1
  9
$SNAPBASE
 10
0
 20
0
  9
$SNAPANG
 50
0
  9
$SNAPSTYLE
 70
0
  9
$SNAPISOPAIR
 70
0
  9
$GRIDMODE
 70
0
  9
$GRIDUNIT
 10
0
 20
0
  9
$ORTHOMODE
 70
0
  9
$REGENMODE
 70
1
  9
$FILLMODE
 70
1
  9
$QTEXTMODE
 70
0
  9
$DRAGMODE
 70
2
  9
$LTSCALE
 40
1
  9
$OSMODE
 70
0
  9
$ATTMODE
 70
1
  9
$TEXTSIZE
 40
3.5
  9
$TRACEWID
 40
0.5
  9
$TEXTSTYLE
  7
STANDARD
  9
$CLAYER
  8
0
  9
$CELTYPE
  6
BYLAYER
  9
$CECOLOR
 62
256
  9
$DIMSCALE
 40
1
  9
$DIMASZ
 40
0.18
  9
$DIMEXO
 40
0.0625
  9
$DIMDLI
 40
0.38
  9
$DIMRND
 40
0
  9
$DIMDLE
 40
0
  9
$DIMEXE
 40
0.18
  9
$DIMTP
 40
0
  9
$DIMTM
 40
0
  9
$DIMTXT
 40
0.18
  9
$DIMCEN
 40
0.09
  9
$DIMTSZ
 40
0
  9
$DIMTOL
 70
0
  9
$DIMLIM
 70
0
  9
$DIMTIH
 70
1
  9
$DIMTOH
 70
1
  9
$DIMSE1
 70
0
  9
$DIMSE2
 70
0
  9
$DIMTAD
 70
0
  9
$DIMZIN
 70
0
  9
$DIMBLK
  1

  9
$DIMASO
 70
1
  9
$DIMSHO
 70
1
  9
$DIMPOST
  1

  9
$DIMAPOST
  1

  9
$DIMALT
 70
0
  9
$DIMALTD
 70
2
  9
$DIMALTF
 40
25.4
  9
$DIMLFAC
 40
1
  9
$DIMTOFL
 70
0
  9
$DIMTVP
 40
0
  9
$DIMTIX
 70
0
  9
$DIMSOXD
 70
0
  9
$DIMSAH
 70
0
  9
$DIMBLK1
  1

  9
$DIMBLK2
  1

  9
$DIMSTYLE
  2
*UNNAMED
  9
$DIMCLRD
 70
0
  9
$DIMCLRE
 70
0
  9
$DIMCLRT
 70
0
  9
$DIMTFAC
 40
1
  9
$DIMGAP
 40
0.09
  9
$LUNITS
 70
2
  9
$LUPREC
 70
4
  9
$AXISMODE
 70
0
  9
$AXISUNIT
 10
0
 20
0
  9
$SKETCHINC
 40
0.1
  9
$FILLETRAD
 40
2
  9
$AUNITS
 70
0
  9
$AUPREC
 70
0
  9
$MENU
  1
ACAD
  9
$ELEVATION
 40
0
  9
$THICKNESS
 40
0
  9
$VIEWDIR
 10
0
 20
0
 30
1
  9
$LIMCHECK
 70
0
  9
$BLIPMODE
 70
1
  9
$CHAMFERA
 40
0
  9
$CHAMFERB
 40
0
  9
$FASTZOOM
 70
1
  9
$SKPOLY
 70
0
  9
$ANGBASE
 50
0
  9
$ANGDIR
 70
0
  9
$PDMODE
 70
0
  9
$PDSIZE
 40
0
  9
$PLINEWID
 40
0
  9
$COORDS
 70
2
  0
ENDSEC
  0
SECTION
  2
TABLES
  0
TABLE
  2
DIMSTYLE
 70
5
  0
DIMSTYLE
  2
DMST_1
 70
0
  3

  4

  5

  6

  7

 40
1
 41
3.2
 42
1
 43
7
 44
1
 45
0
 46
0
 47
0
 48
0
140
3.2
141
0
142
0
143
25.4
144
1
145
0
146
1
147
0.09
 71
0
 72
0
 73
0
 74
0
 75
0
 76
0
 77
1
 78
9
170
0
171
2
172
0
173
0
174
0
175
0
176
2
177
2
178
2
  0
DIMSTYLE
  2
DMST_2
 70
0
  3

  4

  5

  6

  7

 40
1
 41
3.2
 42
1
 43
7
 44
1
 45
0
 46
0
 47
0
 48
0.1
140
3.2
141
0
142
0
143
25.4
144
1
145
0
146
0.6
147
0.09
 71
1
 72
0
 73
0
 74
0
 75
0
 76
0
 77
1
 78
9
170
0
171
2
172
0
173
0
174
0
175
0
176
2
177
2
178
2
  0
DIMSTYLE
  2
DMST_3
 70
0
  3

  4

  5

  6

  7

 40
1
 41
3.2
 42
1
 43
7
 44
1
 45
0
 46
0
 47
0
 48
0.02
140
3.2
141
0
142
0
143
25.4
144
1
145
0
146
0.6
147
0.09
 71
1
 72
0
 73
0
 74
0
 75
0
 76
0
 77
1
 78
9
170
0
171
2
172
0
173
0
174
0
175
0
176
2
177
2
178
2
  0
DIMSTYLE
  2
DMST_4
 70
0
  3
)
  4

  5

  6

  7

 40
1
 41
3.2
 42
1
 43
7
 44
1
 45
0
 46
0
 47
0
 48
0
140
3.2
141
0
142
0
143
25.4
144
1
145
0
146
1
147
0.09
 71
0
 72
0
 73
0
 74
0
 75
0
 76
0
 77
1
 78
9
170
0
171
2
172
0
173
0
174
0
175
0
176
2
177
2
178
2
  0
DIMSTYLE
  2
DMST_5
 70
0
  3

  4

  5

  6

  7

 40
1
 41
3.2
 42
1
 43
7
 44
1
 45
0
 46
0
 47
30
 48
0
140
3.2
141
0
142
0
143
25.4
144
1
145
0
146
0.6
147
0.09
 71
1
 72
0
 73
0
 74
0
 75
0
 76
0
 77
1
 78
9
170
0
171
2
172
0
173
0
174
0
175
0
176
2
177
2
178
2
  0
ENDTAB
  0
TABLE
  2
LTYPE
 70
9
  0
LTYPE
  2
CONTINUOUS
 70
64
  3
Solid line
 72
65
 73
0
 40
0
  0
LTYPE
  2
BORDER
 70
64
  3
__ __ . __ __ .
 72
65
 73
6
 40
12.46878431818113
 49
3.562509805194608
 49
-1.781254902597304
 49
3.562509805194608
 49
-1.781254902597304
 49
0
 49
-1.781254902597304
  0
LTYPE
  2
CENTER
 70
64
  3
____ _ ____ _
 72
65
 73
4
 40
14.25003922077843
 49
8.906274512986521
 49
-1.781254902597304
 49
1.781254902597304
 49
-1.781254902597304
  0
LTYPE
  2
DASHDOT
 70
64
  3
__ . __ . __ .
 72
65
 73
4
 40
7.125019610389217
 49
3.562509805194608
 49
-1.781254902597304
 49
0
 49
-1.781254902597304
  0
LTYPE
  2
DASHED
 70
64
  3
__ __ __ __ __
 72
65
 73
2
 40
5.343764707791912
 49
3.562509805194608
 49
-1.781254902597304
  0
LTYPE
  2
DIVIDE
 70
64
  3
__ . . __ . . 
 72
65
 73
6
 40
8.906274512986521
 49
3.562509805194608
 49
-1.781254902597304
 49
0
 49
-1.781254902597304
 49
0
 49
-1.781254902597304
  0
LTYPE
  2
DOT
 70
64
  3
..............
 72
65
 73
4
 40
3.562509805194608
 49
0
 49
-1.781254902597304
 49
0
 49
-1.781254902597304
  0
LTYPE
  2
HIDDEN
 70
64
  3
_ _ _ _ _ _ _
 72
65
 73
2
 40
2.671882353895956
 49
1.781254902597304
 49
-0.8906274512986521
  0
LTYPE
  2
PHANTOM
 70
64
  3
_____ _ _ _____ _ _ 
 72
65
 73
6
 40
17.81254902597304
 49
8.906274512986521
 49
-1.781254902597304
 49
1.781254902597304
 49
-1.781254902597304
 49
1.781254902597304
 49
-1.781254902597304
  0
ENDTAB
  0
TABLE
  2
LAYER
 70
3
  0
LAYER
  2
1
 70
0
 62
7
  6
CONTINUOUS
  0
LAYER
  2
0
 70
0
 62
7
  6
CONTINUOUS
  0
ENDTAB
  0
TABLE
  2
STYLE
 70
4
  0
STYLE
  2
STANDARD
 70
0
 40
0
 41
1
 50
0
 71
0
 42
3.5
  3
txt
  4

  0
STYLE
  2
SIMPLEX
 70
0
 40
0
 41
1
 50
0
 71
0
 42
3.5
  3
simplex
  4

  0
STYLE
  2
COMPLEX
 70
0
 40
0
 41
1
 50
0
 71
0
 42
3.5
  3
complex
  4

  0
STYLE
  2
ITALIC
 70
0
 40
0
 41
1
 50
0
 71
0
 42
3.5
  3
italic
  4

  0
ENDTAB
  0
TABLE
  2
VIEW
 70
0
  0
ENDTAB
  0
ENDSEC
  0
SECTION
  2
BLOCKS
  0
BLOCK
  8
1
  2
*D0
 70
1
 10
0
 20
0
 30
0
  0
LINE
  8
1
 62
2
 10
212.2684919564218
 20
55.21078482221952
 30
0
 11
265.968491956422
 21
55.21078482221952
 31
0
  0
LINE
  8
1
 62
2
 10
212.2684919564218
 20
24.21078482221953
 30
0
 11
212.2684919564218
 21
56.21078482221952
 31
0
  0
LINE
  8
1
 62
2
 10
265.968491956422
 20
24.21078482221953
 30
0
 11
265.968491956422
 21
56.21078482221952
 31
0
  0
SOLID
  8
1
 62
2
 10
212.2684919564218
 20
55.21078482221952
 30
0
 11
215.4684919564218
 21
55.62678482221951
 31
0
 12
215.4684919564218
 22
54.79478482221952
 32
0
 13
215.4684919564218
 23
54.79478482221952
 33
0
  0
SOLID
  8
1
 62
2
 10
265.968491956422
 20
55.21078482221952
 30
0
 11
262.7684919564221
 21
54.79478482221952
 31
0
 12
262.7684919564221
 22
55.62678482221951
 32
0
 13
262.7684919564221
 23
55.62678482221951
 33
0
  0
TEXT
  8
1
 62
2
 10
234.7584919564221
 20
56.21078482221952
 30
0
 40
3.2
  1
53.7
 41
0.9
  0
ENDBLK
  8
0
  0
BLOCK
  8
1
  2
*D1
 70
1
 10
0
 20
0
 30
0
  0
LINE
  8
1
 62
2
 10
161.2684919564218
 20
-11.98921517778049
 30
0
 11
161.2684919564218
 21
25.21078482221952
 31
0
  0
LINE
  8
1
 62
2
 10
213.2684919564217
 20
-11.98921517778049
 30
0
 11
160.2684919564218
 21
-11.98921517778049
 31
0
  0
LINE
  8
1
 62
2
 10
213.2684919564217
 20
25.21078482221952
 30
0
 11
160.2684919564218
 21
25.21078482221952
 31
0
  0
SOLID
  8
1
 62
2
 10
161.2684919564218
 20
25.21078482221952
 30
0
 11
161.6844919564218
 21
22.01078482221952
 31
0
 12
160.8524919564218
 22
22.01078482221952
 32
0
 13
160.8524919564218
 23
22.01078482221952
 33
0
  0
SOLID
  8
1
 62
2
 10
161.2684919564218
 20
-11.98921517778049
 30
0
 11
160.8524919564218
 21
-8.789215177780489
 31
0
 12
161.6844919564218
 22
-8.789215177780489
 32
0
 13
161.6844919564218
 23
-8.789215177780489
 33
0
  0
TEXT
  8
1
 62
2
 10
159.4151586230884
 20
4.274314233984233
 30
0
 40
3.2
  1
37.2
 50
90
 41
0.9
  0
TEXT
  8
1
 62
2
 10
159.4151586230884
 20
0.2272554104548226
 30
0
 40
3.2
  1
φ
 50
90
 41
0.9
  0
ENDBLK
  8
0
  0
BLOCK
  8
1
  2
*D2
 70
1
 10
0
 20
0
 30
0
  0
LINE
  8
1
 62
2
 10
171.3684919564217
 20
12.61078482221953
 30
0
 11
171.3684919564217
 21
43.36416979511033
 31
0
  0
LINE
  8
1
 62
2
 10
171.3684919564217
 20
0.6107848222195287
 30
0
 11
171.3684919564217
 21
12.61078482221953
 31
0
  0
LINE
  8
1
 62
2
 10
208.9684919564219
 20
12.61078482221953
 30
0
 11
170.3684919564217
 21
12.61078482221953
 31
0
  0
LINE
  8
1
 62
2
 10
208.9684919564219
 20
0.6107848222195287
 30
0
 11
170.3684919564217
 21
0.6107848222195287
 31
0
  0
SOLID
  8
1
 62
2
 10
171.3684919564217
 20
12.61078482221953
 30
0
 11
171.7844919564217
 21
9.410784822219531
 31
0
 12
170.9524919564217
 22
9.410784822219531
 32
0
 13
170.9524919564217
 23
9.410784822219531
 33
0
  0
SOLID
  8
1
 62
2
 10
171.3684919564217
 20
0.6107848222195287
 30
0
 11
170.9524919564217
 21
3.810784822219529
 31
0
 12
171.7844919564217
 22
3.810784822219529
 32
0
 13
171.7844919564217
 23
3.810784822219529
 33
0
  0
TEXT
  8
1
 62
2
 10
169.925956887324
 20
33.46016979511034
 30
0
 40
3.2
  1
12
 50
90
 41
0.9
  0
TEXT
  8
1
 62
2
 10
167.845956887324
 20
38.90016979511034
 30
0
 40
1.92
  1
 0
 50
90
 41
0.9
  0
TEXT
  8
1
 62
2
 10
170.725956887324
 20
38.90016979511034
 30
0
 40
1.92
  1
-0.1
 50
90
 41
0.9
  0
TEXT
  8
1
 62
2
 10
169.925956887324
 20
29.41311097158093
 30
0
 40
3.2
  1
φ
 50
90
 41
0.9
  0
ENDBLK
  8
0
  0
BLOCK
  8
1
  2
*D3
 70
1
 10
0
 20
0
 30
0
  0
LINE
  8
1
 62
2
 10
181.2684919564225
 20
8.61078482221944
 30
0
 11
181.2684919564225
 21
43.48938992835583
 31
0
  0
LINE
  8
1
 62
2
 10
181.2684919564225
 20
4.61078482221944
 30
0
 11
181.2684919564225
 21
8.61078482221944
 31
0
  0
LINE
  8
1
 62
2
 10
181.2684919564225
 20
-1.789215177780562
 30
0
 11
181.2684919564225
 21
4.61078482221944
 31
0
  0
LINE
  8
1
 62
2
 10
190.5684919564227
 20
8.61078482221944
 30
0
 11
180.2684919564225
 21
8.61078482221944
 31
0
  0
LINE
  8
1
 62
2
 10
190.5684919564227
 20
4.61078482221944
 30
0
 11
180.2684919564225
 21
4.61078482221944
 31
0
  0
SOLID
  8
1
 62
2
 10
181.2684919564225
 20
8.61078482221944
 30
0
 11
180.8524919564225
 21
11.81078482221944
 31
0
 12
181.6844919564225
 22
11.81078482221944
 32
0
 13
181.6844919564225
 23
11.81078482221944
 33
0
  0
SOLID
  8
1
 62
2
 10
181.2684919564225
 20
4.61078482221944
 30
0
 11
181.6844919564225
 21
1.410784822219439
 31
0
 12
180.8524919564225
 22
1.410784822219439
 32
0
 13
180.8524919564225
 23
1.410784822219439
 33
0
  0
TEXT
  8
1
 62
2
 10
179.4151586230892
 20
33.20138992835584
 30
0
 40
3.2
  1
4
 50
90
 41
0.9
  0
TEXT
  8
1
 62
2
 10
177.3351586230892
 20
36.72138992835583
 30
0
 40
1.92
  1
 0
 50
90
 41
0.9
  0
TEXT
  8
1
 62
2
 10
180.2151586230892
 20
36.72138992835583
 30
0
 40
1.92
  1
-0.02
 50
90
 41
0.9
  0
TEXT
  8
1
 62
2
 10
179.4151586230892
 20
29.15433110482643
 30
0
 40
3.2
  1
φ
 50
90
 41
0.9
  0
ENDBLK
  8
0
  0
BLOCK
  8
1
  2
*D4
 70
1
 10
0
 20
0
 30
0
  0
LINE
  8
1
 62
2
 10
191.2684919564217
 20
55.21078482221952
 30
0
 11
212.2684919564217
 21
55.21078482221952
 31
0
  0
LINE
  8
1
 62
2
 10
212.2684919564217
 20
24.21078482221952
 30
0
 11
212.2684919564217
 21
56.21078482221952
 31
0
  0
LINE
  8
1
 62
2
 10
191.2684919564217
 20
9.310784822219539
 30
0
 11
191.2684919564217
 21
56.21078482221952
 31
0
  0
SOLID
  8
1
 62
2
 10
191.2684919564217
 20
55.21078482221952
 30
0
 11
194.4684919564217
 21
55.62678482221951
 31
0
 12
194.4684919564217
 22
54.79478482221952
 32
0
 13
194.4684919564217
 23
54.79478482221952
 33
0
  0
SOLID
  8
1
 62
2
 10
212.2684919564217
 20
55.21078482221952
 30
0
 11
209.0684919564217
 21
54.79478482221952
 31
0
 12
209.0684919564217
 22
55.62678482221951
 32
0
 13
209.0684919564217
 23
55.62678482221951
 33
0
  0
TEXT
  8
1
 62
2
 10
199.8484919564217
 20
56.21078482221952
 30
0
 40
3.2
  1
21
 41
0.9
  0
ENDBLK
  8
0
  0
BLOCK
  8
1
  2
*D5
 70
1
 10
0
 20
0
 30
0
  0
LINE
  8
1
 62
2
 10
218.6684919564221
 20
45.21078482221952
 30
0
 11
212.2684919564221
 21
45.21078482221952
 31
0
  0
LINE
  8
1
 62
2
 10
208.7684919564222
 20
45.21078482221952
 30
0
 11
212.2684919564221
 21
45.21078482221952
 31
0
  0
LINE
  8
1
 62
2
 10
208.7684919564222
 20
45.21078482221952
 30
0
 11
198.2832000932159
 21
45.21078482221952
 31
0
  0
LINE
  8
1
 62
2
 10
208.7684919564222
 20
12.91796449919195
 30
0
 11
208.7684919564222
 21
46.21078482221952
 31
0
  0
LINE
  8
1
 62
2
 10
212.2684919564221
 20
24.21078482221951
 30
0
 11
212.2684919564221
 21
46.21078482221952
 31
0
  0
SOLID
  8
1
 62
2
 10
208.7684919564222
 20
45.21078482221952
 30
0
 11
205.5684919564222
 21
44.79478482221952
 31
0
 12
205.5684919564222
 22
45.62678482221951
 32
0
 13
205.5684919564222
 23
45.62678482221951
 33
0
  0
SOLID
  8
1
 62
2
 10
212.2684919564221
 20
45.21078482221952
 30
0
 11
215.468491956422
 21
45.62678482221951
 31
0
 12
215.468491956422
 22
44.79478482221952
 32
0
 13
215.468491956422
 23
44.79478482221952
 33
0
  0
TEXT
  8
1
 62
2
 10
198.2832000932159
 20
46.21078482221952
 30
0
 40
3.2
  1
3.5
 41
0.9
  0
ENDBLK
  8
0
  0
BLOCK
  8
1
  2
*D6
 70
1
 10
0
 20
0
 30
0
  0
LINE
  8
1
 62
2
 10
285.9758892081237
 20
-11.98921517778038
 30
0
 11
285.9758892081237
 21
25.21078482221952
 31
0
  0
LINE
  8
1
 62
2
 10
264.968491956422
 20
-11.98921517778038
 30
0
 11
286.9758892081237
 21
-11.98921517778038
 31
0
  0
LINE
  8
1
 62
2
 10
264.968491956422
 20
25.21078482221952
 30
0
 11
286.9758892081237
 21
25.21078482221952
 31
0
  0
SOLID
  8
1
 62
2
 10
285.9758892081237
 20
25.21078482221952
 30
0
 11
286.3918892081236
 21
22.01078482221952
 31
0
 12
285.5598892081237
 22
22.01078482221952
 32
0
 13
285.5598892081237
 23
22.01078482221952
 33
0
  0
SOLID
  8
1
 62
2
 10
285.9758892081237
 20
-11.98921517778038
 30
0
 11
285.5598892081237
 21
-8.789215177780379
 31
0
 12
286.3918892081236
 22
-8.789215177780379
 32
0
 13
286.3918892081236
 23
-8.789215177780379
 33
0
  0
TEXT
  8
1
 62
2
 10
284.1225558747904
 20
4.274314233984276
 30
0
 40
3.2
  1
37.2
 50
90
 41
0.9
  0
TEXT
  8
1
 62
2
 10
284.1225558747904
 20
0.2272554104548652
 30
0
 40
3.2
  1
φ
 50
90
 41
0.9
  0
ENDBLK
  8
0
  0
BLOCK
  8
1
  2
*D7
 70
1
 10
0
 20
0
 30
0
  0
LINE
  8
1
 62
2
 10
348.1192371512131
 20
-82.50833384340214
 30
0
 11
348.1192371512131
 21
-76.10833384340214
 31
0
  0
LINE
  8
1
 62
2
 10
348.1192371512131
 20
-76.10833384340214
 30
0
 11
348.1192371512131
 21
-73.10833384340214
 31
0
  0
LINE
  8
1
 62
2
 10
348.1192371512131
 20
-73.10833384340214
 30
0
 11
348.1192371512131
 21
-63.9557135328977
 31
0
  0
LINE
  8
1
 62
2
 10
338.7042371512129
 20
-76.10833384340214
 30
0
 11
349.1192371512131
 21
-76.10833384340214
 31
0
  0
LINE
  8
1
 62
2
 10
339.1192371512131
 20
-73.10833384340214
 30
0
 11
349.1192371512131
 21
-73.10833384340214
 31
0
  0
SOLID
  8
1
 62
2
 10
348.1192371512131
 20
-76.10833384340214
 30
0
 11
348.5352371512131
 21
-79.30833384340214
 31
0
 12
347.7032371512131
 22
-79.30833384340214
 32
0
 13
347.7032371512131
 23
-79.30833384340214
 33
0
  0
SOLID
  8
1
 62
2
 10
348.1192371512131
 20
-73.10833384340214
 30
0
 11
347.7032371512131
 21
-69.90833384340213
 31
0
 12
348.5352371512131
 22
-69.90833384340213
 32
0
 13
348.5352371512131
 23
-69.90833384340213
 33
0
  0
TEXT
  8
1
 62
2
 10
347.1192371512131
 20
-67.95571353289769
 30
0
 40
3.2
  1
3
 50
90
 41
0.9
  0
TEXT
  8
1
 62
2
 10
347.1192371512131
 20
-70.0357135328977
 30
0
 40
3.2
  1
(
 50
90
 41
0.9
  0
TEXT
  8
1
 62
2
 10
347.1192371512131
 20
-64.43571353289769
 30
0
 40
3.2
  1
)
 50
90
 41
0.9
  0
ENDBLK
  8
0
  0
BLOCK
  8
1
  2
*D8
 70
1
 10
0
 20
0
 30
0
  0
LINE
  8
1
 62
2
 10
358.1192371512132
 20
-76.10833384340214
 30
0
 11
358.1192371512132
 21
-11.52033483432672
 31
0
  0
LINE
  8
1
 62
2
 10
338.7042371512129
 20
-76.10833384340214
 30
0
 11
359.1192371512132
 21
-76.10833384340214
 31
0
  0
LINE
  8
1
 62
2
 10
339.1192371512133
 20
-11.52033483432672
 30
0
 11
359.1192371512132
 21
-11.52033483432672
 31
0
  0
SOLID
  8
1
 62
2
 10
358.1192371512132
 20
-11.52033483432672
 30
0
 11
358.5352371512132
 21
-14.72033483432672
 31
0
 12
357.7032371512132
 22
-14.72033483432672
 32
0
 13
357.7032371512132
 23
-14.72033483432672
 33
0
  0
SOLID
  8
1
 62
2
 10
358.1192371512132
 20
-76.10833384340214
 30
0
 11
357.7032371512132
 21
-72.90833384340213
 31
0
 12
358.5352371512132
 22
-72.90833384340213
 32
0
 13
358.5352371512132
 23
-72.90833384340213
 33
0
  0
TEXT
  8
1
 62
2
 10
356.3192371512132
 20
-46.35949514500233
 30
0
 40
3.2
  1
150
 50
90
 41
0.9
  0
TEXT
  8
1
 62
2
 10
354.2392371512132
 20
-38.03949514500233
 30
0
 40
1.92
  1
+30
 50
90
 41
0.9
  0
TEXT
  8
1
 62
2
 10
357.1192371512132
 20
-38.03949514500233
 30
0
 40
1.92
  1
 0
 50
90
 41
0.9
  0
ENDBLK
  8
0
  0
ENDSEC
  0
SECTION
  2
ENTITIES
  0
LINE
  8
1
 62
7
 10
329.819237151213
 20
-11.52033483432695
 30
0
 11
329.819237151213
 21
-37.64224106883074
 31
0
  0
LINE
  8
1
 62
7
 10
331.4792371512131
 20
-11.82179231718254
 30
0
 11
331.4792371512129
 21
-37.64224106883074
 31
0
  0
LINE
  8
1
 62
7
 10
333.1392371512131
 20
-11.97068713239179
 30
0
 11
333.139237151213
 21
-37.64224106883069
 31
0
  0
LINE
  8
1
 62
7
 10
334.7992371512132
 20
-11.97068713239173
 30
0
 11
334.7992371512131
 21
-37.64224106883063
 31
0
  0
LINE
  8
1
 62
7
 10
336.4592371512133
 20
-11.8217923171822
 30
0
 11
336.4592371512132
 21
-37.64224106883069
 31
0
  0
LINE
  8
1
 62
7
 10
338.1192371512134
 20
-11.52033483432672
 30
0
 11
338.1192371512133
 21
-37.64224106883063
 31
0
  0
LINE
  8
1
 62
7
 10
338.1192371512132
 20
-73.10833384340214
 30
0
 11
331.0642371512129
 21
-73.10833384340219
 31
0
  0
LINE
  8
1
 62
7
 10
330.2342371512128
 20
-76.10833384340214
 30
0
 11
330.2342371512128
 21
-73.10833384340219
 31
0
  0
LINE
  8
1
 62
7
 10
330.2342371512128
 20
-73.10833384340219
 30
0
 11
329.8192371512129
 21
-73.10833384340219
 31
0
  0
LINE
  8
1
 62
7
 10
331.0642371512129
 20
-76.10833384340219
 30
0
 11
331.0642371512129
 21
-73.10833384340219
 31
0
  0
LINE
  8
1
 62
7
 10
331.0642371512129
 20
-73.10833384340219
 30
0
 11
330.2342371512128
 21
-73.10833384340219
 31
0
  0
LINE
  8
1
 62
7
 10
332.724237151213
 20
-76.10833384340219
 30
0
 11
332.7242371512128
 21
-73.10833384340214
 31
0
  0
LINE
  8
1
 62
7
 10
334.3842371512129
 20
-76.10833384340214
 30
0
 11
334.3842371512129
 21
-73.10833384340214
 31
0
  0
LINE
  8
1
 62
7
 10
336.044237151213
 20
-76.10833384340214
 30
0
 11
336.0442371512129
 21
-73.10833384340214
 31
0
  0
LINE
  8
1
 62
7
 10
337.704237151213
 20
-76.10833384340214
 30
0
 11
337.704237151213
 21
-73.10833384340208
 31
0
  0
LINE
  8
1
 62
7
 10
331.8942371512129
 20
-76.10833384340214
 30
0
 11
331.8942371512128
 21
-73.10833384340219
 31
0
  0
LINE
  8
1
 62
7
 10
333.554237151213
 20
-76.10833384340219
 30
0
 11
333.5542371512129
 21
-73.10833384340214
 31
0
  0
LINE
  8
1
 62
7
 10
335.214237151213
 20
-76.10833384340208
 30
0
 11
335.2142371512128
 21
-73.10833384340214
 31
0
  0
LINE
  8
1
 62
7
 10
336.8742371512129
 20
-76.10833384340208
 30
0
 11
336.8742371512129
 21
-73.10833384340214
 31
0
  0
LINE
  8
1
 62
7
 10
329.819237151213
 20
-39.99149514500232
 30
0
 11
329.8192371512129
 21
-73.10833384340219
 31
0
  0
LINE
  8
1
 62
7
 10
331.4792371512131
 20
-39.99149514500232
 30
0
 11
331.4792371512128
 21
-73.10833384340219
 31
0
  0
LINE
  8
1
 62
7
 10
333.139237151213
 20
-39.99149514500232
 30
0
 11
333.1392371512128
 21
-73.10833384340214
 31
0
  0
LINE
  8
1
 62
7
 10
334.7992371512131
 20
-39.99149514500226
 30
0
 11
334.799237151213
 21
-73.10833384340208
 31
0
  0
LINE
  8
1
 62
7
 10
336.4592371512132
 20
-39.9914951450022
 30
0
 11
336.4592371512131
 21
-73.10833384340214
 31
0
  0
LINE
  8
1
 62
7
 10
338.1192371512133
 20
-39.99149514500226
 30
0
 11
338.1192371512132
 21
-73.10833384340214
 31
0
  0
LINE
  8
1
 62
7
 10
334.9334227406898
 20
62.80009837402753
 30
0
 11
294.9334227406898
 21
62.80009837402753
 31
0
  0
LINE
  8
1
 62
7
 10
334.9334227406898
 20
57.80009837402753
 30
0
 11
334.9334227406898
 21
62.80009837402753
 31
0
  0
LINE
  8
1
 62
7
 10
294.9334227406898
 20
57.80009837402753
 30
0
 11
334.9334227406898
 21
57.80009837402753
 31
0
  0
LINE
  8
1
 62
7
 10
294.9334227406898
 20
62.80009837402753
 30
0
 11
294.9334227406898
 21
57.80009837402753
 31
0
  0
LINE
  8
1
 62
7
 10
209.968491956422
 20
12.61078482221953
 30
0
 11
209.968491956422
 21
0.6107848222195287
 31
0
  0
LINE
  8
1
 62
7
 10
208.7684919564217
 20
8.610784822219628
 30
0
 11
191.5684919564219
 21
8.610784822219529
 31
0
  0
LINE
  8
1
 62
7
 10
191.5684919564219
 20
4.610784822219429
 30
0
 11
208.7684919564217
 21
4.610784822219628
 31
0
  0
LINE
  8
1
 62
7
 10
191.2684919564217
 20
4.910784822219526
 30
0
 11
191.2684919564217
 21
8.310784822219517
 31
0
  0
LINE
  8
1
 62
7
 10
208.7684919564217
 20
11.91796449919193
 30
0
 11
208.7684919564217
 21
1.303605145247019
 31
0
  0
LINE
  8
1
 62
7
 10
208.7684919564217
 20
1.303605145247019
 30
0
 11
209.968491956422
 21
0.6107848222195287
 31
0
  0
LINE
  8
1
 62
7
 10
209.968491956422
 20
12.61078482221953
 30
0
 11
208.7684919564217
 21
11.91796449919193
 31
0
  0
LINE
  8
1
 62
7
 10
214.2684919564217
 20
25.21078482221952
 30
0
 11
253.968491956422
 21
25.21078482221952
 31
0
  0
LINE
  8
1
 62
7
 10
212.2684919564217
 20
0.6107848222195287
 30
0
 11
209.968491956422
 21
0.6107848222195287
 31
0
  0
LINE
  8
1
 62
3
 10
250.468491956422
 20
6.610784822219529
 30
0
 11
247.4684919564197
 21
6.610784822219529
 31
0
  0
LINE
  8
1
 62
7
 10
250.968491956422
 20
-11.98921517778049
 30
0
 11
250.968491956422
 21
-6.889215177780272
 31
0
  0
LINE
  8
1
 62
7
 10
253.968491956422
 20
-11.98921517778044
 30
0
 11
214.2684919564217
 21
-11.98921517778049
 31
0
  0
LINE
  8
1
 62
7
 10
212.2684919564217
 20
-9.98921517778048
 30
0
 11
212.2684919564217
 21
23.21078482221952
 31
0
  0
LINE
  8
1
 62
7
 10
250.968491956422
 20
20.11078482221942
 30
0
 11
250.968491956422
 21
25.21078482221952
 31
0
  0
LINE
  8
1
 62
7
 10
250.968491956422
 20
15.61078482221842
 30
0
 11
253.968491956422
 21
15.61078482221842
 31
0
  0
LINE
  8
1
 62
7
 10
250.968491956422
 20
-2.389215177780471
 30
0
 11
253.968491956422
 21
-2.389215177780471
 31
0
  0
LINE
  8
1
 62
7
 10
250.968491956422
 20
19.40570568950054
 30
0
 11
253.968491956422
 21
19.40570568950054
 31
0
  0
LINE
  8
1
 62
7
 10
250.968491956422
 20
-6.184136045062573
 30
0
 11
253.968491956422
 21
-6.184136045062573
 31
0
  0
LINE
  8
1
 62
7
 10
253.968491956422
 20
25.21078482221952
 30
0
 11
253.968491956422
 21
-11.98921517778044
 31
0
  0
LINE
  8
1
 62
7
 10
253.968491956422
 20
13.61078482221953
 30
0
 11
250.968491956422
 21
13.61078482221953
 31
0
  0
LINE
  8
1
 62
7
 10
250.968491956422
 20
-11.98921517778049
 30
0
 11
250.968491956422
 21
25.21078482221952
 31
0
  0
LINE
  8
1
 62
7
 10
253.968491956422
 20
-0.3892151777804713
 30
0
 11
250.968491956422
 21
-0.3892151777804713
 31
0
  0
LINE
  8
1
 62
7
 10
246.7684919564217
 20
14.11078482221953
 30
0
 11
246.7684919564217
 21
9.110784822219529
 31
0
  0
LINE
  8
1
 62
7
 10
246.7684919564217
 20
4.110784822219529
 30
0
 11
246.7684919564217
 21
-0.8892151777804713
 31
0
  0
LINE
  8
1
 62
7
 10
246.7684919564217
 20
14.11078482221953
 30
0
 11
248.7684919564217
 21
14.11078482221953
 31
0
  0
LINE
  8
1
 62
7
 10
248.7684919564217
 20
14.11078482221953
 30
0
 11
248.968491956422
 21
12.39649910793352
 31
0
  0
LINE
  8
1
 62
7
 10
249.468491956422
 20
8.110784822219529
 30
0
 11
249.468491956422
 21
5.110784822219529
 31
0
  0
LINE
  8
1
 62
7
 10
249.468491956422
 20
5.110784822219529
 30
0
 11
248.968491956422
 21
0.8250705365055211
 31
0
  0
LINE
  8
1
 62
7
 10
248.7684919564217
 20
-0.8892151777804713
 30
0
 11
246.7684919564217
 21
-0.8892151777804713
 31
0
  0
LINE
  8
1
 62
7
 10
248.968491956422
 20
12.39649910793352
 30
0
 11
248.968491956422
 21
7.610784822219529
 31
0
  0
LINE
  8
1
 62
7
 10
248.968491956422
 20
12.39649910793352
 30
0
 11
249.468491956422
 21
8.110784822219529
 31
0
  0
LINE
  8
1
 62
7
 10
248.968491956422
 20
0.8250705365055211
 30
0
 11
248.7684919564217
 21
-0.8892151777804713
 31
0
  0
LINE
  8
1
 62
7
 10
249.9668502239611
 20
8.110784822219529
 30
0
 11
250.4668502239611
 21
8.110784822219529
 31
0
  0
LINE
  8
1
 62
7
 10
250.4668502239611
 20
5.110784822219529
 30
0
 11
249.9668502239611
 21
5.110784822219529
 31
0
  0
LINE
  8
1
 62
7
 10
248.968491956422
 20
7.610784822219529
 30
0
 11
247.363489302089
 21
7.610784822219529
 31
0
  0
LINE
  8
1
 62
7
 10
248.968491956422
 20
7.610784822219529
 30
0
 11
248.968491956422
 21
5.610784822219529
 31
0
  0
LINE
  8
1
 62
7
 10
248.968491956422
 20
5.610784822219529
 30
0
 11
247.363489302089
 21
5.610784822219529
 31
0
  0
LINE
  8
1
 62
7
 10
248.968491956422
 20
5.610784822219529
 30
0
 11
248.968491956422
 21
0.8250705365055211
 31
0
  0
LINE
  8
1
 62
7
 10
209.968491956422
 20
12.61078482221953
 30
0
 11
212.2684919564217
 21
12.61078482221953
 31
0
  0
LINE
  8
1
 62
7
 10
241.8179429158499
 20
17.69465857527652
 30
0
 11
241.8179429158499
 21
25.21078482221952
 31
0
  0
LINE
  8
1
 62
7
 10
221.8179429158499
 20
25.21078482221952
 30
0
 11
221.8179429158499
 21
17.69465857527652
 31
0
  0
LINE
  8
1
 62
7
 10
221.8179429158499
 20
17.69465857527652
 30
0
 11
241.8179429158499
 21
17.69465857527652
 31
0
  0
LINE
  8
1
 62
3
 10
270.968491956422
 20
6.610784822219529
 30
0
 11
186.2684919564217
 21
6.610784822219529
 31
0
  0
LINE
  8
1
 62
7
 10
263.968491956422
 20
-11.98921517778038
 30
0
 11
253.968491956422
 21
-11.98921517778044
 31
0
  0
LINE
  8
1
 62
7
 10
265.968491956422
 20
23.21078482221952
 30
0
 11
265.968491956422
 21
-9.98921517778038
 31
0
  0
LINE
  8
1
 62
7
 10
253.968491956422
 20
25.21078482221952
 30
0
 11
263.968491956422
 21
25.21078482221952
 31
0
  0
LINE
  8
1
 62
3
 10
111.968491956422
 20
8.610784822219529
 30
0
 11
111.968491956422
 21
20.61078482221973
 31
0
  0
LINE
  8
1
 62
3
 10
120.402873289027
 20
-7.997992176263381
 30
0
 11
117.700107221704
 21
-3.31666402668688
 31
0
  0
LINE
  8
1
 62
3
 10
117.700107221704
 20
16.53823367112562
 30
0
 11
120.402873289027
 21
21.21956182070193
 31
0
  0
LINE
  8
1
 62
3
 10
111.968491956422
 20
20.61078482221973
 30
0
 11
111.968491956422
 21
30.21078482221944
 31
0
  0
LINE
  8
1
 62
3
 10
111.9684919564229
 20
-16.98921517778038
 30
0
 11
111.968491956422
 21
8.610784822219529
 31
0
  0
LINE
  8
1
 62
3
 10
117.7756716333938
 20
6.610784822219529
 30
0
 11
135.5684919564228
 21
6.610784822219529
 31
0
  0
LINE
  8
1
 62
3
 10
88.36849195642299
 20
6.610784822219529
 30
0
 11
116.968491956422
 21
6.610784822219529
 31
0
  0
LINE
  8
1
 62
3
 10
116.968491956422
 20
6.610784822219529
 30
0
 11
117.7756716333938
 21
6.610784822219529
 31
0
  0
LINE
  8
1
 62
2
 10
94.88739739642597
 20
57.15949898341242
 30
0
 11
134.827830403076
 21
57.15949898341242
 31
0
  0
LINE
  8
1
 62
2
 10
134.827830403076
 20
50.15949898341242
 30
0
 11
94.88739739642597
 21
50.15949898341242
 31
0
  0
LINE
  8
1
 62
3
 10
333.9692371512124
 20
30.21078482221927
 30
0
 11
333.9692371512131
 21
-16.98921517778052
 31
0
  0
LINE
  8
1
 62
3
 10
357.5692371512126
 20
6.610784822219671
 30
0
 11
310.3692371512129
 21
6.610784822219046
 31
0
  0
LINE
  8
1
 62
2
 10
314.2809070986388
 20
-61.87785758160574
 30
0
 11
198.3212716513465
 21
-61.87785758160574
 31
0
  0
LINE
  8
1
 62
2
 10
307.2809070986388
 20
-68.87785758160574
 30
0
 11
198.3212716513465
 21
-68.87785758160574
 31
0
  0
ARC
  8
1
 62
7
 10
242.654206242119
 20
6.610784822219529
 30
0
 40
4.814285714300768
 50
11.98848674519543
 51
31.28449291431233
  0
ARC
  8
1
 62
7
 10
242.654206242119
 20
6.610784822219529
 30
0
 40
4.814285714300768
 50
348.0115132548045
 51
11.98848674519543
  0
ARC
  8
1
 62
7
 10
242.654206242119
 20
6.610784822219529
 30
0
 40
4.814285714300251
 50
328.7155070856877
 51
348.0115132548045
  0
CIRCLE
  8
1
 62
7
 10
333.9692371512127
 20
6.610784822219404
 30
0
 40
18.59999999999997
  0
CIRCLE
  8
1
 62
7
 10
111.9684919564229
 20
6.610784822219529
 30
0
 40
18.59999999999991
  0
CIRCLE
  8
1
 62
7
 10
111.9684919564229
 20
6.610784822219529
 30
0
 40
2
  0
CIRCLE
  8
1
 62
7
 10
118.968491956422
 20
18.73514047520183
 30
0
 40
1.199999999999721
  0
CIRCLE
  8
1
 62
3
 10
118.968491956422
 20
18.73514047520183
 30
0
 40
1.500000000000397
  0
CIRCLE
  8
1
 62
7
 10
118.968491956422
 20
-5.513570830762376
 30
0
 40
1.199999999999723
  0
CIRCLE
  8
1
 62
3
 10
118.968491956422
 20
-5.513570830762376
 30
0
 40
1.500000000000445
  0
CIRCLE
  8
1
 62
7
 10
97.96849195642199
 20
6.610784822219529
 30
0
 40
1.19999999999979
  0
CIRCLE
  8
1
 62
3
 10
97.96849195642199
 20
6.610784822219529
 30
0
 40
1.5
  0
CIRCLE
  8
1
 62
3
  6
CENTER
 10
111.9684919564229
 20
6.610784822219529
 30
0
 40
14.0000000000002
  0
CIRCLE
  8
1
 62
7
 10
111.9684919564229
 20
6.610784822219529
 30
0
 40
6.000000000000002
  0
CIRCLE
  8
1
 62
7
 10
111.9684919564229
 20
6.610784822219529
 30
0
 40
5.807179676970904
  0
CIRCLE
  8
1
 62
7
 10
111.9684919564229
 20
6.610784822219529
 30
0
 40
4.999999999999105
  0
POLYLINE
  8
1
 62
2
 66
1
  0
VERTEX
  8
1
 10
338.1192371512133
 20
-37.64224106883063
 30
0
 42
0.07295477544167418
  0
VERTEX
  8
1
 10
337.7421818365158
 20
-37.34753995924145
 30
0
 42
0.1078827590932712
  0
VERTEX
  8
1
 10
337.4034542884984
 20
-37.25580595692676
 30
0
 42
0.09342666978729974
  0
VERTEX
  8
1
 10
337.0872543978299
 20
-37.31142250940668
 30
0
 42
0.04255239451392508
  0
VERTEX
  8
1
 10
336.7777820551787
 20
-37.45877306420128
 30
0
 42
-0.0008753591490741589
  0
VERTEX
  8
1
 10
336.4592371512131
 20
-37.64224106883066
 30
0
 42
-0.0355327827429847
  0
VERTEX
  8
1
 10
336.0559110365188
 20
-37.8350049816243
 30
0
 42
-0.06930430880432861
  0
VERTEX
  8
1
 10
335.6424597749697
 20
-37.93545902407208
 30
0
 42
-0.120738974120657
  0
VERTEX
  8
1
 10
335.2225085453771
 20
-37.87434063996869
 30
0
 42
-0.05855365301187115
  0
VERTEX
  8
1
 10
334.7992371512131
 20
-37.64224106883059
 30
0
 42
0.006902821631291425
  0
VERTEX
  8
1
 10
334.4441844855697
 20
-37.40092295148414
 30
0
 42
0.07302586747117004
  0
VERTEX
  8
1
 10
334.0912144377356
 20
-37.23358202793769
 30
0
 42
0.1520908089798547
  0
VERTEX
  8
1
 10
333.7633456849076
 20
-37.25026817545433
 30
0
 42
0.0640328722694402
  0
VERTEX
  8
1
 10
333.4558368489075
 20
-37.42290575922687
 30
0
 42
-0.01021200788697487
  0
VERTEX
  8
1
 10
333.139237151213
 20
-37.6422410688307
 30
0
 42
-0.06695675923022
  0
VERTEX
  8
1
 10
332.6796101721106
 20
-37.85687237659392
 30
0
 42
-0.09689445546379616
  0
VERTEX
  8
1
 10
332.2084403301108
 20
-37.90678727252902
 30
0
 42
-0.08090334942202572
  0
VERTEX
  8
1
 10
331.7188391196767
 20
-37.75903964721856
 30
0
 42
-0.007194615788747372
  0
VERTEX
  8
1
 10
331.2988069704294
 20
-37.55053351922728
 30
0
 42
0.03020546995105483
  0
VERTEX
  8
1
 10
330.9387044742925
 20
-37.3916783589557
 30
0
 42
0.0729474275932851
  0
VERTEX
  8
1
 10
330.575425172978
 20
-37.31470392089483
 30
0
 42
0.1118998085154893
  0
VERTEX
  8
1
 10
330.2039443155852
 20
-37.37857116940105
 30
0
 42
0.1036631957366308
  0
VERTEX
  8
1
 10
329.819237151213
 20
-37.64224106883074
 30
0
  0
SEQEND
  8
1
  0
POLYLINE
  8
1
 62
2
 66
1
  0
VERTEX
  8
1
 10
338.1192371512133
 20
-39.99149514500226
 30
0
 42
0.07295477544166257
  0
VERTEX
  8
1
 10
337.7421818365158
 20
-39.69679403541308
 30
0
 42
0.1078827590933807
  0
VERTEX
  8
1
 10
337.4034542884984
 20
-39.60506003309839
 30
0
 42
0.09342666978734553
  0
VERTEX
  8
1
 10
337.08725439783
 20
-39.66067658557831
 30
0
 42
0.04255239451390304
  0
VERTEX
  8
1
 10
336.7777820551788
 20
-39.80802714037291
 30
0
 42
-0.0008753591492479488
  0
VERTEX
  8
1
 10
336.4592371512132
 20
-39.99149514500229
 30
0
 42
-0.03553278274302522
  0
VERTEX
  8
1
 10
336.0559110365189
 20
-40.18425905779597
 30
0
 42
-0.06930430880438704
  0
VERTEX
  8
1
 10
335.6424597749698
 20
-40.28471310024379
 30
0
 42
-0.12073897412064
  0
VERTEX
  8
1
 10
335.2225085453771
 20
-40.22359471614041
 30
0
 42
-0.0585536530118282
  0
VERTEX
  8
1
 10
334.7992371512131
 20
-39.99149514500229
 30
0
 42
0.006902821631481847
  0
VERTEX
  8
1
 10
334.4441844855697
 20
-39.75017702765584
 30
0
 42
0.0730258674711512
  0
VERTEX
  8
1
 10
334.0912144377356
 20
-39.58283610410936
 30
0
 42
0.1520908089797738
  0
VERTEX
  8
1
 10
333.7633456849076
 20
-39.59952225162599
 30
0
 42
0.06403287226946509
  0
VERTEX
  8
1
 10
333.4558368489075
 20
-39.77215983539849
 30
0
 42
-0.01021200788695988
  0
VERTEX
  8
1
 10
333.139237151213
 20
-39.99149514500229
 30
0
 42
-0.06695675923023395
  0
VERTEX
  8
1
 10
332.6796101721106
 20
-40.20612645276549
 30
0
 42
-0.09689445546382368
  0
VERTEX
  8
1
 10
332.2084403301108
 20
-40.2560413487006
 30
0
 42
-0.08090334942202838
  0
VERTEX
  8
1
 10
331.7188391196767
 20
-40.10829372339018
 30
0
 42
-0.007194615788775315
  0
VERTEX
  8
1
 10
331.2988069704294
 20
-39.89978759539894
 30
0
 42
0.03020546995104012
  0
VERTEX
  8
1
 10
330.9387044742925
 20
-39.74093243512738
 30
0
 42
0.07294742759330128
  0
VERTEX
  8
1
 10
330.575425172978
 20
-39.66395799706649
 30
0
 42
0.1118998085154722
  0
VERTEX
  8
1
 10
330.2039443155852
 20
-39.72782524557269
 30
0
 42
0.1036631957366047
  0
VERTEX
  8
1
 10
329.819237151213
 20
-39.99149514500232
 30
0
  0
SEQEND
  8
1
  0
ARC
  8
1
 62
7
 10
191.5684919564219
 20
8.310784822219517
 30
0
 40
0.3000000000000114
 50
90
 51
180
  0
ARC
  8
1
 62
7
 10
191.5684919564219
 20
4.910784822219526
 30
0
 40
0.3000000000001819
 50
180
 51
270
  0
ARC
  8
1
 62
7
 10
214.2684919564217
 20
-9.98921517778048
 30
0
 40
2
 50
180
 51
270
  0
ARC
  8
1
 62
7
 10
214.2684919564217
 20
23.21078482221952
 30
0
 40
2
 50
90
 51
180
  0
ARC
  8
1
 62
7
 10
263.968491956422
 20
-9.98921517778038
 30
0
 40
2
 50
270
 51
0
  0
ARC
  8
1
 62
7
 10
263.968491956422
 20
23.21078482221952
 30
0
 40
2
 50
0
 51
90
  0
LINE
  8
1
 62
2
 10
198.3212716513465
 20
-75.87785758160574
 30
0
 11
300.2809070986388
 21
-75.87785758160574
 31
0
  0
LINE
  8
1
 62
2
 10
300.2809070986388
 20
-75.87785758160574
 30
0
 11
329.819237151213
 21
-46.33952752903154
 31
0
  0
SOLID
  8
1
 62
2
 10
327.6701867253747
 20
-49.14022457149913
 30
0
 11
327.0185401087454
 21
-48.48857795486978
 31
0
 12
329.819237151213
 22
-46.33952752903154
 32
0
 13
329.819237151213
 23
-46.33952752903154
 33
0
  0
LINE
  8
1
 62
2
 10
250.6899049409299
 20
35.21078482221952
 30
0
 11
226.6050353781598
 21
35.21078482221952
 31
0
  0
LINE
  8
1
 62
2
 10
226.6050353781598
 20
35.21078482221952
 30
0
 11
236.6050353781598
 21
25.21078482221952
 31
0
  0
SOLID
  8
1
 62
2
 10
233.8043383356922
 20
27.35983524805776
 30
0
 11
234.4559849523216
 21
28.01148186468711
 31
0
 12
236.6050353781598
 22
25.21078482221952
 32
0
 13
236.6050353781598
 23
25.21078482221952
 33
0
  0
LINE
  8
1
 62
2
 10
94.88739739642597
 20
43.15949898341242
 30
0
 11
134.827830403076
 21
43.15949898341242
 31
0
  0
LINE
  8
1
 62
2
 10
134.827830403076
 20
43.15949898341242
 30
0
 11
119.718491956422
 21
20.03417858087883
 31
0
  0
SOLID
  8
1
 62
2
 10
121.2471361690235
 20
23.21624843048334
 30
0
 11
122.0186291605053
 21
22.71217979426058
 31
0
 12
119.718491956422
 22
20.03417858087883
 32
0
 13
119.718491956422
 23
20.03417858087883
 33
0
  0
TEXT
  8
1
 62
2
 10
161.2488569625975
 20
-60.30198574843357
 30
0
 40
3.5
  1
リード線
 41
0.9
  0
TEXT
  8
1
 62
2
 10
161.2488569625975
 20
-67.30198574843357
 30
0
 40
3.5
  1
モーター側：ＵＬ１００７　ＡＷＧ２２（アカ、クロ）
 41
0.9
  0
TEXT
  8
1
 62
2
 10
161.2488569625975
 20
-74.30198574843357
 30
0
 40
3.5
  1
Ｐ　Ｇ　側：ＵＬ１００７　ＡＷＧ２４（ダイ、キイ、アオ）
 41
0.9
  0
TEXT
  8
1
 62
7
 10
289.7334227406898
 20
58.30009837402753
 30
0
 40
4
  1
ＤＭＥ３７ＳＭ
 41
0.9
 72
1
 73
2
 11
314.9334227406898
 21
60.30009837402753
 31
0
  0
TEXT
  8
1
 62
2
 10
215.8876851290499
 20
36.06078482221952
 30
0
 40
3.5
  1
ネームプレート
 41
0.9
 72
1
 73
2
 11
237.9376851290499
 21
37.81078482221952
 31
0
  0
TEXT
  8
1
 62
2
 10
89.22196762490179
 20
58.27878973621623
 30
0
 40
3.5
  1
3-M3 深さ4MAX
 41
0.9
  0
TEXT
  8
1
 62
2
 10
89.22196762490179
 20
51.27878973621623
 30
0
 40
3.5
  1
P=120°
 41
0.9
  0
TEXT
  8
1
 62
2
 10
89.22196762490179
 20
44.27878973621623
 30
0
 40
3.5
  1
P.C.D=φ28%%p0.2
 41
0.9
  0
TEXT
  8
1
 62
2
 10
292.8834227406898
 20
52.36539075876092
 30
0
 40
3.5
  1
エンコーダ付き
 41
0.9
 72
1
 73
2
 11
314.9334227406898
 21
54.11539075876092
 31
0
  0
DIMENSION
  8
1
  6
CONTINUOUS
 62
2
  2
*D0
  3
DMST_1
 10
265.968491956422
 20
55.21078482221952
 30
0
 11
239.1184919564221
 21
57.81078482221952
 31
0
 12
0
 22
0
 32
0
 70
0
 13
212.2684919564217
 23
23.21078482221952
 33
0
 14
265.968491956422
 24
23.21078482221952
 34
0
 53
0
  0
DIMENSION
  8
1
  6
CONTINUOUS
 62
2
  2
*D1
  3
DMST_1
 10
161.2684919564218
 20
25.21078482221952
 30
0
 11
158.2418252897551
 21
6.610784822219529
 31
0
 12
0
 22
0
 32
0
 70
0
  1
φ<>
 13
214.2684919564217
 23
-11.98921517778049
 33
0
 14
214.2684919564217
 24
25.21078482221952
 34
0
 50
90
 53
0
  0
DIMENSION
  8
1
  6
CONTINUOUS
 62
2
  2
*D2
  3
DMST_2
 10
171.3684919564217
 20
12.61078482221953
 30
0
 11
168.3526235539907
 21
36.38864038334563
 31
0
 12
0
 22
0
 32
0
 70
0
  1
φ<>
 13
209.968491956422
 23
0.6107848222195287
 33
0
 14
209.968491956422
 24
12.61078482221953
 34
0
 50
90
 53
0
  0
DIMENSION
  8
1
  6
CONTINUOUS
 62
2
  2
*D3
  3
DMST_3
 10
181.2684919564225
 20
8.61078482221944
 30
0
 11
177.8418252897559
 21
36.32186051659113
 31
0
 12
0
 22
0
 32
0
 70
0
  1
φ<>
 13
191.5684919564219
 23
4.610784822219429
 33
0
 14
191.5684919564219
 24
8.610784822219529
 34
0
 50
90
 53
0
  0
DIMENSION
  8
1
  6
CONTINUOUS
 62
2
  2
*D4
  3
DMST_1
 10
212.2684919564217
 20
55.21078482221952
 30
0
 11
201.7684919564217
 21
57.81078482221952
 31
0
 12
0
 22
0
 32
0
 70
0
 13
191.2684919564217
 23
8.310784822219517
 33
0
 14
212.2684919564217
 24
23.21078482221952
 34
0
 53
0
  0
DIMENSION
  8
1
  6
CONTINUOUS
 62
2
  2
*D5
  3
DMST_1
 10
208.7684919564222
 20
45.21078482221952
 30
0
 11
201.2032000932159
 21
47.81078482221952
 31
0
 12
0
 22
0
 32
0
 70
0
 13
212.2684919564217
 23
23.21078482221952
 33
0
 14
208.7684919564217
 24
11.91796449919193
 34
0
 53
0
  0
DIMENSION
  8
1
  6
CONTINUOUS
 62
2
  2
*D6
  3
DMST_1
 10
285.9758892081237
 20
-11.98921517778038
 30
0
 11
282.949222541457
 21
6.610784822219571
 31
0
 12
0
 22
0
 32
0
 70
0
  1
φ<>
 13
263.968491956422
 23
25.21078482221952
 33
0
 14
263.968491956422
 24
-11.98921517778038
 34
0
 50
90
 53
0
  0
DIMENSION
  8
1
  6
CONTINUOUS
 62
2
  2
*D7
  3
DMST_4
 10
348.1192371512131
 20
-73.10833384340214
 30
0
 11
345.5192371512131
 21
-66.9957135328977
 31
0
 12
0
 22
0
 32
0
 70
0
  1
(<>
 13
337.704237151213
 23
-76.10833384340214
 33
0
 14
338.1192371512132
 24
-73.10833384340214
 34
0
 50
90
 53
0
  0
DIMENSION
  8
1
  6
CONTINUOUS
 62
2
  2
*D8
  3
DMST_5
 10
358.1192371512132
 20
-11.52033483432673
 30
0
 11
354.7192371512132
 21
-39.99149514500233
 31
0
 12
0
 22
0
 32
0
 70
0
  1
150
 13
337.704237151213
 23
-76.10833384340214
 33
0
 14
338.1192371512134
 24
-11.52033483432672
 34
0
 50
90
 53
0
  0
ENDSEC
  0
EOF
