  0
SECTION
  2
HEADER
  9
$ACADVER
  1
AC1009
  9
$INSBASE
 10
0
 20
0
  9
$EXTMIN
 10
-175.0635310048234
 20
-17.64549972247918
  9
$EXTMAX
 10
191.4847862934124
 20
75.439313551808
  9
$LIMMIN
 10
-175.0635310048234
 20
-17.64549972247918
  9
$LIMMAX
 10
191.4847862934124
 20
75.439313551808
  9
$VIEWCTR
 10
10
 20
10
  9
$VIEWSIZE
 40
10
  9
$SNAPMODE
 70
0
  9
$SNAPUNIT
 10
1
 20
1
  9
$SNAPBASE
 10
0
 20
0
  9
$SNAPANG
 50
0
  9
$SNAPSTYLE
 70
0
  9
$SNAPISOPAIR
 70
0
  9
$GRIDMODE
 70
0
  9
$GRIDUNIT
 10
0
 20
0
  9
$ORTHOMODE
 70
0
  9
$REGENMODE
 70
1
  9
$FILLMODE
 70
1
  9
$QTEXTMODE
 70
0
  9
$DRAGMODE
 70
2
  9
$LTSCALE
 40
1
  9
$OSMODE
 70
0
  9
$ATTMODE
 70
1
  9
$TEXTSIZE
 40
3.5
  9
$TRACEWID
 40
0.5
  9
$TEXTSTYLE
  7
STANDARD
  9
$CLAYER
  8
0
  9
$CELTYPE
  6
BYLAYER
  9
$CECOLOR
 62
256
  9
$DIMSCALE
 40
1
  9
$DIMASZ
 40
0.18
  9
$DIMEXO
 40
0.0625
  9
$DIMDLI
 40
0.38
  9
$DIMRND
 40
0
  9
$DIMDLE
 40
0
  9
$DIMEXE
 40
0.18
  9
$DIMTP
 40
0
  9
$DIMTM
 40
0
  9
$DIMTXT
 40
0.18
  9
$DIMCEN
 40
0.09
  9
$DIMTSZ
 40
0
  9
$DIMTOL
 70
0
  9
$DIMLIM
 70
0
  9
$DIMTIH
 70
1
  9
$DIMTOH
 70
1
  9
$DIMSE1
 70
0
  9
$DIMSE2
 70
0
  9
$DIMTAD
 70
0
  9
$DIMZIN
 70
0
  9
$DIMBLK
  1

  9
$DIMASO
 70
1
  9
$DIMSHO
 70
1
  9
$DIMPOST
  1

  9
$DIMAPOST
  1

  9
$DIMALT
 70
0
  9
$DIMALTD
 70
2
  9
$DIMALTF
 40
25.4
  9
$DIMLFAC
 40
1
  9
$DIMTOFL
 70
0
  9
$DIMTVP
 40
0
  9
$DIMTIX
 70
0
  9
$DIMSOXD
 70
0
  9
$DIMSAH
 70
0
  9
$DIMBLK1
  1

  9
$DIMBLK2
  1

  9
$DIMSTYLE
  2
*UNNAMED
  9
$DIMCLRD
 70
0
  9
$DIMCLRE
 70
0
  9
$DIMCLRT
 70
0
  9
$DIMTFAC
 40
1
  9
$DIMGAP
 40
0.09
  9
$LUNITS
 70
2
  9
$LUPREC
 70
4
  9
$AXISMODE
 70
0
  9
$AXISUNIT
 10
0
 20
0
  9
$SKETCHINC
 40
0.1
  9
$FILLETRAD
 40
2
  9
$AUNITS
 70
0
  9
$AUPREC
 70
0
  9
$MENU
  1
ACAD
  9
$ELEVATION
 40
0
  9
$THICKNESS
 40
0
  9
$VIEWDIR
 10
0
 20
0
 30
1
  9
$LIMCHECK
 70
0
  9
$BLIPMODE
 70
1
  9
$CHAMFERA
 40
0
  9
$CHAMFERB
 40
0
  9
$FASTZOOM
 70
1
  9
$SKPOLY
 70
0
  9
$ANGBASE
 50
0
  9
$ANGDIR
 70
0
  9
$PDMODE
 70
0
  9
$PDSIZE
 40
0
  9
$PLINEWID
 40
0
  9
$COORDS
 70
2
  0
ENDSEC
  0
SECTION
  2
TABLES
  0
TABLE
  2
DIMSTYLE
 70
7
  0
DIMSTYLE
  2
DMST_1
 70
0
  3

  4

  5

  6

  7

 40
1
 41
3.2
 42
1
 43
7
 44
1
 45
0
 46
0
 47
0
 48
0
140
3.2
141
0
142
0
143
25.4
144
1
145
0
146
1
147
0.09
 71
0
 72
0
 73
0
 74
0
 75
0
 76
0
 77
1
 78
9
170
0
171
2
172
0
173
0
174
0
175
0
176
2
177
2
178
2
  0
DIMSTYLE
  2
DMST_2
 70
0
  3
)
  4

  5

  6

  7

 40
1
 41
3.2
 42
1
 43
7
 44
1
 45
0
 46
0
 47
0
 48
0
140
3.2
141
0
142
0
143
25.4
144
1
145
0
146
1
147
0.09
 71
0
 72
0
 73
0
 74
0
 75
0
 76
0
 77
1
 78
9
170
0
171
2
172
0
173
0
174
0
175
0
176
2
177
2
178
2
  0
DIMSTYLE
  2
DMST_3
 70
0
  3

  4

  5

  6

  7

 40
1
 41
3.2
 42
1
 43
7
 44
1
 45
0
 46
0
 47
0.2
 48
0.2
140
3.2
141
0
142
0
143
25.4
144
1
145
0
146
0.6
147
0.09
 71
1
 72
0
 73
0
 74
0
 75
0
 76
0
 77
1
 78
9
170
0
171
2
172
0
173
0
174
0
175
0
176
2
177
2
178
2
  0
DIMSTYLE
  2
DMST_4
 70
0
  3

  4

  5

  6

  7

 40
1
 41
3.2
 42
1
 43
7
 44
1
 45
0
 46
0
 47
0.1
 48
0.1
140
3.2
141
0
142
0
143
25.4
144
1
145
0
146
0.6
147
0.09
 71
1
 72
0
 73
0
 74
0
 75
0
 76
0
 77
1
 78
9
170
0
171
2
172
0
173
0
174
0
175
0
176
2
177
2
178
2
  0
DIMSTYLE
  2
DMST_5
 70
0
  3

  4

  5

  6

  7

 40
1
 41
3.2
 42
1
 43
7
 44
1
 45
0
 46
0
 47
0
 48
0.02
140
3.2
141
0
142
0
143
25.4
144
1
145
0
146
0.6
147
0.09
 71
1
 72
0
 73
0
 74
0
 75
0
 76
0
 77
1
 78
9
170
0
171
2
172
0
173
0
174
0
175
0
176
2
177
2
178
2
  0
DIMSTYLE
  2
DMST_6
 70
0
  3

  4

  5

  6

  7

 40
1
 41
3.2
 42
1
 43
7
 44
1
 45
0
 46
0
 47
0.5
 48
0.5
140
3.2
141
0
142
0
143
25.4
144
1
145
0
146
0.6
147
0.09
 71
1
 72
0
 73
0
 74
0
 75
0
 76
0
 77
1
 78
9
170
0
171
2
172
0
173
0
174
0
175
0
176
2
177
2
178
2
  0
DIMSTYLE
  2
DMST_7
 70
0
  3

  4

  5

  6

  7

 40
1
 41
3.5
 42
1
 43
7
 44
1
 45
0
 46
0
 47
0
 48
0
140
3.5
141
0
142
0
143
25.4
144
1
145
0
146
1
147
0.09
 71
0
 72
0
 73
0
 74
0
 75
0
 76
0
 77
1
 78
9
170
0
171
2
172
0
173
0
174
0
175
0
176
2
177
2
178
2
  0
ENDTAB
  0
TABLE
  2
LTYPE
 70
9
  0
LTYPE
  2
CONTINUOUS
 70
64
  3
Solid line
 72
65
 73
0
 40
0
  0
LTYPE
  2
BORDER
 70
64
  3
__ __ . __ __ .
 72
65
 73
6
 40
16.88051461241875
 49
4.823004174976787
 49
-2.411502087488394
 49
4.823004174976787
 49
-2.411502087488394
 49
0
 49
-2.411502087488394
  0
LTYPE
  2
CENTER
 70
64
  3
____ _ ____ _
 72
65
 73
4
 40
19.29201669990715
 49
12.05751043744197
 49
-2.411502087488394
 49
2.411502087488394
 49
-2.411502087488394
  0
LTYPE
  2
DASHDOT
 70
64
  3
__ . __ . __ .
 72
65
 73
4
 40
9.646008349953574
 49
4.823004174976787
 49
-2.411502087488394
 49
0
 49
-2.411502087488394
  0
LTYPE
  2
DASHED
 70
64
  3
__ __ __ __ __
 72
65
 73
2
 40
7.23450626246518
 49
4.823004174976787
 49
-2.411502087488394
  0
LTYPE
  2
DIVIDE
 70
64
  3
__ . . __ . . 
 72
65
 73
6
 40
12.05751043744197
 49
4.823004174976787
 49
-2.411502087488394
 49
0
 49
-2.411502087488394
 49
0
 49
-2.411502087488394
  0
LTYPE
  2
DOT
 70
64
  3
..............
 72
65
 73
4
 40
4.823004174976787
 49
0
 49
-2.411502087488394
 49
0
 49
-2.411502087488394
  0
LTYPE
  2
HIDDEN
 70
64
  3
_ _ _ _ _ _ _
 72
65
 73
2
 40
3.61725313123259
 49
2.411502087488394
 49
-1.205751043744197
  0
LTYPE
  2
PHANTOM
 70
64
  3
_____ _ _ _____ _ _ 
 72
65
 73
6
 40
24.11502087488394
 49
12.05751043744197
 49
-2.411502087488394
 49
2.411502087488394
 49
-2.411502087488394
 49
2.411502087488394
 49
-2.411502087488394
  0
ENDTAB
  0
TABLE
  2
LAYER
 70
4
  0
LAYER
  2
1
 70
0
 62
7
  6
CONTINUOUS
  0
LAYER
  2
CONSTRUCTION
 70
0
 62
7
  6
CONTINUOUS
  0
LAYER
  2
0
 70
0
 62
7
  6
CONTINUOUS
  0
ENDTAB
  0
TABLE
  2
STYLE
 70
4
  0
STYLE
  2
STANDARD
 70
0
 40
0
 41
1
 50
0
 71
0
 42
3.5
  3
txt
  4

  0
STYLE
  2
SIMPLEX
 70
0
 40
0
 41
1
 50
0
 71
0
 42
3.5
  3
simplex
  4

  0
STYLE
  2
COMPLEX
 70
0
 40
0
 41
1
 50
0
 71
0
 42
3.5
  3
complex
  4

  0
STYLE
  2
ITALIC
 70
0
 40
0
 41
1
 50
0
 71
0
 42
3.5
  3
italic
  4

  0
ENDTAB
  0
TABLE
  2
VIEW
 70
0
  0
ENDTAB
  0
ENDSEC
  0
SECTION
  2
BLOCKS
  0
BLOCK
  8
1
  2
*D0
 70
1
 10
0
 20
0
 30
0
  0
LINE
  8
1
 62
2
 10
-32.32593852147793
 20
54.25
 30
0
 11
-2.725938521478009
 21
54.25
 31
0
  0
LINE
  8
1
 62
2
 10
-2.725938521478009
 20
37.62999999999988
 30
0
 11
-2.725938521478009
 21
55.25
 31
0
  0
LINE
  8
1
 62
2
 10
-32.32593852147793
 20
45.25
 30
0
 11
-32.32593852147793
 21
55.25
 31
0
  0
SOLID
  8
1
 62
2
 10
-32.32593852147793
 20
54.25
 30
0
 11
-29.12593852147793
 21
54.666
 31
0
 12
-29.12593852147793
 22
53.834
 32
0
 13
-29.12593852147793
 23
53.834
 33
0
  0
SOLID
  8
1
 62
2
 10
-2.725938521478009
 20
54.25
 30
0
 11
-5.92593852147801
 21
53.834
 31
0
 12
-5.92593852147801
 22
54.666
 32
0
 13
-5.92593852147801
 23
54.666
 33
0
  0
TEXT
  8
1
 62
2
 10
-21.88593852147797
 20
55.25
 30
0
 40
3.2
  1
29.6
 41
0.9
  0
ENDBLK
  8
0
  0
BLOCK
  8
1
  2
*D1
 70
1
 10
0
 20
0
 30
0
  0
LINE
  8
1
 62
2
 10
38.97406147852199
 20
54.25
 30
0
 11
31.4830614809743
 21
54.25
 31
0
  0
LINE
  8
1
 62
2
 10
38.97406147852199
 20
54.25
 30
0
 11
42.97406147852199
 21
54.25
 31
0
  0
LINE
  8
1
 62
2
 10
49.37406147852199
 20
54.25
 30
0
 11
42.97406147852199
 21
54.25
 31
0
  0
LINE
  8
1
 62
2
 10
42.97406147852199
 20
27.24999999999999
 30
0
 11
42.97406147852199
 21
55.25
 31
0
  0
LINE
  8
1
 62
2
 10
38.97406147852199
 20
38.84999999999998
 30
0
 11
38.97406147852199
 21
55.25
 31
0
  0
SOLID
  8
1
 62
2
 10
38.97406147852199
 20
54.25
 30
0
 11
35.77406147852199
 21
53.834
 31
0
 12
35.77406147852199
 22
54.666
 32
0
 13
35.77406147852199
 23
54.666
 33
0
  0
SOLID
  8
1
 62
2
 10
42.97406147852199
 20
54.25
 30
0
 11
46.17406147852199
 21
54.666
 31
0
 12
46.17406147852199
 22
53.834
 32
0
 13
46.17406147852199
 23
53.834
 33
0
  0
TEXT
  8
1
 62
2
 10
33.5630614809743
 20
55.25
 30
0
 40
3.2
  1
4
 41
0.9
  0
TEXT
  8
1
 62
2
 10
31.4830614809743
 20
55.25
 30
0
 40
3.2
  1
(
 41
0.9
  0
TEXT
  8
1
 62
2
 10
37.0830614809743
 20
55.25
 30
0
 40
3.2
  1
)
 41
0.9
  0
ENDBLK
  8
0
  0
BLOCK
  8
1
  2
*D2
 70
1
 10
0
 20
0
 30
0
  0
LINE
  8
1
 62
2
 10
75.53377210493129
 20
0.6499999999999631
 30
0
 11
75.53377210493129
 21
37.84999999999998
 31
0
  0
LINE
  8
1
 62
2
 10
39.974061478522
 20
37.84999999999998
 30
0
 11
76.53377210493129
 21
37.84999999999998
 31
0
  0
LINE
  8
1
 62
2
 10
36.974061478522
 20
0.6499999999999631
 30
0
 11
76.53377210493129
 21
0.6499999999999631
 31
0
  0
SOLID
  8
1
 62
2
 10
75.53377210493129
 20
37.84999999999998
 30
0
 11
75.94977210493128
 21
34.64999999999998
 31
0
 12
75.11777210493129
 22
34.64999999999998
 32
0
 13
75.11777210493129
 23
34.64999999999998
 33
0
  0
SOLID
  8
1
 62
2
 10
75.53377210493129
 20
0.6499999999999631
 30
0
 11
75.11777210493129
 21
3.849999999999964
 31
0
 12
75.94977210493128
 22
3.849999999999964
 32
0
 13
75.94977210493128
 23
3.849999999999964
 33
0
  0
TEXT
  8
1
 62
2
 10
74.53377210493129
 20
14.88999999999997
 30
0
 40
3.2
  1
37.2
 50
90
 41
0.9
  0
ENDBLK
  8
0
  0
BLOCK
  8
1
  2
*D3
 70
1
 10
0
 20
0
 30
0
  0
LINE
  8
1
 62
2
 10
-171.9418790494535
 20
64.25000000000003
 30
0
 11
-121.9418790494535
 21
64.25000000000003
 31
0
  0
LINE
  8
1
 62
2
 10
-121.9418790494535
 20
20.25000000000002
 30
0
 11
-121.9418790494535
 21
65.25000000000003
 31
0
  0
LINE
  8
1
 62
2
 10
-171.9418790494535
 20
20.25000000000002
 30
0
 11
-171.9418790494535
 21
65.25000000000003
 31
0
  0
SOLID
  8
1
 62
2
 10
-171.9418790494535
 20
64.25000000000003
 30
0
 11
-168.7418790494535
 21
64.66600000000003
 31
0
 12
-168.7418790494535
 22
63.83400000000003
 32
0
 13
-168.7418790494535
 23
63.83400000000003
 33
0
  0
SOLID
  8
1
 62
2
 10
-121.9418790494535
 20
64.25000000000003
 30
0
 11
-125.1418790494535
 21
63.83400000000003
 31
0
 12
-125.1418790494535
 22
64.66600000000003
 32
0
 13
-125.1418790494535
 23
64.66600000000003
 33
0
  0
TEXT
  8
1
 62
2
 10
-147.4218790494535
 20
65.25000000000003
 30
0
 40
3.2
  1
50
 41
0.9
  0
TEXT
  8
1
 62
2
 10
-151.2618790494535
 20
65.25000000000003
 30
0
 40
3.2
  1
%%c
 41
0.9
  0
ENDBLK
  8
0
  0
BLOCK
  8
1
  2
*D4
 70
1
 10
0
 20
0
 30
0
  0
LINE
  8
1
 62
2
 10
-101.9418790494535
 20
-0.7500000000001172
 30
0
 11
-101.9418790494535
 21
19.25
 31
0
  0
LINE
  8
1
 62
2
 10
-117.2701536566003
 20
19.25
 30
0
 11
-100.9418790494535
 21
19.25
 31
0
  0
LINE
  8
1
 62
2
 10
-143.3214406987104
 20
-0.7500000000001172
 30
0
 11
-100.9418790494535
 21
-0.7500000000001172
 31
0
  0
SOLID
  8
1
 62
2
 10
-101.9418790494535
 20
19.25
 30
0
 11
-101.5258790494535
 21
16.05
 31
0
 12
-102.3578790494535
 22
16.05
 32
0
 13
-102.3578790494535
 23
16.05
 33
0
  0
SOLID
  8
1
 62
2
 10
-101.9418790494535
 20
-0.7500000000001172
 30
0
 11
-102.3578790494535
 21
2.449999999999883
 31
0
 12
-101.5258790494535
 22
2.449999999999883
 32
0
 13
-101.5258790494535
 23
2.449999999999883
 33
0
  0
TEXT
  8
1
 62
2
 10
-102.9418790494535
 20
3.625999999999942
 30
0
 40
3.2
  1
20
 50
90
 41
0.9
  0
TEXT
  8
1
 62
2
 10
-103.5818790494535
 20
10.02599999999994
 30
0
 40
1.92
  1
%%p0.2
 50
90
 41
0.9
  0
ENDBLK
  8
0
  0
BLOCK
  8
1
  2
*D5
 70
1
 10
0
 20
0
 30
0
  0
LINE
  8
1
 62
2
 10
-101.9418790494535
 20
29.24999999999999
 30
0
 11
-101.9418790494535
 21
42.78796480788719
 31
0
  0
LINE
  8
1
 62
2
 10
-101.9418790494535
 20
19.24999999999999
 30
0
 11
-101.9418790494535
 21
29.24999999999999
 31
0
  0
LINE
  8
1
 62
2
 10
-126.3773352502753
 20
29.24999999999999
 30
0
 11
-100.9418790494535
 21
29.24999999999999
 31
0
  0
LINE
  8
1
 62
2
 10
-117.2701536566003
 20
19.24999999999999
 30
0
 11
-100.9418790494535
 21
19.24999999999999
 31
0
  0
SOLID
  8
1
 62
2
 10
-101.9418790494535
 20
19.24999999999999
 30
0
 11
-102.3578790494535
 21
22.44999999999999
 31
0
 12
-101.5258790494535
 22
22.44999999999999
 32
0
 13
-101.5258790494535
 23
22.44999999999999
 33
0
  0
SOLID
  8
1
 62
2
 10
-101.9418790494535
 20
29.24999999999999
 30
0
 11
-101.5258790494535
 21
26.04999999999999
 31
0
 12
-102.3578790494535
 22
26.04999999999999
 32
0
 13
-102.3578790494535
 23
26.04999999999999
 33
0
  0
TEXT
  8
1
 62
2
 10
-102.9418790494535
 20
32.49996480788719
 30
0
 40
3.2
  1
10
 50
90
 41
0.9
  0
TEXT
  8
1
 62
2
 10
-103.5818790494535
 20
37.93996480788719
 30
0
 40
1.92
  1
%%p0.2
 50
90
 41
0.9
  0
ENDBLK
  8
0
  0
BLOCK
  8
1
  2
*D6
 70
1
 10
0
 20
0
 30
0
  0
LINE
  8
1
 62
2
 10
-111.9418790494535
 20
27.24999999999997
 30
0
 11
-111.9418790494535
 21
41.45423348318147
 31
0
  0
LINE
  8
1
 62
2
 10
-111.9418790494535
 20
19.24999999999997
 30
0
 11
-111.9418790494535
 21
27.24999999999997
 31
0
  0
LINE
  8
1
 62
2
 10
-111.9418790494535
 20
12.84999999999997
 30
0
 11
-111.9418790494535
 21
19.24999999999997
 31
0
  0
LINE
  8
1
 62
2
 10
-139.2627742089385
 20
27.24999999999997
 30
0
 11
-110.9418790494535
 21
27.24999999999997
 31
0
  0
LINE
  8
1
 62
2
 10
-117.2701536566003
 20
19.24999999999997
 30
0
 11
-110.9418790494535
 21
19.24999999999997
 31
0
  0
SOLID
  8
1
 62
2
 10
-111.9418790494535
 20
19.24999999999997
 30
0
 11
-111.5258790494535
 21
16.04999999999997
 31
0
 12
-112.3578790494535
 22
16.04999999999997
 32
0
 13
-112.3578790494535
 23
16.04999999999997
 33
0
  0
SOLID
  8
1
 62
2
 10
-111.9418790494535
 20
27.24999999999997
 30
0
 11
-112.3578790494535
 21
30.44999999999997
 31
0
 12
-111.5258790494535
 22
30.44999999999997
 32
0
 13
-111.5258790494535
 23
30.44999999999997
 33
0
  0
TEXT
  8
1
 62
2
 10
-112.9418790494535
 20
33.08623348318147
 30
0
 40
3.2
  1
8
 50
90
 41
0.9
  0
TEXT
  8
1
 62
2
 10
-113.5818790494535
 20
36.60623348318147
 30
0
 40
1.92
  1
%%p0.2
 50
90
 41
0.9
  0
ENDBLK
  8
0
  0
BLOCK
  8
1
  2
*D7
 70
1
 10
0
 20
0
 30
0
  0
LINE
  8
1
 62
2
 10
-163.9418790494535
 20
54.25000000000002
 30
0
 11
-146.9418790494535
 21
54.25000000000002
 31
0
  0
LINE
  8
1
 62
2
 10
-146.9418790494535
 20
47.91870091117242
 30
0
 11
-146.9418790494535
 21
55.25000000000002
 31
0
  0
LINE
  8
1
 62
2
 10
-163.9418790494535
 20
32.66141786481788
 30
0
 11
-163.9418790494535
 21
55.25000000000002
 31
0
  0
SOLID
  8
1
 62
2
 10
-163.9418790494535
 20
54.25000000000002
 30
0
 11
-160.7418790494535
 21
54.66600000000002
 31
0
 12
-160.7418790494535
 22
53.83400000000002
 32
0
 13
-160.7418790494535
 23
53.83400000000002
 33
0
  0
SOLID
  8
1
 62
2
 10
-146.9418790494535
 20
54.25000000000002
 30
0
 11
-150.1418790494535
 21
53.83400000000002
 31
0
 12
-150.1418790494535
 22
54.66600000000002
 32
0
 13
-150.1418790494535
 23
54.66600000000002
 33
0
  0
TEXT
  8
1
 62
2
 10
-160.5858790494535
 20
55.25000000000002
 30
0
 40
3.2
  1
17
 41
0.9
  0
TEXT
  8
1
 62
2
 10
-155.1458790494535
 20
55.89000000000002
 30
0
 40
1.92
  1
%%p0.2
 41
0.9
  0
ENDBLK
  8
0
  0
BLOCK
  8
1
  2
*D8
 70
1
 10
0
 20
0
 30
0
  0
LINE
  8
1
 62
2
 10
-146.9418790494535
 20
54.25000000000002
 30
0
 11
-129.9418790494535
 21
54.25000000000002
 31
0
  0
LINE
  8
1
 62
2
 10
-129.9418790494535
 20
32.66141786481788
 30
0
 11
-129.9418790494535
 21
55.25000000000002
 31
0
  0
LINE
  8
1
 62
2
 10
-146.9418790494535
 20
47.91870091117242
 30
0
 11
-146.9418790494535
 21
55.25000000000002
 31
0
  0
SOLID
  8
1
 62
2
 10
-146.9418790494535
 20
54.25000000000002
 30
0
 11
-143.7418790494535
 21
54.66600000000002
 31
0
 12
-143.7418790494535
 22
53.83400000000002
 32
0
 13
-143.7418790494535
 23
53.83400000000002
 33
0
  0
SOLID
  8
1
 62
2
 10
-129.9418790494535
 20
54.25000000000002
 30
0
 11
-133.1418790494535
 21
53.83400000000002
 31
0
 12
-133.1418790494535
 22
54.66600000000002
 32
0
 13
-133.1418790494535
 23
54.66600000000002
 33
0
  0
TEXT
  8
1
 62
2
 10
-143.5858790494535
 20
55.25000000000002
 30
0
 40
3.2
  1
17
 41
0.9
  0
TEXT
  8
1
 62
2
 10
-138.1458790494535
 20
55.89000000000002
 30
0
 40
1.92
  1
%%p0.2
 41
0.9
  0
ENDBLK
  8
0
  0
BLOCK
  8
1
  2
*D9
 70
1
 10
0
 20
0
 30
0
  0
LINE
  8
1
 62
2
 10
-32.32593852147792
 20
54.25000000000002
 30
0
 11
-25.92593852147792
 21
54.25000000000002
 31
0
  0
LINE
  8
1
 62
2
 10
-36.32593852147792
 20
54.25000000000002
 30
0
 11
-42.72593852147792
 21
54.25000000000002
 31
0
  0
LINE
  8
1
 62
2
 10
-36.32593852147792
 20
54.25000000000002
 30
0
 11
-32.32593852147792
 21
54.25000000000002
 31
0
  0
LINE
  8
1
 62
2
 10
-32.32593852147792
 20
45.25000000000002
 30
0
 11
-32.32593852147792
 21
55.25000000000002
 31
0
  0
LINE
  8
1
 62
2
 10
-36.32593852147792
 20
34.25000000000002
 30
0
 11
-36.32593852147792
 21
55.25000000000002
 31
0
  0
SOLID
  8
1
 62
2
 10
-36.32593852147792
 20
54.25000000000002
 30
0
 11
-39.52593852147793
 21
53.83400000000002
 31
0
 12
-39.52593852147793
 22
54.66600000000002
 32
0
 13
-39.52593852147793
 23
54.66600000000002
 33
0
  0
SOLID
  8
1
 62
2
 10
-32.32593852147792
 20
54.25000000000002
 30
0
 11
-29.12593852147792
 21
54.66600000000002
 31
0
 12
-29.12593852147792
 22
53.83400000000002
 32
0
 13
-29.12593852147792
 23
53.83400000000002
 33
0
  0
TEXT
  8
1
 62
2
 10
-35.28593852147792
 20
55.25000000000002
 30
0
 40
3.2
  1
4
 41
0.9
  0
ENDBLK
  8
0
  0
BLOCK
  8
1
  2
*D10
 70
1
 10
0
 20
0
 30
0
  0
LINE
  8
1
 62
2
 10
-57.32593852147794
 20
64.25
 30
0
 11
-32.32593852147792
 21
64.25
 31
0
  0
LINE
  8
1
 62
2
 10
-57.32593852147794
 20
30.75000000000001
 30
0
 11
-57.32593852147794
 21
65.25
 31
0
  0
LINE
  8
1
 62
2
 10
-32.32593852147792
 20
45.25
 30
0
 11
-32.32593852147792
 21
65.25
 31
0
  0
SOLID
  8
1
 62
2
 10
-57.32593852147794
 20
64.25
 30
0
 11
-54.12593852147793
 21
64.666
 31
0
 12
-54.12593852147793
 22
63.834
 32
0
 13
-54.12593852147793
 23
63.834
 33
0
  0
SOLID
  8
1
 62
2
 10
-32.32593852147792
 20
64.25
 30
0
 11
-35.52593852147793
 21
63.834
 31
0
 12
-35.52593852147793
 22
64.666
 32
0
 13
-35.52593852147793
 23
64.666
 33
0
  0
TEXT
  8
1
 62
2
 10
-47.22593852147792
 20
65.25
 30
0
 40
3.2
  1
25
 41
0.9
  0
ENDBLK
  8
0
  0
BLOCK
  8
1
  2
*D11
 70
1
 10
0
 20
0
 30
0
  0
LINE
  8
1
 62
2
 10
-87.32593852147792
 20
33.25
 30
0
 11
-87.32593852147792
 21
52.2111760413021
 31
0
  0
LINE
  8
1
 62
2
 10
-87.32593852147792
 20
21.25
 30
0
 11
-87.32593852147792
 21
33.25
 31
0
  0
LINE
  8
1
 62
2
 10
-37.32593852147792
 20
33.25
 30
0
 11
-88.32593852147792
 21
33.25
 31
0
  0
LINE
  8
1
 62
2
 10
-37.32593852147792
 20
21.25
 30
0
 11
-88.32593852147792
 21
21.25
 31
0
  0
SOLID
  8
1
 62
2
 10
-87.32593852147792
 20
33.25
 30
0
 11
-86.90993852147793
 21
30.05
 31
0
 12
-87.74193852147792
 22
30.05
 32
0
 13
-87.74193852147792
 23
30.05
 33
0
  0
SOLID
  8
1
 62
2
 10
-87.32593852147792
 20
21.25
 30
0
 11
-87.74193852147792
 21
24.45
 31
0
 12
-86.90993852147793
 22
24.45
 32
0
 13
-86.90993852147793
 23
24.45
 33
0
  0
TEXT
  8
1
 62
2
 10
-88.32593852147792
 20
42.4991760413021
 30
0
 40
3.2
  1
12
 50
90
 41
0.9
  0
TEXT
  8
1
 62
2
 10
-88.96593852147792
 20
47.9391760413021
 30
0
 40
1.92
  1
%%p0.1
 50
90
 41
0.9
  0
TEXT
  8
1
 62
2
 10
-88.32593852147792
 20
38.6591760413021
 30
0
 40
3.2
  1
%%c
 50
90
 41
0.9
  0
ENDBLK
  8
0
  0
BLOCK
  8
1
  2
*D12
 70
1
 10
0
 20
0
 30
0
  0
LINE
  8
1
 62
2
 10
-77.32593852147792
 20
30.25000000000001
 30
0
 11
-77.32593852147792
 21
52.89300822720131
 31
0
  0
LINE
  8
1
 62
2
 10
-77.32593852147792
 20
24.25000000000001
 30
0
 11
-77.32593852147792
 21
30.25000000000001
 31
0
  0
LINE
  8
1
 62
2
 10
-77.32593852147792
 20
17.85000000000001
 30
0
 11
-77.32593852147792
 21
24.25000000000001
 31
0
  0
LINE
  8
1
 62
2
 10
-46.32593852147793
 20
30.25000000000001
 30
0
 11
-78.32593852147792
 21
30.25000000000001
 31
0
  0
LINE
  8
1
 62
2
 10
-58.32593852147793
 20
24.25000000000001
 30
0
 11
-78.32593852147792
 21
24.25000000000001
 31
0
  0
SOLID
  8
1
 62
2
 10
-77.32593852147792
 20
24.25000000000001
 30
0
 11
-76.90993852147793
 21
21.05000000000001
 31
0
 12
-77.74193852147792
 22
21.05000000000001
 32
0
 13
-77.74193852147792
 23
21.05000000000001
 33
0
  0
SOLID
  8
1
 62
2
 10
-77.32593852147792
 20
30.25000000000001
 30
0
 11
-77.74193852147792
 21
33.45000000000001
 31
0
 12
-76.90993852147793
 22
33.45000000000001
 32
0
 13
-76.90993852147793
 23
33.45000000000001
 33
0
  0
TEXT
  8
1
 62
2
 10
-79.12593852147793
 20
42.60500822720131
 30
0
 40
3.2
  1
6
 50
90
 41
0.9
  0
TEXT
  8
1
 62
2
 10
-81.20593852147793
 20
46.12500822720131
 30
0
 40
1.92
  1
 0
 50
90
 41
0.9
  0
TEXT
  8
1
 62
2
 10
-78.32593852147792
 20
46.12500822720131
 30
0
 40
1.92
  1
-0.02
 50
90
 41
0.9
  0
TEXT
  8
1
 62
2
 10
-79.12593852147793
 20
38.76500822720131
 30
0
 40
3.2
  1
%%c
 50
90
 41
0.9
  0
ENDBLK
  8
0
  0
BLOCK
  8
1
  2
*D13
 70
1
 10
0
 20
0
 30
0
  0
LINE
  8
1
 62
2
 10
-67.32593852147792
 20
29.75000000000002
 30
0
 11
-67.32593852147792
 21
51.16043980771462
 31
0
  0
LINE
  8
1
 62
2
 10
-67.32593852147792
 20
24.25000000000002
 30
0
 11
-67.32593852147792
 21
29.75000000000002
 31
0
  0
LINE
  8
1
 62
2
 10
-67.32593852147792
 20
17.85000000000002
 30
0
 11
-67.32593852147792
 21
24.25000000000002
 31
0
  0
LINE
  8
1
 62
2
 10
-58.32593852147792
 20
29.75000000000002
 30
0
 11
-68.32593852147792
 21
29.75000000000002
 31
0
  0
LINE
  8
1
 62
2
 10
-58.32593852147792
 20
24.25000000000002
 30
0
 11
-68.32593852147792
 21
24.25000000000002
 31
0
  0
SOLID
  8
1
 62
2
 10
-67.32593852147792
 20
24.25000000000002
 30
0
 11
-66.90993852147793
 21
21.05000000000002
 31
0
 12
-67.74193852147792
 22
21.05000000000002
 32
0
 13
-67.74193852147792
 23
21.05000000000002
 33
0
  0
SOLID
  8
1
 62
2
 10
-67.32593852147792
 20
29.75000000000002
 30
0
 11
-67.74193852147792
 21
32.95000000000002
 31
0
 12
-66.90993852147793
 22
32.95000000000002
 32
0
 13
-66.90993852147793
 23
32.95000000000002
 33
0
  0
TEXT
  8
1
 62
2
 10
-68.32593852147792
 20
38.87243980771462
 30
0
 40
3.2
  1
5.5
 50
90
 41
0.9
  0
TEXT
  8
1
 62
2
 10
-68.96593852147792
 20
46.31243980771462
 30
0
 40
1.92
  1
%%p0.2
 50
90
 41
0.9
  0
ENDBLK
  8
0
  0
BLOCK
  8
1
  2
*D14
 70
1
 10
0
 20
0
 30
0
  0
LINE
  8
1
 62
2
 10
49.37406147852201
 20
64.25
 30
0
 11
55.77406147852201
 21
64.25
 31
0
  0
LINE
  8
1
 62
2
 10
42.97406147852199
 20
64.25
 30
0
 11
36.57406147852199
 21
64.25
 31
0
  0
LINE
  8
1
 62
2
 10
42.97406147852199
 20
64.25
 30
0
 11
49.37406147852201
 21
64.25
 31
0
  0
LINE
  8
1
 62
2
 10
49.37406147852201
 20
28.31549961756002
 30
0
 11
49.37406147852201
 21
65.25
 31
0
  0
LINE
  8
1
 62
2
 10
42.97406147852199
 20
27.24999999999999
 30
0
 11
42.97406147852199
 21
65.25
 31
0
  0
SOLID
  8
1
 62
2
 10
42.97406147852199
 20
64.25
 30
0
 11
39.77406147852199
 21
63.834
 31
0
 12
39.77406147852199
 22
64.666
 32
0
 13
39.77406147852199
 23
64.666
 33
0
  0
SOLID
  8
1
 62
2
 10
49.37406147852201
 20
64.25
 30
0
 11
52.57406147852201
 21
64.666
 31
0
 12
52.57406147852201
 22
63.834
 32
0
 13
52.57406147852201
 23
63.834
 33
0
  0
TEXT
  8
1
 62
2
 10
40.030061478522
 20
65.25
 30
0
 40
3.2
  1
6.4
 41
0.9
  0
TEXT
  8
1
 62
2
 10
47.470061478522
 20
65.89
 30
0
 40
1.92
  1
%%p0.5
 41
0.9
  0
ENDBLK
  8
0
  0
BLOCK
  8
1
  2
*D15
 70
1
 10
0
 20
0
 30
0
  0
LINE
  8
1
 62
2
 10
-32.32593852147793
 20
64.25
 30
0
 11
42.974061478522
 21
64.25
 31
0
  0
LINE
  8
1
 62
2
 10
42.974061478522
 20
27.24999999999999
 30
0
 11
42.974061478522
 21
65.25
 31
0
  0
LINE
  8
1
 62
2
 10
-32.32593852147793
 20
45.25
 30
0
 11
-32.32593852147793
 21
65.25
 31
0
  0
SOLID
  8
1
 62
2
 10
-32.32593852147793
 20
64.25
 30
0
 11
-29.12593852147793
 21
64.666
 31
0
 12
-29.12593852147793
 22
63.834
 32
0
 13
-29.12593852147793
 23
63.834
 33
0
  0
SOLID
  8
1
 62
2
 10
42.974061478522
 20
64.25
 30
0
 11
39.77406147852199
 21
63.834
 31
0
 12
39.77406147852199
 22
64.666
 32
0
 13
39.77406147852199
 23
64.666
 33
0
  0
TEXT
  8
1
 62
2
 10
0.9640614785220327
 20
65.25
 30
0
 40
3.2
  1
75.3
 41
0.9
  0
ENDBLK
  8
0
  0
BLOCK
  8
1
  2
*D16
 70
1
 10
0
 20
0
 30
0
  0
LINE
  8
1
 62
2
 10
-57.32593852147792
 20
54.25
 30
0
 11
-45.32593852147792
 21
54.25
 31
0
  0
LINE
  8
1
 62
2
 10
-45.32593852147792
 20
31.25
 30
0
 11
-45.32593852147792
 21
55.25
 31
0
  0
LINE
  8
1
 62
2
 10
-57.32593852147792
 20
30.75
 30
0
 11
-57.32593852147792
 21
55.25
 31
0
  0
SOLID
  8
1
 62
2
 10
-57.32593852147792
 20
54.25
 30
0
 11
-53.82593852147792
 21
54.705
 31
0
 12
-53.82593852147792
 22
53.795
 32
0
 13
-53.82593852147792
 23
53.795
 33
0
  0
SOLID
  8
1
 62
2
 10
-45.32593852147792
 20
54.25
 30
0
 11
-48.82593852147792
 21
53.795
 31
0
 12
-48.82593852147792
 22
54.705
 32
0
 13
-48.82593852147792
 23
54.705
 33
0
  0
TEXT
  8
1
 62
2
 10
-53.42593852147792
 20
56.25
 30
0
 40
3.5
  1
12
 41
0.9
  0
ENDBLK
  8
0
  0
BLOCK
  8
1
  2
*D17
 70
1
 10
0
 20
0
 30
0
  0
LINE
  8
1
 62
2
 10
-145.5521532294557
 20
-2.188284445174769
 30
0
 11
-130.6167965632533
 21
-17.64549972247918
 31
0
  0
LINE
  8
1
 62
2
 10
-130.6167965632533
 20
-17.64549972247918
 30
0
 11
-93.24738479854734
 21
-17.64549972247918
 31
0
  0
SOLID
  8
1
 62
2
 10
-145.5521532294557
 20
-2.188284445174769
 30
0
 11
-143.0294287528629
 21
-4.200476586894696
 31
0
 12
-143.6277550820555
 22
-4.778602528013786
 32
0
 13
-143.6277550820555
 23
-4.778602528013786
 33
0
  0
TEXT
  8
1
 62
2
 10
-116.1367965632532
 20
-16.64549972247918
 30
0
 40
3.2
  1
4
 41
0.9
  0
TEXT
  8
1
 62
2
 10
-125.4167965632532
 20
-16.64549972247918
 30
0
 40
3.2
  1
3-M
 41
0.9
  0
TEXT
  8
1
 62
2
 10
-112.6167965632533
 20
-16.64549972247918
 30
0
 40
3.2
  1
深さ5MAX
 41
0.9
  0
ENDBLK
  8
0
  0
ENDSEC
  0
SECTION
  2
ENTITIES
  0
LINE
  8
1
 62
7
 10
159.100965134858
 20
14.08812049733876
 30
0
 11
158.2524369974341
 21
13.23959235991489
 31
0
  0
LINE
  8
1
 62
7
 10
161.9293922596048
 20
10.55258659140539
 30
0
 11
162.3183009892568
 21
10.94149532105861
 31
0
  0
LINE
  8
1
 62
7
 10
162.3183009892568
 20
10.94149532105861
 30
0
 11
159.1363204739173
 21
14.12347583639809
 31
0
  0
LINE
  8
1
 62
7
 10
161.4344175127735
 20
10.05761184457548
 30
0
 11
162.2829456501981
 21
10.90613998199866
 31
0
  0
LINE
  8
1
 62
7
 10
158.2524369974341
 20
12.53248557872836
 30
0
 11
160.727310731587
 21
10.05761184457548
 31
0
  0
LINE
  8
1
 62
7
 10
156.4846700444684
 20
11.47182540694787
 30
0
 11
156.0957613148152
 21
11.08291667729596
 31
0
  0
LINE
  8
1
 62
7
 10
156.0957613148152
 20
11.08291667729596
 30
0
 11
159.2777418301546
 21
7.900936161956494
 31
0
  0
LINE
  8
1
 62
7
 10
159.2777418301546
 20
7.900936161956494
 30
0
 11
159.6666505598072
 21
8.289844891609064
 31
0
  0
LINE
  8
1
 62
7
 10
156.1311166538745
 20
11.11827201635526
 30
0
 11
156.9796447912984
 21
11.96680015377915
 31
0
  0
LINE
  8
1
 62
7
 10
157.6867515724849
 20
11.96680015377912
 30
0
 11
160.1616253066378
 21
9.491926419626211
 31
0
  0
LINE
  8
1
 62
7
 10
160.1616253066378
 20
8.784819638439686
 30
0
 11
159.3130971692146
 21
7.936291501015162
 31
0
  0
LINE
  8
1
 62
7
 10
159.1363204739173
 20
14.12347583639809
 30
0
 11
158.7474117442647
 21
13.7345671067455
 31
0
  0
LINE
  8
1
 62
7
 10
162.3183009892568
 20
10.94149532105861
 30
0
 11
159.1363204739173
 21
14.12347583639809
 31
0
  0
LINE
  8
1
 62
7
 10
161.9293922596048
 20
10.55258659140539
 30
0
 11
162.3183009892568
 21
10.94149532105861
 31
0
  0
LINE
  8
1
 62
7
 10
156.0957613148152
 20
11.08291667729596
 30
0
 11
159.2777418301546
 21
7.900936161956494
 31
0
  0
LINE
  8
1
 62
7
 10
156.4846700444684
 20
11.47182540694787
 30
0
 11
156.0957613148152
 21
11.08291667729596
 31
0
  0
LINE
  8
1
 62
7
 10
159.2777418301546
 20
7.900936161956494
 30
0
 11
159.6666505598072
 21
8.289844891609064
 31
0
  0
LINE
  8
1
 62
7
 10
161.9293922596048
 20
10.55258659140539
 30
0
 11
162.3183009892568
 21
10.94149532105861
 31
0
  0
LINE
  8
1
 62
7
 10
159.2777418301546
 20
7.900936161956494
 30
0
 11
159.6666505598072
 21
8.289844891609064
 31
0
  0
LINE
  8
1
 62
7
 10
144.9588295111277
 20
26.53319984622134
 30
0
 11
145.8073576485515
 21
27.38172798364521
 31
0
  0
LINE
  8
1
 62
7
 10
142.6607324722714
 20
30.59906383804399
 30
0
 11
142.2718237426188
 21
30.2101551083914
 31
0
  0
LINE
  8
1
 62
7
 10
145.8427129876109
 20
27.41708332270453
 30
0
 11
142.6607324722714
 21
30.59906383804399
 31
0
  0
LINE
  8
1
 62
7
 10
142.6253771332121
 20
30.56370849898467
 30
0
 11
141.7768489957882
 21
29.7151803615608
 31
0
  0
LINE
  8
1
 62
7
 10
141.7768489957882
 20
29.00807358037426
 30
0
 11
144.2517227299412
 21
26.53319984622134
 31
0
  0
LINE
  8
1
 62
7
 10
142.8021538285088
 20
24.37652416360238
 30
0
 11
143.1910625581613
 21
24.76543289325495
 31
0
  0
LINE
  8
1
 62
7
 10
139.6201733131693
 20
27.55850467894186
 30
0
 11
142.8021538285088
 21
24.37652416360238
 31
0
  0
LINE
  8
1
 62
7
 10
140.0090820428219
 20
27.94741340859443
 30
0
 11
139.6201733131693
 21
27.55850467894186
 31
0
  0
LINE
  8
1
 62
7
 10
143.6860373049919
 20
25.26040764008557
 30
0
 11
142.837509167568
 21
24.41187950266171
 31
0
  0
LINE
  8
1
 62
7
 10
141.211163570839
 20
28.44238815542502
 30
0
 11
143.6860373049919
 21
25.9675144212721
 31
0
  0
LINE
  8
1
 62
7
 10
139.6555286522286
 20
27.59386001800117
 30
0
 11
140.5040567896525
 21
28.44238815542505
 31
0
  0
LINE
  8
1
 62
7
 10
145.4538042579583
 20
27.02817459305193
 30
0
 11
145.8427129876109
 21
27.41708332270453
 31
0
  0
LINE
  8
1
 62
7
 10
145.8427129876109
 20
27.41708332270453
 30
0
 11
142.6607324722714
 21
30.59906383804399
 31
0
  0
LINE
  8
1
 62
7
 10
142.6607324722714
 20
30.59906383804399
 30
0
 11
142.2718237426188
 21
30.2101551083914
 31
0
  0
LINE
  8
1
 62
7
 10
139.6201733131693
 20
27.55850467894186
 30
0
 11
142.8021538285088
 21
24.37652416360238
 31
0
  0
LINE
  8
1
 62
7
 10
142.8021538285088
 20
24.37652416360238
 30
0
 11
143.1910625581613
 21
24.76543289325495
 31
0
  0
LINE
  8
1
 62
7
 10
140.0090820428219
 20
27.94741340859443
 30
0
 11
139.6201733131693
 21
27.55850467894186
 31
0
  0
LINE
  8
1
 62
7
 10
140.846882153585
 20
5.592111096440249
 30
0
 11
139.7131439488902
 21
4.458372891745469
 31
0
  0
LINE
  8
1
 62
7
 10
137.3113482476523
 20
9.127645002372987
 30
0
 11
136.1776100429575
 21
7.993906797678207
 31
0
  0
LINE
  8
1
 62
7
 10
164.627126054773
 20
29.37235499762826
 30
0
 11
165.7608642594678
 21
30.50609320232306
 31
0
  0
LINE
  8
1
 62
7
 10
161.0915921488403
 20
32.907888903561
 30
0
 11
162.2253303535351
 21
34.0416271082558
 31
0
  0
LINE
  8
1
 62
7
 10
162.5516603825009
 20
29.86440875091945
 30
0
 11
167.1044240330572
 21
27.24279085812215
 31
0
  0
LINE
  8
1
 62
7
 10
162.5516603825009
 20
29.86440875091945
 30
0
 11
167.1044240330572
 21
27.24279085812215
 31
0
  0
LINE
  8
1
 62
7
 10
158.9620280093348
 20
35.3851868818445
 30
0
 11
161.5836459021322
 21
30.8324232312881
 31
0
  0
LINE
  8
1
 62
7
 10
158.9620280093348
 20
35.3851868818445
 30
0
 11
161.5836459021322
 21
30.8324232312881
 31
0
  0
LINE
  8
1
 62
7
 10
158.9620280093348
 20
35.3851868818445
 30
0
 11
161.5836459021322
 21
30.8324232312881
 31
0
  0
LINE
  8
1
 62
7
 10
157.6784086760532
 20
34.2800631883251
 30
0
 11
160.1491018574316
 21
30.05946639367257
 31
0
  0
LINE
  8
1
 62
7
 10
161.7787035448852
 20
28.42986470621888
 30
0
 11
165.9993003395371
 21
25.95917152484125
 31
0
  0
LINE
  8
1
 62
7
 10
161.7787035448852
 20
28.42986470621888
 30
0
 11
165.9993003395371
 21
25.95917152484125
 31
0
  0
LINE
  8
1
 62
7
 10
144.260065626372
 20
4.219936811676206
 30
0
 11
141.7893724449944
 21
8.44053360632806
 31
0
  0
LINE
  8
1
 62
7
 10
144.260065626372
 20
4.219936811676206
 30
0
 11
141.7893724449944
 21
8.44053360632806
 31
0
  0
LINE
  8
1
 62
7
 10
140.1597707575407
 20
10.07013529378175
 30
0
 11
135.9391739628882
 21
12.54082847516005
 31
0
  0
LINE
  8
1
 62
7
 10
140.1597707575407
 20
10.07013529378175
 30
0
 11
135.9391739628882
 21
12.54082847516005
 31
0
  0
LINE
  8
1
 62
7
 10
142.9764462930911
 20
3.114813118156079
 30
0
 11
140.3548284002938
 21
7.667576768712379
 31
0
  0
LINE
  8
1
 62
7
 10
139.3868139199252
 20
8.635591249081031
 30
0
 11
134.8340502693688
 21
11.25720914187845
 31
0
  0
LINE
  8
1
 62
7
 10
139.3868139199252
 20
8.635591249081031
 30
0
 11
134.8340502693688
 21
11.25720914187845
 31
0
  0
LINE
  8
1
 62
7
 10
139.0544878882194
 20
8.537332265024517
 30
0
 11
140.2565694162365
 21
7.335250737007371
 31
0
  0
LINE
  8
1
 62
7
 10
139.5644980571698
 20
6.643179377940598
 30
0
 11
140.2565694162365
 21
7.335250737007371
 31
0
  0
LINE
  8
1
 62
7
 10
138.3624165291526
 20
7.845260905957744
 30
0
 11
139.0544878882194
 21
8.537332265024517
 31
0
  0
LINE
  8
1
 62
7
 10
161.6819048861889
 20
31.16474926299401
 30
0
 11
162.883986414206
 21
29.96266773497688
 31
0
  0
LINE
  8
1
 62
7
 10
163.5760577732727
 20
30.65473909404348
 30
0
 11
162.883986414206
 21
29.96266773497688
 31
0
  0
LINE
  8
1
 62
7
 10
162.3739762452555
 20
31.85682062206062
 30
0
 11
161.6819048861889
 21
31.16474926299401
 31
0
  0
LINE
  8
1
 62
7
 10
155.4003212025538
 20
4.91942101204792
 30
0
 11
153.7976642759589
 21
6.522077938642852
 31
0
  0
LINE
  8
1
 62
7
 10
146.5381530998717
 20
33.58057898795338
 30
0
 11
148.1408100264665
 21
31.97792206135855
 31
0
  0
LINE
  8
1
 62
7
 10
150.0194896829069
 20
10.30025253169485
 30
0
 11
148.7581024704327
 21
11.56163974416909
 31
0
  0
LINE
  8
1
 62
7
 10
159.9189846195186
 20
20.19974746830648
 30
0
 11
160.1616253066378
 21
19.95710678118725
 31
0
  0
LINE
  8
1
 62
7
 10
151.9189846195185
 20
28.19974746830654
 30
0
 11
153.1803718319927
 21
26.93836025583234
 31
0
  0
LINE
  8
1
 62
7
 10
142.0194896829069
 20
18.30025253169489
 30
0
 11
141.7768489957876
 21
18.54289321881417
 31
0
  0
LINE
  8
1
 62
7
 10
166.87913972791
 20
22.43198051534016
 30
0
 11
165.1113727749436
 21
20.66421356237377
 31
0
  0
LINE
  8
1
 62
7
 10
166.87913972791
 20
22.43198051534016
 30
0
 11
169.5625540072313
 21
19.7485662360189
 31
0
  0
LINE
  8
1
 62
7
 10
147.7872566358733
 20
3.340097423303391
 30
0
 11
150.4706709151944
 21
0.6566831439822636
 31
0
  0
LINE
  8
1
 62
7
 10
162.990052431384
 20
22.78553390593343
 30
0
 11
154.5047710571454
 21
31.27081528017199
 31
0
  0
LINE
  8
1
 62
7
 10
161.5758388690109
 20
19.95710678118725
 30
0
 11
162.990052431384
 21
21.37132034356033
 31
0
  0
LINE
  8
1
 62
7
 10
150.2621303700262
 20
10.05761184457559
 30
0
 11
150.0194896829069
 21
10.30025253169485
 31
0
  0
LINE
  8
1
 62
7
 10
147.43370324528
 20
7.229184719829405
 30
0
 11
149.5550235888396
 21
5.107864376269774
 31
0
  0
LINE
  8
1
 62
7
 10
148.8479168076531
 20
7.229184719829405
 30
0
 11
150.2621303700262
 21
8.643398282202512
 31
0
  0
LINE
  8
1
 62
7
 10
149.5550235888396
 20
5.107864376269774
 30
0
 11
150.9692371512127
 21
6.522077938642852
 31
0
  0
LINE
  8
1
 62
7
 10
138.2413150898549
 20
22.07842712474691
 30
0
 11
137.5342083086683
 21
22.78553390593345
 31
0
  0
LINE
  8
1
 62
7
 10
136.8271015274818
 20
17.83578643762762
 30
0
 11
138.2413150898549
 21
19.25000000000072
 31
0
  0
LINE
  8
1
 62
7
 10
138.9484218710414
 20
15.71446609406799
 30
0
 11
147.43370324528
 21
7.229184719829405
 31
0
  0
LINE
  8
1
 62
7
 10
140.3626354334145
 20
18.54289321881417
 30
0
 11
138.9484218710414
 21
17.12867965644107
 31
0
  0
LINE
  8
1
 62
7
 10
151.6763439323992
 20
29.85660171779891
 30
0
 11
153.0905574947724
 21
31.270815280172
 31
0
  0
LINE
  8
1
 62
7
 10
154.5047710571454
 20
31.27081528017199
 30
0
 11
152.3834507135858
 21
33.39213562373164
 31
0
  0
LINE
  8
1
 62
7
 10
151.6763439323992
 20
28.4423881554258
 30
0
 11
151.9189846195185
 21
28.19974746830654
 31
0
  0
LINE
  8
1
 62
7
 10
163.6971592125705
 20
19.2500000000007
 30
0
 11
165.1113727749436
 21
20.66421356237377
 31
0
  0
LINE
  8
1
 62
7
 10
165.1113727749436
 20
20.66421356237377
 30
0
 11
162.990052431384
 21
22.78553390593343
 31
0
  0
LINE
  8
1
 62
7
 10
152.3834507135858
 20
33.39213562373164
 30
0
 11
150.9692371512127
 21
31.97792206135855
 31
0
  0
LINE
  8
1
 62
7
 10
156.6627974394274
 20
3.656944775174395
 30
0
 11
155.4003212025538
 21
4.91942101204792
 31
0
  0
LINE
  8
1
 62
7
 10
145.2756768629985
 20
34.84305522482656
 30
0
 11
146.5381530998717
 21
33.58057898795338
 31
0
  0
LINE
  8
1
 62
7
 10
147.7872566358733
 20
9.704058453982313
 30
0
 11
147.7430624620491
 21
9.74825262780648
 31
0
  0
LINE
  8
1
 62
7
 10
147.7430624620491
 20
9.74825262780648
 30
0
 11
141.4674897790185
 21
16.0238253108371
 31
0
  0
LINE
  8
1
 62
7
 10
141.4674897790185
 20
16.0238253108371
 30
0
 11
141.4232956051943
 21
16.06801948466125
 31
0
  0
LINE
  8
1
 62
7
 10
141.4232956051943
 20
16.06801948466125
 30
0
 11
141.0343868755416
 21
15.67911075500852
 31
0
  0
LINE
  8
1
 62
7
 10
141.0343868755416
 20
15.67911075500852
 30
0
 11
147.3983479062205
 21
9.315149724329601
 31
0
  0
LINE
  8
1
 62
7
 10
147.3983479062205
 20
9.315149724329601
 30
0
 11
147.7872566358733
 21
9.704058453982313
 31
0
  0
LINE
  8
1
 62
7
 10
160.4709845234069
 20
22.47617468916431
 30
0
 11
160.5151786972311
 21
22.43198051534016
 31
0
  0
LINE
  8
1
 62
7
 10
154.1954118403763
 20
28.75174737219491
 30
0
 11
160.4709845234069
 21
22.47617468916431
 31
0
  0
LINE
  8
1
 62
7
 10
154.1512176665522
 20
28.79594154601908
 30
0
 11
154.1954118403763
 21
28.75174737219491
 31
0
  0
LINE
  8
1
 62
7
 10
154.5401263962048
 20
29.18485027567169
 30
0
 11
154.1512176665522
 21
28.79594154601908
 31
0
  0
LINE
  8
1
 62
7
 10
160.9040874268837
 20
22.82088924499276
 30
0
 11
154.5401263962048
 21
29.18485027567169
 31
0
  0
LINE
  8
1
 62
7
 10
160.5151786972311
 20
22.43198051534016
 30
0
 11
160.9040874268837
 21
22.82088924499276
 31
0
  0
LINE
  8
1
 62
7
 10
152.3834507135858
 20
33.39213562373164
 30
0
 11
154.1512176665522
 21
35.15990257669801
 31
0
  0
LINE
  8
1
 62
7
 10
136.8271015274818
 20
17.83578643762762
 30
0
 11
138.9484218710414
 21
15.71446609406799
 31
0
  0
LINE
  8
1
 62
7
 10
149.5550235888396
 20
5.107864376269774
 30
0
 11
147.7872566358733
 21
3.340097423303391
 31
0
  0
LINE
  8
1
 62
7
 10
132.3759202951942
 20
18.75143376398246
 30
0
 11
135.0593345745154
 21
16.06801948466126
 31
0
  0
LINE
  8
1
 62
7
 10
151.4678033872311
 20
37.84331685601908
 30
0
 11
154.1512176665522
 21
35.15990257669801
 31
0
  0
LINE
  8
1
 62
7
 10
135.0593345745154
 20
16.06801948466126
 30
0
 11
136.8271015274818
 21
17.83578643762762
 31
0
  0
LINE
  8
1
 62
7
 10
143.2808768953811
 20
17.03886531922068
 30
0
 11
142.0194896829069
 21
18.30025253169489
 31
0
  0
LINE
  8
1
 62
7
 10
158.6575974070443
 20
21.46113468078072
 30
0
 11
159.9189846195186
 21
20.19974746830648
 31
0
  0
LINE
  8
1
 62
7
 10
137.5342083086683
 20
25.61396103067965
 30
0
 11
136.9847798557628
 21
26.16338948358511
 31
0
  0
LINE
  8
1
 62
7
 10
143.3119161934389
 20
33.97838876963992
 30
0
 11
141.8367009594551
 21
35.4536040036238
 31
0
  0
LINE
  8
1
 62
7
 10
144.0558476676283
 20
33.23445729545057
 30
0
 11
143.3119161934389
 21
33.97838876963992
 31
0
  0
LINE
  8
1
 62
7
 10
164.4042659937571
 20
12.88603896932176
 30
0
 11
167.1728411548359
 21
10.11746380824296
 31
0
  0
LINE
  8
1
 62
7
 10
158.6265581089866
 20
4.521611230361358
 30
0
 11
160.1017733429705
 21
3.046395996377498
 31
0
  0
LINE
  8
1
 62
7
 10
157.8826266347972
 20
5.265542704550725
 30
0
 11
158.6265581089866
 21
4.521611230361358
 31
0
  0
LINE
  8
1
 62
7
 10
164.4042659937571
 20
15.71446609406796
 30
0
 11
163.6971592125705
 21
16.42157287525451
 31
0
  0
LINE
  8
1
 62
7
 10
136.9847798557628
 20
26.16338948358511
 30
0
 11
134.7656331475896
 21
28.38253619175835
 31
0
  0
LINE
  8
1
 62
3
 10
140.6163408024847
 20
16.48606555771815
 30
0
 11
148.3945153955367
 21
8.707890964666134
 31
0
  0
LINE
  8
1
 62
3
 10
161.5113461865471
 20
21.82472175567655
 30
0
 11
153.7331715934951
 21
29.60289634872858
 31
0
  0
LINE
  8
1
 62
3
 10
149.4631948637886
 20
36.46414211542608
 30
0
 11
149.861066938356
 21
31.91644349331665
 31
0
  0
LINE
  8
1
 62
3
 10
163.6356806445287
 20
18.14182978714395
 30
0
 11
168.1833792666381
 21
17.74395771257662
 31
0
  0
LINE
  8
1
 62
3
 10
138.3027936578966
 20
20.35817021285732
 30
0
 11
133.7550950357872
 21
20.75604228742465
 31
0
  0
LINE
  8
1
 62
3
 10
152.4752794386366
 20
2.035857884575194
 30
0
 11
152.0774073640693
 21
6.583556506684616
 31
0
  0
LINE
  8
1
 62
7
 10
119.9389922627905
 20
75.439313551808
 30
0
 11
79.93899226279051
 21
75.439313551808
 31
0
  0
LINE
  8
1
 62
7
 10
119.9389922627905
 20
70.439313551808
 30
0
 11
119.9389922627905
 21
75.439313551808
 31
0
  0
LINE
  8
1
 62
7
 10
79.93899226279051
 20
70.439313551808
 30
0
 11
119.9389922627905
 21
70.439313551808
 31
0
  0
LINE
  8
1
 62
7
 10
79.93899226279051
 20
75.439313551808
 30
0
 11
79.93899226279051
 21
70.439313551808
 31
0
  0
LINE
  8
1
 62
3
 10
137.4692371512127
 20
32.8500000000007
 30
0
 11
137.4692371512127
 21
37.65000000000071
 31
0
  0
LINE
  8
1
 62
3
 10
134.8692371512128
 20
9.250000000000696
 30
0
 11
130.0692371512127
 21
9.250000000000696
 31
0
  0
LINE
  8
1
 62
3
 10
138.6292371512127
 20
4.750000000000696
 30
0
 11
134.3092371512128
 21
4.750000000000696
 31
0
  0
LINE
  8
1
 62
3
 10
169.7192371512127
 20
8.850000000000691
 30
0
 11
169.7192371512127
 21
13.65000000000071
 31
0
  0
LINE
  8
1
 62
3
 10
155.3692371512128
 20
40.2500000000007
 30
0
 11
150.5692371512127
 21
40.2500000000007
 31
0
  0
LINE
  8
1
 62
3
 10
152.9692371512127
 20
37.8500000000007
 30
0
 11
152.9692371512127
 21
42.65000000000071
 31
0
  0
LINE
  8
1
 62
3
 10
172.1192371512128
 20
11.2500000000007
 30
0
 11
167.7609017500546
 21
11.2500000000007
 31
0
  0
LINE
  8
1
 62
3
 10
132.4692371512127
 20
6.850000000000691
 30
0
 11
132.4692371512127
 21
11.65000000000071
 31
0
  0
LINE
  8
1
 62
3
 10
170.9692371512127
 20
17.0900000000007
 30
0
 11
170.9692371512127
 21
21.4100000000007
 31
0
  0
LINE
  8
1
 62
3
 10
136.4692371512127
 20
2.5900000000007
 30
0
 11
136.4692371512127
 21
6.910000000000693
 31
0
  0
LINE
  8
1
 62
3
 10
150.9692371512127
 20
-9.174463635144747
 30
0
 11
150.9692371512127
 21
47.67446363514617
 31
0
  0
LINE
  8
1
 62
3
 10
148.1292371512127
 20
38.7500000000007
 30
0
 11
143.8092371512128
 21
38.7500000000007
 31
0
  0
LINE
  8
1
 62
3
 10
139.8692371512128
 20
35.2500000000007
 30
0
 11
135.0692371512127
 21
35.2500000000007
 31
0
  0
LINE
  8
1
 62
7
 10
43.02406147852217
 20
10.10233088060772
 30
0
 11
38.97406147852199
 21
10.10233088060767
 31
0
  0
LINE
  8
1
 62
7
 10
38.97406147852199
 20
13.76622025582094
 30
0
 11
43.02406147852186
 21
13.76622025582094
 31
0
  0
LINE
  8
1
 62
7
 10
38.97406147852199
 20
27.97634467567801
 30
0
 11
43.02406147852186
 21
27.97634467567801
 31
0
  0
LINE
  8
1
 62
7
 10
49.37406147852201
 20
26.97687540993703
 30
0
 11
49.37406147852201
 21
25.3946248022983
 31
0
  0
LINE
  8
1
 62
7
 10
49.37406147852201
 20
27.16229072893626
 30
0
 11
49.37406147852201
 21
26.97687540993703
 31
0
  0
LINE
  8
1
 62
7
 10
37.97406147852199
 20
34.5959914234257
 30
0
 11
38.97406147852199
 21
34.5959914234257
 31
0
  0
LINE
  8
1
 62
7
 10
37.97406147852199
 20
26.93554699223593
 30
0
 11
38.97406147852199
 21
26.93554699223593
 31
0
  0
LINE
  8
1
 62
7
 10
37.97406147852199
 20
34.5959914234257
 30
0
 11
37.97406147852199
 21
26.93554699223593
 31
0
  0
LINE
  8
1
 62
7
 10
38.97406147852199
 20
34.5959914234257
 30
0
 11
38.97406147852199
 21
37.84999999999998
 31
0
  0
LINE
  8
1
 62
7
 10
33.574061478522
 20
30.01784117364369
 30
0
 11
35.97406147852199
 21
30.01784117364369
 31
0
  0
LINE
  8
1
 62
7
 10
33.574061478522
 20
32.31597450300061
 30
0
 11
33.574061478522
 21
30.01784117364369
 31
0
  0
LINE
  8
1
 62
7
 10
35.97406147852199
 20
32.31597450300061
 30
0
 11
35.974061478522
 21
37.84999999999998
 31
0
  0
LINE
  8
1
 62
7
 10
35.97406147852199
 20
32.31597450300061
 30
0
 11
33.574061478522
 21
32.31597450300061
 31
0
  0
LINE
  8
1
 62
7
 10
48.374061478522
 20
13.88222058493542
 30
0
 11
48.37406147852201
 21
13.46089614121982
 31
0
  0
LINE
  8
1
 62
7
 10
49.37406147852201
 20
13.10537519770296
 30
0
 11
49.37406147852201
 21
12.95216630907918
 31
0
  0
LINE
  8
1
 62
7
 10
48.374061478522
 20
13.88222058493542
 30
0
 11
49.37406147852201
 21
13.10537519770296
 31
0
  0
LINE
  8
1
 62
7
 10
48.374061478522
 20
13.88222058493542
 30
0
 11
43.02406147852186
 21
13.88222058493542
 31
0
  0
LINE
  8
1
 62
7
 10
43.02406147852217
 20
14.18754469953638
 30
0
 11
43.02406147852186
 21
13.88222058493542
 31
0
  0
LINE
  8
1
 62
7
 10
49.37406147852201
 20
27.31549961756002
 30
0
 11
49.37406147852201
 21
27.16229072893626
 31
0
  0
LINE
  8
1
 62
7
 10
43.02406147852217
 20
28.39766911939387
 30
0
 11
43.02406147852186
 21
28.09234500479246
 31
0
  0
LINE
  8
1
 62
7
 10
48.37406147852201
 20
28.09234500479246
 30
0
 11
48.374061478522
 21
27.67102056107689
 31
0
  0
LINE
  8
1
 62
7
 10
48.37406147852201
 20
28.09234500479246
 30
0
 11
49.37406147852201
 21
27.31549961756002
 31
0
  0
LINE
  8
1
 62
7
 10
43.02406147852217
 20
28.39766911939387
 30
0
 11
43.02406147852186
 21
28.09234500479246
 31
0
  0
LINE
  8
1
 62
7
 10
43.02406147852186
 20
13.88222058493542
 30
0
 11
43.02406147852186
 21
13.76622025582094
 31
0
  0
LINE
  8
1
 62
7
 10
43.02406147852186
 20
28.09234500479246
 30
0
 11
43.02406147852186
 21
27.97634467567801
 31
0
  0
LINE
  8
1
 62
7
 10
43.02406147852186
 20
13.76622025582094
 30
0
 11
43.02406147852186
 21
13.46089614121982
 31
0
  0
LINE
  8
1
 62
7
 10
43.02406147852186
 20
24.31245530046473
 30
0
 11
42.97406147852199
 21
24.31245530046473
 31
0
  0
LINE
  8
1
 62
7
 10
43.02406147852186
 20
24.61777941506583
 30
0
 11
43.02406147852186
 21
24.31245530046473
 31
0
  0
LINE
  8
1
 62
7
 10
48.374061478522
 20
27.67102056107689
 30
0
 11
48.37406147852201
 21
24.61777941506583
 31
0
  0
LINE
  8
1
 62
7
 10
48.37406147852201
 20
24.61777941506583
 30
0
 11
43.02406147852186
 21
24.61777941506583
 31
0
  0
LINE
  8
1
 62
7
 10
42.97406147852199
 20
24.61777941506583
 30
0
 11
42.97406147852199
 21
24.31245530046473
 31
0
  0
LINE
  8
1
 62
7
 10
49.37406147852201
 20
25.3946248022983
 30
0
 11
48.37406147852201
 21
24.61777941506583
 31
0
  0
LINE
  8
1
 62
7
 10
49.37406147852201
 20
27.16229072893626
 30
0
 11
49.37406147852201
 21
26.97687540993703
 31
0
  0
LINE
  8
1
 62
7
 10
48.374061478522
 20
27.67102056107689
 30
0
 11
49.37406147852201
 21
27.16229072893626
 31
0
  0
LINE
  8
1
 62
7
 10
43.02406147852186
 20
27.67102056107689
 30
0
 11
48.374061478522
 21
27.67102056107689
 31
0
  0
LINE
  8
1
 62
7
 10
43.02406147852186
 20
27.97634467567801
 30
0
 11
43.02406147852186
 21
27.67102056107689
 31
0
  0
LINE
  8
1
 62
7
 10
35.97406147852199
 20
17.1328166183029
 30
0
 11
35.97406147852199
 21
30.01784117364369
 31
0
  0
LINE
  8
1
 62
7
 10
48.37406147852201
 20
13.46089614121982
 30
0
 11
48.37406147852201
 21
12.95216630907918
 31
0
  0
LINE
  8
1
 62
7
 10
43.02406147852186
 20
10.40765499520878
 30
0
 11
43.02406147852217
 21
10.10233088060772
 31
0
  0
LINE
  8
1
 62
7
 10
38.97406147852199
 20
26.93554699223593
 30
0
 11
38.97406147852199
 21
27.24999999999999
 31
0
  0
LINE
  8
1
 62
7
 10
35.97406147852199
 20
3.123311530715625
 30
0
 11
35.97406147852199
 21
17.1328166183029
 31
0
  0
LINE
  8
1
 62
7
 10
35.97406147852199
 20
3.123311530715625
 30
0
 11
35.97406147852199
 21
5.750000000000185
 31
0
  0
LINE
  8
1
 62
7
 10
35.97406147852199
 20
3.123311530715625
 30
0
 11
38.97406147852199
 21
3.123311530715625
 31
0
  0
LINE
  8
1
 62
7
 10
38.97406147852199
 20
17.1328166183029
 30
0
 11
38.97406147852199
 21
22.09999999999998
 31
0
  0
LINE
  8
1
 62
7
 10
35.97406147852199
 20
17.1328166183029
 30
0
 11
38.97406147852199
 21
17.1328166183029
 31
0
  0
LINE
  8
1
 62
7
 10
34.21574445727366
 20
6.786544707422991
 30
0
 11
35.21574445727366
 21
6.786544707422991
 31
0
  0
LINE
  8
1
 62
7
 10
34.21574445727366
 20
7.666507579415267
 30
0
 11
35.21574445727366
 21
7.666507579415267
 31
0
  0
LINE
  8
1
 62
7
 10
33.27406147852196
 20
11.00092574869957
 30
0
 11
33.47406147852199
 21
9.286640034413601
 31
0
  0
LINE
  8
1
 62
7
 10
33.47406147852199
 20
9.286640034413601
 30
0
 11
33.47406147852199
 21
5.750219449517946
 31
0
  0
LINE
  8
1
 62
7
 10
31.67617374032758
 20
5.607007100241361
 30
0
 11
33.47406147852199
 21
5.607007100241361
 31
0
  0
LINE
  8
1
 62
7
 10
31.83297566494183
 20
6.789902566393295
 30
0
 11
33.47406147852199
 21
6.789902566393295
 31
0
  0
LINE
  8
1
 62
7
 10
33.47406147852199
 20
6.64669021711671
 30
0
 11
33.47406147852199
 21
3.110269632221055
 31
0
  0
LINE
  8
1
 62
7
 10
33.47406147852199
 20
3.110269632221055
 30
0
 11
33.27406147852196
 21
1.395983917935084
 31
0
  0
LINE
  8
1
 62
7
 10
33.27406147852196
 20
1.395983917935084
 30
0
 11
31.27406147852196
 21
1.395983917935084
 31
0
  0
LINE
  8
1
 62
7
 10
31.27406147852196
 20
11.05850501602048
 30
0
 11
33.27406147852196
 21
11.05850501602048
 31
0
  0
LINE
  8
1
 62
7
 10
31.27406147852196
 20
4.698454833317328
 30
0
 11
31.27406147852196
 21
1.395983917935084
 31
0
  0
LINE
  8
1
 62
7
 10
31.27406147852196
 20
11.05850501602048
 30
0
 11
31.27406147852192
 21
8.698454833317328
 31
0
  0
LINE
  8
1
 62
3
 10
47.01906147852198
 20
19.24999999999999
 30
0
 11
45.01906147852198
 21
19.24999999999999
 31
0
  0
LINE
  8
1
 62
7
 10
38.97406147852199
 20
22.09999999999998
 30
0
 11
38.97406147852199
 21
26.93554699223593
 31
0
  0
LINE
  8
1
 62
7
 10
35.97406147852199
 20
0.6499999999999631
 30
0
 11
35.97406147852199
 21
3.123311530715625
 31
0
  0
LINE
  8
1
 62
7
 10
38.97406147852199
 20
27.24999999999999
 30
0
 11
38.97406147852199
 21
34.5959914234257
 31
0
  0
LINE
  8
1
 62
7
 10
-0.7259385214780103
 20
37.84999999999998
 30
0
 11
38.97406147852199
 21
37.84999999999998
 31
0
  0
LINE
  8
1
 62
7
 10
35.974061478522
 20
37.84999999999998
 30
0
 11
38.97406147852199
 21
37.84999999999998
 31
0
  0
LINE
  8
1
 62
7
 10
35.97406147852199
 20
0.6499999999999631
 30
0
 11
35.97406147852199
 21
3.123311530715625
 31
0
  0
LINE
  8
1
 62
3
 10
34.774061478524
 20
6.198454833317328
 30
0
 11
31.27406147852196
 21
6.198454833317328
 31
0
  0
LINE
  8
1
 62
7
 10
43.02406147852186
 20
13.46089614121982
 30
0
 11
48.37406147852201
 21
13.46089614121982
 31
0
  0
LINE
  8
1
 62
7
 10
49.37406147852201
 20
12.95216630907918
 30
0
 11
49.37406147852201
 21
11.18450038244119
 31
0
  0
LINE
  8
1
 62
7
 10
48.37406147852201
 20
10.40765499520878
 30
0
 11
43.02406147852186
 21
10.40765499520878
 31
0
  0
LINE
  8
1
 62
7
 10
38.97406147852199
 20
16.39999999999996
 30
0
 11
38.97406147852199
 21
17.1328166183029
 31
0
  0
LINE
  8
1
 62
7
 10
49.37406147852201
 20
12.95216630907918
 30
0
 11
48.37406147852201
 21
13.46089614121982
 31
0
  0
LINE
  8
1
 62
7
 10
48.37406147852201
 20
10.40765499520878
 30
0
 11
49.37406147852201
 21
11.18450038244119
 31
0
  0
LINE
  8
1
 62
7
 10
48.37406147852201
 20
12.95216630907918
 30
0
 11
48.37406147852201
 21
10.40765499520878
 31
0
  0
LINE
  8
1
 62
3
 10
46.82406147852181
 20
19.24999999999999
 30
0
 11
36
 21
19.24999999999999
 31
0
  0
LINE
  8
1
 62
3
 10
36
 20
19.24999999999999
 30
0
 11
47.01906147852198
 21
19.24999999999999
 31
0
  0
LINE
  8
1
 62
7
 10
33.27406147852196
 20
1.895983917935084
 30
0
 11
31.27406147852196
 21
1.895983917935084
 31
0
  0
LINE
  8
1
 62
3
 10
44
 20
19.24999999999999
 30
0
 11
-35.2901692291601
 21
19.24999999999999
 31
0
  0
LINE
  8
1
 62
7
 10
-168.3382818429941
 20
19.24999999999999
 30
0
 11
-168.7547237136343
 21
19.24999999999999
 31
0
  0
LINE
  8
1
 62
3
 10
-168.3382818429941
 20
19.24999999999999
 30
0
 11
-168.7547237136343
 21
19.24999999999999
 31
0
  0
LINE
  8
1
 62
7
 10
-168.7547237136343
 20
19.24999999999999
 30
0
 11
-169.1397123330592
 21
19.24999999999999
 31
0
  0
LINE
  8
1
 62
7
 10
-167.7439524638808
 20
19.24999999999999
 30
0
 11
-168.3382818429941
 21
19.24999999999999
 31
0
  0
LINE
  8
1
 62
3
 10
-166.0747074251832
 20
19.24999999999999
 30
0
 11
-168.3382818429941
 21
19.24999999999999
 31
0
  0
LINE
  8
1
 62
7
 10
-168.5361460457247
 20
19.24999999999999
 30
0
 11
-168.7547237136343
 21
19.24999999999999
 31
0
  0
LINE
  8
1
 62
7
 10
6.979866433946498
 20
35.53617871333995
 30
0
 11
6.979866433946498
 21
2.963821286659939
 31
0
  0
LINE
  8
1
 62
7
 10
6.979866433946498
 20
2.963821286659939
 30
0
 11
26.9798664339465
 21
2.963821286659936
 31
0
  0
LINE
  8
1
 62
7
 10
26.9798664339465
 20
2.963821286659936
 30
0
 11
26.9798664339465
 21
35.53617871333995
 31
0
  0
LINE
  8
1
 62
3
 10
-149.3760766021073
 20
-0.7500000000001101
 30
0
 11
-145.3418790494534
 21
-0.7500000000001101
 31
0
  0
LINE
  8
1
 62
3
 10
-132.4819700388784
 20
29.25
 30
0
 11
-128.3418790494534
 21
29.25
 31
0
  0
LINE
  8
1
 62
3
 10
-129.9418790494535
 20
31.66141786481785
 30
0
 11
-129.9418790494535
 21
26.62801053838098
 31
0
  0
LINE
  8
1
 62
3
 10
-163.9418790494535
 20
31.66141786481785
 30
0
 11
-163.9418790494535
 21
26.72298048793596
 31
0
  0
LINE
  8
1
 62
3
 10
-166.3482540503385
 20
29.25
 30
0
 11
-162.3418790494534
 21
29.25
 31
0
  0
LINE
  8
1
 62
3
 10
-146.9418790494535
 20
46.91870091117238
 30
0
 11
-146.9418790494535
 21
-9.045659158934651
 31
0
  0
LINE
  8
1
 62
3
 10
-140.2627742089385
 20
27.25
 30
0
 11
-143.9418790494535
 21
27.25
 31
0
  0
LINE
  8
1
 62
3
 10
-118.2701536566003
 20
19.25
 30
0
 11
-175.0635310048234
 21
19.25
 31
0
  0
LINE
  8
1
 62
3
 10
-143.9418790494535
 20
27.25
 30
0
 11
-153.7423619314245
 21
27.25
 31
0
  0
LINE
  8
1
 62
7
 10
-148.6001914446315
 20
29.75
 30
0
 11
-145.2835666542753
 21
29.75
 31
0
  0
LINE
  8
1
 62
3
 10
-137.5757210399765
 20
35.25
 30
0
 11
-129.6651650408364
 21
35.25
 31
0
  0
LINE
  8
1
 62
3
 10
-133.4418790494535
 20
38.90814565739493
 30
0
 11
-133.4418790494535
 21
31.46651436954494
 31
0
  0
LINE
  8
1
 62
3
 10
-136.8850129340865
 20
4.74999999999989
 30
0
 11
-128.2566775877465
 21
4.74999999999989
 31
0
  0
LINE
  8
1
 62
3
 10
-132.4418790494535
 20
9.095332244554918
 30
0
 11
-132.4418790494535
 21
0.8806842093349587
 31
0
  0
LINE
  8
1
 62
3
 10
-166.9418790494535
 20
23.26814386187493
 30
0
 11
-166.9418790494535
 21
15.26301992848494
 31
0
  0
LINE
  8
1
 62
7
 10
-132.4359966965123
 20
35.54999999999995
 30
0
 11
-132.0418790494534
 21
35.54999999999995
 31
0
  0
LINE
  8
1
 62
7
 10
-132.4359966965123
 20
34.94999999999982
 30
0
 11
-132.0418790494534
 21
34.94999999999982
 31
0
  0
LINE
  8
1
 62
7
 10
-132.4418790494535
 20
35.54999999999995
 30
0
 11
-132.4359966965123
 21
35.54999999999995
 31
0
  0
LINE
  8
1
 62
7
 10
-132.4418790494535
 20
34.94999999999982
 30
0
 11
-132.4359966965123
 21
34.94999999999982
 31
0
  0
LINE
  8
1
 62
7
 10
-133.1418790494533
 20
34.25
 30
0
 11
-133.1418790494533
 21
33.84999999999991
 31
0
  0
LINE
  8
1
 62
7
 10
-133.6418790494533
 20
36.75
 30
0
 11
-133.2418790494534
 21
36.75
 31
0
  0
LINE
  8
1
 62
7
 10
-133.6418790494533
 20
33.75
 30
0
 11
-133.2418790494534
 21
33.75
 31
0
  0
LINE
  8
1
 62
7
 10
-131.9418790494535
 20
35.44999999999982
 30
0
 11
-131.9418790494535
 21
35.04999999999995
 31
0
  0
LINE
  8
1
 62
7
 10
-134.9418790494535
 20
35.44999999999982
 30
0
 11
-134.9418790494535
 21
35.04999999999995
 31
0
  0
LINE
  8
1
 62
7
 10
-134.8418790494534
 20
35.54999999999995
 30
0
 11
-134.4418790494535
 21
35.54999999999995
 31
0
  0
LINE
  8
1
 62
7
 10
-134.8418790494534
 20
34.94999999999982
 30
0
 11
-134.4418790494535
 21
34.94999999999982
 31
0
  0
LINE
  8
1
 62
7
 10
-133.7418790494534
 20
33.84999999999991
 30
0
 11
-133.7418790494534
 21
34.25
 31
0
  0
LINE
  8
1
 62
7
 10
-133.7418790494534
 20
36.64999999999986
 30
0
 11
-133.7418790494534
 21
36.25
 31
0
  0
LINE
  8
1
 62
7
 10
-133.1418790494533
 20
36.64999999999986
 30
0
 11
-133.1418790494533
 21
36.25
 31
0
  0
LINE
  8
1
 62
7
 10
-131.4359966965123
 20
5.049999999999951
 30
0
 11
-131.0418790494534
 21
5.049999999999951
 31
0
  0
LINE
  8
1
 62
7
 10
-131.4359966965123
 20
4.449999999999928
 30
0
 11
-131.0418790494534
 21
4.449999999999928
 31
0
  0
LINE
  8
1
 62
7
 10
-131.4418790494535
 20
5.049999999999951
 30
0
 11
-131.4359966965123
 21
5.049999999999951
 31
0
  0
LINE
  8
1
 62
7
 10
-131.4418790494535
 20
4.449999999999928
 30
0
 11
-131.4359966965123
 21
4.449999999999928
 31
0
  0
LINE
  8
1
 62
7
 10
-132.1418790494533
 20
3.74999999999989
 30
0
 11
-132.1418790494533
 21
3.349999999999909
 31
0
  0
LINE
  8
1
 62
7
 10
-132.6418790494533
 20
6.249999999999893
 30
0
 11
-132.2418790494534
 21
6.249999999999893
 31
0
  0
LINE
  8
1
 62
7
 10
-132.6418790494533
 20
3.24999999999989
 30
0
 11
-132.2418790494534
 21
3.24999999999989
 31
0
  0
LINE
  8
1
 62
7
 10
-130.9418790494535
 20
4.949999999999928
 30
0
 11
-130.9418790494535
 21
4.549999999999951
 31
0
  0
LINE
  8
1
 62
7
 10
-133.9418790494535
 20
4.949999999999928
 30
0
 11
-133.9418790494535
 21
4.549999999999951
 31
0
  0
LINE
  8
1
 62
7
 10
-133.8418790494534
 20
5.049999999999951
 30
0
 11
-133.4418790494535
 21
5.049999999999951
 31
0
  0
LINE
  8
1
 62
7
 10
-133.8418790494534
 20
4.449999999999928
 30
0
 11
-133.4418790494535
 21
4.449999999999928
 31
0
  0
LINE
  8
1
 62
7
 10
-132.7418790494534
 20
3.349999999999909
 30
0
 11
-132.7418790494534
 21
3.74999999999989
 31
0
  0
LINE
  8
1
 62
7
 10
-132.7418790494534
 20
6.149999999999977
 30
0
 11
-132.7418790494534
 21
5.74999999999989
 31
0
  0
LINE
  8
1
 62
7
 10
-132.1418790494533
 20
6.149999999999977
 30
0
 11
-132.1418790494533
 21
5.74999999999989
 31
0
  0
LINE
  8
1
 62
7
 10
-165.9359966965123
 20
19.54999999999995
 30
0
 11
-165.5418790494534
 21
19.54999999999995
 31
0
  0
LINE
  8
1
 62
7
 10
-165.9359966965123
 20
18.94999999999982
 30
0
 11
-165.5418790494534
 21
18.94999999999982
 31
0
  0
LINE
  8
1
 62
7
 10
-165.9418790494535
 20
19.54999999999995
 30
0
 11
-165.9359966965123
 21
19.54999999999995
 31
0
  0
LINE
  8
1
 62
7
 10
-165.9418790494535
 20
18.94999999999982
 30
0
 11
-165.9359966965123
 21
18.94999999999982
 31
0
  0
LINE
  8
1
 62
7
 10
-166.6418790494533
 20
18.25
 30
0
 11
-166.6418790494533
 21
17.84999999999991
 31
0
  0
LINE
  8
1
 62
7
 10
-167.1418790494533
 20
20.75
 30
0
 11
-166.7418790494535
 21
20.75
 31
0
  0
LINE
  8
1
 62
7
 10
-167.1418790494533
 20
17.75
 30
0
 11
-166.7418790494535
 21
17.75
 31
0
  0
LINE
  8
1
 62
7
 10
-165.4418790494535
 20
19.44999999999982
 30
0
 11
-165.4418790494535
 21
19.04999999999995
 31
0
  0
LINE
  8
1
 62
7
 10
-168.4418790494535
 20
19.44999999999982
 30
0
 11
-168.4418790494535
 21
19.04999999999995
 31
0
  0
LINE
  8
1
 62
7
 10
-168.3418790494534
 20
19.54999999999995
 30
0
 11
-167.9418790494535
 21
19.54999999999995
 31
0
  0
LINE
  8
1
 62
7
 10
-168.3418790494534
 20
18.94999999999982
 30
0
 11
-167.9418790494535
 21
18.94999999999982
 31
0
  0
LINE
  8
1
 62
7
 10
-167.2418790494535
 20
17.84999999999991
 30
0
 11
-167.2418790494535
 21
18.25
 31
0
  0
LINE
  8
1
 62
7
 10
-167.2418790494535
 20
20.64999999999986
 30
0
 11
-167.2418790494535
 21
20.25
 31
0
  0
LINE
  8
1
 62
7
 10
-166.6418790494533
 20
20.64999999999986
 30
0
 11
-166.6418790494533
 21
20.25
 31
0
  0
LINE
  8
1
 62
3
 10
-145.3418790494534
 20
-0.7500000000001101
 30
0
 11
-144.3214406987104
 21
-0.7500000000001101
 31
0
  0
LINE
  8
1
 62
3
 10
-162.3418790494534
 20
29.25
 30
0
 11
-161.4335591608453
 21
29.25
 31
0
  0
LINE
  8
1
 62
3
 10
-128.3418790494534
 20
29.25
 30
0
 11
-127.3773352502753
 21
29.25
 31
0
  0
LINE
  8
1
 62
7
 10
-2.72593852147801
 20
36.62999999999988
 30
0
 11
-2.72593852147801
 21
-0.9800000000000217
 31
0
  0
LINE
  8
1
 62
7
 10
-7.625938521478101
 20
44.25
 30
0
 11
-7.625938521478101
 21
-5.75000000000011
 31
0
  0
LINE
  8
1
 62
7
 10
-9.22593852147801
 20
-5.75000000000011
 30
0
 11
-9.22593852147801
 21
44.25
 31
0
  0
LINE
  8
1
 62
7
 10
-9.22593852147801
 20
42.75
 30
0
 11
-9.22593852147801
 21
-4.25000000000011
 31
0
  0
LINE
  8
1
 62
7
 10
-9.22593852147801
 20
-5.75000000000011
 30
0
 11
-7.625938521478101
 21
-5.75000000000011
 31
0
  0
LINE
  8
1
 62
7
 10
-7.625938521478101
 20
44.25
 30
0
 11
-9.22593852147801
 21
44.25
 31
0
  0
LINE
  8
1
 62
7
 10
-32.32593852147792
 20
-5.75000000000011
 30
0
 11
-28.32593852147792
 21
-5.75000000000011
 31
0
  0
LINE
  8
1
 62
7
 10
-32.32593852147792
 20
21.25
 30
0
 11
-32.32593852147792
 21
-5.75000000000011
 31
0
  0
LINE
  8
1
 62
7
 10
-32.32593852147792
 20
44.25
 30
0
 11
-28.32593852147792
 21
44.25
 31
0
  0
LINE
  8
1
 62
7
 10
-28.32593852147792
 20
-5.75000000000011
 30
0
 11
-28.32593852147792
 21
44.25
 31
0
  0
LINE
  8
1
 62
7
 10
-36.32593852147792
 20
33.25
 30
0
 11
-36.32593852147792
 21
30.25
 31
0
  0
LINE
  8
1
 62
7
 10
-32.32593852147792
 20
33.25
 30
0
 11
-32.32593852147792
 21
21.25
 31
0
  0
LINE
  8
1
 62
7
 10
-36.32593852147792
 20
21.25
 30
0
 11
-32.32593852147792
 21
21.25
 31
0
  0
LINE
  8
1
 62
7
 10
-32.32593852147792
 20
21.25
 30
0
 11
-32.32593852147792
 21
33.25
 31
0
  0
LINE
  8
1
 62
7
 10
-32.32593852147792
 20
33.25
 30
0
 11
-36.32593852147792
 21
33.25
 31
0
  0
LINE
  8
1
 62
7
 10
-28.32593852147792
 20
44.25
 30
0
 11
-10.72593852147801
 21
44.25
 31
0
  0
LINE
  8
1
 62
7
 10
-10.72593852147801
 20
-5.75000000000011
 30
0
 11
-28.32593852147792
 21
-5.75000000000011
 31
0
  0
LINE
  8
1
 62
7
 10
-32.32593852147792
 20
44.25
 30
0
 11
-32.32593852147792
 21
33.25
 31
0
  0
LINE
  8
1
 62
7
 10
-36.32593852147792
 20
24.25
 30
0
 11
-36.32593852147792
 21
21.25
 31
0
  0
LINE
  8
1
 62
7
 10
-36.32593852147792
 20
30.25
 30
0
 11
-36.32593852147792
 21
24.25
 31
0
  0
LINE
  8
1
 62
7
 10
-4.72593852147801
 20
38.62999999999988
 30
0
 11
-6.625938521478101
 21
38.62999999999988
 31
0
  0
LINE
  8
1
 62
7
 10
-6.625938521478101
 20
-2.980000000000022
 30
0
 11
-4.72593852147801
 21
-2.980000000000022
 31
0
  0
LINE
  8
1
 62
7
 10
-45.32593852147792
 20
30.25
 30
0
 11
-45.32593852147792
 21
29.75
 31
0
  0
LINE
  8
1
 62
7
 10
-45.32593852147792
 20
30.25
 30
0
 11
-36.32593852147792
 21
30.25
 31
0
  0
LINE
  8
1
 62
7
 10
-57.32593852147793
 20
29.75
 30
0
 11
-45.32593852147792
 21
29.75
 31
0
  0
LINE
  8
1
 62
7
 10
-57.32593852147793
 20
24.25
 30
0
 11
-36.32593852147792
 21
24.25
 31
0
  0
LINE
  8
1
 62
7
 10
-57.32593852147793
 20
24.25
 30
0
 11
-57.32593852147793
 21
29.75
 31
0
  0
LINE
  8
1
 62
3
 10
-59.41162723838406
 20
27.25
 30
0
 11
-25.49515440181389
 21
27.25
 31
0
  0
LINE
  8
1
 62
7
 10
6.979866433946498
 20
35.53617871333995
 30
0
 11
26.9798664339465
 21
35.53617871333995
 31
0
  0
LINE
  8
1
 62
7
 10
38.97406147852199
 20
14.18754469953653
 30
0
 11
43.02406147852217
 21
14.18754469953638
 31
0
  0
LINE
  8
1
 62
7
 10
42.97406147852199
 20
26.24999999999999
 30
0
 11
42.97406147852199
 21
14.18754469953638
 31
0
  0
LINE
  8
1
 62
7
 10
43.02406147852186
 20
28.09234500479246
 30
0
 11
48.37406147852201
 21
28.09234500479246
 31
0
  0
LINE
  8
1
 62
7
 10
38.97406147852199
 20
28.39766911939358
 30
0
 11
43.02406147852217
 21
28.39766911939387
 31
0
  0
LINE
  8
1
 62
7
 10
35.97406147852199
 20
0.6499999999999631
 30
0
 11
-0.7259385214780103
 21
0.6499999999999631
 31
0
  0
LINE
  8
1
 62
7
 10
38.97406147852199
 20
3.123311530715625
 30
0
 11
38.97406147852199
 21
16.39999999999996
 31
0
  0
LINE
  8
1
 62
7
 10
38.97406147852199
 20
27.24999999999999
 30
0
 11
41.97406147852199
 21
27.24999999999999
 31
0
  0
LINE
  8
1
 62
3
 10
145.9692371512127
 20
37.16535654124748
 30
0
 11
145.9692371512127
 21
40.9100000000007
 31
0
  0
LINE
  8
1
 62
3
 10
179.3937007863581
 20
19.25000000000068
 30
0
 11
122.5447735160672
 21
19.25000000000068
 31
0
  0
ARC
  8
1
 62
7
 10
150.9692371512127
 20
19.2500000000007
 30
0
 40
15.00000000000011
 50
287.1818607153463
 51
334.4712206344908
  0
ARC
  8
1
 62
7
 10
150.9692371512127
 20
19.2500000000007
 30
0
 40
16.9999999999999
 50
228.3722866834339
 51
233.4565193352706
  0
ARC
  8
1
 62
7
 10
150.9692371512127
 20
19.2500000000007
 30
0
 40
18.58741151126322
 50
217.2703129891775
 51
232.7296870108226
  0
ARC
  8
1
 62
7
 10
150.9692371512127
 20
19.2500000000007
 30
0
 40
18.58741151126261
 50
201.1486304767352
 51
217.2703129891775
  0
ARC
  8
1
 62
7
 10
150.9692371512127
 20
19.2500000000007
 30
0
 40
16.99999999999969
 50
211.8368671305259
 51
216.5434806647295
  0
ARC
  8
1
 62
7
 10
150.9692371512127
 20
19.2500000000007
 30
0
 40
18.58741151126303
 50
21.1486304767325
 51
37.27031298917731
  0
ARC
  8
1
 62
7
 10
150.9692371512127
 20
19.2500000000007
 30
0
 40
16.99999999999978
 50
31.83686713052236
 51
36.54348066472937
  0
ARC
  8
1
 62
7
 10
150.9692371512127
 20
19.2500000000007
 30
0
 40
16.99999999999977
 50
48.70996589206683
 51
53.45651933527052
  0
ARC
  8
1
 62
7
 10
150.9692371512127
 20
19.2500000000007
 30
0
 40
18.58741151126308
 50
37.27031298917731
 51
52.72968701082257
  0
ARC
  8
1
 62
7
 10
150.9692371512127
 20
19.2500000000007
 30
0
 40
16.99999999999975
 50
222.1340160174011
 51
227.8659839825991
  0
ARC
  8
1
 62
7
 10
150.9692371512127
 20
19.2500000000007
 30
0
 40
16.99999999999957
 50
42.13401601740083
 51
48.70996589206683
  0
ARC
  8
1
 62
7
 10
150.9692371512127
 20
19.2500000000007
 30
0
 40
16.99999999999998
 50
7.57199445695759
 51
18.29486848053468
  0
ARC
  8
1
 62
7
 10
150.9692371512127
 20
19.2500000000007
 30
0
 40
16.99999999999977
 50
53.45651933527052
 51
58.16313286947484
  0
ARC
  8
1
 62
7
 10
150.9692371512127
 20
19.2500000000007
 30
0
 40
18.60000000000009
 50
1.53597650166169
 51
20.22486456548904
  0
ARC
  8
1
 62
7
 10
150.9692371512127
 20
19.2500000000007
 30
0
 40
18.59999999999921
 50
69.7751354345084
 51
88.46402349833767
  0
ARC
  8
1
 62
7
 10
150.9692371512127
 20
19.2500000000007
 30
0
 40
18.5874115112631
 50
52.72968701082257
 51
68.85136952326482
  0
ARC
  8
1
 62
7
 10
150.9692371512127
 20
19.2500000000007
 30
0
 40
16.99999999999994
 50
233.4565193352706
 51
238.1631328694758
  0
ARC
  8
1
 62
7
 10
150.9692371512127
 20
19.2500000000007
 30
0
 40
17.00000000000008
 50
187.5719944569572
 51
198.2948684805376
  0
ARC
  8
1
 62
7
 10
150.9692371512127
 20
19.2500000000007
 30
0
 40
18.5999999999998
 50
249.7751354345108
 51
268.464023498338
  0
ARC
  8
1
 62
7
 10
150.9692371512127
 20
19.2500000000007
 30
0
 40
18.58741151126325
 50
232.7296870108226
 51
248.8513695232676
  0
ARC
  8
1
 62
7
 10
150.9692371512127
 20
19.2500000000007
 30
0
 40
18.59999999999998
 50
181.5359765016618
 51
200.2248645654919
  0
ARC
  8
1
 62
7
 10
150.9692371512127
 20
19.2500000000007
 30
0
 40
17.00000000000008
 50
187.5719944569572
 51
198.2948684805376
  0
ARC
  8
1
 62
7
 10
150.9692371512127
 20
19.2500000000007
 30
0
 40
16.99999999999971
 50
227.8659839825991
 51
228.3722866834339
  0
ARC
  8
1
 62
7
 10
150.9692371512127
 20
19.2500000000007
 30
0
 40
16.9999999999999
 50
221.627713316566
 51
222.1340160174011
  0
ARC
  8
1
 62
7
 10
150.9692371512127
 20
19.2500000000007
 30
0
 40
16.99999999999977
 50
41.29003410793305
 51
42.13401601740083
  0
ARC
  8
1
 62
7
 10
150.9692371512127
 20
19.2500000000007
 30
0
 40
16.99999999999952
 50
47.8659839825989
 51
48.70996589206683
  0
ARC
  8
1
 62
7
 10
150.9692371512127
 20
19.2500000000007
 30
0
 40
9.000000000000012
 50
263.9424412689817
 51
6.057558731018239
  0
ARC
  8
1
 62
7
 10
150.9692371512127
 20
19.2500000000007
 30
0
 40
9.000000000000007
 50
83.9424412689815
 51
186.0575587310185
  0
ARC
  8
1
 62
7
 10
150.9692371512127
 20
19.2500000000007
 30
0
 40
17.0000000000002
 50
71.70513151946263
 51
82.42800554304199
  0
ARC
  8
1
 62
7
 10
150.9692371512127
 20
19.2500000000007
 30
0
 40
18.59999999999984
 50
150.5938957404692
 51
181.5359765016618
  0
ARC
  8
1
 62
7
 10
150.9692371512127
 20
19.2500000000007
 30
0
 40
18.59999999999991
 50
268.464023498338
 51
1.53597650166169
  0
ARC
  8
1
 62
7
 10
150.9692371512127
 20
19.2500000000007
 30
0
 40
17.00000000000065
 50
251.7051315194652
 51
262.4280055430431
  0
ARC
  8
1
 62
7
 10
150.9692371512127
 20
19.2500000000007
 30
0
 40
16.99999999999992
 50
216.5434806647295
 51
221.627713316566
  0
ARC
  8
1
 62
7
 10
150.9692371512127
 20
19.2500000000007
 30
0
 40
14.99999999999998
 50
107.181860715346
 51
154.4712206344906
  0
ARC
  8
1
 62
7
 10
136.1199947462952
 20
24.19974746830654
 30
0
 40
2.000000000000006
 50
315.0000000000003
 51
45.00000000000007
  0
ARC
  8
1
 62
7
 10
150.9692371512127
 20
19.2500000000007
 30
0
 40
18.59999999999981
 50
119.4061042595307
 51
150.5938957404692
  0
ARC
  8
1
 62
7
 10
150.9692371512127
 20
19.2500000000007
 30
0
 40
16.59999999999996
 50
110.0588752410715
 51
117.470018266927
  0
ARC
  8
1
 62
7
 10
150.9692371512127
 20
19.2500000000007
 30
0
 40
18.59999999999986
 50
88.46402349833767
 51
119.4061042595307
  0
ARC
  8
1
 62
7
 10
165.8184795561302
 20
14.30025253169485
 30
0
 40
2.000000000000019
 50
134.9999999999999
 51
224.9999999999997
  0
ARC
  8
1
 62
7
 10
150.9692371512127
 20
19.2500000000007
 30
0
 40
16.60000000000056
 50
290.0588752410726
 51
297.4700182669271
  0
ARC
  8
1
 62
7
 10
150.9692371512127
 20
19.2500000000007
 30
0
 40
16.99999999999973
 50
36.54348066472937
 51
41.29003410793305
  0
ARC
  8
1
 62
7
 10
150.9692371512127
 20
19.2500000000007
 30
0
 40
15.59999999999988
 50
116.3060590766768
 51
153.6939409233232
  0
ARC
  8
1
 62
7
 10
150.9692371512127
 20
19.2500000000007
 30
0
 40
15.60000000000003
 50
296.306059076677
 51
333.693940923323
  0
ARC
  8
1
 62
3
 10
150.9692371512127
 20
19.2500000000007
 30
0
 40
14.99999999999968
 50
85.17099333070841
 51
104.9716332704574
  0
ARC
  8
1
 62
3
 10
150.9692371512127
 20
19.2500000000007
 30
0
 40
14.99999999999971
 50
345.0283667295423
 51
4.829006669291338
  0
ARC
  8
1
 62
3
 10
150.9692371512127
 20
19.2500000000007
 30
0
 40
14.99999999999979
 50
165.0283667295429
 51
184.829006669292
  0
ARC
  8
1
 62
3
 10
150.9692371512127
 20
19.2500000000007
 30
0
 40
14.99999999999987
 50
265.1709933307081
 51
284.9716332704575
  0
ARC
  8
1
 62
7
 10
153.8162466473404
 20
8.624815910820942
 30
0
 40
10.0000000000001
 50
237.229396518548
 51
340.3891229015536
  0
ARC
  8
1
 62
7
 10
145.9692371512127
 20
38.7500000000007
 30
0
 40
1.50000000000002
 50
3.413698264895189
 51
0
  0
ARC
  8
1
 62
4
 10
145.9692371512127
 20
38.7500000000007
 30
0
 40
1.5
 50
0
 51
3.413698264895189
  0
ARC
  8
1
 62
7
 10
170.9692371512127
 20
19.2500000000007
 30
0
 40
1.349999999999991
 50
90
 51
96.17922566920724
  0
ARC
  8
1
 62
7
 10
170.9692371512127
 20
19.2500000000007
 30
0
 40
1.349999999999908
 50
96.17922566920724
 51
90
  0
ARC
  8
1
 62
7
 10
27.98263290707958
 20
6.698454833317318
 30
0
 40
3.851428571440368
 50
328.7155070856894
 51
31.28449291431123
  0
ARC
  8
1
 62
7
 10
-146.9418790494535
 20
19.25
 30
0
 40
24.99999999999999
 50
0
 51
180
  0
ARC
  8
1
 62
7
 10
-146.9418790494535
 20
19.25
 30
0
 40
25
 50
180
 51
0
  0
ARC
  8
1
 62
7
 10
-146.9418790494535
 20
27.25
 30
0
 40
3.000000000000276
 50
56.44269023807132
 51
123.5573097619255
  0
ARC
  8
1
 62
7
 10
-146.9418790494535
 20
27.25
 30
0
 40
3.000000000000167
 50
123.5573097619255
 51
0
  0
ARC
  8
1
 62
7
 10
-146.9418790494535
 20
27.25
 30
0
 40
3
 50
0
 51
56.44269023807132
  0
ARC
  8
1
 62
7
 10
-134.4448202259243
 20
36.25294117647104
 30
0
 40
0.7029473295330145
 50
270.239729896099
 51
359.7602701038824
  0
ARC
  8
1
 62
7
 10
-132.4389378729834
 20
36.25294117647104
 30
0
 40
0.7029473295318433
 50
180.2397298961179
 51
270.2397298961221
  0
ARC
  8
1
 62
7
 10
-132.4389378729834
 20
34.24705882352896
 30
0
 40
0.7029473295327814
 50
89.76027010387776
 51
179.7602701038821
  0
ARC
  8
1
 62
7
 10
-134.4448202259243
 20
34.24705882352896
 30
0
 40
0.7029473295328379
 50
0.239729896117588
 51
89.76027010390092
  0
ARC
  8
1
 62
7
 10
-133.4448202259243
 20
5.75294117647093
 30
0
 40
0.7029473295329008
 50
270.2397298960991
 51
359.7602701038824
  0
ARC
  8
1
 62
7
 10
-131.4389378729834
 20
5.75294117647093
 30
0
 40
0.7029473295318433
 50
180.2397298961179
 51
270.2397298961222
  0
ARC
  8
1
 62
7
 10
-131.4389378729834
 20
3.74705882352896
 30
0
 40
0.7029473295328911
 50
89.7602701038778
 51
179.7602701038911
  0
ARC
  8
1
 62
7
 10
-133.4448202259243
 20
3.74705882352896
 30
0
 40
0.7029473295328375
 50
0.239729896108575
 51
89.76027010390095
  0
ARC
  8
1
 62
7
 10
-167.9448202259243
 20
20.25294117647104
 30
0
 40
0.702947329533011
 50
270.239729896099
 51
359.7602701038824
  0
ARC
  8
1
 62
7
 10
-165.9389378729834
 20
20.25294117647104
 30
0
 40
0.7029473295318433
 50
180.2397298961179
 51
270.2397298961221
  0
ARC
  8
1
 62
7
 10
-165.9389378729834
 20
18.24705882352896
 30
0
 40
0.7029473295327849
 50
89.76027010387777
 51
179.7602701038821
  0
ARC
  8
1
 62
7
 10
-167.9448202259243
 20
18.24705882352896
 30
0
 40
0.7029473295327242
 50
0.2397298961176267
 51
89.76027010390092
  0
ARC
  8
1
 62
7
 10
158.7474117442648
 20
27.02817459305273
 30
0
 40
9.999999999999929
 50
349.6108770984414
 51
100.3891229015551
  0
ARC
  8
1
 62
7
 10
140.3440530620329
 20
22.09700949612843
 30
0
 40
9.99999999999989
 50
109.6108770984454
 51
220.3891229015597
  0
ARC
  8
1
 62
7
 10
153.8162466473404
 20
8.624815910820942
 30
0
 40
10.00000000000008
 50
229.6108770984446
 51
237.229396518548
  0
CIRCLE
  8
1
 62
7
 10
150.9692371512127
 20
19.2500000000007
 30
0
 40
25
  0
CIRCLE
  8
1
 62
7
 10
150.9692371512127
 20
19.2500000000007
 30
0
 40
3.749999999999965
  0
CIRCLE
  8
1
 62
7
 10
150.9692371512127
 20
19.2500000000007
 30
0
 40
8.000000000000011
  0
CIRCLE
  8
1
 62
7
 10
149.6619010099978
 20
34.19292047137673
 30
0
 40
1.499999999999992
  0
CIRCLE
  8
1
 62
7
 10
136.0263166798367
 20
20.5573361412156
 30
0
 40
1.500000000000052
  0
CIRCLE
  8
1
 62
7
 10
165.9121576225889
 20
17.94266385878568
 30
0
 40
1.25000000000003
  0
CIRCLE
  8
1
 62
7
 10
165.9121576225889
 20
17.94266385878568
 30
0
 40
1.499999999999992
  0
CIRCLE
  8
1
 62
7
 10
152.2765732924277
 20
4.307079528624556
 30
0
 40
1.25000000000003
  0
CIRCLE
  8
1
 62
7
 10
152.2765732924277
 20
4.307079528624556
 30
0
 40
1.499999999999992
  0
CIRCLE
  8
1
 62
7
 10
149.6619010099978
 20
34.19292047137673
 30
0
 40
1.25000000000003
  0
CIRCLE
  8
1
 62
7
 10
136.0263166798367
 20
20.5573361412156
 30
0
 40
1.249999999999988
  0
CIRCLE
  8
1
 62
7
 10
136.1199947462952
 20
24.19974746830654
 30
0
 40
0.8499999999999078
  0
CIRCLE
  8
1
 62
7
 10
165.8184795561302
 20
14.30025253169485
 30
0
 40
0.8500000000000687
  0
CIRCLE
  8
1
 62
7
 10
150.9692371512127
 20
19.2500000000007
 30
0
 40
2.000000000000004
  0
CIRCLE
  8
1
 62
7
 10
169.7192371512127
 20
11.2500000000007
 30
0
 40
1.5
  0
CIRCLE
  8
1
 62
2
 10
-146.9418790494535
 20
-0.7500000000001101
 30
0
 40
2
  0
CIRCLE
  8
1
 62
2
 10
-129.9418790494535
 20
29.25
 30
0
 40
1.999999999999986
  0
CIRCLE
  8
1
 62
2
 10
-163.9418790494535
 20
29.25
 30
0
 40
2
  0
CIRCLE
  8
1
 62
7
 10
-146.9418790494535
 20
27.25
 30
0
 40
6
  0
CIRCLE
  8
1
 62
7
 10
-133.4418790494535
 20
35.25
 30
0
 40
3
  0
CIRCLE
  8
1
 62
7
 10
-132.4418790494535
 20
4.74999999999989
 30
0
 40
3
  0
CIRCLE
  8
1
 62
7
 10
-166.9418790494535
 20
19.25
 30
0
 40
3
  0
CIRCLE
  8
1
 62
7
 10
-133.4418790494535
 20
35.25
 30
0
 40
2.75
  0
CIRCLE
  8
1
 62
7
 10
-132.4418790494535
 20
4.74999999999989
 30
0
 40
2.75
  0
CIRCLE
  8
1
 62
7
 10
-166.9418790494535
 20
19.25
 30
0
 40
2.75
  0
CIRCLE
  8
1
 62
7
 10
-146.9418790494535
 20
-0.7500000000001101
 30
0
 40
1.60000000000008
  0
CIRCLE
  8
1
 62
7
 10
-163.9418790494535
 20
29.25
 30
0
 40
1.60000000000008
  0
CIRCLE
  8
1
 62
7
 10
-129.9418790494535
 20
29.25
 30
0
 40
1.60000000000008
  0
CIRCLE
  8
1
 62
7
 10
136.4692371512127
 20
4.750000000000696
 30
0
 40
1.349999999999905
  0
CIRCLE
  8
1
 62
7
 10
132.4692371512127
 20
9.250000000000696
 30
0
 40
1.5
  0
CIRCLE
  8
1
 62
7
 10
137.4692371512127
 20
35.2500000000007
 30
0
 40
1.349999999999994
  0
CIRCLE
  8
1
 62
7
 10
152.9692371512127
 20
40.2500000000007
 30
0
 40
1.5
  0
POLYLINE
  8
1
 62
7
 66
1
  0
VERTEX
  8
1
 10
45.52906722749863
 20
26.31185886785713
 30
0
 42
0.05641503938019523
  0
VERTEX
  8
1
 10
45.54879320227765
 20
26.22679580664214
 30
0
 42
0.05301231530547273
  0
VERTEX
  8
1
 10
45.58760677460711
 20
26.14570596045642
 30
0
 42
0.04855994869272592
  0
VERTEX
  8
1
 10
45.64427535880942
 20
26.07106130123445
 30
0
 42
0.04405735961538986
  0
VERTEX
  8
1
 10
45.71703668603024
 20
26.00510718170738
 30
0
 42
0.04012575114981703
  0
VERTEX
  8
1
 10
45.80366273175261
 20
25.94981335619941
 30
0
 42
0.03703674483130798
  0
VERTEX
  8
1
 10
45.90152310126275
 20
25.90682880892122
 30
0
 42
0.03485756434124697
  0
VERTEX
  8
1
 10
46.00765678924266
 20
25.87743717739409
 30
0
 42
0.03357161209243202
  0
VERTEX
  8
1
 10
46.11885613810055
 20
25.86251785831866
 30
0
 42
0.03314799211336326
  0
VERTEX
  8
1
 10
46.2317611999557
 20
25.86251785831866
 30
0
 42
0.0335735394936252
  0
VERTEX
  8
1
 10
46.34296054881359
 20
25.87743717739408
 30
0
 42
0.03486177766816882
  0
VERTEX
  8
1
 10
46.44909423679349
 20
25.90682880892122
 30
0
 42
0.03704398731433957
  0
VERTEX
  8
1
 10
46.54695460630364
 20
25.9498133561994
 30
0
 42
0.04013710840471394
  0
VERTEX
  8
1
 10
46.63358065202603
 20
26.00510718170737
 30
0
 42
0.04407386559730908
  0
VERTEX
  8
1
 10
46.70634197924684
 20
26.07106130123446
 30
0
 42
0.04858131723329215
  0
VERTEX
  8
1
 10
46.76301056344916
 20
26.14570596045643
 30
0
 42
0.05303469827043418
  0
VERTEX
  8
1
 10
46.80182413577861
 20
26.22679580664214
 30
0
 42
0.056430183234132
  0
VERTEX
  8
1
 10
46.82155011055764
 20
26.31185886785713
 30
0
 42
0.02877218967933664
  0
VERTEX
  8
1
 10
46.82405043570159
 20
26.35506220993693
 30
0
  0
SEQEND
  8
1
  0
POLYLINE
  8
1
 62
7
 66
1
 70
1
  0
VERTEX
  8
1
 10
46.81892398328947
 20
26.38506165212467
 30
0
 42
0.02314791573788383
  0
VERTEX
  8
1
 10
46.8116508349277
 20
26.41431227085491
 30
0
 42
0.05218338461304281
  0
VERTEX
  8
1
 10
46.7990708845771
 20
26.44403428851751
 30
0
 42
0.003497416239707611
  0
VERTEX
  8
1
 10
46.78137189965443
 20
26.47331124630064
 30
0
 42
0.05636961197068403
  0
VERTEX
  8
1
 10
46.73474399685524
 20
26.52566596092126
 30
0
 42
0.04978997352051693
  0
VERTEX
  8
1
 10
46.70348254829307
 20
26.55147303488659
 30
0
 42
0.002116277972400281
  0
VERTEX
  8
1
 10
46.66806482436282
 20
26.57560801086922
 30
0
 42
0.03608533410053307
  0
VERTEX
  8
1
 10
46.5902064204059
 20
26.61644232077474
 30
0
 42
0.03244912457679303
  0
VERTEX
  8
1
 10
46.54450405223
 20
26.63490098398983
 30
0
 42
0.0009256149834128695
  0
VERTEX
  8
1
 10
46.49613396998438
 20
26.65105039519314
 30
0
 42
0.02649238792007002
  0
VERTEX
  8
1
 10
46.39547147044691
 20
26.67569238170063
 30
0
 42
0.02493388193472751
  0
VERTEX
  8
1
 10
46.34115271225051
 20
26.68471216457913
 30
0
 42
0.0002573863458407898
  0
VERTEX
  8
1
 10
46.285846429242
 20
26.69114276584763
 30
0
 42
0.02320647339451989
  0
VERTEX
  8
1
 10
46.17402705592511
 20
26.6962697119135
 30
0
 42
0.02295331378866703
  0
VERTEX
  8
1
 10
46.06220768260821
 20
26.69114276584764
 30
0
 42
0.02309667202743218
  0
VERTEX
  8
1
 10
46.0069013995997
 20
26.68471216457913
 30
0
 42
0.0005516952264455756
  0
VERTEX
  8
1
 10
45.95258264140329
 20
26.67569238170064
 30
0
 42
0.02563715571822409
  0
VERTEX
  8
1
 10
45.8519201418658
 20
26.65105039519313
 30
0
 42
0.02688919903822796
  0
VERTEX
  8
1
 10
45.80355005962018
 20
26.63490098398983
 30
0
 42
0.001432985088488288
  0
VERTEX
  8
1
 10
45.75784769144428
 20
26.61644232077474
 30
0
 42
0.03423917888005207
  0
VERTEX
  8
1
 10
45.67998928748738
 20
26.57560801086923
 30
0
 42
0.03734910603581493
  0
VERTEX
  8
1
 10
45.64457156355711
 20
26.5514730348866
 30
0
 42
0.002943524494856187
  0
VERTEX
  8
1
 10
45.61331011499492
 20
26.52566596092126
 30
0
 42
0.0533741885396093
  0
VERTEX
  8
1
 10
45.56668221219575
 20
26.47331124630064
 30
0
 42
0.06001187217449425
  0
VERTEX
  8
1
 10
45.54898322727307
 20
26.44403428851751
 30
0
 42
0.002755202664638933
  0
VERTEX
  8
1
 10
45.53640327692247
 20
26.41431227085491
 30
0
 42
0.07894576667659162
  0
VERTEX
  8
1
 10
45.52656690235467
 20
26.35506220992902
 30
0
 42
0.07903074068163483
  0
VERTEX
  8
1
 10
45.53640327692249
 20
26.29581214900314
 30
0
 42
0.07818531479604425
  0
VERTEX
  8
1
 10
45.54898322727308
 20
26.26609013134053
 30
0
 42
0.003497416239944641
  0
VERTEX
  8
1
 10
45.56668221219576
 20
26.23681317355741
 30
0
 42
0.0563696119708017
  0
VERTEX
  8
1
 10
45.61331011499494
 20
26.18445845893678
 30
0
 42
0.04978997351729478
  0
VERTEX
  8
1
 10
45.64457156355712
 20
26.15865138497146
 30
0
 42
0.002116277972322397
  0
VERTEX
  8
1
 10
45.67998928748737
 20
26.13451640898883
 30
0
 42
0.03608533410045228
  0
VERTEX
  8
1
 10
45.7578476914443
 20
26.09368209908331
 30
0
 42
0.03244912458098238
  0
VERTEX
  8
1
 10
45.80355005962019
 20
26.07522343586822
 30
0
 42
0.0009256149831421935
  0
VERTEX
  8
1
 10
45.8519201418658
 20
26.05907402466491
 30
0
 42
0.02649238791991255
  0
VERTEX
  8
1
 10
45.95258264140328
 20
26.03443203815741
 30
0
 42
0.02493388193197186
  0
VERTEX
  8
1
 10
46.0069013995997
 20
26.02541225527892
 30
0
 42
0.0002573863457921499
  0
VERTEX
  8
1
 10
46.06220768260821
 20
26.01898165401042
 30
0
 42
0.02320647339453191
  0
VERTEX
  8
1
 10
46.17402705592509
 20
26.01385470794454
 30
0
 42
0.02295331378857585
  0
VERTEX
  8
1
 10
46.28584642924197
 20
26.01898165401041
 30
0
 42
0.0230966720319327
  0
VERTEX
  8
1
 10
46.34115271225048
 20
26.02541225527891
 30
0
 42
0.0005516952264884875
  0
VERTEX
  8
1
 10
46.39547147044691
 20
26.03443203815741
 30
0
 42
0.02563715571821172
  0
VERTEX
  8
1
 10
46.49613396998439
 20
26.05907402466491
 30
0
 42
0.02688919903624871
  0
VERTEX
  8
1
 10
46.54450405223002
 20
26.07522343586822
 30
0
 42
0.001432985088619499
  0
VERTEX
  8
1
 10
46.59020642040592
 20
26.09368209908331
 30
0
 42
0.03423917888011744
  0
VERTEX
  8
1
 10
46.66806482436284
 20
26.13451640898883
 30
0
 42
0.03734910603466412
  0
VERTEX
  8
1
 10
46.70348254829307
 20
26.15865138497146
 30
0
 42
0.002943524494435535
  0
VERTEX
  8
1
 10
46.73474399685524
 20
26.18445845893678
 30
0
 42
0.05337418853958958
  0
VERTEX
  8
1
 10
46.78137189965443
 20
26.23681317355741
 30
0
 42
0.06001187217467104
  0
VERTEX
  8
1
 10
46.79907088457711
 20
26.26609013134053
 30
0
 42
0.002755202664630283
  0
VERTEX
  8
1
 10
46.8116508349277
 20
26.29581214900314
 30
0
 42
0.07894576667639353
  0
VERTEX
  8
1
 10
46.82148720949553
 20
26.35506220992903
 30
0
  0
VERTEX
  8
1
 10
46.81892398328947
 20
26.38506165212467
 30
0
  0
SEQEND
  8
1
  0
POLYLINE
  8
1
 62
7
 66
1
  0
VERTEX
  8
1
 10
45.52656690235466
 20
12.10173351534189
 30
0
 42
0.05651609014798595
  0
VERTEX
  8
1
 10
45.54633188769746
 20
12.01666898872883
 30
0
 42
0.05307757513360146
  0
VERTEX
  8
1
 10
45.58522177971037
 20
11.93557860137511
 30
0
 42
0.04858447802655787
  0
VERTEX
  8
1
 10
45.64200105929438
 20
11.86093429096319
 30
0
 42
0.04404760130646073
  0
VERTEX
  8
1
 10
45.7149037687301
 20
11.79498102128918
 30
0
 42
0.04009160960252109
  0
VERTEX
  8
1
 10
45.80169758051922
 20
11.73968815216033
 30
0
 42
0.03698701326796784
  0
VERTEX
  8
1
 10
45.8997471422663
 20
11.69670442387546
 30
0
 42
0.03479869839558127
  0
VERTEX
  8
1
 10
46.00608585221953
 20
11.6673133645851
 30
0
 42
0.0335080724956047
  0
VERTEX
  8
1
 10
46.11749994001577
 20
11.65239433531156
 30
0
 42
0.03308302672509911
  0
VERTEX
  8
1
 10
46.23062301702817
 20
11.65239433531156
 30
0
 42
0.03350999935791064
  0
VERTEX
  8
1
 10
46.34203710482444
 20
11.6673133645851
 30
0
 42
0.03480291402781522
  0
VERTEX
  8
1
 10
46.44837581477762
 20
11.69670442387546
 30
0
 42
0.03699426988598436
  0
VERTEX
  8
1
 10
46.54642537652471
 20
11.73968815216033
 30
0
 42
0.04010301173236917
  0
VERTEX
  8
1
 10
46.63321918831385
 20
11.79498102128918
 30
0
 42
0.04406421471884146
  0
VERTEX
  8
1
 10
46.70612189774955
 20
11.86093429096319
 30
0
 42
0.04860604827459533
  0
VERTEX
  8
1
 10
46.76290117733356
 20
11.93557860137511
 30
0
 42
0.05310023335661218
  0
VERTEX
  8
1
 10
46.80179106934648
 20
12.01666898872884
 30
0
 42
0.05653145231052172
  0
VERTEX
  8
1
 10
46.82155605468927
 20
12.10173351534189
 30
0
 42
0.02883082777472452
  0
VERTEX
  8
1
 10
46.82406147851731
 20
12.14493965282599
 30
0
  0
SEQEND
  8
1
  0
POLYLINE
  8
1
 62
7
 66
1
 70
1
  0
VERTEX
  8
1
 10
46.8214872094955
 20
12.1749397986348
 30
0
 42
0.02319425320054873
  0
VERTEX
  8
1
 10
46.81418651797987
 20
12.20418785099794
 30
0
 42
0.05235382668358587
  0
VERTEX
  8
1
 10
46.80155427692034
 20
12.2339159293826
 30
0
 42
0.00353072132624753
  0
VERTEX
  8
1
 10
46.78377989687795
 20
12.26319970408976
 30
0
 42
0.05640014862848759
  0
VERTEX
  8
1
 10
46.73697799098183
 20
12.31554154106425
 30
0
 42
0.04976315349440505
  0
VERTEX
  8
1
 10
46.70558856459212
 20
12.34135287888461
 30
0
 42
0.002123449012517887
  0
VERTEX
  8
1
 10
46.67002703670078
 20
12.36548997643171
 30
0
 42
0.03600689950026597
  0
VERTEX
  8
1
 10
46.59187342481821
 20
12.4063179009177
 30
0
 42
0.0323607429218293
  0
VERTEX
  8
1
 10
46.5459882157291
 20
12.42477794806319
 30
0
 42
0.0009259561922996463
  0
VERTEX
  8
1
 10
46.49742596377963
 20
12.44092778815579
 30
0
 42
0.02640124449697668
  0
VERTEX
  8
1
 10
46.39637457168364
 20
12.46556796184357
 30
0
 42
0.02484245308500863
  0
VERTEX
  8
1
 10
46.34184129481783
 20
12.47458797449963
 30
0
 42
0.0002571821463249083
  0
VERTEX
  8
1
 10
46.2863176095399
 20
12.48101852045002
 30
0
 42
0.02311661662894126
  0
VERTEX
  8
1
 10
46.17406147852196
 20
12.48614529205644
 30
0
 42
0.02286366964622942
  0
VERTEX
  8
1
 10
46.06180534750399
 20
12.48101852045002
 30
0
 42
0.02300660443181898
  0
VERTEX
  8
1
 10
46.00628166222607
 20
12.47458797449963
 30
0
 42
0.0005514837725866041
  0
VERTEX
  8
1
 10
45.95174838536029
 20
12.46556796184357
 30
0
 42
0.02554593159302283
  0
VERTEX
  8
1
 10
45.85069699326429
 20
12.44092778815579
 30
0
 42
0.02679697562144242
  0
VERTEX
  8
1
 10
45.80213474131482
 20
12.42477794806319
 30
0
 42
0.001435232352177133
  0
VERTEX
  8
1
 10
45.7562495322257
 20
12.4063179009177
 30
0
 42
0.03415565661183315
  0
VERTEX
  8
1
 10
45.67809592034311
 20
12.36548997643171
 30
0
 42
0.037269289074488
  0
VERTEX
  8
1
 10
45.64253439245177
 20
12.34135287888461
 30
0
 42
0.002961292450953646
  0
VERTEX
  8
1
 10
45.61114496606206
 20
12.31554154106426
 30
0
 42
0.05337969934352882
  0
VERTEX
  8
1
 10
45.56434306016595
 20
12.26319970408977
 30
0
 42
0.0600578947716758
  0
VERTEX
  8
1
 10
45.54656868012354
 20
12.23391592938259
 30
0
 42
0.002791660279444514
  0
VERTEX
  8
1
 10
45.53393643906399
 20
12.20418785099795
 30
0
 42
0.07921671846207756
  0
VERTEX
  8
1
 10
45.52406147852195
 20
12.14493779007208
 30
0
 42
0.0793037243424056
  0
VERTEX
  8
1
 10
45.53393643906399
 20
12.08568772914621
 30
0
 42
0.07843982748590184
  0
VERTEX
  8
1
 10
45.54656868012354
 20
12.05595965076156
 30
0
 42
0.003530721326348004
  0
VERTEX
  8
1
 10
45.56434306016595
 20
12.02667587605439
 30
0
 42
0.05640014862834504
  0
VERTEX
  8
1
 10
45.61114496606205
 20
11.97433403907989
 30
0
 42
0.04976315349454935
  0
VERTEX
  8
1
 10
45.64253439245177
 20
11.94852270125954
 30
0
 42
0.002123449012635613
  0
VERTEX
  8
1
 10
45.67809592034312
 20
11.92438560371244
 30
0
 42
0.03600689950032265
  0
VERTEX
  8
1
 10
45.7562495322257
 20
11.88355767922645
 30
0
 42
0.03236074292322436
  0
VERTEX
  8
1
 10
45.80213474131482
 20
11.86509763208096
 30
0
 42
0.0009259561924359952
  0
VERTEX
  8
1
 10
45.85069699326429
 20
11.84894779198836
 30
0
 42
0.02640124449702053
  0
VERTEX
  8
1
 10
45.95174838536025
 20
11.82430761830058
 30
0
 42
0.02484245309234254
  0
VERTEX
  8
1
 10
46.00628166222607
 20
11.81528760564452
 30
0
 42
0.0002571821463536245
  0
VERTEX
  8
1
 10
46.06180534750402
 20
11.80885705969413
 30
0
 42
0.02311661662896301
  0
VERTEX
  8
1
 10
46.17406147852195
 20
11.80373028808771
 30
0
 42
0.02286366964625802
  0
VERTEX
  8
1
 10
46.2863176095399
 20
11.80885705969413
 30
0
 42
0.02300660443077683
  0
VERTEX
  8
1
 10
46.34184129481783
 20
11.81528760564452
 30
0
 42
0.0005514837725884709
  0
VERTEX
  8
1
 10
46.39637457168363
 20
11.82430761830058
 30
0
 42
0.02554593159304676
  0
VERTEX
  8
1
 10
46.4974259637796
 20
11.84894779198836
 30
0
 42
0.02679697562255942
  0
VERTEX
  8
1
 10
46.54598821572908
 20
11.86509763208096
 30
0
 42
0.001435232352214114
  0
VERTEX
  8
1
 10
46.5918734248182
 20
11.88355767922645
 30
0
 42
0.03415565661182398
  0
VERTEX
  8
1
 10
46.67002703670077
 20
11.92438560371243
 30
0
 42
0.03726928907188933
  0
VERTEX
  8
1
 10
46.70558856459212
 20
11.94852270125954
 30
0
 42
0.002961292450901045
  0
VERTEX
  8
1
 10
46.73697799098186
 20
11.97433403907989
 30
0
 42
0.05337969934385851
  0
VERTEX
  8
1
 10
46.78377989687795
 20
12.02667587605438
 30
0
 42
0.06005789477528933
  0
VERTEX
  8
1
 10
46.80155427692034
 20
12.05595965076156
 30
0
 42
0.002791660279637354
  0
VERTEX
  8
1
 10
46.81418651797988
 20
12.08568772914621
 30
0
 42
0.07921671846205393
  0
VERTEX
  8
1
 10
46.82406147852197
 20
12.14493779007207
 30
0
  0
VERTEX
  8
1
 10
46.8214872094955
 20
12.1749397986348
 30
0
  0
SEQEND
  8
1
  0
ARC
  8
1
 62
7
 10
158.6059903880274
 20
12.88603896932162
 30
0
 40
0.5000000000000204
 50
135.0000000000027
 51
224.9999999999963
  0
ARC
  8
1
 62
7
 10
161.0808641221803
 20
10.4111652351687
 30
0
 40
0.4999999999999639
 50
224.9999999999954
 51
315
  0
ARC
  8
1
 62
7
 10
159.8080719160446
 20
9.138373029032962
 30
0
 40
0.4999999999999438
 50
314.9999999999931
 51
45.0000000000046
  0
ARC
  8
1
 62
7
 10
157.3331981818916
 20
11.61324676318587
 30
0
 40
0.5000000000000053
 50
44.99999999999554
 51
134.9999999999928
  0
ARC
  8
1
 62
7
 10
144.6052761205344
 20
26.88675323681461
 30
0
 40
0.4999999999999388
 50
225.0000000000063
 51
315.0000000000029
  0
ARC
  8
1
 62
7
 10
142.1304023863815
 20
29.36162697096752
 30
0
 40
0.5000000000000066
 50
134.9999999999997
 51
224.9999999999988
  0
ARC
  8
1
 62
7
 10
140.8576101802458
 20
28.08883476483177
 30
0
 40
0.4999999999999261
 50
45.0000000000049
 51
135.000000000002
  0
ARC
  8
1
 62
7
 10
143.3324839143987
 20
25.61396103067885
 30
0
 40
0.4999999999999663
 50
314.9999999999951
 51
45.0000000000023
  0
ARC
  8
1
 62
7
 10
165.6073892902879
 20
24.64300490944368
 30
0
 40
3.000000000000433
 50
25.95764953691504
 51
60.06537176279367
  0
ARC
  8
1
 62
7
 10
163.7678698906892
 20
32.04863273947714
 30
0
 40
2.499999999999476
 50
209.1097329771737
 51
240.8902670228483
  0
ARC
  8
1
 62
7
 10
163.7678698906892
 20
32.04863273947714
 30
0
 40
2.499999999999476
 50
209.1097329771737
 51
240.8902670228483
  0
ARC
  8
1
 62
7
 10
156.3622420606563
 20
33.88815213907519
 30
0
 40
3.000000000000746
 50
29.93462823720628
 51
64.0423504630846
  0
ARC
  8
1
 62
7
 10
155.5208947752701
 20
33.01707713617396
 30
0
 40
2.500000000000128
 50
30.3442593026064
 51
71.70513151946955
  0
ARC
  8
1
 62
7
 10
164.4042659937571
 20
32.68502884254509
 30
0
 40
5.000000000000023
 50
211.6758163180803
 51
238.32418368193
  0
ARC
  8
1
 62
7
 10
164.7363142873868
 20
23.80165762405723
 30
0
 40
2.500000000000657
 50
18.29486848053726
 51
59.65574069742094
  0
ARC
  8
1
 62
7
 10
146.417579527156
 20
5.48292286382646
 30
0
 40
2.50000000000044
 50
210.3442593025787
 51
251.7051315194648
  0
ARC
  8
1
 62
7
 10
137.5342083086683
 20
5.814971157456313
 30
0
 40
5.000000000000126
 50
31.67581631806916
 51
58.32418368192032
  0
ARC
  8
1
 62
7
 10
137.5342083086683
 20
5.814971157456313
 30
0
 40
5.000000000000126
 50
31.67581631806916
 51
58.32418368192032
  0
ARC
  8
1
 62
7
 10
145.5762322417696
 20
4.611847860925408
 30
0
 40
3.000000000000227
 50
244.0423504630869
 51
249.7751354345058
  0
ARC
  8
1
 62
7
 10
145.5762322417696
 20
4.611847860925408
 30
0
 40
3.000000000000756
 50
209.9346282372066
 51
244.0423504630869
  0
ARC
  8
1
 62
7
 10
138.1706044117361
 20
6.451367260524108
 30
0
 40
2.499999999999696
 50
29.10973297715069
 51
60.89026702282379
  0
ARC
  8
1
 62
7
 10
138.1706044117361
 20
6.451367260524108
 30
0
 40
2.499999999999696
 50
29.10973297715069
 51
60.89026702282379
  0
ARC
  8
1
 62
7
 10
136.3310850121381
 20
13.85699509055692
 30
0
 40
3.000000000000272
 50
205.9576495369137
 51
240.0653717627937
  0
ARC
  8
1
 62
7
 10
137.2021600150393
 20
14.6983423759432
 30
0
 40
2.50000000000056
 50
198.2948684805306
 51
239.6557406973946
  0
ARC
  8
1
 62
7
 10
162.2829456501975
 20
22.07842712474688
 30
0
 40
0.9999999999999655
 50
314.9999999999978
 51
45.00000000000215
  0
ARC
  8
1
 62
7
 10
160.8687320878244
 20
20.6642135623738
 30
0
 40
1.000000000000046
 50
224.9999999999976
 51
314.9999999999978
  0
ARC
  8
1
 62
7
 10
149.5550235888396
 20
9.350505063389065
 30
0
 40
1.000000000000048
 50
315.0000000000023
 51
44.99999999999655
  0
ARC
  8
1
 62
7
 10
148.1408100264665
 20
7.936291501015958
 30
0
 40
0.999999999999988
 50
225.0000000000012
 51
315.0000000000012
  0
ARC
  8
1
 62
7
 10
165.1113727749436
 20
17.83578643762759
 30
0
 40
1.999999999999998
 50
134.9999999999994
 51
225.0000000000001
  0
ARC
  8
1
 62
7
 10
152.3834507135858
 20
5.107864376269774
 30
0
 40
1.999999999999996
 50
44.99999999999943
 51
135.0000000000006
  0
ARC
  8
1
 62
7
 10
141.069742214601
 20
17.83578643762762
 30
0
 40
1.000000000000028
 50
44.99999999999885
 51
134.9999999999977
  0
ARC
  8
1
 62
7
 10
139.655528652228
 20
16.42157287525451
 30
0
 40
1.000000000000053
 50
135.000000000002
 51
224.9999999999963
  0
ARC
  8
1
 62
7
 10
153.7976642759589
 20
30.56370849898546
 30
0
 40
0.9999999999999527
 50
45.00000000000144
 51
134.9999999999983
  0
ARC
  8
1
 62
7
 10
152.3834507135858
 20
29.14949493661236
 30
0
 40
1.000000000000046
 50
135.0000000000024
 51
224.999999999998
  0
ARC
  8
1
 62
7
 10
136.8271015274818
 20
20.6642135623738
 30
0
 40
1.999999999999996
 50
315.0000000000006
 51
45.00000000000007
  0
ARC
  8
1
 62
7
 10
149.5550235888396
 20
33.39213562373164
 30
0
 40
1.999999999999984
 50
225.0000000000002
 51
315.0000000000003
  0
ARC
  8
1
 62
7
 10
-0.7259385214780103
 20
35.84999999999998
 30
0
 40
2
 50
90
 51
180
  0
ARC
  8
1
 62
7
 10
-0.7259385214780103
 20
2.649999999999963
 30
0
 40
2
 50
180
 51
270
  0
ARC
  8
1
 62
7
 10
41.97406147852199
 20
26.24999999999999
 30
0
 40
1
 50
0
 51
90
  0
ARC
  8
1
 62
7
 10
-134.8418790494534
 20
35.44999999999982
 30
0
 40
0.1000000000001293
 50
90
 51
180
  0
ARC
  8
1
 62
7
 10
-134.8418790494534
 20
35.04999999999995
 30
0
 40
0.1000000000000796
 50
180
 51
270
  0
ARC
  8
1
 62
7
 10
-133.6418790494533
 20
33.84999999999991
 30
0
 40
0.1000000000000796
 50
180
 51
270
  0
ARC
  8
1
 62
7
 10
-133.2418790494534
 20
33.84999999999991
 30
0
 40
0.09999999999990905
 50
270
 51
0
  0
ARC
  8
1
 62
7
 10
-132.0418790494534
 20
35.04999999999995
 30
0
 40
0.1000000000001293
 50
270
 51
0
  0
ARC
  8
1
 62
7
 10
-132.0418790494534
 20
35.44999999999982
 30
0
 40
0.09999999999990905
 50
0
 51
90
  0
ARC
  8
1
 62
7
 10
-133.2418790494534
 20
36.64999999999986
 30
0
 40
0.1000000000000796
 50
0
 51
90
  0
ARC
  8
1
 62
7
 10
-133.6418790494533
 20
36.64999999999986
 30
0
 40
0.1000000000001435
 50
90
 51
180
  0
ARC
  8
1
 62
7
 10
-133.8418790494534
 20
4.949999999999928
 30
0
 40
0.1000000000000227
 50
90
 51
180
  0
ARC
  8
1
 62
7
 10
-133.8418790494534
 20
4.549999999999951
 30
0
 40
0.1000000000000796
 50
180
 51
270
  0
ARC
  8
1
 62
7
 10
-132.6418790494533
 20
3.349999999999909
 30
0
 40
0.1000000000000796
 50
180
 51
270
  0
ARC
  8
1
 62
7
 10
-132.2418790494534
 20
3.349999999999909
 30
0
 40
0.1000000000000192
 50
270
 51
0
  0
ARC
  8
1
 62
7
 10
-131.0418790494534
 20
4.549999999999951
 30
0
 40
0.1000000000000227
 50
270
 51
0
  0
ARC
  8
1
 62
7
 10
-131.0418790494534
 20
4.949999999999928
 30
0
 40
0.09999999999990905
 50
0
 51
90
  0
ARC
  8
1
 62
7
 10
-132.2418790494534
 20
6.149999999999977
 30
0
 40
0.1000000000000796
 50
0
 51
90
  0
ARC
  8
1
 62
7
 10
-132.6418790494533
 20
6.149999999999977
 30
0
 40
0.09999999999991616
 50
90
 51
180
  0
ARC
  8
1
 62
7
 10
-168.3418790494534
 20
19.44999999999982
 30
0
 40
0.1000000000001293
 50
90
 51
180
  0
ARC
  8
1
 62
7
 10
-168.3418790494534
 20
19.04999999999995
 30
0
 40
0.1000000000000796
 50
180
 51
270
  0
ARC
  8
1
 62
7
 10
-167.1418790494533
 20
17.84999999999991
 30
0
 40
0.1000000000001933
 50
180
 51
270
  0
ARC
  8
1
 62
7
 10
-166.7418790494535
 20
17.84999999999991
 30
0
 40
0.09999999999990905
 50
270
 51
0
  0
ARC
  8
1
 62
7
 10
-165.5418790494534
 20
19.04999999999995
 30
0
 40
0.1000000000001293
 50
270
 51
0
  0
ARC
  8
1
 62
7
 10
-165.5418790494534
 20
19.44999999999982
 30
0
 40
0.09999999999990905
 50
0
 51
90
  0
ARC
  8
1
 62
7
 10
-166.7418790494535
 20
20.64999999999986
 30
0
 40
0.1000000000001933
 50
0
 51
90
  0
ARC
  8
1
 62
7
 10
-167.1418790494533
 20
20.64999999999986
 30
0
 40
0.10000000000014
 50
90
 51
180
  0
ARC
  8
1
 62
7
 10
-10.72593852147801
 20
42.75
 30
0
 40
1.5
 50
0
 51
90
  0
ARC
  8
1
 62
7
 10
-10.72593852147801
 20
-4.25000000000011
 30
0
 40
1.5
 50
270
 51
0
  0
ARC
  8
1
 62
7
 10
-4.72593852147801
 20
36.62999999999988
 30
0
 40
2
 50
0
 51
90
  0
ARC
  8
1
 62
7
 10
-4.72593852147801
 20
-0.9800000000000217
 30
0
 40
2
 50
270
 51
0
  0
ARC
  8
1
 62
7
 10
-6.625938521478101
 20
-3.980000000000022
 30
0
 40
1
 50
90
 51
180
  0
ARC
  8
1
 62
7
 10
-6.625938521478101
 20
39.62999999999988
 30
0
 40
1
 50
180
 51
270
  0
ARC
  8
1
 62
7
 10
-4.72593852147801
 20
36.62999999999988
 30
0
 40
2
 50
0
 51
90
  0
LINE
  8
1
 62
2
 10
28.42853878664765
 20
47.84999999999998
 30
0
 11
4.177475722680575
 21
47.84999999999998
 31
0
  0
LINE
  8
1
 62
2
 10
4.177475722680575
 20
47.84999999999998
 30
0
 11
16.4912970093406
 21
35.53617871333995
 31
0
  0
SOLID
  8
1
 62
2
 10
13.69059996687301
 20
37.68522913917819
 30
0
 11
14.34224658350236
 21
38.33687575580754
 31
0
 12
16.4912970093406
 22
35.53617871333995
 32
0
 13
16.4912970093406
 23
35.53617871333995
 33
0
  0
LINE
  8
1
 62
2
 10
110.453688009013
 20
-5.749999999999321
 30
0
 11
132.3331981818916
 21
-5.74999999999932
 31
0
  0
LINE
  8
1
 62
2
 10
132.3331981818916
 20
-5.74999999999932
 30
0
 11
147.3983479062205
 21
9.315149724329601
 31
0
  0
SOLID
  8
1
 62
2
 10
145.2492974803823
 20
6.514452681862007
 30
0
 11
144.5976508637529
 21
7.166099298491359
 31
0
 12
147.3983479062205
 22
9.315149724329601
 32
0
 13
147.3983479062205
 23
9.315149724329601
 33
0
  0
LINE
  8
1
 62
2
 10
191.4847862934124
 20
44.2500000000007
 30
0
 11
169.6052761205338
 21
44.2500000000007
 31
0
  0
LINE
  8
1
 62
2
 10
169.6052761205338
 20
44.2500000000007
 30
0
 11
154.5401263962048
 21
29.18485027567169
 31
0
  0
SOLID
  8
1
 62
2
 10
156.689176822043
 20
31.98554731813928
 30
0
 11
157.3408234386724
 21
31.33390070150993
 31
0
 12
154.5401263962048
 22
29.18485027567169
 32
0
 13
154.5401263962048
 23
29.18485027567169
 33
0
  0
TEXT
  8
1
 62
7
 10
67.53899226279052
 20
70.939313551808
 30
0
 40
4
  1
ＤＭＥ３７Ｓ５０Ｇ
 41
0.9
 72
1
 73
2
 11
99.93899226279051
 21
72.939313551808
 31
0
  0
TEXT
  8
1
 62
2
 10
-5.842231864893051
 20
48.76236279882538
 30
0
 40
3.5
  1
ネームプレート
 41
0.9
 72
1
 73
2
 11
16.20776813510695
 21
50.51236279882538
 31
0
  0
TEXT
  8
1
 62
2
 10
101.6005405414827
 20
-4.758294447503814
 30
0
 40
3.5
  1
（＋）タンシ
 41
0.9
 72
1
 73
2
 11
120.5005405414827
 21
-3.008294447503814
 31
0
  0
TEXT
  8
1
 62
2
 10
161.6005405414827
 20
45.34170555249617
 30
0
 40
3.5
  1
（－）タンシ
 41
0.9
 72
1
 73
2
 11
180.5005405414827
 21
47.09170555249617
 31
0
  0
DIMENSION
  8
1
  6
CONTINUOUS
 62
2
  2
*D0
  3
DMST_1
 10
-2.725938521478009
 20
54.25
 30
0
 11
-17.52593852147797
 21
56.85
 31
0
 12
0
 22
0
 32
0
 70
0
 13
-32.32593852147792
 23
44.25
 33
0
 14
-2.72593852147801
 24
36.62999999999988
 34
0
 53
0
  0
DIMENSION
  8
1
  6
CONTINUOUS
 62
2
  2
*D1
  3
DMST_2
 10
38.97406147852199
 20
54.25
 30
0
 11
34.5230614809743
 21
56.85
 31
0
 12
0
 22
0
 32
0
 70
0
  1
(<>
 13
42.97406147852199
 23
26.24999999999999
 33
0
 14
38.97406147852199
 24
37.84999999999998
 34
0
 53
0
  0
DIMENSION
  8
1
  6
CONTINUOUS
 62
2
  2
*D2
  3
DMST_1
 10
75.53377210493129
 20
37.84999999999998
 30
0
 11
72.93377210493129
 21
19.24999999999997
 31
0
 12
0
 22
0
 32
0
 70
0
 13
35.97406147852199
 23
0.6499999999999631
 33
0
 14
38.97406147852199
 24
37.84999999999998
 34
0
 50
90
 53
0
  0
DIMENSION
  8
1
  6
CONTINUOUS
 62
2
  2
*D3
  3
DMST_1
 10
-121.9418790494535
 20
64.25000000000003
 30
0
 11
-146.9418790494535
 21
66.85000000000002
 31
0
 12
0
 22
0
 32
0
 70
0
  1
%%c<>
 13
-171.9418790494535
 23
19.25
 33
0
 14
-121.9418790494535
 24
19.25
 34
0
 53
0
  0
DIMENSION
  8
1
  6
CONTINUOUS
 62
2
  2
*D4
  3
DMST_3
 10
-101.9418790494535
 20
19.25
 30
0
 11
-104.5418790494535
 21
9.249999999999943
 31
0
 12
0
 22
0
 32
0
 70
0
 13
-144.3214406987104
 23
-0.7500000000001101
 33
0
 14
-118.2701536566003
 24
19.25
 34
0
 50
90
 53
0
  0
DIMENSION
  8
1
  6
CONTINUOUS
 62
2
  2
*D5
  3
DMST_3
 10
-101.9418790494535
 20
29.24999999999999
 30
0
 11
-104.5418790494535
 21
37.64396480788719
 31
0
 12
0
 22
0
 32
0
 70
0
 13
-118.2701536566003
 23
19.25
 33
0
 14
-127.3773352502753
 24
29.25
 34
0
 50
90
 53
0
  0
DIMENSION
  8
1
  6
CONTINUOUS
 62
2
  2
*D6
  3
DMST_3
 10
-111.9418790494535
 20
27.24999999999997
 30
0
 11
-114.5418790494535
 21
37.27023348318147
 31
0
 12
0
 22
0
 32
0
 70
0
 13
-118.2701536566003
 23
19.25
 33
0
 14
-140.2627742089385
 24
27.25
 34
0
 50
90
 53
0
  0
DIMENSION
  8
1
  6
CONTINUOUS
 62
2
  2
*D7
  3
DMST_3
 10
-146.9418790494535
 20
54.25000000000002
 30
0
 11
-155.4418790494535
 21
56.85000000000002
 31
0
 12
0
 22
0
 32
0
 70
0
 13
-163.9418790494535
 23
31.66141786481785
 33
0
 14
-146.9418790494535
 24
46.91870091117238
 34
0
 53
0
  0
DIMENSION
  8
1
  6
CONTINUOUS
 62
2
  2
*D8
  3
DMST_3
 10
-129.9418790494535
 20
54.25000000000002
 30
0
 11
-138.4418790494535
 21
56.85000000000002
 31
0
 12
0
 22
0
 32
0
 70
0
 13
-146.9418790494535
 23
46.91870091117238
 33
0
 14
-129.9418790494535
 24
31.66141786481785
 34
0
 53
0
  0
DIMENSION
  8
1
  6
CONTINUOUS
 62
2
  2
*D9
  3
DMST_1
 10
-32.32593852147792
 20
54.25000000000002
 30
0
 11
-34.32593852147792
 21
56.85000000000002
 31
0
 12
0
 22
0
 32
0
 70
0
 13
-36.32593852147792
 23
33.25
 33
0
 14
-32.32593852147792
 24
44.25
 34
0
 53
0
  0
DIMENSION
  8
1
  6
CONTINUOUS
 62
2
  2
*D10
  3
DMST_1
 10
-32.32593852147792
 20
64.25
 30
0
 11
-44.82593852147792
 21
66.84999999999999
 31
0
 12
0
 22
0
 32
0
 70
0
 13
-57.32593852147793
 23
29.75
 33
0
 14
-32.32593852147792
 24
44.25
 34
0
 53
0
  0
DIMENSION
  8
1
  6
CONTINUOUS
 62
2
  2
*D11
  3
DMST_4
 10
-87.32593852147792
 20
33.25
 30
0
 11
-89.92593852147792
 21
45.4351760413021
 31
0
 12
0
 22
0
 32
0
 70
0
  1
%%c<>
 13
-36.32593852147792
 23
21.25
 33
0
 14
-36.32593852147792
 24
33.25
 34
0
 50
90
 53
0
  0
DIMENSION
  8
1
  6
CONTINUOUS
 62
2
  2
*D12
  3
DMST_5
 10
-77.32593852147792
 20
30.25000000000001
 30
0
 11
-80.72593852147793
 21
45.82900822720131
 31
0
 12
0
 22
0
 32
0
 70
0
  1
%%c<>
 13
-57.32593852147793
 23
24.25
 33
0
 14
-45.32593852147792
 24
30.25
 34
0
 50
90
 53
0
  0
DIMENSION
  8
1
  6
CONTINUOUS
 62
2
  2
*D13
  3
DMST_3
 10
-67.32593852147792
 20
29.75000000000002
 30
0
 11
-69.92593852147792
 21
45.01643980771462
 31
0
 12
0
 22
0
 32
0
 70
0
 13
-57.32593852147793
 23
24.25
 33
0
 14
-57.32593852147793
 24
29.75
 34
0
 50
90
 53
0
  0
DIMENSION
  8
1
  6
CONTINUOUS
 62
2
  2
*D14
  3
DMST_6
 10
49.37406147852201
 20
64.25
 30
0
 11
46.174061478522
 21
66.84999999999999
 31
0
 12
0
 22
0
 32
0
 70
0
 13
42.97406147852199
 23
26.24999999999999
 33
0
 14
49.37406147852201
 24
27.31549961756002
 34
0
 53
0
  0
DIMENSION
  8
1
  6
CONTINUOUS
 62
2
  2
*D15
  3
DMST_1
 10
42.974061478522
 20
64.25
 30
0
 11
5.324061478522033
 21
66.84999999999999
 31
0
 12
0
 22
0
 32
0
 70
0
 13
-32.32593852147792
 23
44.25
 33
0
 14
42.97406147852199
 24
26.24999999999999
 34
0
 53
0
  0
DIMENSION
  8
1
  6
CONTINUOUS
 62
2
  2
*D16
  3
DMST_7
 10
-45.32593852147792
 20
54.25
 30
0
 11
-51.32593852147792
 21
58
 31
0
 12
0
 22
0
 32
0
 70
0
 13
-57.32593852147793
 23
29.75
 33
0
 14
-45.32593852147792
 24
30.25
 34
0
 53
0
  0
INSERT
  8
1
  2
*D17
 10
0
 20
0
 30
0
  0
ENDSEC
  0
EOF
