  0
SECTION
  2
HEADER
  9
$ACADVER
  1
AC1009
  9
$INSBASE
 10
0
 20
0
  9
$EXTMIN
 10
-175.6371735681647
 20
-41.59999999999998
  9
$EXTMAX
 10
143.0782842890835
 20
54.18931355180806
  9
$LIMMIN
 10
-175.6371735681647
 20
-41.59999999999998
  9
$LIMMAX
 10
143.0782842890835
 20
54.18931355180806
  9
$VIEWCTR
 10
10
 20
10
  9
$VIEWSIZE
 40
10
  9
$SNAPMODE
 70
0
  9
$SNAPUNIT
 10
1
 20
1
  9
$SNAPBASE
 10
0
 20
0
  9
$SNAPANG
 50
0
  9
$SNAPSTYLE
 70
0
  9
$SNAPISOPAIR
 70
0
  9
$GRIDMODE
 70
0
  9
$GRIDUNIT
 10
0
 20
0
  9
$ORTHOMODE
 70
0
  9
$REGENMODE
 70
1
  9
$FILLMODE
 70
1
  9
$QTEXTMODE
 70
0
  9
$DRAGMODE
 70
2
  9
$LTSCALE
 40
1
  9
$OSMODE
 70
0
  9
$ATTMODE
 70
1
  9
$TEXTSIZE
 40
3.5
  9
$TRACEWID
 40
0.5
  9
$TEXTSTYLE
  7
STANDARD
  9
$CLAYER
  8
0
  9
$CELTYPE
  6
BYLAYER
  9
$CECOLOR
 62
256
  9
$DIMSCALE
 40
1
  9
$DIMASZ
 40
0.18
  9
$DIMEXO
 40
0.0625
  9
$DIMDLI
 40
0.38
  9
$DIMRND
 40
0
  9
$DIMDLE
 40
0
  9
$DIMEXE
 40
0.18
  9
$DIMTP
 40
0
  9
$DIMTM
 40
0
  9
$DIMTXT
 40
0.18
  9
$DIMCEN
 40
0.09
  9
$DIMTSZ
 40
0
  9
$DIMTOL
 70
0
  9
$DIMLIM
 70
0
  9
$DIMTIH
 70
1
  9
$DIMTOH
 70
1
  9
$DIMSE1
 70
0
  9
$DIMSE2
 70
0
  9
$DIMTAD
 70
0
  9
$DIMZIN
 70
0
  9
$DIMBLK
  1

  9
$DIMASO
 70
1
  9
$DIMSHO
 70
1
  9
$DIMPOST
  1

  9
$DIMAPOST
  1

  9
$DIMALT
 70
0
  9
$DIMALTD
 70
2
  9
$DIMALTF
 40
25.4
  9
$DIMLFAC
 40
1
  9
$DIMTOFL
 70
0
  9
$DIMTVP
 40
0
  9
$DIMTIX
 70
0
  9
$DIMSOXD
 70
0
  9
$DIMSAH
 70
0
  9
$DIMBLK1
  1

  9
$DIMBLK2
  1

  9
$DIMSTYLE
  2
*UNNAMED
  9
$DIMCLRD
 70
0
  9
$DIMCLRE
 70
0
  9
$DIMCLRT
 70
0
  9
$DIMTFAC
 40
1
  9
$DIMGAP
 40
0.09
  9
$LUNITS
 70
2
  9
$LUPREC
 70
4
  9
$AXISMODE
 70
0
  9
$AXISUNIT
 10
0
 20
0
  9
$SKETCHINC
 40
0.1
  9
$FILLETRAD
 40
2
  9
$AUNITS
 70
0
  9
$AUPREC
 70
0
  9
$MENU
  1
ACAD
  9
$ELEVATION
 40
0
  9
$THICKNESS
 40
0
  9
$VIEWDIR
 10
0
 20
0
 30
1
  9
$LIMCHECK
 70
0
  9
$BLIPMODE
 70
1
  9
$CHAMFERA
 40
0
  9
$CHAMFERB
 40
0
  9
$FASTZOOM
 70
1
  9
$SKPOLY
 70
0
  9
$ANGBASE
 50
0
  9
$ANGDIR
 70
0
  9
$PDMODE
 70
0
  9
$PDSIZE
 40
0
  9
$PLINEWID
 40
0
  9
$COORDS
 70
2
  0
ENDSEC
  0
SECTION
  2
TABLES
  0
TABLE
  2
DIMSTYLE
 70
7
  0
DIMSTYLE
  2
DMST_1
 70
0
  3

  4

  5

  6

  7

 40
1
 41
3.2
 42
1
 43
7
 44
1
 45
0
 46
0
 47
0
 48
0
140
3.2
141
0
142
0
143
25.4
144
1
145
0
146
1
147
0.09
 71
0
 72
0
 73
0
 74
0
 75
0
 76
0
 77
1
 78
9
170
0
171
2
172
0
173
0
174
0
175
0
176
2
177
2
178
2
  0
DIMSTYLE
  2
DMST_2
 70
0
  3

  4

  5

  6

  7

 40
1
 41
3.2
 42
1
 43
7
 44
1
 45
0
 46
0
 47
0
 48
0.1
140
3.2
141
0
142
0
143
25.4
144
1
145
0
146
0.6
147
0.09
 71
1
 72
0
 73
0
 74
0
 75
0
 76
0
 77
1
 78
9
170
0
171
2
172
0
173
0
174
0
175
0
176
2
177
2
178
2
  0
DIMSTYLE
  2
DMST_3
 70
0
  3

  4

  5

  6

  7

 40
1
 41
3.2
 42
1
 43
7
 44
1
 45
0
 46
0
 47
0
 48
0.02
140
3.2
141
0
142
0
143
25.4
144
1
145
0
146
0.6
147
0.09
 71
1
 72
0
 73
0
 74
0
 75
0
 76
0
 77
1
 78
9
170
0
171
2
172
0
173
0
174
0
175
0
176
2
177
2
178
2
  0
DIMSTYLE
  2
DMST_4
 70
0
  3
)
  4

  5

  6

  7

 40
1
 41
3.2
 42
1
 43
7
 44
1
 45
0
 46
0
 47
0
 48
0
140
3.2
141
0
142
0
143
25.4
144
1
145
0
146
1
147
0.09
 71
0
 72
0
 73
0
 74
0
 75
0
 76
0
 77
1
 78
9
170
0
171
2
172
0
173
0
174
0
175
0
176
2
177
2
178
2
  0
DIMSTYLE
  2
DMST_5
 70
0
  3

  4

  5

  6

  7

 40
1
 41
3.2
 42
1
 43
7
 44
1
 45
0
 46
0
 47
0
 48
0
140
3.2
141
0
142
0
143
25.4
144
1
145
0
146
1
147
0.09
 71
0
 72
0
 73
0
 74
0
 75
0
 76
0
 77
1
 78
9
170
0
171
2
172
0
173
0
174
0
175
0
176
2
177
2
178
2
  0
DIMSTYLE
  2
DMST_6
 70
0
  3
XT0.5
  4

  5

  6

  7

 40
1
 41
3.2
 42
1
 43
7
 44
1
 45
0
 46
0
 47
0
 48
0
140
3.2
141
0
142
0
143
25.4
144
1
145
0
146
1
147
0.09
 71
0
 72
0
 73
0
 74
0
 75
0
 76
0
 77
1
 78
9
170
0
171
2
172
0
173
0
174
0
175
0
176
2
177
2
178
2
  0
DIMSTYLE
  2
DMST_7
 70
0
  3

  4

  5

  6

  7

 40
1
 41
3.2
 42
1
 43
7
 44
1
 45
0
 46
0
 47
0.5
 48
0.5
140
3.2
141
0
142
0
143
25.4
144
1
145
0
146
0.6
147
0.09
 71
1
 72
0
 73
0
 74
0
 75
0
 76
0
 77
1
 78
9
170
0
171
2
172
0
173
0
174
0
175
0
176
2
177
2
178
2
  0
ENDTAB
  0
TABLE
  2
LTYPE
 70
9
  0
LTYPE
  2
CONTINUOUS
 70
64
  3
Solid line
 72
65
 73
0
 40
0
  0
LTYPE
  2
BORDER
 70
64
  3
__ __ . __ __ .
 72
65
 73
6
 40
14.67768555921538
 49
4.193624445490109
 49
-2.096812222745054
 49
4.193624445490109
 49
-2.096812222745054
 49
0
 49
-2.096812222745054
  0
LTYPE
  2
CENTER
 70
64
  3
____ _ ____ _
 72
65
 73
4
 40
16.77449778196043
 49
10.48406111372527
 49
-2.096812222745054
 49
2.096812222745054
 49
-2.096812222745054
  0
LTYPE
  2
DASHDOT
 70
64
  3
__ . __ . __ .
 72
65
 73
4
 40
8.387248890980217
 49
4.193624445490109
 49
-2.096812222745054
 49
0
 49
-2.096812222745054
  0
LTYPE
  2
DASHED
 70
64
  3
__ __ __ __ __
 72
65
 73
2
 40
6.290436668235163
 49
4.193624445490109
 49
-2.096812222745054
  0
LTYPE
  2
DIVIDE
 70
64
  3
__ . . __ . . 
 72
65
 73
6
 40
10.48406111372527
 49
4.193624445490109
 49
-2.096812222745054
 49
0
 49
-2.096812222745054
 49
0
 49
-2.096812222745054
  0
LTYPE
  2
DOT
 70
64
  3
..............
 72
65
 73
4
 40
4.193624445490109
 49
0
 49
-2.096812222745054
 49
0
 49
-2.096812222745054
  0
LTYPE
  2
HIDDEN
 70
64
  3
_ _ _ _ _ _ _
 72
65
 73
2
 40
3.145218334117581
 49
2.096812222745054
 49
-1.048406111372527
  0
LTYPE
  2
PHANTOM
 70
64
  3
_____ _ _ _____ _ _ 
 72
65
 73
6
 40
20.96812222745054
 49
10.48406111372527
 49
-2.096812222745054
 49
2.096812222745054
 49
-2.096812222745054
 49
2.096812222745054
 49
-2.096812222745054
  0
ENDTAB
  0
TABLE
  2
LAYER
 70
3
  0
LAYER
  2
1
 70
0
 62
7
  6
CONTINUOUS
  0
LAYER
  2
0
 70
0
 62
7
  6
CONTINUOUS
  0
ENDTAB
  0
TABLE
  2
STYLE
 70
4
  0
STYLE
  2
STANDARD
 70
0
 40
0
 41
1
 50
0
 71
0
 42
3.5
  3
txt
  4

  0
STYLE
  2
SIMPLEX
 70
0
 40
0
 41
1
 50
0
 71
0
 42
3.5
  3
simplex
  4

  0
STYLE
  2
COMPLEX
 70
0
 40
0
 41
1
 50
0
 71
0
 42
3.5
  3
complex
  4

  0
STYLE
  2
ITALIC
 70
0
 40
0
 41
1
 50
0
 71
0
 42
3.5
  3
italic
  4

  0
ENDTAB
  0
TABLE
  2
VIEW
 70
0
  0
ENDTAB
  0
ENDSEC
  0
SECTION
  2
BLOCKS
  0
BLOCK
  8
1
  2
*D0
 70
1
 10
0
 20
0
 30
0
  0
LINE
  8
1
 62
2
 10
-102.7371735681646
 20
-20.59999999999997
 30
0
 11
-102.7371735681646
 21
16.60000000000003
 31
0
  0
LINE
  8
1
 62
2
 10
-50.73717356816465
 20
16.60000000000003
 30
0
 11
-103.7371735681646
 21
16.60000000000003
 31
0
  0
LINE
  8
1
 62
2
 10
-50.73717356816465
 20
-20.59999999999997
 30
0
 11
-103.7371735681646
 21
-20.59999999999997
 31
0
  0
SOLID
  8
1
 62
2
 10
-102.7371735681646
 20
16.60000000000003
 30
0
 11
-102.3211735681646
 21
13.40000000000003
 31
0
 12
-103.1531735681646
 22
13.40000000000003
 32
0
 13
-103.1531735681646
 23
13.40000000000003
 33
0
  0
SOLID
  8
1
 62
2
 10
-102.7371735681646
 20
-20.59999999999997
 30
0
 11
-103.1531735681646
 21
-17.39999999999997
 31
0
 12
-102.3211735681646
 22
-17.39999999999997
 32
0
 13
-102.3211735681646
 23
-17.39999999999997
 33
0
  0
TEXT
  8
1
 62
2
 10
-104.590506901498
 20
-4.336470588235267
 30
0
 40
3.2
  1
37.2
 50
90
 41
0.9
  0
TEXT
  8
1
 62
2
 10
-104.590506901498
 20
-8.383529411764679
 30
0
 40
3.2
  1
φ
 50
90
 41
0.9
  0
ENDBLK
  8
0
  0
BLOCK
  8
1
  2
*D1
 70
1
 10
0
 20
0
 30
0
  0
LINE
  8
1
 62
2
 10
-92.63717356816464
 20
4.000000000000039
 30
0
 11
-92.63717356816464
 21
32.25742461278884
 31
0
  0
LINE
  8
1
 62
2
 10
-92.63717356816464
 20
-7.999999999999961
 30
0
 11
-92.63717356816464
 21
4.000000000000039
 31
0
  0
LINE
  8
1
 62
2
 10
-55.03717356816449
 20
4.000000000000039
 30
0
 11
-93.63717356816464
 21
4.000000000000039
 31
0
  0
LINE
  8
1
 62
2
 10
-55.03717356816449
 20
-7.999999999999961
 30
0
 11
-93.63717356816464
 21
-7.999999999999961
 31
0
  0
SOLID
  8
1
 62
2
 10
-92.63717356816464
 20
4.000000000000039
 30
0
 11
-92.22117356816465
 21
0.8000000000000385
 31
0
 12
-93.05317356816464
 22
0.8000000000000385
 32
0
 13
-93.05317356816464
 23
0.8000000000000385
 33
0
  0
SOLID
  8
1
 62
2
 10
-92.63717356816464
 20
-7.999999999999961
 30
0
 11
-93.05317356816464
 21
-4.79999999999996
 31
0
 12
-92.22117356816465
 22
-4.79999999999996
 32
0
 13
-92.22117356816465
 23
-4.79999999999996
 33
0
  0
TEXT
  8
1
 62
2
 10
-94.05825805991965
 20
22.35342461278884
 30
0
 40
3.2
  1
12
 50
90
 41
0.9
  0
TEXT
  8
1
 62
2
 10
-96.13825805991965
 20
27.79342461278884
 30
0
 40
1.92
  1
 0
 50
90
 41
0.9
  0
TEXT
  8
1
 62
2
 10
-93.25825805991966
 20
27.79342461278884
 30
0
 40
1.92
  1
-0.1
 50
90
 41
0.9
  0
TEXT
  8
1
 62
2
 10
-94.05825805991965
 20
18.30636578925943
 30
0
 40
3.2
  1
φ
 50
90
 41
0.9
  0
ENDBLK
  8
0
  0
BLOCK
  8
1
  2
*D2
 70
1
 10
0
 20
0
 30
0
  0
LINE
  8
1
 62
2
 10
-82.73717356816464
 20
-4.973799150320701e-014
 30
0
 11
-82.73717356816464
 21
32.73200200505795
 31
0
  0
LINE
  8
1
 62
2
 10
-82.73717356816464
 20
-4.00000000000005
 30
0
 11
-82.73717356816464
 21
-4.973799150320701e-014
 31
0
  0
LINE
  8
1
 62
2
 10
-82.73717356816464
 20
-10.40000000000005
 30
0
 11
-82.73717356816464
 21
-4.00000000000005
 31
0
  0
LINE
  8
1
 62
2
 10
-73.43717356816444
 20
-4.973799150320701e-014
 30
0
 11
-83.73717356816464
 21
-4.973799150320701e-014
 31
0
  0
LINE
  8
1
 62
2
 10
-73.43717356816444
 20
-4.00000000000005
 30
0
 11
-83.73717356816464
 21
-4.00000000000005
 31
0
  0
SOLID
  8
1
 62
2
 10
-82.73717356816464
 20
-4.973799150320701e-014
 30
0
 11
-83.15317356816463
 21
3.199999999999951
 31
0
 12
-82.32117356816464
 22
3.199999999999951
 32
0
 13
-82.32117356816464
 23
3.199999999999951
 33
0
  0
SOLID
  8
1
 62
2
 10
-82.73717356816464
 20
-4.00000000000005
 30
0
 11
-82.32117356816464
 21
-7.200000000000051
 31
0
 12
-83.15317356816463
 22
-7.200000000000051
 32
0
 13
-83.15317356816463
 23
-7.200000000000051
 33
0
  0
TEXT
  8
1
 62
2
 10
-84.55062672276885
 20
22.44400200505795
 30
0
 40
3.2
  1
4
 50
90
 41
0.9
  0
TEXT
  8
1
 62
2
 10
-86.63062672276885
 20
25.96400200505794
 30
0
 40
1.92
  1
 0
 50
90
 41
0.9
  0
TEXT
  8
1
 62
2
 10
-83.75062672276886
 20
25.96400200505794
 30
0
 40
1.92
  1
-0.02
 50
90
 41
0.9
  0
TEXT
  8
1
 62
2
 10
-84.55062672276885
 20
18.39694318152854
 30
0
 40
3.2
  1
φ
 50
90
 41
0.9
  0
ENDBLK
  8
0
  0
BLOCK
  8
1
  2
*D3
 70
1
 10
0
 20
0
 30
0
  0
LINE
  8
1
 62
2
 10
-10.03717356816458
 20
36.60000000000004
 30
0
 11
-17.25446499507973
 21
36.60000000000004
 31
0
  0
LINE
  8
1
 62
2
 10
-10.03717356816458
 20
36.60000000000004
 30
0
 11
-6.03717356816458
 21
36.60000000000004
 31
0
  0
LINE
  8
1
 62
2
 10
0.3628264318354191
 20
36.60000000000004
 30
0
 11
-6.03717356816458
 21
36.60000000000004
 31
0
  0
LINE
  8
1
 62
2
 10
-6.03717356816458
 20
6.00000000000005
 30
0
 11
-6.03717356816458
 21
37.60000000000004
 31
0
  0
LINE
  8
1
 62
2
 10
-10.03717356816458
 20
17.60000000000004
 30
0
 11
-10.03717356816458
 21
37.60000000000004
 31
0
  0
SOLID
  8
1
 62
2
 10
-10.03717356816458
 20
36.60000000000004
 30
0
 11
-13.23717356816458
 21
36.18400000000004
 31
0
 12
-13.23717356816458
 22
37.01600000000003
 32
0
 13
-13.23717356816458
 23
37.01600000000003
 33
0
  0
SOLID
  8
1
 62
2
 10
-6.03717356816458
 20
36.60000000000004
 30
0
 11
-2.837173568164579
 21
37.01600000000003
 31
0
 12
-2.837173568164579
 22
36.18400000000004
 32
0
 13
-2.837173568164579
 23
36.18400000000004
 33
0
  0
TEXT
  8
1
 62
2
 10
-15.17446499507973
 20
37.71481494777955
 30
0
 40
3.2
  1
4
 41
0.9
  0
TEXT
  8
1
 62
2
 10
-17.25446499507973
 20
37.71481494777955
 30
0
 40
3.2
  1
(
 41
0.9
  0
TEXT
  8
1
 62
2
 10
-11.65446499507973
 20
37.71481494777955
 30
0
 40
3.2
  1
)
 41
0.9
  0
ENDBLK
  8
0
  0
BLOCK
  8
1
  2
*D4
 70
1
 10
0
 20
0
 30
0
  0
LINE
  8
1
 62
2
 10
33.38949309850215
 20
-9.999999999999957
 30
0
 11
33.38949309850215
 21
6.000000000000043
 31
0
  0
LINE
  8
1
 62
2
 10
-6.03717356816458
 20
-9.999999999999957
 30
0
 11
34.38949309850216
 21
-9.999999999999957
 31
0
  0
LINE
  8
1
 62
2
 10
-6.03717356816458
 20
6.000000000000043
 30
0
 11
34.38949309850216
 21
6.000000000000043
 31
0
  0
SOLID
  8
1
 62
2
 10
33.38949309850215
 20
6.000000000000043
 30
0
 11
33.80549309850215
 21
2.800000000000042
 31
0
 12
32.97349309850215
 22
2.800000000000042
 32
0
 13
32.97349309850215
 23
2.800000000000042
 33
0
  0
SOLID
  8
1
 62
2
 10
33.38949309850215
 20
-9.999999999999957
 30
0
 11
32.97349309850215
 21
-6.799999999999956
 31
0
 12
33.80549309850215
 22
-6.799999999999956
 32
0
 13
33.80549309850215
 23
-6.799999999999956
 33
0
  0
TEXT
  8
1
 62
2
 10
31.53615976516884
 20
-1.896470588235251
 30
0
 40
3.2
  1
16
 50
90
 41
0.9
  0
TEXT
  8
1
 62
2
 10
31.53615976516884
 20
-5.943529411764663
 30
0
 40
3.2
  1
φ
 50
90
 41
0.9
  0
TEXT
  8
1
 62
2
 10
31.53615976516884
 20
2.503529411764748
 30
0
 40
3.2
  1

 50
90
 41
0.9
  0
ENDBLK
  8
0
  0
BLOCK
  8
1
  2
*D5
 70
1
 10
0
 20
0
 30
0
  0
LINE
  8
1
 62
2
 10
-51.73717356816463
 20
46.60000000000003
 30
0
 11
-6.03717356816458
 21
46.60000000000003
 31
0
  0
LINE
  8
1
 62
2
 10
-6.03717356816458
 20
6.000000000000043
 30
0
 11
-6.03717356816458
 21
47.60000000000003
 31
0
  0
LINE
  8
1
 62
2
 10
-51.73717356816463
 20
15.60000000000004
 30
0
 11
-51.73717356816463
 21
47.60000000000003
 31
0
  0
SOLID
  8
1
 62
2
 10
-51.73717356816463
 20
46.60000000000003
 30
0
 11
-48.53717356816463
 21
47.01600000000003
 31
0
 12
-48.53717356816463
 22
46.18400000000003
 32
0
 13
-48.53717356816463
 23
46.18400000000003
 33
0
  0
SOLID
  8
1
 62
2
 10
-6.03717356816458
 20
46.60000000000003
 30
0
 11
-9.237173568164581
 21
46.18400000000003
 31
0
 12
-9.237173568164581
 22
47.01600000000003
 32
0
 13
-9.237173568164581
 23
47.01600000000003
 33
0
  0
TEXT
  8
1
 62
2
 10
-33.2471735681645
 20
47.60000000000003
 30
0
 40
3.2
  1
45.7
 41
0.9
  0
ENDBLK
  8
0
  0
BLOCK
  8
1
  2
*D6
 70
1
 10
0
 20
0
 30
0
  0
LINE
  8
1
 62
2
 10
89.53300210452436
 20
26.60000000000018
 30
0
 11
108.0830021045243
 21
26.60000000000018
 31
0
  0
LINE
  8
1
 62
2
 10
89.53300210452436
 20
4.366206426214021
 30
0
 11
89.53300210452436
 21
27.60000000000018
 31
0
  0
LINE
  8
1
 62
2
 10
108.0830021045243
 20
4.366206426214021
 30
0
 11
108.0830021045243
 21
27.60000000000018
 31
0
  0
SOLID
  8
1
 62
2
 10
89.53300210452436
 20
26.60000000000018
 30
0
 11
92.73300210452436
 21
27.01600000000018
 31
0
 12
92.73300210452436
 22
26.18400000000018
 32
0
 13
92.73300210452436
 23
26.18400000000018
 33
0
  0
SOLID
  8
1
 62
2
 10
108.0830021045243
 20
26.60000000000018
 30
0
 11
104.8830021045243
 21
26.18400000000018
 31
0
 12
104.8830021045243
 22
27.01600000000018
 32
0
 13
104.8830021045243
 23
27.01600000000018
 33
0
  0
TEXT
  8
1
 62
2
 10
94.92800210452434
 20
27.60000000000018
 30
0
 40
3.2
  1
18.6
 41
0.9
  0
TEXT
  8
1
 62
2
 10
92.84800210452434
 20
27.60000000000018
 30
0
 40
3.2
  1
(
 41
0.9
  0
TEXT
  8
1
 62
2
 10
104.2880021045243
 20
27.60000000000018
 30
0
 40
3.2
  1
)
 41
0.9
  0
ENDBLK
  8
0
  0
BLOCK
  8
1
  2
*D7
 70
1
 10
0
 20
0
 30
0
  0
LINE
  8
1
 62
2
 10
22.96282643183542
 20
0.7500000000000107
 30
0
 11
22.96282643183542
 21
22.15485380905302
 31
0
  0
LINE
  8
1
 62
2
 10
22.96282643183542
 20
-4.750000000000018
 30
0
 11
22.96282643183542
 21
0.7500000000000107
 31
0
  0
LINE
  8
1
 62
2
 10
22.96282643183542
 20
-11.15000000000002
 30
0
 11
22.96282643183542
 21
-4.750000000000018
 31
0
  0
LINE
  8
1
 62
2
 10
-4.987173568164629
 20
0.7500000000000107
 30
0
 11
23.96282643183542
 21
0.7500000000000107
 31
0
  0
LINE
  8
1
 62
2
 10
-4.987173568164629
 20
-4.750000000000018
 30
0
 11
23.96282643183542
 21
-4.750000000000018
 31
0
  0
SOLID
  8
1
 62
2
 10
22.96282643183542
 20
0.7500000000000107
 30
0
 11
22.54682643183542
 21
3.950000000000011
 31
0
 12
23.37882643183542
 22
3.950000000000011
 32
0
 13
23.37882643183542
 23
3.950000000000011
 33
0
  0
SOLID
  8
1
 62
2
 10
22.96282643183542
 20
-4.750000000000018
 30
0
 11
23.37882643183542
 21
-7.950000000000019
 31
0
 12
22.54682643183542
 22
-7.950000000000019
 32
0
 13
22.54682643183542
 23
-7.950000000000019
 33
0
  0
TEXT
  8
1
 62
2
 10
21.96282643183551
 20
16.31485380905301
 30
0
 40
3.2
  1
5.5
 50
90
 41
0.9
  0
TEXT
  8
1
 62
2
 10
21.96282643183551
 20
10.23485380905301
 30
0
 40
3.2
  1
2-
 50
90
 41
0.9
  0
ENDBLK
  8
0
  0
BLOCK
  8
1
  2
*D8
 70
1
 10
0
 20
0
 30
0
  0
LINE
  8
1
 62
2
 10
12.96282643183542
 20
-10.77499999999997
 30
0
 11
12.96282643183542
 21
-4.374999999999961
 31
0
  0
LINE
  8
1
 62
2
 10
12.96282643183542
 20
-4.374999999999961
 30
0
 11
12.96282643183542
 21
0.3750000000000391
 31
0
  0
LINE
  8
1
 62
2
 10
12.96282643183542
 20
0.3750000000000391
 30
0
 11
12.96282643183542
 21
37.46140484011901
 31
0
  0
LINE
  8
1
 62
2
 10
0.3628264318355097
 20
-4.374999999999961
 30
0
 11
13.96282643183542
 21
-4.374999999999961
 31
0
  0
LINE
  8
1
 62
2
 10
0.3628264318355097
 20
0.3750000000000391
 30
0
 11
13.96282643183542
 21
0.3750000000000391
 31
0
  0
SOLID
  8
1
 62
2
 10
12.96282643183542
 20
0.3750000000000391
 30
0
 11
12.54682643183542
 21
3.57500000000004
 31
0
 12
13.37882643183542
 22
3.57500000000004
 32
0
 13
13.37882643183542
 23
3.57500000000004
 33
0
  0
SOLID
  8
1
 62
2
 10
12.96282643183542
 20
-4.374999999999961
 30
0
 11
13.37882643183542
 21
-7.574999999999962
 31
0
 12
12.54682643183542
 22
-7.574999999999962
 32
0
 13
12.54682643183542
 23
-7.574999999999962
 33
0
  0
TEXT
  8
1
 62
2
 10
11.96282643183551
 20
14.90140484011902
 30
0
 40
3.2
  1
4.75
 50
90
 41
0.9
  0
TEXT
  8
1
 62
2
 10
11.96282643183551
 20
8.821404840119019
 30
0
 40
3.2
  1
2-
 50
90
 41
0.9
  0
TEXT
  8
1
 62
2
 10
11.96282643183551
 20
25.22140484011902
 30
0
 40
3.2
  1
XT0.5
 50
90
 41
0.9
  0
ENDBLK
  8
0
  0
BLOCK
  8
1
  2
*D9
 70
1
 10
0
 20
0
 30
0
  0
LINE
  8
1
 62
2
 10
0.3628264318355097
 20
46.60000000000004
 30
0
 11
6.762826431835601
 21
46.60000000000004
 31
0
  0
LINE
  8
1
 62
2
 10
-6.037173568164581
 20
46.60000000000004
 30
0
 11
-12.43717356816467
 21
46.60000000000004
 31
0
  0
LINE
  8
1
 62
2
 10
-6.037173568164581
 20
46.60000000000004
 30
0
 11
0.3628264318355097
 21
46.60000000000004
 31
0
  0
LINE
  8
1
 62
2
 10
0.3628264318355097
 20
0.3750000000000426
 30
0
 11
0.3628264318355097
 21
47.60000000000004
 31
0
  0
LINE
  8
1
 62
2
 10
-6.037173568164581
 20
6.000000000000043
 30
0
 11
-6.037173568164581
 21
47.60000000000004
 31
0
  0
SOLID
  8
1
 62
2
 10
-6.037173568164581
 20
46.60000000000004
 30
0
 11
-9.237173568164582
 21
46.18400000000004
 31
0
 12
-9.237173568164582
 22
47.01600000000003
 32
0
 13
-9.237173568164582
 23
47.01600000000003
 33
0
  0
SOLID
  8
1
 62
2
 10
0.3628264318355097
 20
46.60000000000004
 30
0
 11
3.56282643183551
 21
47.01600000000003
 31
0
 12
3.56282643183551
 22
46.18400000000004
 32
0
 13
3.56282643183551
 23
46.18400000000004
 33
0
  0
TEXT
  8
1
 62
2
 10
-5.642725924676483
 20
47.60000000000003
 30
0
 40
3.2
  1
6.4
 41
0.9
  0
TEXT
  8
1
 62
2
 10
1.797274075323518
 20
48.24000000000003
 30
0
 40
1.92
  1
%%p0.5
 41
0.9
  0
ENDBLK
  8
0
  0
BLOCK
  8
1
  2
*D10
 70
1
 10
0
 20
0
 30
0
  0
LINE
  8
1
 62
2
 10
-12.38717356816463
 20
-40.59999999999998
 30
0
 11
-5.98717356816463
 21
-40.59999999999998
 31
0
  0
LINE
  8
1
 62
2
 10
-5.98717356816463
 20
-40.59999999999998
 30
0
 11
0.3628264318355097
 21
-40.59999999999998
 31
0
  0
LINE
  8
1
 62
2
 10
0.3628264318355097
 20
-40.59999999999998
 30
0
 11
19.50789191075772
 21
-40.59999999999998
 31
0
  0
LINE
  8
1
 62
2
 10
-5.98717356816463
 20
-5.749999999999957
 30
0
 11
-5.98717356816463
 21
-41.59999999999998
 31
0
  0
LINE
  8
1
 62
2
 10
0.3628264318355097
 20
-4.374999999999957
 30
0
 11
0.3628264318355097
 21
-41.59999999999998
 31
0
  0
SOLID
  8
1
 62
2
 10
-5.98717356816463
 20
-40.59999999999998
 30
0
 11
-9.187173568164631
 21
-41.01599999999998
 31
0
 12
-9.187173568164631
 22
-40.18399999999998
 32
0
 13
-9.187173568164631
 23
-40.18399999999998
 33
0
  0
SOLID
  8
1
 62
2
 10
0.3628264318355097
 20
-40.59999999999998
 30
0
 11
3.56282643183551
 21
-40.18399999999998
 31
0
 12
3.56282643183551
 22
-41.01599999999998
 32
0
 13
3.56282643183551
 23
-41.01599999999998
 33
0
  0
TEXT
  8
1
 62
2
 10
10.78789191075772
 20
-39.59999999999998
 30
0
 40
3.2
  1
6.35
 41
0.9
  0
TEXT
  8
1
 62
2
 10
4.70789191075772
 20
-39.59999999999998
 30
0
 40
3.2
  1
2-
 41
0.9
  0
ENDBLK
  8
0
  0
BLOCK
  8
1
  2
*D11
 70
1
 10
0
 20
0
 30
0
  0
LINE
  8
1
 62
2
 10
-9.237173568164529
 20
-30.59999999999998
 30
0
 11
-2.837173568164531
 21
-30.59999999999998
 31
0
  0
LINE
  8
1
 62
2
 10
-2.837173568164531
 20
-30.59999999999998
 30
0
 11
0.3628264318355097
 21
-30.59999999999998
 31
0
  0
LINE
  8
1
 62
2
 10
0.3628264318355097
 20
-30.59999999999998
 30
0
 11
16.81380891441142
 21
-30.59999999999998
 31
0
  0
LINE
  8
1
 62
2
 10
-2.837173568164531
 20
-3.844999999999988
 30
0
 11
-2.837173568164531
 21
-31.59999999999998
 31
0
  0
LINE
  8
1
 62
2
 10
0.3628264318355097
 20
-4.374999999999957
 30
0
 11
0.3628264318355097
 21
-31.59999999999998
 31
0
  0
SOLID
  8
1
 62
2
 10
-2.837173568164531
 20
-30.59999999999998
 30
0
 11
-6.037173568164532
 21
-31.01599999999998
 31
0
 12
-6.037173568164532
 22
-30.18399999999998
 32
0
 13
-6.037173568164532
 23
-30.18399999999998
 33
0
  0
SOLID
  8
1
 62
2
 10
0.3628264318355097
 20
-30.59999999999998
 30
0
 11
3.56282643183551
 21
-30.18399999999998
 31
0
 12
3.56282643183551
 22
-31.01599999999998
 32
0
 13
3.56282643183551
 23
-31.01599999999998
 33
0
  0
TEXT
  8
1
 62
2
 10
10.97380891441142
 20
-29.59999999999998
 30
0
 40
3.2
  1
3.2
 41
0.9
  0
TEXT
  8
1
 62
2
 10
4.893808914411419
 20
-29.59999999999998
 30
0
 40
3.2
  1
2-
 41
0.9
  0
ENDBLK
  8
0
  0
BLOCK
  8
1
  2
*D12
 70
1
 10
0
 20
0
 30
0
  0
LINE
  8
1
 62
2
 10
-55.23717356816452
 20
36.60000000000003
 30
0
 11
-66.0801631952521
 21
36.60000000000003
 31
0
  0
LINE
  8
1
 62
2
 10
-55.23717356816452
 20
36.60000000000003
 30
0
 11
-51.73717356816464
 21
36.60000000000003
 31
0
  0
LINE
  8
1
 62
2
 10
-45.33717356816464
 20
36.60000000000003
 30
0
 11
-51.73717356816464
 21
36.60000000000003
 31
0
  0
LINE
  8
1
 62
2
 10
-51.73717356816464
 20
15.60000000000003
 30
0
 11
-51.73717356816464
 21
37.60000000000003
 31
0
  0
LINE
  8
1
 62
2
 10
-55.23717356816452
 20
4.307179676972474
 30
0
 11
-55.23717356816452
 21
37.60000000000003
 31
0
  0
SOLID
  8
1
 62
2
 10
-55.23717356816452
 20
36.60000000000003
 30
0
 11
-58.43717356816453
 21
36.18400000000003
 31
0
 12
-58.43717356816453
 22
37.01600000000003
 32
0
 13
-58.43717356816453
 23
37.01600000000003
 33
0
  0
SOLID
  8
1
 62
2
 10
-51.73717356816464
 20
36.60000000000003
 30
0
 11
-48.53717356816464
 21
37.01600000000003
 31
0
 12
-48.53717356816464
 22
36.18400000000003
 32
0
 13
-48.53717356816464
 23
36.18400000000003
 33
0
  0
TEXT
  8
1
 62
2
 10
-66.0801631952521
 20
37.60000000000003
 30
0
 40
3.2
  1
3.5
 41
0.9
  0
ENDBLK
  8
0
  0
BLOCK
  8
1
  2
*D13
 70
1
 10
0
 20
0
 30
0
  0
LINE
  8
1
 62
2
 10
-72.73717356816465
 20
46.60000000000005
 30
0
 11
-51.73717356816464
 21
46.60000000000005
 31
0
  0
LINE
  8
1
 62
2
 10
-72.73717356816465
 20
0.7000000000000739
 30
0
 11
-72.73717356816465
 21
47.60000000000005
 31
0
  0
LINE
  8
1
 62
2
 10
-51.73717356816464
 20
15.60000000000005
 30
0
 11
-51.73717356816464
 21
47.60000000000005
 31
0
  0
SOLID
  8
1
 62
2
 10
-72.73717356816465
 20
46.60000000000005
 30
0
 11
-69.53717356816465
 21
47.01600000000005
 31
0
 12
-69.53717356816465
 22
46.18400000000005
 32
0
 13
-69.53717356816465
 23
46.18400000000005
 33
0
  0
SOLID
  8
1
 62
2
 10
-51.73717356816464
 20
46.60000000000005
 30
0
 11
-54.93717356816465
 21
46.18400000000005
 31
0
 12
-54.93717356816465
 22
47.01600000000005
 32
0
 13
-54.93717356816465
 23
47.01600000000005
 33
0
  0
TEXT
  8
1
 62
2
 10
-64.15717356816464
 20
47.60000000000005
 30
0
 40
3.2
  1
21
 41
0.9
  0
ENDBLK
  8
0
  0
BLOCK
  8
1
  2
*D14
 70
1
 10
0
 20
0
 30
0
  0
LINE
  8
1
 62
2
 10
10.21152899546432
 20
-20.37519318107533
 30
0
 11
33.64298260292022
 21
-20.37519318107533
 31
0
  0
LINE
  8
1
 62
2
 10
-2.460829923661848
 20
-2.529967415264851
 30
0
 11
10.21152899546432
 21
-20.37519318107533
 31
0
  0
SOLID
  8
1
 62
2
 10
-2.460829923661848
 20
-2.529967415264851
 30
0
 11
-0.2688820664947862
 21
-4.898177834856136
 31
0
 12
-0.9472403580337576
 22
-5.379897699819505
 32
0
 13
-0.9472403580337576
 23
-5.379897699819505
 33
0
  0
TEXT
  8
1
 62
2
 10
20.58698260292023
 20
-19.24046071708759
 30
0
 40
3.2
  1
1.3
 41
0.9
  0
TEXT
  8
1
 62
2
 10
27.06698260292023
 20
-18.60046071708759
 30
0
 40
1.92
  1
%%p0.05
 41
0.9
  0
TEXT
  8
1
 62
2
 10
11.09992377939081
 20
-19.24046071708759
 30
0
 40
3.2
  1
2-φ
 41
0.9
  0
ENDBLK
  8
0
  0
ENDSEC
  0
SECTION
  2
ENTITIES
  0
LINE
  8
1
 62
7
 10
30.92775721610388
 20
54.18931355180806
 30
0
 11
30.92775721610388
 21
49.18931355180806
 31
0
  0
LINE
  8
1
 62
7
 10
30.92775721610388
 20
49.18931355180806
 30
0
 11
70.92775721610389
 21
49.18931355180806
 31
0
  0
LINE
  8
1
 62
7
 10
70.92775721610389
 20
49.18931355180806
 30
0
 11
70.92775721610389
 21
54.18931355180806
 31
0
  0
LINE
  8
1
 62
7
 10
70.92775721610389
 20
54.18931355180806
 30
0
 11
30.92775721610388
 21
54.18931355180806
 31
0
  0
LINE
  8
1
 62
7
 10
-40.03010540554658
 20
16.60000000000003
 30
0
 11
-22.18772260873664
 21
16.60000000000003
 31
0
  0
LINE
  8
1
 62
7
 10
-42.18772260873664
 20
16.60000000000003
 30
0
 11
-22.18772260873664
 21
16.60000000000003
 31
0
  0
LINE
  8
1
 62
7
 10
-54.03717356816448
 20
4.000000000000043
 30
0
 11
-52.33717356816452
 21
4.000000000000043
 31
0
  0
LINE
  8
1
 62
7
 10
-51.73717356816464
 20
-7.999999999999957
 30
0
 11
-52.33717356816452
 21
-7.999999999999957
 31
0
  0
LINE
  8
1
 62
7
 10
100.9080021045243
 20
-11.40000000000008
 30
0
 11
99.70800210452434
 21
-11.40000000000008
 31
0
  0
LINE
  8
1
 62
7
 10
100.4080021045243
 20
-15.90000000000096
 30
0
 11
100.9580021045243
 21
-15.90000000000008
 31
0
  0
LINE
  8
1
 62
7
 10
100.9580021045243
 20
-15.90000000000008
 30
0
 11
100.9580021045243
 21
-11.40000000000008
 31
0
  0
LINE
  8
1
 62
7
 10
99.70800210452434
 20
-15.89999999999997
 30
0
 11
100.9080021045243
 21
-15.90000000000096
 31
0
  0
LINE
  8
1
 62
7
 10
99.20800210452434
 20
-11.90000000000008
 30
0
 11
99.20800210452434
 21
-15.39999999999997
 31
0
  0
LINE
  8
1
 62
7
 10
97.20800210452434
 20
-11.40000000000096
 30
0
 11
96.65800210452439
 21
-11.40000000000008
 31
0
  0
LINE
  8
1
 62
7
 10
96.65800210452439
 20
-11.40000000000008
 30
0
 11
96.65800210452439
 21
-15.90000000000008
 31
0
  0
LINE
  8
1
 62
7
 10
96.65800210452439
 20
-15.90000000000008
 30
0
 11
97.20800210452434
 21
-15.90000000000008
 31
0
  0
LINE
  8
1
 62
7
 10
96.70800210452434
 20
-11.40000000000008
 30
0
 11
97.90800210452439
 21
-11.40000000000008
 31
0
  0
LINE
  8
1
 62
7
 10
98.40800210452433
 20
-11.90000000000008
 30
0
 11
98.40800210452433
 21
-15.40000000000008
 31
0
  0
LINE
  8
1
 62
7
 10
97.90800210452439
 20
-15.90000000000008
 30
0
 11
96.70800210452434
 21
-15.90000000000096
 31
0
  0
LINE
  8
1
 62
4
 10
100.4080021045243
 20
-11.40000000000008
 30
0
 11
100.4080021045243
 21
-15.90000000000096
 31
0
  0
LINE
  8
1
 62
7
 10
100.9580021045243
 20
-11.40000000000008
 30
0
 11
100.4080021045243
 21
-11.40000000000008
 31
0
  0
LINE
  8
1
 62
7
 10
100.9580021045243
 20
-15.90000000000008
 30
0
 11
100.9580021045243
 21
-11.40000000000008
 31
0
  0
LINE
  8
1
 62
7
 10
100.4080021045243
 20
-15.90000000000096
 30
0
 11
100.9580021045243
 21
-15.90000000000008
 31
0
  0
LINE
  8
1
 62
7
 10
96.65800210452439
 20
-11.40000000000008
 30
0
 11
96.65800210452439
 21
-15.90000000000008
 31
0
  0
LINE
  8
1
 62
7
 10
97.20800210452434
 20
-11.40000000000096
 30
0
 11
96.65800210452439
 21
-11.40000000000008
 31
0
  0
LINE
  8
1
 62
4
 10
97.20800210452434
 20
-15.90000000000008
 30
0
 11
97.20800210452434
 21
-11.40000000000096
 31
0
  0
LINE
  8
1
 62
7
 10
96.65800210452439
 20
-15.90000000000008
 30
0
 11
97.20800210452434
 21
-15.90000000000008
 31
0
  0
LINE
  8
1
 62
7
 10
100.4080021045243
 20
-15.90000000000096
 30
0
 11
100.9580021045243
 21
-15.90000000000008
 31
0
  0
LINE
  8
1
 62
7
 10
96.65800210452439
 20
-15.90000000000008
 30
0
 11
97.20800210452434
 21
-15.90000000000008
 31
0
  0
LINE
  8
1
 62
7
 10
99.70800210452434
 20
7.399999999999025
 30
0
 11
100.9080021045243
 21
7.399999999999025
 31
0
  0
LINE
  8
1
 62
7
 10
100.9580021045243
 20
11.89999999999902
 30
0
 11
100.4080021045243
 21
11.89999999999902
 31
0
  0
LINE
  8
1
 62
7
 10
100.9580021045243
 20
7.399999999999025
 30
0
 11
100.9580021045243
 21
11.89999999999902
 31
0
  0
LINE
  8
1
 62
7
 10
100.9080021045243
 20
11.89999999999902
 30
0
 11
99.70800210452434
 21
11.89999999999902
 31
0
  0
LINE
  8
1
 62
7
 10
99.20800210452434
 20
11.39999999999902
 30
0
 11
99.20800210452434
 21
7.899999999999025
 31
0
  0
LINE
  8
1
 62
7
 10
96.65800210452439
 20
7.399999999999025
 30
0
 11
97.20800210452434
 21
7.399999999999025
 31
0
  0
LINE
  8
1
 62
7
 10
96.65800210452439
 20
11.89999999999902
 30
0
 11
96.65800210452439
 21
7.399999999999025
 31
0
  0
LINE
  8
1
 62
7
 10
97.20800210452434
 20
11.89999999999902
 30
0
 11
96.65800210452439
 21
11.89999999999902
 31
0
  0
LINE
  8
1
 62
7
 10
97.90800210452439
 20
7.399999999999025
 30
0
 11
96.70800210452434
 21
7.399999999999025
 31
0
  0
LINE
  8
1
 62
7
 10
98.40800210452433
 20
11.39999999999902
 30
0
 11
98.40800210452433
 21
7.899999999999025
 31
0
  0
LINE
  8
1
 62
7
 10
96.70800210452434
 20
11.89999999999902
 30
0
 11
97.90800210452439
 21
11.89999999999902
 31
0
  0
LINE
  8
1
 62
4
 10
100.4080021045243
 20
11.89999999999902
 30
0
 11
100.4080021045243
 21
7.399999999999025
 31
0
  0
LINE
  8
1
 62
7
 10
100.4080021045243
 20
7.399999999999025
 30
0
 11
100.9580021045243
 21
7.399999999999025
 31
0
  0
LINE
  8
1
 62
7
 10
100.9580021045243
 20
7.399999999999025
 30
0
 11
100.9580021045243
 21
11.89999999999902
 31
0
  0
LINE
  8
1
 62
7
 10
100.9580021045243
 20
11.89999999999902
 30
0
 11
100.4080021045243
 21
11.89999999999902
 31
0
  0
LINE
  8
1
 62
7
 10
96.65800210452439
 20
11.89999999999902
 30
0
 11
96.65800210452439
 21
7.399999999999025
 31
0
  0
LINE
  8
1
 62
7
 10
96.65800210452439
 20
7.399999999999025
 30
0
 11
97.20800210452434
 21
7.399999999999025
 31
0
  0
LINE
  8
1
 62
4
 10
97.20800210452434
 20
7.399999999999025
 30
0
 11
97.20800210452434
 21
11.89999999999902
 31
0
  0
LINE
  8
1
 62
7
 10
97.20800210452434
 20
11.89999999999902
 30
0
 11
96.65800210452439
 21
11.89999999999902
 31
0
  0
LINE
  8
1
 62
7
 10
81.99283038372427
 20
-4.499999999999957
 30
0
 11
80.38948243846438
 21
-4.499999999999957
 31
0
  0
LINE
  8
1
 62
7
 10
81.99283038372427
 20
0.5000000000000426
 30
0
 11
80.38948243846438
 21
0.5000000000000426
 31
0
  0
LINE
  8
1
 62
7
 10
115.6231738253244
 20
-4.499999999999957
 30
0
 11
117.2265217705843
 21
-4.499999999999957
 31
0
  0
LINE
  8
1
 62
7
 10
115.6231738253244
 20
0.5000000000000426
 30
0
 11
117.2265217705843
 21
0.5000000000000426
 31
0
  0
LINE
  8
1
 62
7
 10
114.5035325200014
 20
-2.684489603355971
 30
0
 11
115.8690587807724
 21
-7.757543443480884
 31
0
  0
LINE
  8
1
 62
7
 10
114.5035325200014
 20
-2.684489603355971
 30
0
 11
115.8690587807724
 21
-7.757543443480884
 31
0
  0
LINE
  8
1
 62
7
 10
115.8690587807724
 20
3.757543443480031
 30
0
 11
114.5035325200014
 21
-1.315510396645081
 31
0
  0
LINE
  8
1
 62
7
 10
115.8690587807724
 20
3.757543443480031
 30
0
 11
114.5035325200014
 21
-1.315510396645081
 31
0
  0
LINE
  8
1
 62
7
 10
115.8690587807724
 20
3.757543443480031
 30
0
 11
114.5035325200014
 21
-1.315510396645081
 31
0
  0
LINE
  8
1
 62
7
 10
114.1799623880093
 20
3.883758920768131
 30
0
 11
112.9425936766403
 21
-0.8476975961688853
 31
0
  0
LINE
  8
1
 62
7
 10
112.9425936766403
 20
-3.152302403831968
 30
0
 11
114.1799623880093
 21
-7.883758920767961
 31
0
  0
LINE
  8
1
 62
4
 10
113.2080021045243
 20
-9.050000000000082
 30
0
 11
113.2080021045243
 21
-8.449999999999974
 31
0
  0
LINE
  8
1
 62
7
 10
112.9425936766403
 20
-3.152302403831968
 30
0
 11
114.1799623880093
 21
-7.883758920767961
 31
0
  0
LINE
  8
1
 62
7
 10
83.43604182103935
 20
-7.883758920767961
 30
0
 11
84.67341053240843
 21
-3.152302403831968
 31
0
  0
LINE
  8
1
 62
7
 10
83.43604182103935
 20
-7.883758920767961
 30
0
 11
84.67341053240843
 21
-3.152302403831968
 31
0
  0
LINE
  8
1
 62
7
 10
84.67341053240843
 20
-0.8476975961688853
 30
0
 11
83.43604182103935
 21
3.883758920768131
 31
0
  0
LINE
  8
1
 62
7
 10
84.67341053240843
 20
-0.8476975961688853
 30
0
 11
83.43604182103935
 21
3.883758920768131
 31
0
  0
LINE
  8
1
 62
7
 10
81.74694542827628
 20
-7.757543443480884
 30
0
 11
83.11247168904733
 21
-2.684489603355971
 31
0
  0
LINE
  8
1
 62
7
 10
83.11247168904733
 20
-1.315510396645081
 30
0
 11
81.74694542827628
 21
3.757543443480031
 31
0
  0
LINE
  8
1
 62
7
 10
83.11247168904733
 20
-1.315510396645081
 30
0
 11
81.74694542827628
 21
3.757543443480031
 31
0
  0
LINE
  8
1
 62
7
 10
82.80800210452448
 20
-1.149999999999963
 30
0
 11
82.80800210452448
 21
-2.84999999999998
 31
0
  0
LINE
  8
1
 62
7
 10
81.82926540240227
 20
-2.84999999999998
 30
0
 11
82.80800210452448
 21
-2.84999999999998
 31
0
  0
LINE
  8
1
 62
7
 10
81.82926540240227
 20
-1.149999999999963
 30
0
 11
82.80800210452448
 21
-1.149999999999963
 31
0
  0
LINE
  8
1
 62
7
 10
114.8080021045244
 20
-1.149999999999963
 30
0
 11
114.8080021045244
 21
-2.84999999999998
 31
0
  0
LINE
  8
1
 62
7
 10
115.7867388066464
 20
-2.84999999999998
 30
0
 11
114.8080021045244
 21
-2.84999999999998
 31
0
  0
LINE
  8
1
 62
7
 10
115.7867388066464
 20
-1.149999999999963
 30
0
 11
114.8080021045244
 21
-1.149999999999963
 31
0
  0
LINE
  8
1
 62
4
 10
111.0080021045243
 20
4.449999999999918
 30
0
 11
113.2080021045243
 21
4.449999999999918
 31
0
  0
LINE
  8
1
 62
4
 10
113.2080021045243
 20
4.449999999999918
 30
0
 11
113.2080021045243
 21
5.050000000000026
 31
0
  0
LINE
  8
1
 62
4
 10
113.2080021045243
 20
5.050000000000026
 30
0
 11
111.0080021045243
 21
5.050000000000026
 31
0
  0
LINE
  8
1
 62
4
 10
111.0080021045243
 20
5.050000000000026
 30
0
 11
111.0080021045243
 21
4.449999999999918
 31
0
  0
LINE
  8
1
 62
4
 10
86.60800210452443
 20
-8.449999999999974
 30
0
 11
84.40800210452439
 21
-8.449999999999974
 31
0
  0
LINE
  8
1
 62
4
 10
84.40800210452439
 20
-8.449999999999974
 30
0
 11
84.40800210452439
 21
-9.050000000000082
 31
0
  0
LINE
  8
1
 62
4
 10
84.40800210452439
 20
-9.050000000000082
 30
0
 11
86.60800210452443
 21
-9.050000000000082
 31
0
  0
LINE
  8
1
 62
4
 10
86.60800210452443
 20
-9.050000000000082
 30
0
 11
86.60800210452443
 21
-8.449999999999974
 31
0
  0
LINE
  8
1
 62
3
 10
80.03541361578762
 20
-1.999999999999957
 30
0
 11
86.35800210452443
 21
-1.999999999999957
 31
0
  0
LINE
  8
1
 62
7
 10
91.80800210452448
 20
-15.26649916142167
 30
0
 11
91.80800210452448
 21
-12.99999999999996
 31
0
  0
LINE
  8
1
 62
7
 10
105.8080021045244
 20
11.26649916142163
 30
0
 11
105.8080021045244
 21
9.000000000000043
 31
0
  0
LINE
  8
1
 62
7
 10
91.80800210452448
 20
-7.656854249492383
 30
0
 11
91.80800210452448
 21
-5.872983346207363
 31
0
  0
LINE
  8
1
 62
7
 10
105.8080021045244
 20
-7.656854249492383
 30
0
 11
105.8080021045244
 21
-7.999999999999957
 31
0
  0
LINE
  8
1
 62
7
 10
105.8080021045244
 20
3.656854249492439
 30
0
 11
105.8080021045244
 21
1.87298334620742
 31
0
  0
LINE
  8
1
 62
7
 10
91.80800210452448
 20
3.656854249492439
 30
0
 11
91.80800210452448
 21
4.000000000000043
 31
0
  0
LINE
  8
1
 62
4
 10
87.90800210452439
 20
-3.09999999999998
 30
0
 11
87.95800210452434
 21
-3.09999999999998
 31
0
  0
LINE
  8
1
 62
4
 10
88.50800210452429
 20
-0.8999999999999633
 30
0
 11
87.95800210452434
 21
-0.8999999999999633
 31
0
  0
LINE
  8
1
 62
4
 10
87.95800210452434
 20
-3.09999999999998
 30
0
 11
88.50800210452429
 21
-3.09999999999998
 31
0
  0
LINE
  8
1
 62
4
 10
87.90800210452439
 20
-0.8999999999999633
 30
0
 11
87.90800210452439
 21
-3.09999999999998
 31
0
  0
LINE
  8
1
 62
4
 10
87.95800210452434
 20
-0.8999999999999633
 30
0
 11
87.90800210452439
 21
-0.8999999999999633
 31
0
  0
LINE
  8
1
 62
4
 10
88.50800210452429
 20
-3.09999999999998
 30
0
 11
88.50800210452429
 21
-0.8999999999999633
 31
0
  0
LINE
  8
1
 62
4
 10
109.6580021045243
 20
-3.09999999999998
 30
0
 11
109.7080021045243
 21
-3.09999999999998
 31
0
  0
LINE
  8
1
 62
4
 10
109.6580021045243
 20
-0.8999999999999633
 30
0
 11
109.1080021045244
 21
-0.8999999999999633
 31
0
  0
LINE
  8
1
 62
4
 10
109.1080021045244
 20
-3.09999999999998
 30
0
 11
109.6580021045243
 21
-3.09999999999998
 31
0
  0
LINE
  8
1
 62
4
 10
109.7080021045243
 20
-3.09999999999998
 30
0
 11
109.7080021045243
 21
-0.8999999999999633
 31
0
  0
LINE
  8
1
 62
4
 10
109.7080021045243
 20
-0.8999999999999633
 30
0
 11
109.6580021045243
 21
-0.8999999999999633
 31
0
  0
LINE
  8
1
 62
4
 10
109.1080021045244
 20
-0.8999999999999633
 30
0
 11
109.1080021045244
 21
-3.09999999999998
 31
0
  0
LINE
  8
1
 62
4
 10
113.2080021045243
 20
-8.449999999999974
 30
0
 11
111.0080021045243
 21
-8.449999999999974
 31
0
  0
LINE
  8
1
 62
4
 10
113.2080021045243
 20
-9.050000000000082
 30
0
 11
113.2080021045243
 21
-8.449999999999974
 31
0
  0
LINE
  8
1
 62
4
 10
111.0080021045243
 20
-9.050000000000082
 30
0
 11
113.2080021045243
 21
-9.050000000000082
 31
0
  0
LINE
  8
1
 62
4
 10
111.0080021045243
 20
-8.449999999999974
 30
0
 11
111.0080021045243
 21
-9.050000000000082
 31
0
  0
LINE
  8
1
 62
4
 10
84.40800210452439
 20
4.450000000000031
 30
0
 11
86.60800210452443
 21
4.450000000000031
 31
0
  0
LINE
  8
1
 62
4
 10
84.40800210452439
 20
5.050000000000026
 30
0
 11
84.40800210452439
 21
4.450000000000031
 31
0
  0
LINE
  8
1
 62
4
 10
86.60800210452443
 20
5.050000000000026
 30
0
 11
84.40800210452439
 21
5.050000000000026
 31
0
  0
LINE
  8
1
 62
4
 10
86.60800210452443
 20
4.450000000000031
 30
0
 11
86.60800210452443
 21
5.050000000000026
 31
0
  0
LINE
  8
1
 62
7
 10
112.3080021045244
 20
-10.99999999999996
 30
0
 11
109.8080021045244
 21
-10.99999999999996
 31
0
  0
LINE
  8
1
 62
7
 10
112.3080021045244
 20
-10.99999999999996
 30
0
 11
112.3080021045244
 21
-14.79492086728168
 31
0
  0
LINE
  8
1
 62
7
 10
85.30800210452448
 20
-10.99999999999996
 30
0
 11
85.30800210452448
 21
-14.79492086728156
 31
0
  0
LINE
  8
1
 62
7
 10
109.8080021045244
 20
-7.999999999999957
 30
0
 11
109.8080021045244
 21
4.000000000000043
 31
0
  0
LINE
  8
1
 62
7
 10
106.8080021045244
 20
-8.999999999999957
 30
0
 11
108.8080021045244
 21
-8.999999999999957
 31
0
  0
LINE
  8
1
 62
7
 10
91.80800210452448
 20
-7.999999999999957
 30
0
 11
91.80800210452448
 21
-7.656854249492383
 31
0
  0
LINE
  8
1
 62
7
 10
87.80800210452448
 20
-7.999999999999957
 30
0
 11
87.80800210452448
 21
-10.99999999999996
 31
0
  0
LINE
  8
1
 62
7
 10
88.80800210452448
 20
-8.999999999999957
 30
0
 11
90.80800210452448
 21
-8.999999999999957
 31
0
  0
LINE
  8
1
 62
7
 10
87.80800210452448
 20
-10.99999999999996
 30
0
 11
89.80800210452448
 21
-10.99999999999996
 31
0
  0
LINE
  8
1
 62
7
 10
91.80800210452448
 20
9.000000000000043
 30
0
 11
91.80800210452448
 21
10.00000000000004
 31
0
  0
LINE
  8
1
 62
7
 10
87.80800210452448
 20
7.000000000000043
 30
0
 11
89.80800210452448
 21
7.000000000000043
 31
0
  0
LINE
  8
1
 62
7
 10
87.80800210452448
 20
4.000000000000043
 30
0
 11
87.80800210452448
 21
-7.999999999999957
 31
0
  0
LINE
  8
1
 62
7
 10
90.80800210452448
 20
5.000000000000043
 30
0
 11
88.80800210452448
 21
5.000000000000043
 31
0
  0
LINE
  8
1
 62
7
 10
106.8080021045244
 20
5.000000000000043
 30
0
 11
108.8080021045244
 21
5.000000000000043
 31
0
  0
LINE
  8
1
 62
7
 10
109.8080021045244
 20
4.000000000000043
 30
0
 11
109.8080021045244
 21
7.000000000000043
 31
0
  0
LINE
  8
1
 62
7
 10
105.8080021045244
 20
4.000000000000043
 30
0
 11
105.8080021045244
 21
3.656854249492439
 31
0
  0
LINE
  8
1
 62
7
 10
107.8080021045244
 20
-10.99999999999996
 30
0
 11
109.8080021045244
 21
-10.99999999999996
 31
0
  0
LINE
  8
1
 62
7
 10
109.8080021045244
 20
-10.99999999999996
 30
0
 11
109.8080021045244
 21
-7.999999999999957
 31
0
  0
LINE
  8
1
 62
7
 10
109.8080021045244
 20
7.000000000000043
 30
0
 11
107.8080021045244
 21
7.000000000000043
 31
0
  0
LINE
  8
1
 62
7
 10
91.80800210452448
 20
-17.05191017778198
 30
0
 11
91.80800210452448
 21
-15.26649916142167
 31
0
  0
LINE
  8
1
 62
7
 10
105.8080021045244
 20
13.05191017778143
 30
0
 11
105.8080021045244
 21
11.26649916142163
 31
0
  0
LINE
  8
1
 62
7
 10
89.80800210452448
 20
-6.499999999999957
 30
0
 11
89.80800210452448
 21
-6.437499999999957
 31
0
  0
LINE
  8
1
 62
7
 10
89.80800210452448
 20
-6.437499999999957
 30
0
 11
89.80800210452448
 21
2.437500000000043
 31
0
  0
LINE
  8
1
 62
7
 10
89.80800210452448
 20
2.437500000000043
 30
0
 11
89.80800210452448
 21
2.500000000000043
 31
0
  0
LINE
  8
1
 62
7
 10
89.80800210452448
 20
2.500000000000043
 30
0
 11
89.25800210452429
 21
2.500000000000043
 31
0
  0
LINE
  8
1
 62
7
 10
89.25800210452429
 20
2.500000000000043
 30
0
 11
89.25800210452429
 21
-6.499999999999957
 31
0
  0
LINE
  8
1
 62
7
 10
89.25800210452429
 20
-6.499999999999957
 30
0
 11
89.80800210452448
 21
-6.499999999999957
 31
0
  0
LINE
  8
1
 62
7
 10
107.8080021045244
 20
-6.437499999999957
 30
0
 11
107.8080021045244
 21
-6.499999999999957
 31
0
  0
LINE
  8
1
 62
7
 10
107.8080021045244
 20
2.437500000000043
 30
0
 11
107.8080021045244
 21
-6.437499999999957
 31
0
  0
LINE
  8
1
 62
7
 10
107.8080021045244
 20
2.500000000000043
 30
0
 11
107.8080021045244
 21
2.437500000000043
 31
0
  0
LINE
  8
1
 62
7
 10
108.3580021045244
 20
2.500000000000043
 30
0
 11
107.8080021045244
 21
2.500000000000043
 31
0
  0
LINE
  8
1
 62
7
 10
108.3580021045244
 20
-6.499999999999957
 30
0
 11
108.3580021045244
 21
2.500000000000043
 31
0
  0
LINE
  8
1
 62
7
 10
107.8080021045244
 20
-6.499999999999957
 30
0
 11
108.3580021045244
 21
-6.499999999999957
 31
0
  0
LINE
  8
1
 62
7
 10
109.8080021045244
 20
7.000000000000043
 30
0
 11
112.3080021045244
 21
7.000000000000043
 31
0
  0
LINE
  8
1
 62
7
 10
87.80800210452448
 20
7.000000000000043
 30
0
 11
87.80800210452448
 21
4.000000000000043
 31
0
  0
LINE
  8
1
 62
7
 10
87.80800210452448
 20
-10.99999999999996
 30
0
 11
85.30800210452448
 21
-10.99999999999996
 31
0
  0
LINE
  8
1
 62
7
 10
85.30800210452448
 20
10.79492086728173
 30
0
 11
85.30800210452448
 21
7.000000000000043
 31
0
  0
LINE
  8
1
 62
7
 10
112.3080021045244
 20
10.79492086728153
 30
0
 11
112.3080021045244
 21
7.000000000000043
 31
0
  0
LINE
  8
1
 62
7
 10
85.30800210452448
 20
7.000000000000043
 30
0
 11
87.80800210452448
 21
7.000000000000043
 31
0
  0
LINE
  8
1
 62
3
 10
98.80800210452442
 20
21.60000000000018
 30
0
 11
98.80800210452442
 21
-25.60000000000009
 31
0
  0
LINE
  8
1
 62
3
 10
106.8080021045244
 20
-1.999999999999957
 30
0
 11
109.9580021045243
 21
-1.999999999999957
 31
0
  0
LINE
  8
1
 62
7
 10
91.80800210452448
 20
1.87298334620742
 30
0
 11
91.80800210452448
 21
3.656854249492439
 31
0
  0
LINE
  8
1
 62
7
 10
105.8080021045244
 20
-5.872983346207363
 30
0
 11
105.8080021045244
 21
-7.656854249492383
 31
0
  0
LINE
  8
1
 62
3
 10
111.2580021045243
 20
-1.999999999999957
 30
0
 11
122.3954136157875
 21
-1.999999999999957
 31
0
  0
LINE
  8
1
 62
7
 10
93.80800210452448
 20
12.00000000000004
 30
0
 11
93.80800210452448
 21
12.77700916965263
 31
0
  0
LINE
  8
1
 62
7
 10
103.8080021045244
 20
13.82908714992741
 30
0
 11
103.8080021045244
 21
15.91535654124682
 31
0
  0
LINE
  8
1
 62
7
 10
103.8080021045244
 20
12.77700916965263
 30
0
 11
103.8080021045244
 21
13.82908714992741
 31
0
  0
LINE
  8
1
 62
7
 10
103.8080021045244
 20
-15.99999999999996
 30
0
 11
103.8080021045244
 21
-19.91535654124688
 31
0
  0
LINE
  8
1
 62
7
 10
93.80800210452448
 20
-17.82908714992748
 30
0
 11
93.80800210452448
 21
-19.91535654124688
 31
0
  0
LINE
  8
1
 62
7
 10
93.80800210452448
 20
-16.77700916965266
 30
0
 11
93.80800210452448
 21
-17.82908714992748
 31
0
  0
LINE
  8
1
 62
7
 10
105.8080021045244
 20
-13.99999999999996
 30
0
 11
105.8080021045244
 21
-12.99999999999996
 31
0
  0
LINE
  8
1
 62
7
 10
93.80800210452448
 20
12.77700916965263
 30
0
 11
93.80800210452448
 21
15.91535654124682
 31
0
  0
LINE
  8
1
 62
4
 10
110.6080021045244
 20
3.15000000000002
 30
0
 11
110.6080021045244
 21
1.850000000000037
 31
0
  0
LINE
  8
1
 62
4
 10
109.9580021045243
 20
2.500000000000043
 30
0
 11
111.2580021045243
 21
2.500000000000043
 31
0
  0
LINE
  8
1
 62
4
 10
110.6080021045244
 20
-1.350000000000179
 30
0
 11
110.6080021045244
 21
-2.649999999999764
 31
0
  0
LINE
  8
1
 62
3
 10
109.9580021045243
 20
-1.999999999999957
 30
0
 11
111.2580021045243
 21
-1.999999999999957
 31
0
  0
LINE
  8
1
 62
3
 10
109.9580021045243
 20
-1.999999999999957
 30
0
 11
111.2580021045243
 21
-1.999999999999957
 31
0
  0
LINE
  8
1
 62
4
 10
110.6080021045244
 20
-5.84999999999998
 30
0
 11
110.6080021045244
 21
-7.149999999999963
 31
0
  0
LINE
  8
1
 62
4
 10
109.9580021045243
 20
-6.499999999999957
 30
0
 11
111.2580021045243
 21
-6.499999999999957
 31
0
  0
LINE
  8
1
 62
4
 10
87.00800210452429
 20
-5.84999999999998
 30
0
 11
87.00800210452429
 21
-7.149999999999963
 31
0
  0
LINE
  8
1
 62
4
 10
86.35800210452443
 20
-6.499999999999957
 30
0
 11
87.65800210452439
 21
-6.499999999999957
 31
0
  0
LINE
  8
1
 62
4
 10
87.00800210452429
 20
-1.350000000000179
 30
0
 11
87.00800210452429
 21
-2.649999999999764
 31
0
  0
LINE
  8
1
 62
3
 10
86.35800210452443
 20
-1.999999999999957
 30
0
 11
87.65800210452439
 21
-1.999999999999957
 31
0
  0
LINE
  8
1
 62
3
 10
86.35800210452443
 20
-1.999999999999957
 30
0
 11
87.65800210452439
 21
-1.999999999999957
 31
0
  0
LINE
  8
1
 62
3
 10
87.65800210452439
 20
-1.999999999999957
 30
0
 11
100.8080021045244
 21
-1.999999999999957
 31
0
  0
LINE
  8
1
 62
4
 10
87.00800210452429
 20
3.15000000000002
 30
0
 11
87.00800210452429
 21
1.850000000000037
 31
0
  0
LINE
  8
1
 62
4
 10
86.35800210452443
 20
2.500000000000043
 30
0
 11
87.65800210452439
 21
2.500000000000043
 31
0
  0
LINE
  8
1
 62
7
 10
-13.03717356816458
 20
-20.59999999999998
 30
0
 11
-10.03717356816458
 21
-20.59999999999998
 31
0
  0
LINE
  8
1
 62
7
 10
-15.03717356816458
 20
-2.999999999999957
 30
0
 11
-15.03717356816458
 21
-7.785714285713979
 31
0
  0
LINE
  8
1
 62
7
 10
-15.03717356816458
 20
-2.999999999999957
 30
0
 11
-16.6421762224976
 21
-2.999999999999957
 31
0
  0
LINE
  8
1
 62
7
 10
-15.03717356816458
 20
-0.9999999999999574
 30
0
 11
-15.03717356816458
 21
-2.999999999999957
 31
0
  0
LINE
  8
1
 62
7
 10
-15.03717356816458
 20
-0.9999999999999574
 30
0
 11
-16.6421762224976
 21
-0.9999999999999574
 31
0
  0
LINE
  8
1
 62
7
 10
-13.53881530062552
 20
-3.499999999999957
 30
0
 11
-14.03881530062552
 21
-3.499999999999957
 31
0
  0
LINE
  8
1
 62
7
 10
-14.03881530062552
 20
-0.4999999999999574
 30
0
 11
-13.53881530062552
 21
-0.4999999999999574
 31
0
  0
LINE
  8
1
 62
7
 10
-15.03717356816458
 20
-7.785714285713979
 30
0
 11
-15.23717356816463
 21
-9.499999999999957
 31
0
  0
LINE
  8
1
 62
7
 10
-15.03717356816458
 20
3.785714285714036
 30
0
 11
-14.53717356816458
 21
-0.4999999999999574
 31
0
  0
LINE
  8
1
 62
7
 10
-15.03717356816458
 20
3.785714285714036
 30
0
 11
-15.03717356816458
 21
-0.9999999999999574
 31
0
  0
LINE
  8
1
 62
7
 10
-15.23717356816463
 20
-9.499999999999957
 30
0
 11
-17.23717356816463
 21
-9.499999999999957
 31
0
  0
LINE
  8
1
 62
7
 10
-14.53717356816458
 20
-3.499999999999957
 30
0
 11
-15.03717356816458
 21
-7.785714285713979
 31
0
  0
LINE
  8
1
 62
7
 10
-14.53717356816458
 20
-0.4999999999999574
 30
0
 11
-14.53717356816458
 21
-3.499999999999957
 31
0
  0
LINE
  8
1
 62
7
 10
-15.23717356816463
 20
5.500000000000043
 30
0
 11
-15.03717356816458
 21
3.785714285714036
 31
0
  0
LINE
  8
1
 62
7
 10
-17.23717356816463
 20
5.500000000000043
 30
0
 11
-15.23717356816463
 21
5.500000000000043
 31
0
  0
LINE
  8
1
 62
7
 10
-17.23717356816463
 20
-4.499999999999957
 30
0
 11
-17.23717356816463
 21
-9.499999999999957
 31
0
  0
LINE
  8
1
 62
7
 10
-17.23717356816463
 20
5.500000000000043
 30
0
 11
-17.23717356816463
 21
0.5000000000000426
 31
0
  0
LINE
  8
1
 62
3
 10
5.250827884603377
 20
-1.999999999999957
 30
0
 11
-1.99217356816451
 21
-1.999999999999957
 31
0
  0
LINE
  8
1
 62
7
 10
-10.03717356816458
 20
-8.999999999999957
 30
0
 11
-10.03717356816458
 21
-4.749999999999957
 31
0
  0
LINE
  8
1
 62
7
 10
-10.03717356816458
 20
-8.999999999999957
 30
0
 11
-13.03717356816458
 21
-8.999999999999957
 31
0
  0
LINE
  8
1
 62
7
 10
-10.03717356816458
 20
5.000000000000043
 30
0
 11
-10.03717356816458
 21
6.000000000000043
 31
0
  0
LINE
  8
1
 62
7
 10
-13.03717356816458
 20
-20.59999999999998
 30
0
 11
-13.03717356816458
 21
16.60000000000003
 31
0
  0
LINE
  8
1
 62
7
 10
-10.03717356816458
 20
5.000000000000043
 30
0
 11
-13.03717356816458
 21
5.000000000000043
 31
0
  0
LINE
  8
1
 62
7
 10
-10.03717356816458
 20
-14.79492086728208
 30
0
 11
-10.03717356816458
 21
-20.59999999999998
 31
0
  0
LINE
  8
1
 62
7
 10
-13.03717356816458
 20
-14.79492086728208
 30
0
 11
-10.03717356816458
 21
-14.79492086728208
 31
0
  0
LINE
  8
1
 62
7
 10
-10.03717356816458
 20
10.79492086728102
 30
0
 11
-10.03717356816458
 21
16.60000000000003
 31
0
  0
LINE
  8
1
 62
7
 10
-13.03717356816458
 20
10.79492086728102
 30
0
 11
-10.03717356816458
 21
10.79492086728102
 31
0
  0
LINE
  8
1
 62
7
 10
-10.03717356816458
 20
-10.99999999999996
 30
0
 11
-10.03717356816458
 21
-14.79492086728208
 31
0
  0
LINE
  8
1
 62
7
 10
-13.03717356816458
 20
-10.99999999999996
 30
0
 11
-10.03717356816458
 21
-10.99999999999996
 31
0
  0
LINE
  8
1
 62
7
 10
-10.03717356816458
 20
6.999999999998934
 30
0
 11
-10.03717356816458
 21
10.79492086728102
 31
0
  0
LINE
  8
1
 62
7
 10
-13.03717356816458
 20
6.999999999998934
 30
0
 11
-10.03717356816458
 21
6.999999999998934
 31
0
  0
LINE
  8
1
 62
7
 10
-49.73717356816464
 20
16.60000000000003
 30
0
 11
-42.18772260873664
 21
16.60000000000003
 31
0
  0
LINE
  8
1
 62
7
 10
-13.03717356816458
 20
11.49999999999993
 30
0
 11
-13.03717356816458
 21
16.60000000000003
 31
0
  0
LINE
  8
1
 62
7
 10
-51.73717356816464
 20
4.075994803132219
 30
0
 11
-51.73717356816464
 21
5.500000000000043
 31
0
  0
LINE
  8
1
 62
7
 10
-51.73717356816464
 20
-18.59999999999998
 30
0
 11
-51.73717356816464
 21
4.075994803132219
 31
0
  0
LINE
  8
1
 62
7
 10
-13.03717356816458
 20
-20.59999999999998
 30
0
 11
-49.73717356816464
 21
-20.59999999999998
 31
0
  0
LINE
  8
1
 62
7
 10
-10.03717356816458
 20
6.000000000000043
 30
0
 11
-7.037173568164583
 21
6.000000000000043
 31
0
  0
LINE
  8
1
 62
7
 10
-7.037173568164583
 20
-9.999999999999957
 30
0
 11
-10.03717356816458
 21
-9.999999999999957
 31
0
  0
LINE
  8
1
 62
7
 10
-10.03717356816458
 20
-9.999999999999957
 30
0
 11
-10.03717356816458
 21
-8.999999999999957
 31
0
  0
LINE
  8
1
 62
7
 10
-13.03717356816458
 20
16.60000000000003
 30
0
 11
-10.03717356816458
 21
16.60000000000003
 31
0
  0
LINE
  8
1
 62
7
 10
-10.03717356816458
 20
6.000000000000043
 30
0
 11
-10.03717356816458
 21
6.999999999998934
 31
0
  0
LINE
  8
1
 62
7
 10
-10.03717356816458
 20
-9.999999999999957
 30
0
 11
-10.03717356816458
 21
-10.99999999999996
 31
0
  0
LINE
  8
1
 62
7
 10
-13.03717356816458
 20
-20.59999999999998
 30
0
 11
-13.03717356816458
 21
-15.49999999999976
 31
0
  0
LINE
  8
1
 62
7
 10
-6.037173568164582
 20
5.000000000000043
 30
0
 11
-6.037173568164582
 21
0.7500000000000426
 31
0
  0
LINE
  8
1
 62
3
 10
-13.53717356816458
 20
-1.999999999999957
 30
0
 11
-16.53717356816663
 21
-1.999999999999957
 31
0
  0
LINE
  8
1
 62
3
 10
100.8080021045244
 20
-1.999999999999957
 30
0
 11
106.8080021045244
 21
-1.999999999999957
 31
0
  0
LINE
  8
1
 62
3
 10
89.53300210452439
 20
3.366206426214021
 30
0
 11
89.53300210452439
 21
-7.633793573785979
 31
0
  0
LINE
  8
1
 62
3
 10
108.0830021045243
 20
-7.633793573785979
 30
0
 11
108.0830021045243
 21
3.366206426214021
 31
0
  0
LINE
  8
1
 62
7
 10
-10.03717356816458
 20
0.7500000000000426
 30
0
 11
-5.987173568164628
 21
0.7500000000000426
 31
0
  0
LINE
  8
1
 62
7
 10
-10.03717356816458
 20
0.7500000000000426
 30
0
 11
-10.03717356816458
 21
5.000000000000043
 31
0
  0
LINE
  8
1
 62
7
 10
-5.987173568164628
 20
0.7500000000000426
 30
0
 11
-5.987173568164628
 21
0.3750000000000426
 31
0
  0
LINE
  8
1
 62
7
 10
-5.987173568164628
 20
0.3750000000000426
 30
0
 11
-0.6371735681644921
 21
0.3750000000000426
 31
0
  0
LINE
  8
1
 62
7
 10
0.3628264318355061
 20
-0.6249999999999574
 30
0
 11
0.3628264318355061
 21
-3.374999999999957
 31
0
  0
LINE
  8
1
 62
7
 10
-0.6371735681644921
 20
-4.374999999999957
 30
0
 11
-5.987173568164628
 21
-4.374999999999957
 31
0
  0
LINE
  8
1
 62
7
 10
-5.987173568164628
 20
-4.374999999999957
 30
0
 11
-5.987173568164628
 21
-4.749999999999957
 31
0
  0
LINE
  8
1
 62
7
 10
-5.987173568164628
 20
-4.749999999999957
 30
0
 11
-10.03717356816458
 21
-4.749999999999957
 31
0
  0
LINE
  8
1
 62
7
 10
-10.03717356816458
 20
-4.749999999999957
 30
0
 11
-10.03717356816458
 21
0.7500000000000426
 31
0
  0
LINE
  8
1
 62
7
 10
0.3628264318355061
 20
-0.6249999999999574
 30
0
 11
-0.6371735681644921
 21
0.3750000000000426
 31
0
  0
LINE
  8
1
 62
7
 10
-0.6371735681644921
 20
-4.374999999999957
 30
0
 11
0.3628264318355061
 21
-3.374999999999957
 31
0
  0
LINE
  8
1
 62
7
 10
-0.6371735681644921
 20
0.3750000000000426
 30
0
 11
-0.6371735681644921
 21
-4.374999999999957
 31
0
  0
LINE
  8
1
 62
3
 10
-2.187173568164446
 20
-1.999999999999957
 30
0
 11
-3.682173568164564
 21
-1.999999999999957
 31
0
  0
LINE
  8
1
 62
3
 10
-2.837173568164537
 20
-1.154999999999959
 30
0
 11
-2.837173568164537
 21
-2.844999999999985
 31
0
  0
LINE
  8
1
 62
3
 10
-3.682173568164564
 20
-1.999999999999957
 30
0
 11
-1.99217356816451
 21
-1.999999999999957
 31
0
  0
LINE
  8
1
 62
3
 10
-1.99217356816451
 20
-1.999999999999957
 30
0
 11
-2.187173568164446
 21
-1.999999999999957
 31
0
  0
LINE
  8
1
 62
3
 10
-3.682173568164564
 20
-1.999999999999957
 30
0
 11
-77.73717356816462
 21
-1.999999999999957
 31
0
  0
LINE
  8
1
 62
7
 10
-6.037173568164582
 20
-4.749999999999957
 30
0
 11
-6.037173568164582
 21
-8.999999999999957
 31
0
  0
LINE
  8
1
 62
4
 10
81.3352102075843
 20
-1.999999999999957
 30
0
 11
88.3352102075843
 21
-1.999999999999957
 31
0
  0
LINE
  8
1
 62
3
 10
109.9153060124594
 20
11.23716933631753
 30
0
 11
106.9809355199444
 21
7.740122759859915
 31
0
  0
LINE
  8
1
 62
3
 10
106.9809355199444
 20
-11.74012275985986
 30
0
 11
109.9153060124594
 21
-15.23716933631748
 31
0
  0
LINE
  8
1
 62
3
 10
90.6350686891043
 20
7.740122759859915
 30
0
 11
87.70069819658933
 21
11.23716933631753
 31
0
  0
LINE
  8
1
 62
3
 10
87.70069819658933
 20
-15.23716933631748
 30
0
 11
90.6350686891043
 21
-11.74012275985986
 31
0
  0
LINE
  8
1
 62
7
 10
-51.73717356816464
 20
5.500000000000043
 30
0
 11
-51.73717356816464
 21
14.60000000000003
 31
0
  0
LINE
  8
1
 62
7
 10
-52.33717356816452
 20
4.000000000000043
 30
0
 11
-51.73717356816464
 21
4.000000000000043
 31
0
  0
LINE
  8
1
 62
7
 10
-52.33717356816452
 20
-7.999999999999957
 30
0
 11
-54.03717356816448
 21
-7.999999999999957
 31
0
  0
LINE
  8
1
 62
7
 10
-42.18772260873664
 20
16.60000000000003
 30
0
 11
-42.18772260873664
 21
9.083873753057032
 31
0
  0
LINE
  8
1
 62
7
 10
-42.18772260873664
 20
9.083873753057032
 30
0
 11
-22.18772260873664
 21
9.083873753057032
 31
0
  0
LINE
  8
1
 62
7
 10
-22.18772260873664
 20
9.083873753057032
 30
0
 11
-22.18772260873664
 21
16.60000000000003
 31
0
  0
LINE
  8
1
 62
7
 10
-30.18772260873664
 20
16.60000000000003
 30
0
 11
-13.03717356816458
 21
16.60000000000003
 31
0
  0
LINE
  8
1
 62
3
 10
-145.6371735681645
 20
-13.08512516844069
 30
0
 11
-145.7871735681646
 21
-12.82531754730546
 31
0
  0
LINE
  8
1
 62
3
 10
-145.6371735681645
 20
9.085125168440543
 30
0
 11
-145.7871735681646
 21
8.825317547305312
 31
0
  0
LINE
  8
1
 62
3
 10
-143.9709338037116
 20
11.97113709806613
 30
0
 11
-146.1269057344865
 21
8.236884174270232
 31
0
  0
LINE
  8
1
 62
3
 10
-146.1269057344865
 20
-12.23688417427018
 30
0
 11
-143.9709338037116
 21
-15.97113709806608
 31
0
  0
LINE
  8
1
 62
2
 10
-173.1966807420046
 20
48.24237962817902
 30
0
 11
-130.9590099113645
 21
48.24237962817902
 31
0
  0
LINE
  8
1
 62
2
 10
-130.9590099113645
 20
41.24237962817902
 30
0
 11
-173.1966807420046
 21
41.24237962817902
 31
0
  0
LINE
  8
1
 62
7
 10
-54.03717356816448
 20
4.000000000000043
 30
0
 11
-51.73717356816464
 21
4.000000000000043
 31
0
  0
LINE
  8
1
 62
7
 10
-54.03717356816448
 20
4.000000000000043
 30
0
 11
-55.23717356816452
 21
3.307179676972467
 31
0
  0
LINE
  8
1
 62
7
 10
-51.73717356816464
 20
-7.999999999999957
 30
0
 11
-54.03717356816448
 21
-7.999999999999957
 31
0
  0
LINE
  8
1
 62
7
 10
-55.23717356816452
 20
-7.307179676972439
 30
0
 11
-54.03717356816448
 21
-7.999999999999957
 31
0
  0
LINE
  8
1
 62
7
 10
-55.23717356816452
 20
3.307179676972467
 30
0
 11
-55.23717356816452
 21
1.567634910770721e-013
 31
0
  0
LINE
  8
1
 62
7
 10
-55.23717356816452
 20
1.567634910770721e-013
 30
0
 11
-55.23717356816452
 21
-3.999999999999844
 31
0
  0
LINE
  8
1
 62
7
 10
-55.23717356816452
 20
-3.999999999999844
 30
0
 11
-55.23717356816452
 21
-7.307179676972439
 31
0
  0
LINE
  8
1
 62
7
 10
-72.73717356816462
 20
-3.699999999999946
 30
0
 11
-72.73717356816462
 21
-0.2999999999999403
 31
0
  0
LINE
  8
1
 62
7
 10
-72.43717356816444
 20
-4.000000000000043
 30
0
 11
-55.23717356816452
 21
-3.999999999999844
 31
0
  0
LINE
  8
1
 62
7
 10
-55.23717356816452
 20
1.567634910770721e-013
 30
0
 11
-72.43717356816444
 21
-4.241051954068098e-014
 31
0
  0
LINE
  8
1
 62
7
 10
-54.03717356816448
 20
4.000000000000043
 30
0
 11
-54.03717356816448
 21
-7.999999999999957
 31
0
  0
LINE
  8
1
 62
3
 10
-152.0371735681646
 20
21.60000000000018
 30
0
 11
-152.0371735681646
 21
-25.6000000000001
 31
0
  0
LINE
  8
1
 62
3
 10
-175.6371735681647
 20
-1.999999999999957
 30
0
 11
-128.4371735681645
 21
-1.999999999999957
 31
0
  0
LINE
  8
1
 62
3
 10
75.22059059326121
 20
-1.999999999999957
 30
0
 11
86.35800210452443
 21
-1.999999999999957
 31
0
  0
ARC
  8
1
 62
7
 10
98.80800210452441
 20
-1.999999999999957
 30
0
 40
15.00000000000007
 50
242.1818607153465
 51
289.4712206344908
  0
ARC
  8
1
 62
7
 10
98.80800210452441
 20
-1.999999999999957
 30
0
 40
16.99999999999984
 50
183.3722866834339
 51
188.4565193352706
  0
ARC
  8
1
 62
7
 10
98.80800210452441
 20
-1.999999999999957
 30
0
 40
18.5874115112632
 50
172.2703129891774
 51
187.7296870108226
  0
ARC
  8
1
 62
7
 10
98.80800210452441
 20
-1.999999999999957
 30
0
 40
18.58741151126256
 50
156.1486304767351
 51
172.2703129891774
  0
ARC
  8
1
 62
7
 10
98.80800210452441
 20
-1.999999999999957
 30
0
 40
16.99999999999963
 50
166.8368671305258
 51
171.5434806647294
  0
ARC
  8
1
 62
7
 10
98.80800210452441
 20
-1.999999999999957
 30
0
 40
18.58741151126299
 50
336.1486304767327
 51
352.2703129891773
  0
ARC
  8
1
 62
7
 10
98.80800210452441
 20
-1.999999999999957
 30
0
 40
16.99999999999977
 50
346.8368671305224
 51
351.5434806647294
  0
ARC
  8
1
 62
7
 10
98.80800210452441
 20
-1.999999999999957
 30
0
 40
16.99999999999977
 50
3.709965892066881
 51
8.456519335270631
  0
ARC
  8
1
 62
7
 10
98.80800210452441
 20
-1.999999999999957
 30
0
 40
18.58741151126308
 50
352.2703129891773
 51
7.729687010822664
  0
ARC
  8
1
 62
7
 10
98.80800210452441
 20
-1.999999999999957
 30
0
 40
16.99999999999968
 50
177.1340160174011
 51
182.865983982599
  0
ARC
  8
1
 62
7
 10
98.80800210452441
 20
-1.999999999999957
 30
0
 40
16.99999999999954
 50
357.134016017401
 51
3.709965892066881
  0
ARC
  8
1
 62
7
 10
98.80800210452441
 20
-1.999999999999957
 30
0
 40
16.99999999999994
 50
322.5719944569577
 51
333.2948684805347
  0
ARC
  8
1
 62
7
 10
98.80800210452441
 20
-1.999999999999957
 30
0
 40
16.99999999999976
 50
8.456519335270631
 51
13.16313286947488
  0
ARC
  8
1
 62
7
 10
98.80800210452441
 20
-1.999999999999957
 30
0
 40
18.60000000000004
 50
316.5359765016618
 51
335.224864565489
  0
ARC
  8
1
 62
7
 10
98.80800210452441
 20
-1.999999999999957
 30
0
 40
18.59999999999921
 50
24.77513543450834
 51
43.4640234983377
  0
ARC
  8
1
 62
7
 10
98.80800210452441
 20
-1.999999999999957
 30
0
 40
18.58741151126308
 50
7.729687010822664
 51
23.85136952326478
  0
ARC
  8
1
 62
7
 10
98.80800210452441
 20
-1.999999999999957
 30
0
 40
16.9999999999999
 50
188.4565193352706
 51
193.1631328694759
  0
ARC
  8
1
 62
7
 10
98.80800210452441
 20
-1.999999999999957
 30
0
 40
16.99999999999999
 50
142.5719944569571
 51
153.2948684805374
  0
ARC
  8
1
 62
7
 10
98.80800210452441
 20
-1.999999999999957
 30
0
 40
18.59999999999977
 50
204.7751354345108
 51
223.4640234983381
  0
ARC
  8
1
 62
7
 10
98.80800210452441
 20
-1.999999999999957
 30
0
 40
18.5874115112632
 50
187.7296870108226
 51
203.8513695232675
  0
ARC
  8
1
 62
7
 10
98.80800210452441
 20
-1.999999999999957
 30
0
 40
18.59999999999996
 50
136.5359765016617
 51
155.2248645654919
  0
ARC
  8
1
 62
7
 10
98.80800210452441
 20
-1.999999999999957
 30
0
 40
16.99999999999933
 50
142.57199445696
 51
153.2948684805374
  0
ARC
  8
1
 62
7
 10
98.80800210452441
 20
-1.999999999999957
 30
0
 40
16.99999999999968
 50
182.865983982599
 51
183.3722866834339
  0
ARC
  8
1
 62
7
 10
98.80800210452441
 20
-1.999999999999957
 30
0
 40
16.99999999999984
 50
176.6277133165661
 51
177.1340160174011
  0
ARC
  8
1
 62
7
 10
98.80800210452441
 20
-1.999999999999957
 30
0
 40
16.99999999999977
 50
356.290034107933
 51
357.134016017401
  0
ARC
  8
1
 62
7
 10
98.80800210452441
 20
-1.999999999999957
 30
0
 40
16.99999999999954
 50
2.865983982598919
 51
3.709965892066881
  0
ARC
  8
1
 62
7
 10
98.80800210452441
 20
-1.999999999999957
 30
0
 40
8.999999999999973
 50
218.9424412689819
 51
321.0575587310184
  0
ARC
  8
1
 62
7
 10
98.80800210452441
 20
-1.999999999999957
 30
0
 40
9.000000000000011
 50
38.94244126898146
 51
141.0575587310183
  0
ARC
  8
1
 62
7
 10
98.80800210452441
 20
-1.999999999999957
 30
0
 40
17.00000000000022
 50
26.70513151946252
 51
37.42800554304219
  0
ARC
  8
1
 62
7
 10
98.80800210452441
 20
-1.999999999999957
 30
0
 40
18.59999999999981
 50
105.593895740469
 51
136.5359765016617
  0
ARC
  8
1
 62
7
 10
98.80800210452441
 20
-1.999999999999957
 30
0
 40
18.5999999999999
 50
223.4640234983381
 51
316.5359765016618
  0
ARC
  8
1
 62
7
 10
98.80800210452441
 20
-1.999999999999957
 30
0
 40
17.00000000000059
 50
206.7051315194655
 51
217.4280055430433
  0
ARC
  8
1
 62
7
 10
98.80800210452441
 20
-1.999999999999957
 30
0
 40
16.9999999999999
 50
171.5434806647294
 51
176.6277133165661
  0
ARC
  8
1
 62
7
 10
98.80800210452441
 20
-1.999999999999957
 30
0
 40
14.99999999999999
 50
62.18186071534605
 51
109.4712206344904
  0
ARC
  8
1
 62
7
 10
91.80800210452448
 20
12.00000000000004
 30
0
 40
2
 50
270
 51
0
  0
ARC
  8
1
 62
7
 10
98.80800210452441
 20
-1.999999999999957
 30
0
 40
18.59999999999983
 50
74.40610425953076
 51
105.593895740469
  0
ARC
  8
1
 62
7
 10
98.80800210452441
 20
-1.999999999999957
 30
0
 40
16.59999999999997
 50
65.05887524107146
 51
72.47001826692687
  0
ARC
  8
1
 62
7
 10
98.80800210452441
 20
-1.999999999999957
 30
0
 40
18.59999999999987
 50
43.4640234983377
 51
74.40610425953076
  0
ARC
  8
1
 62
7
 10
105.8080021045244
 20
-15.99999999999996
 30
0
 40
2
 50
90
 51
180
  0
ARC
  8
1
 62
7
 10
98.80800210452441
 20
-1.999999999999957
 30
0
 40
16.60000000000051
 50
245.0588752410726
 51
252.4700182669273
  0
ARC
  8
1
 62
7
 10
98.80800210452441
 20
-1.999999999999957
 30
0
 40
16.99999999999976
 50
351.5434806647294
 51
356.290034107933
  0
ARC
  8
1
 62
7
 10
98.80800210452441
 20
-1.999999999999957
 30
0
 40
15.59999999999989
 50
71.30605907667683
 51
108.6939409233229
  0
ARC
  8
1
 62
7
 10
98.80800210452441
 20
-1.999999999999957
 30
0
 40
15.59999999999998
 50
251.3060590766772
 51
288.693940923323
  0
ARC
  8
1
 62
7
 10
-21.35145928246755
 20
-1.999999999999957
 30
0
 40
4.814285714300421
 50
328.7155070856889
 51
348.0115132548045
  0
ARC
  8
1
 62
7
 10
-21.35145928246755
 20
-1.999999999999957
 30
0
 40
4.814285714300716
 50
348.0115132548045
 51
11.98848674519556
  0
ARC
  8
1
 62
7
 10
-21.35145928246755
 20
-1.999999999999957
 30
0
 40
4.814285714300716
 50
11.98848674519556
 51
31.2844929143111
  0
ARC
  8
1
 62
3
 10
98.80800210452441
 20
-1.999999999999957
 30
0
 40
14.99999999999969
 50
40.17099333070843
 51
59.97163327045762
  0
ARC
  8
1
 62
3
 10
98.80800210452441
 20
-1.999999999999957
 30
0
 40
14.99999999999974
 50
300.0283667295423
 51
319.8290066692915
  0
ARC
  8
1
 62
3
 10
98.80800210452441
 20
-1.999999999999957
 30
0
 40
14.99999999999976
 50
120.0283667295427
 51
139.8290066692919
  0
ARC
  8
1
 62
3
 10
98.80800210452441
 20
-1.999999999999957
 30
0
 40
14.99999999999981
 50
220.1709933307082
 51
239.9716332704574
  0
CIRCLE
  8
1
 62
4
 10
91.55949671295538
 20
6.42981043043703
 30
0
 40
1
  0
CIRCLE
  8
1
 62
4
 10
106.0565074960933
 20
-10.42981043043697
 30
0
 40
1
  0
CIRCLE
  8
1
 62
4
 10
87.00800210452429
 20
2.500000000000043
 30
0
 40
0.5
  0
CIRCLE
  8
1
 62
4
 10
87.00800210452429
 20
-1.999999999999957
 30
0
 40
0.5
  0
CIRCLE
  8
1
 62
4
 10
87.00800210452429
 20
-6.499999999999957
 30
0
 40
0.5
  0
CIRCLE
  8
1
 62
4
 10
110.6080021045244
 20
2.500000000000043
 30
0
 40
0.5
  0
CIRCLE
  8
1
 62
4
 10
110.6080021045244
 20
-1.999999999999957
 30
0
 40
0.5
  0
CIRCLE
  8
1
 62
4
 10
110.6080021045244
 20
-6.499999999999957
 30
0
 40
0.5
  0
CIRCLE
  8
1
 62
7
 10
98.80800210452441
 20
-1.999999999999957
 30
0
 40
3.75
  0
CIRCLE
  8
1
 62
7
 10
98.80800210452441
 20
-1.999999999999957
 30
0
 40
8
  0
CIRCLE
  8
1
 62
7
 10
108.4498162498224
 20
9.490666646784623
 30
0
 40
1.5
  0
CIRCLE
  8
1
 62
7
 10
89.16618795922649
 20
9.490666646784623
 30
0
 40
1.5
  0
CIRCLE
  8
1
 62
7
 10
108.4498162498224
 20
-13.49066664678468
 30
0
 40
1.25
  0
CIRCLE
  8
1
 62
7
 10
108.4498162498224
 20
-13.49066664678468
 30
0
 40
1.5
  0
CIRCLE
  8
1
 62
7
 10
89.16618795922649
 20
-13.49066664678468
 30
0
 40
1.25
  0
CIRCLE
  8
1
 62
7
 10
89.16618795922649
 20
-13.49066664678468
 30
0
 40
1.5
  0
CIRCLE
  8
1
 62
7
 10
108.4498162498224
 20
9.490666646784623
 30
0
 40
1.25
  0
CIRCLE
  8
1
 62
7
 10
89.16618795922649
 20
9.490666646784623
 30
0
 40
1.25
  0
CIRCLE
  8
1
 62
7
 10
91.80800210452448
 20
12.00000000000004
 30
0
 40
0.8499999999999091
  0
CIRCLE
  8
1
 62
7
 10
105.8080021045244
 20
-15.99999999999996
 30
0
 40
0.850000000000108
  0
CIRCLE
  8
1
 62
7
 10
98.80800210452441
 20
-1.999999999999957
 30
0
 40
2
  0
CIRCLE
  8
1
 62
7
 10
-2.837173568164537
 20
-1.999999999999957
 30
0
 40
0.650000000000091
  0
CIRCLE
  8
1
 62
7
 10
-152.0371735681646
 20
-1.999999999999957
 30
0
 40
5.800000000000011
  0
CIRCLE
  8
1
 62
7
 10
-152.0371735681646
 20
-1.999999999999957
 30
0
 40
6
  0
CIRCLE
  8
1
 62
7
 10
-152.0371735681646
 20
-1.999999999999957
 30
0
 40
18.60000000000011
  0
CIRCLE
  8
1
 62
7
 10
-152.0371735681646
 20
-1.999999999999957
 30
0
 40
4.800000000000011
  0
CIRCLE
  8
1
 62
3
  6
CENTER
 10
-152.0371735681646
 20
-1.999999999999957
 30
0
 40
14
  0
CIRCLE
  8
1
 62
3
 10
-166.0371735681646
 20
-1.999999999999957
 30
0
 40
1.5
  0
CIRCLE
  8
1
 62
7
 10
-166.0371735681646
 20
-1.999999999999957
 30
0
 40
1.200000000000017
  0
CIRCLE
  8
1
 62
3
 10
-145.0371735681646
 20
-14.12435565298206
 30
0
 40
1.499999999999951
  0
CIRCLE
  8
1
 62
7
 10
-145.0371735681646
 20
-14.12435565298206
 30
0
 40
1.199999999999993
  0
CIRCLE
  8
1
 62
3
 10
-145.0371735681646
 20
10.12435565298192
 30
0
 40
1.499999999999957
  0
CIRCLE
  8
1
 62
7
 10
-145.0371735681646
 20
10.12435565298192
 30
0
 40
1.199999999999999
  0
CIRCLE
  8
1
 62
7
 10
-152.0371735681646
 20
-1.999999999999957
 30
0
 40
2
  0
ARC
  8
1
 62
7
 10
99.70800210452434
 20
-11.90000000000008
 30
0
 40
0.5
 50
90
 51
180
  0
ARC
  8
1
 62
7
 10
99.70800210452434
 20
-15.40000000000008
 30
0
 40
0.5
 50
179.9999999999874
 51
270
  0
ARC
  8
1
 62
7
 10
97.90800210452439
 20
-15.40000000000008
 30
0
 40
0.5
 50
270
 51
0
  0
ARC
  8
1
 62
7
 10
97.90800210452439
 20
-11.90000000000008
 30
0
 40
0.4999999999999432
 50
0
 51
90
  0
ARC
  8
1
 62
7
 10
99.70800210452434
 20
7.899999999999025
 30
0
 40
0.5
 50
180
 51
270
  0
ARC
  8
1
 62
7
 10
99.70800210452434
 20
11.39999999999902
 30
0
 40
0.5
 50
90
 51
180
  0
ARC
  8
1
 62
7
 10
97.90800210452439
 20
11.39999999999902
 30
0
 40
0.4999999999999432
 50
0
 51
90
  0
ARC
  8
1
 62
7
 10
97.90800210452439
 20
7.899999999999025
 30
0
 40
0.5
 50
270
 51
0
  0
ARC
  8
1
 62
7
 10
112.9721690885443
 20
-8.537306299140866
 30
0
 40
3.000000000000434
 50
340.9576495369152
 51
15.06537176279294
  0
ARC
  8
1
 62
7
 10
116.9080021045243
 20
-1.999999999999957
 30
0
 40
2.499999999999329
 50
164.109732977175
 51
195.89026702285
  0
ARC
  8
1
 62
7
 10
116.9080021045243
 20
-1.999999999999957
 30
0
 40
2.499999999999329
 50
164.109732977175
 51
195.89026702285
  0
ARC
  8
1
 62
7
 10
112.9721690885443
 20
4.537306299140042
 30
0
 40
3.000000000000746
 50
344.9346282372065
 51
19.04235046308485
  0
ARC
  8
1
 62
7
 10
111.7613036762412
 20
4.516285628496021
 30
0
 40
2.500000000000165
 50
345.3442593026062
 51
26.70513151946772
  0
ARC
  8
1
 62
7
 10
117.8080021045244
 20
-1.999999999999957
 30
0
 40
5.000000000000055
 50
166.6758163180801
 51
193.3241836819304
  0
ARC
  8
1
 62
7
 10
111.7613036762412
 20
-8.516285628497073
 30
0
 40
2.50000000000068
 50
333.2948684805363
 51
14.6557406974209
  0
ARC
  8
1
 62
7
 10
85.85470053280746
 20
-8.516285628497073
 30
0
 40
2.500000000000474
 50
165.3442593025791
 51
206.7051315194659
  0
ARC
  8
1
 62
7
 10
79.80800210452448
 20
-1.999999999999957
 30
0
 40
5.000000000000119
 50
346.6758163180692
 51
13.32418368192034
  0
ARC
  8
1
 62
7
 10
79.80800210452448
 20
-1.999999999999957
 30
0
 40
5.000000000000119
 50
346.6758163180692
 51
13.32418368192034
  0
ARC
  8
1
 62
7
 10
84.64383512050439
 20
-8.537306299140866
 30
0
 40
3.00000000000026
 50
199.042350463086
 51
204.7751354345059
  0
ARC
  8
1
 62
7
 10
84.64383512050439
 20
-8.537306299140866
 30
0
 40
3.000000000000752
 50
164.9346282372071
 51
199.042350463086
  0
ARC
  8
1
 62
7
 10
80.70800210452434
 20
-1.999999999999957
 30
0
 40
2.499999999999722
 50
344.1097329771505
 51
15.89026702282441
  0
ARC
  8
1
 62
7
 10
80.70800210452434
 20
-1.999999999999957
 30
0
 40
2.499999999999722
 50
344.1097329771505
 51
15.89026702282441
  0
ARC
  8
1
 62
7
 10
84.64383512050439
 20
4.537306299140042
 30
0
 40
3.00000000000026
 50
160.957649536914
 51
195.0653717627934
  0
ARC
  8
1
 62
7
 10
85.85470053280746
 20
4.516285628496021
 30
0
 40
2.500000000000578
 50
153.2948684805301
 51
194.6557406973938
  0
ARC
  8
1
 62
7
 10
108.8080021045244
 20
-7.999999999999957
 30
0
 40
1
 50
270
 51
0
  0
ARC
  8
1
 62
7
 10
106.8080021045244
 20
-7.999999999999957
 30
0
 40
1
 50
180
 51
270
  0
ARC
  8
1
 62
7
 10
90.80800210452448
 20
-7.999999999999957
 30
0
 40
1
 50
270
 51
0
  0
ARC
  8
1
 62
7
 10
88.80800210452448
 20
-7.999999999999957
 30
0
 40
1
 50
180
 51
270
  0
ARC
  8
1
 62
7
 10
107.8080021045244
 20
-12.99999999999996
 30
0
 40
2
 50
90
 51
180
  0
ARC
  8
1
 62
7
 10
89.80800210452448
 20
-12.99999999999996
 30
0
 40
2
 50
0
 51
90
  0
ARC
  8
1
 62
7
 10
90.80800210452448
 20
4.000000000000043
 30
0
 40
1
 50
0
 51
90
  0
ARC
  8
1
 62
7
 10
88.80800210452448
 20
4.000000000000043
 30
0
 40
1
 50
90
 51
180
  0
ARC
  8
1
 62
7
 10
108.8080021045244
 20
4.000000000000043
 30
0
 40
1
 50
0
 51
90
  0
ARC
  8
1
 62
7
 10
106.8080021045244
 20
4.000000000000043
 30
0
 40
1
 50
90
 51
180
  0
ARC
  8
1
 62
7
 10
89.80800210452448
 20
9.000000000000043
 30
0
 40
2
 50
270
 51
0
  0
ARC
  8
1
 62
7
 10
107.8080021045244
 20
9.000000000000043
 30
0
 40
2
 50
180
 51
270
  0
ARC
  8
1
 62
7
 10
-49.73717356816464
 20
14.60000000000003
 30
0
 40
2
 50
90
 51
180
  0
ARC
  8
1
 62
7
 10
-49.73717356816464
 20
-18.59999999999998
 30
0
 40
2
 50
180
 51
270
  0
ARC
  8
1
 62
7
 10
-7.037173568164583
 20
5.000000000000043
 30
0
 40
1.000000000000001
 50
0
 51
90
  0
ARC
  8
1
 62
7
 10
-7.037173568164583
 20
-8.999999999999957
 30
0
 40
1
 50
270
 51
0
  0
ARC
  8
1
 62
7
 10
-72.43717356816467
 20
-3.699999999999946
 30
0
 40
0.2999999999999545
 50
180
 51
270
  0
ARC
  8
1
 62
7
 10
-72.43717356816467
 20
-0.2999999999999403
 30
0
 40
0.2999999999998979
 50
90
 51
180
  0
LINE
  8
1
 62
2
 10
-18.31576058365647
 20
26.60000000000003
 30
0
 11
-42.40063014642659
 21
26.60000000000003
 31
0
  0
LINE
  8
1
 62
2
 10
-42.40063014642659
 20
26.60000000000003
 30
0
 11
-32.40063014642659
 21
16.60000000000003
 31
0
  0
SOLID
  8
1
 62
2
 10
-35.20132718889418
 20
18.74905042583827
 30
0
 11
-34.54968057226483
 21
19.40069704246762
 31
0
 12
-32.40063014642659
 22
16.60000000000003
 32
0
 13
-32.40063014642659
 23
16.60000000000003
 33
0
  0
LINE
  8
1
 62
2
 10
54.5377199199653
 20
-30.59999999999998
 30
0
 11
73.55864911413541
 21
-30.59999999999998
 31
0
  0
LINE
  8
1
 62
2
 10
73.55864911413541
 20
-30.59999999999998
 30
0
 11
89.25800210452429
 21
-6.499999999999957
 31
0
  0
SOLID
  8
1
 62
2
 10
87.73369465826711
 20
-9.684149567116291
 30
0
 11
86.96151562455509
 21
-9.181132503961836
 31
0
 12
89.25800210452429
 22
-6.499999999999957
 32
0
 13
89.25800210452429
 23
-6.499999999999957
 33
0
  0
LINE
  8
1
 62
2
 10
143.0782842890835
 20
-30.59999999999998
 30
0
 11
124.0573550949133
 21
-30.59999999999998
 31
0
  0
LINE
  8
1
 62
2
 10
124.0573550949133
 20
-30.59999999999998
 30
0
 11
108.3580021045244
 21
-6.499999999999957
 31
0
  0
SOLID
  8
1
 62
2
 10
110.6544885844936
 20
-9.181132503961834
 30
0
 11
109.8823095507816
 21
-9.684149567116291
 31
0
 12
108.3580021045244
 22
-6.499999999999957
 32
0
 13
108.3580021045244
 23
-6.499999999999957
 33
0
  0
LINE
  8
1
 62
2
 10
-173.1966807420046
 20
34.24237962817902
 30
0
 11
-130.9590099113645
 21
34.24237962817902
 31
0
  0
LINE
  8
1
 62
2
 10
-130.9590099113645
 20
34.24237962817902
 30
0
 11
-144.2871735681646
 21
11.42339375865863
 31
0
  0
SOLID
  8
1
 62
2
 10
-142.9198221157556
 20
14.67803224274209
 30
0
 11
-142.1240510620644
 21
14.21323652843709
 31
0
 12
-144.2871735681646
 22
11.42339375865863
 32
0
 13
-144.2871735681646
 23
11.42339375865863
 33
0
  0
TEXT
  8
1
 62
7
 10
29.32775721610388
 20
49.68931355180806
 30
0
 40
4
  1
ＤＭＥ３７Ｓ
 41
0.9
 72
1
 73
2
 11
50.92775721610388
 21
51.68931355180806
 31
0
  0
TEXT
  8
1
 62
2
 10
-53.11798039553644
 20
27.45000000000003
 30
0
 40
3.5
  1
ネームプレート
 41
0.9
 72
1
 73
2
 11
-31.06798039553643
 21
29.20000000000003
 31
0
  0
TEXT
  8
1
 62
2
 10
51.01494468963331
 20
-29.80333888821498
 30
0
 40
3.5
  1
(+)タンシ
 41
0.9
 72
1
 73
2
 11
65.18994468963331
 21
-28.05333888821498
 31
0
  0
TEXT
  8
1
 62
2
 10
119.0149446896334
 20
-29.80333888821498
 30
0
 40
3.5
  1
(-)タンシ
 41
0.9
 72
1
 73
2
 11
133.1899446896334
 21
-28.05333888821498
 31
0
  0
TEXT
  8
1
 62
4
 10
90.4873383979734
 20
5.076488874308737
 30
0
 40
2
  1
-
 41
0.9
  7
COMPLEX
 72
1
 73
2
 11
91.38733839797341
 21
6.076488874308737
 31
0
  0
TEXT
  8
1
 62
4
 10
104.9786658110763
 20
-11.42648887430867
 30
0
 40
2
  1
+
 41
0.9
  7
COMPLEX
 72
1
 73
2
 11
105.8786658110763
 21
-10.42648887430867
 31
0
  0
TEXT
  8
1
 62
2
 10
-178.2994377843346
 20
48.95732712154403
 30
0
 40
3.5
  1
3-M3 深さ4MAX
 41
0.9
  0
TEXT
  8
1
 62
2
 10
-178.2994377843346
 20
41.95732712154403
 30
0
 40
3.5
  1
P=120%%d
 41
0.9
  0
TEXT
  8
1
 62
2
 10
-178.2994377843346
 20
34.95732712154403
 30
0
 40
3.5
  1
P.C.D=φ28%%p0.2
 41
0.9
  0
DIMENSION
  8
1
  6
CONTINUOUS
 62
2
  2
*D0
  3
DMST_1
 10
-102.7371735681646
 20
16.60000000000003
 30
0
 11
-105.7638402348313
 21
-1.999999999999972
 31
0
 12
0
 22
0
 32
0
 70
0
  1
φ<>
 13
-49.73717356816464
 23
-20.59999999999998
 33
0
 14
-49.73717356816464
 24
16.60000000000003
 34
0
 50
90
 53
0
  0
DIMENSION
  8
1
  6
CONTINUOUS
 62
2
  2
*D1
  3
DMST_2
 10
-92.63717356816464
 20
4.000000000000039
 30
0
 11
-95.63159139325299
 21
25.28189520102414
 31
0
 12
0
 22
0
 32
0
 70
0
  1
φ<>
 13
-54.03717356816448
 23
-7.999999999999957
 33
0
 14
-54.03717356816448
 24
4.000000000000043
 34
0
 50
90
 53
0
  0
DIMENSION
  8
1
  6
CONTINUOUS
 62
2
  2
*D2
  3
DMST_3
 10
-82.73717356816464
 20
-4.973799150320701e-014
 30
0
 11
-86.12396005610219
 21
25.56447259329324
 31
0
 12
0
 22
0
 32
0
 70
0
  1
φ<>
 13
-72.43717356816444
 23
-4.000000000000043
 33
0
 14
-72.43717356816444
 24
-4.241051954068098e-014
 34
0
 50
90
 53
0
  0
DIMENSION
  8
1
  6
CONTINUOUS
 62
2
  2
*D3
  3
DMST_4
 10
-10.03717356816458
 20
36.60000000000004
 30
0
 11
-14.21446499507973
 21
39.31481494777955
 31
0
 12
0
 22
0
 32
0
 70
0
  1
(<>
 13
-6.037173568164582
 23
5.000000000000043
 33
0
 14
-10.03717356816458
 24
16.60000000000003
 34
0
 53
0
  0
DIMENSION
  8
1
  6
CONTINUOUS
 62
2
  2
*D4
  3
DMST_5
 10
33.38949309850215
 20
-9.999999999999957
 30
0
 11
30.36282643183551
 21
-1.999999999999957
 31
0
 12
0
 22
0
 32
0
 70
0
  1
φ<>
 13
-7.037173568164583
 23
6.000000000000043
 33
0
 14
-7.037173568164583
 24
-9.999999999999957
 34
0
 50
90
 53
0
  0
DIMENSION
  8
1
  6
CONTINUOUS
 62
2
  2
*D5
  3
DMST_1
 10
-6.037173568164583
 20
46.60000000000003
 30
0
 11
-28.8871735681645
 21
49.20000000000003
 31
0
 12
0
 22
0
 32
0
 70
0
 13
-51.73717356816464
 23
14.60000000000003
 33
0
 14
-6.037173568164582
 24
5.000000000000043
 34
0
 53
0
  0
DIMENSION
  8
1
  6
CONTINUOUS
 62
2
  2
*D6
  3
DMST_4
 10
89.53300210452436
 20
26.60000000000018
 30
0
 11
98.80800210452433
 21
29.20000000000018
 31
0
 12
0
 22
0
 32
0
 70
0
  1
18.6
 13
108.0830021045243
 23
3.366206426214021
 33
0
 14
89.53300210452439
 24
3.366206426214021
 34
0
 53
0
  0
DIMENSION
  8
1
  6
CONTINUOUS
 62
2
  2
*D7
  3
DMST_1
 10
22.96282643183542
 20
0.7500000000000107
 30
0
 11
20.36282643183551
 21
16.19485380905301
 31
0
 12
0
 22
0
 32
0
 70
0
  1
2-<>
 13
-5.987173568164628
 23
-4.749999999999957
 33
0
 14
-5.987173568164628
 24
0.7500000000000426
 34
0
 50
90
 53
0
  0
DIMENSION
  8
1
  6
CONTINUOUS
 62
2
  2
*D8
  3
DMST_6
 10
12.96282643183542
 20
0.3750000000000391
 30
0
 11
10.36282643183551
 21
23.14140484011902
 31
0
 12
0
 22
0
 32
0
 70
0
  1
2-<>
 13
-0.6371735681644921
 23
-4.374999999999957
 33
0
 14
-0.6371735681644921
 24
0.3750000000000426
 34
0
 50
90
 53
0
  0
DIMENSION
  8
1
  6
CONTINUOUS
 62
2
  2
*D9
  3
DMST_7
 10
0.3628264318355097
 20
46.60000000000004
 30
0
 11
0.5012740753235168
 21
49.20000000000003
 31
0
 12
0
 22
0
 32
0
 70
0
 13
-6.037173568164582
 23
5.000000000000043
 33
0
 14
0.3628264318355061
 24
-0.6249999999999574
 34
0
 53
0
  0
DIMENSION
  8
1
  6
CONTINUOUS
 62
2
  2
*D10
  3
DMST_1
 10
0.3628264318355097
 20
-40.59999999999998
 30
0
 11
12.10789191075772
 21
-37.99999999999998
 31
0
 12
0
 22
0
 32
0
 70
0
  1
2-<>
 13
-5.987173568164628
 23
-4.749999999999957
 33
0
 14
0.3628264318355061
 24
-3.374999999999957
 34
0
 53
0
  0
DIMENSION
  8
1
  6
CONTINUOUS
 62
2
  2
*D11
  3
DMST_1
 10
0.3628264318355097
 20
-30.59999999999998
 30
0
 11
10.85380891441142
 21
-27.99999999999998
 31
0
 12
0
 22
0
 32
0
 70
0
  1
2-<>
 13
-2.837173568164537
 23
-2.844999999999985
 33
0
 14
0.3628264318355061
 24
-3.374999999999957
 34
0
 53
0
  0
DIMENSION
  8
1
  6
CONTINUOUS
 62
2
  2
*D12
  3
DMST_1
 10
-55.23717356816452
 20
36.60000000000003
 30
0
 11
-63.1601631952521
 21
39.20000000000003
 31
0
 12
0
 22
0
 32
0
 70
0
 13
-51.73717356816464
 23
14.60000000000003
 33
0
 14
-55.23717356816452
 24
3.307179676972467
 34
0
 53
0
  0
DIMENSION
  8
1
  6
CONTINUOUS
 62
2
  2
*D13
  3
DMST_1
 10
-72.73717356816465
 20
46.60000000000005
 30
0
 11
-62.23717356816464
 21
49.20000000000005
 31
0
 12
0
 22
0
 32
0
 70
0
 13
-51.73717356816464
 23
14.60000000000003
 33
0
 14
-72.73717356816462
 24
-0.2999999999999403
 34
0
 53
0
  0
INSERT
  8
1
  2
*D14
 10
0
 20
0
 30
0
  0
ENDSEC
  0
EOF
