  0
SECTION
  2
HEADER
  9
$ACADVER
  1
AC1009
  9
$INSBASE
 10
0
 20
0
  9
$EXTMIN
 10
-160.3880126182964
 20
-37.53407567543469
  9
$EXTMAX
 10
240.873779583505
 20
100.189313551808
  9
$LIMMIN
 10
-160.3880126182964
 20
-37.53407567543469
  9
$LIMMAX
 10
240.873779583505
 20
100.189313551808
  9
$VIEWCTR
 10
10
 20
10
  9
$VIEWSIZE
 40
10
  9
$SNAPMODE
 70
0
  9
$SNAPUNIT
 10
1
 20
1
  9
$SNAPBASE
 10
0
 20
0
  9
$SNAPANG
 50
0
  9
$SNAPSTYLE
 70
0
  9
$SNAPISOPAIR
 70
0
  9
$GRIDMODE
 70
0
  9
$GRIDUNIT
 10
0
 20
0
  9
$ORTHOMODE
 70
0
  9
$REGENMODE
 70
1
  9
$FILLMODE
 70
1
  9
$QTEXTMODE
 70
0
  9
$DRAGMODE
 70
2
  9
$LTSCALE
 40
1
  9
$OSMODE
 70
0
  9
$ATTMODE
 70
1
  9
$TEXTSIZE
 40
3.5
  9
$TRACEWID
 40
0.5
  9
$TEXTSTYLE
  7
STANDARD
  9
$CLAYER
  8
0
  9
$CELTYPE
  6
BYLAYER
  9
$CECOLOR
 62
256
  9
$DIMSCALE
 40
1
  9
$DIMASZ
 40
0.18
  9
$DIMEXO
 40
0.0625
  9
$DIMDLI
 40
0.38
  9
$DIMRND
 40
0
  9
$DIMDLE
 40
0
  9
$DIMEXE
 40
0.18
  9
$DIMTP
 40
0
  9
$DIMTM
 40
0
  9
$DIMTXT
 40
0.18
  9
$DIMCEN
 40
0.09
  9
$DIMTSZ
 40
0
  9
$DIMTOL
 70
0
  9
$DIMLIM
 70
0
  9
$DIMTIH
 70
1
  9
$DIMTOH
 70
1
  9
$DIMSE1
 70
0
  9
$DIMSE2
 70
0
  9
$DIMTAD
 70
0
  9
$DIMZIN
 70
0
  9
$DIMBLK
  1

  9
$DIMASO
 70
1
  9
$DIMSHO
 70
1
  9
$DIMPOST
  1

  9
$DIMAPOST
  1

  9
$DIMALT
 70
0
  9
$DIMALTD
 70
2
  9
$DIMALTF
 40
25.4
  9
$DIMLFAC
 40
1
  9
$DIMTOFL
 70
0
  9
$DIMTVP
 40
0
  9
$DIMTIX
 70
0
  9
$DIMSOXD
 70
0
  9
$DIMSAH
 70
0
  9
$DIMBLK1
  1

  9
$DIMBLK2
  1

  9
$DIMSTYLE
  2
*UNNAMED
  9
$DIMCLRD
 70
0
  9
$DIMCLRE
 70
0
  9
$DIMCLRT
 70
0
  9
$DIMTFAC
 40
1
  9
$DIMGAP
 40
0.09
  9
$LUNITS
 70
2
  9
$LUPREC
 70
4
  9
$AXISMODE
 70
0
  9
$AXISUNIT
 10
0
 20
0
  9
$SKETCHINC
 40
0.1
  9
$FILLETRAD
 40
2
  9
$AUNITS
 70
0
  9
$AUPREC
 70
0
  9
$MENU
  1
ACAD
  9
$ELEVATION
 40
0
  9
$THICKNESS
 40
0
  9
$VIEWDIR
 10
0
 20
0
 30
1
  9
$LIMCHECK
 70
0
  9
$BLIPMODE
 70
1
  9
$CHAMFERA
 40
0
  9
$CHAMFERB
 40
0
  9
$FASTZOOM
 70
1
  9
$SKPOLY
 70
0
  9
$ANGBASE
 50
0
  9
$ANGDIR
 70
0
  9
$PDMODE
 70
0
  9
$PDSIZE
 40
0
  9
$PLINEWID
 40
0
  9
$COORDS
 70
2
  0
ENDSEC
  0
SECTION
  2
TABLES
  0
TABLE
  2
DIMSTYLE
 70
6
  0
DIMSTYLE
  2
DMST_1
 70
0
  3
)
  4

  5

  6

  7

 40
1
 41
3.2
 42
1
 43
7
 44
1
 45
0
 46
0
 47
0
 48
0
140
3.2
141
0
142
0
143
25.4
144
1
145
0
146
1
147
0.09
 71
0
 72
0
 73
0
 74
0
 75
0
 76
0
 77
1
 78
9
170
0
171
2
172
0
173
0
174
0
175
0
176
2
177
2
178
2
  0
DIMSTYLE
  2
DMST_2
 70
0
  3

  4

  5

  6

  7

 40
1
 41
3.2
 42
1
 43
7
 44
1
 45
0
 46
0
 47
0
 48
0
140
3.2
141
0
142
0
143
25.4
144
1
145
0
146
1
147
0.09
 71
0
 72
0
 73
0
 74
0
 75
0
 76
0
 77
1
 78
9
170
0
171
2
172
0
173
0
174
0
175
0
176
2
177
2
178
2
  0
DIMSTYLE
  2
DMST_3
 70
0
  3

  4

  5

  6

  7

 40
1
 41
3.2
 42
1
 43
7
 44
1
 45
0
 46
0
 47
0.5
 48
0.5
140
3.2
141
0
142
0
143
25.4
144
1
145
0
146
0.6
147
0.09
 71
1
 72
0
 73
0
 74
0
 75
0
 76
0
 77
1
 78
9
170
0
171
2
172
0
173
0
174
0
175
0
176
2
177
2
178
2
  0
DIMSTYLE
  2
DMST_4
 70
0
  3

  4

  5

  6

  7

 40
1
 41
3.2
 42
1
 43
7
 44
1
 45
0
 46
0
 47
0.3
 48
0.3
140
3.2
141
0
142
0
143
25.4
144
1
145
0
146
0.6
147
0.09
 71
1
 72
0
 73
0
 74
0
 75
0
 76
0
 77
1
 78
9
170
0
171
2
172
0
173
0
174
0
175
0
176
2
177
2
178
2
  0
DIMSTYLE
  2
DMST_5
 70
0
  3

  4

  5

  6

  7

 40
1
 41
3.2
 42
1
 43
7
 44
1
 45
0
 46
0
 47
0
 48
0.02
140
3.2
141
0
142
0
143
25.4
144
1
145
0
146
0.6
147
0.09
 71
1
 72
0
 73
0
 74
0
 75
0
 76
0
 77
1
 78
9
170
0
171
2
172
0
173
0
174
0
175
0
176
2
177
2
178
2
  0
DIMSTYLE
  2
DMST_6
 70
0
  3

  4

  5

  6

  7

 40
1
 41
3.2
 42
1
 43
7
 44
1
 45
0
 46
0
 47
0
 48
0
140
3.2
141
0
142
0
143
25.4
144
1
145
0
146
1
147
0.09
 71
0
 72
0
 73
1
 74
1
 75
0
 76
0
 77
1
 78
9
170
0
171
2
172
0
173
0
174
0
175
0
176
2
177
2
178
2
  0
ENDTAB
  0
TABLE
  2
LTYPE
 70
9
  0
LTYPE
  2
CONTINUOUS
 70
64
  3
Solid line
 72
65
 73
0
 40
0
  0
LTYPE
  2
BORDER
 70
64
  3
__ __ . __ __ .
 72
65
 73
6
 40
18.4791614829777
 49
5.279760423707914
 49
-2.639880211853957
 49
5.279760423707914
 49
-2.639880211853957
 49
0
 49
-2.639880211853957
  0
LTYPE
  2
CENTER
 70
64
  3
____ _ ____ _
 72
65
 73
4
 40
21.11904169483166
 49
13.19940105926978
 49
-2.639880211853957
 49
2.639880211853957
 49
-2.639880211853957
  0
LTYPE
  2
DASHDOT
 70
64
  3
__ . __ . __ .
 72
65
 73
4
 40
10.55952084741583
 49
5.279760423707914
 49
-2.639880211853957
 49
0
 49
-2.639880211853957
  0
LTYPE
  2
DASHED
 70
64
  3
__ __ __ __ __
 72
65
 73
2
 40
7.919640635561871
 49
5.279760423707914
 49
-2.639880211853957
  0
LTYPE
  2
DIVIDE
 70
64
  3
__ . . __ . . 
 72
65
 73
6
 40
13.19940105926978
 49
5.279760423707914
 49
-2.639880211853957
 49
0
 49
-2.639880211853957
 49
0
 49
-2.639880211853957
  0
LTYPE
  2
DOT
 70
64
  3
..............
 72
65
 73
4
 40
5.279760423707914
 49
0
 49
-2.639880211853957
 49
0
 49
-2.639880211853957
  0
LTYPE
  2
HIDDEN
 70
64
  3
_ _ _ _ _ _ _
 72
65
 73
2
 40
3.959820317780936
 49
2.639880211853957
 49
-1.319940105926978
  0
LTYPE
  2
PHANTOM
 70
64
  3
_____ _ _ _____ _ _ 
 72
65
 73
6
 40
26.39880211853957
 49
13.19940105926978
 49
-2.639880211853957
 49
2.639880211853957
 49
-2.639880211853957
 49
2.639880211853957
 49
-2.639880211853957
  0
ENDTAB
  0
TABLE
  2
LAYER
 70
3
  0
LAYER
  2
1
 70
0
 62
7
  6
CONTINUOUS
  0
LAYER
  2
0
 70
0
 62
7
  6
CONTINUOUS
  0
ENDTAB
  0
TABLE
  2
STYLE
 70
4
  0
STYLE
  2
STANDARD
 70
0
 40
0
 41
1
 50
0
 71
0
 42
3.5
  3
txt
  4

  0
STYLE
  2
SIMPLEX
 70
0
 40
0
 41
1
 50
0
 71
0
 42
3.5
  3
simplex
  4

  0
STYLE
  2
COMPLEX
 70
0
 40
0
 41
1
 50
0
 71
0
 42
3.5
  3
complex
  4

  0
STYLE
  2
ITALIC
 70
0
 40
0
 41
1
 50
0
 71
0
 42
3.5
  3
italic
  4

  0
ENDTAB
  0
TABLE
  2
VIEW
 70
0
  0
ENDTAB
  0
ENDSEC
  0
SECTION
  2
BLOCKS
  0
BLOCK
  8
1
  2
*D0
 70
1
 10
0
 20
0
 30
0
  0
LINE
  8
1
 62
2
 10
233.0951756726889
 20
5.724999999999833
 30
0
 11
233.0951756726889
 21
24.27499999999979
 31
0
  0
LINE
  8
1
 62
2
 10
211.1289692464751
 20
5.724999999999833
 30
0
 11
234.0951756726889
 21
5.724999999999833
 31
0
  0
LINE
  8
1
 62
2
 10
211.1289692464751
 20
24.27499999999979
 30
0
 11
234.0951756726889
 21
24.27499999999979
 31
0
  0
SOLID
  8
1
 62
2
 10
233.0951756726889
 20
24.27499999999979
 30
0
 11
233.5111756726889
 21
21.07499999999979
 31
0
 12
232.6791756726889
 22
21.07499999999979
 32
0
 13
232.6791756726889
 23
21.07499999999979
 33
0
  0
SOLID
  8
1
 62
2
 10
233.0951756726889
 20
5.724999999999833
 30
0
 11
232.6791756726889
 21
8.924999999999834
 31
0
 12
233.5111756726889
 22
8.924999999999834
 32
0
 13
233.5111756726889
 23
8.924999999999834
 33
0
  0
TEXT
  8
1
 62
2
 10
232.095175672689
 20
11.11999999999981
 30
0
 40
3.2
  1
18.6
 50
90
 41
0.9
  0
TEXT
  8
1
 62
2
 10
232.095175672689
 20
9.039999999999811
 30
0
 40
3.2
  1
(
 50
90
 41
0.9
  0
TEXT
  8
1
 62
2
 10
232.095175672689
 20
20.47999999999981
 30
0
 40
3.2
  1
)
 50
90
 41
0.9
  0
ENDBLK
  8
0
  0
BLOCK
  8
1
  2
*D1
 70
1
 10
0
 20
0
 30
0
  0
LINE
  8
1
 62
2
 10
147.8999999999998
 20
7.000000000000007
 30
0
 11
147.8999999999998
 21
23.00000000000001
 31
0
  0
LINE
  8
1
 62
2
 10
131.5000000000001
 20
23.00000000000001
 30
0
 11
148.8999999999998
 21
23.00000000000001
 31
0
  0
LINE
  8
1
 62
2
 10
131.5000000000001
 20
7.000000000000007
 30
0
 11
148.8999999999998
 21
7.000000000000007
 31
0
  0
SOLID
  8
1
 62
2
 10
147.8999999999998
 20
23.00000000000001
 30
0
 11
148.3159999999998
 21
19.80000000000001
 31
0
 12
147.4839999999998
 22
19.80000000000001
 32
0
 13
147.4839999999998
 23
19.80000000000001
 33
0
  0
SOLID
  8
1
 62
2
 10
147.8999999999998
 20
7.000000000000007
 30
0
 11
147.4839999999998
 21
10.20000000000001
 31
0
 12
148.3159999999998
 22
10.20000000000001
 32
0
 13
148.3159999999998
 23
10.20000000000001
 33
0
  0
TEXT
  8
1
 62
2
 10
146.0466666666665
 20
15.10352941176472
 30
0
 40
3.2
  1
16
 50
90
 41
0.9
  0
TEXT
  8
1
 62
2
 10
146.0466666666665
 20
11.05647058823531
 30
0
 40
3.2
  1
φ
 50
90
 41
0.9
  0
ENDBLK
  8
0
  0
BLOCK
  8
1
  2
*D2
 70
1
 10
0
 20
0
 30
0
  0
LINE
  8
1
 62
2
 10
195.3499999999993
 20
43.90760699128541
 30
0
 11
201.7499999999994
 21
43.90760699128541
 31
0
  0
LINE
  8
1
 62
2
 10
201.7499999999994
 20
43.90760699128541
 30
0
 11
207.2499999999994
 21
43.90760699128541
 31
0
  0
LINE
  8
1
 62
2
 10
207.2499999999994
 20
43.90760699128541
 30
0
 11
222.6101682502302
 21
43.90760699128541
 31
0
  0
LINE
  8
1
 62
2
 10
201.7499999999994
 20
70.6938581085587
 30
0
 11
201.7499999999994
 21
42.90760699128541
 31
0
  0
LINE
  8
1
 62
2
 10
207.2499999999994
 20
70.64385810855873
 30
0
 11
207.2499999999994
 21
42.90760699128541
 31
0
  0
SOLID
  8
1
 62
2
 10
201.7499999999994
 20
43.90760699128541
 30
0
 11
198.5499999999994
 21
43.49160699128542
 31
0
 12
198.5499999999994
 22
44.32360699128541
 32
0
 13
198.5499999999994
 23
44.32360699128541
 33
0
  0
SOLID
  8
1
 62
2
 10
207.2499999999994
 20
43.90760699128541
 30
0
 11
210.4499999999994
 21
44.32360699128541
 31
0
 12
210.4499999999994
 22
43.49160699128542
 32
0
 13
210.4499999999994
 23
43.49160699128542
 33
0
  0
TEXT
  8
1
 62
2
 10
211.3301682502301
 20
44.90760699128541
 30
0
 40
3.2
  1
2-5.5
 41
0.9
  0
ENDBLK
  8
0
  0
BLOCK
  8
1
  2
*D3
 70
1
 10
0
 20
0
 30
0
  0
LINE
  8
1
 62
2
 10
195.7249999999993
 20
52.85554879312743
 30
0
 11
202.1249999999994
 21
52.85554879312743
 31
0
  0
LINE
  8
1
 62
2
 10
202.1249999999994
 20
52.85554879312743
 30
0
 11
206.8749999999994
 21
52.85554879312743
 31
0
  0
LINE
  8
1
 62
2
 10
206.8749999999994
 20
52.85554879312743
 30
0
 11
238.6506809201102
 21
52.85554879312743
 31
0
  0
LINE
  8
1
 62
2
 10
202.1249999999994
 20
65.29385810855861
 30
0
 11
202.1249999999994
 21
51.85554879312743
 31
0
  0
LINE
  8
1
 62
2
 10
206.8749999999994
 20
65.29385810855861
 30
0
 11
206.8749999999994
 21
51.85554879312743
 31
0
  0
SOLID
  8
1
 62
2
 10
202.1249999999994
 20
52.85554879312743
 30
0
 11
198.9249999999994
 21
52.43954879312743
 31
0
 12
198.9249999999994
 22
53.27154879312742
 32
0
 13
198.9249999999994
 23
53.27154879312742
 33
0
  0
SOLID
  8
1
 62
2
 10
206.8749999999994
 20
52.85554879312743
 30
0
 11
210.0749999999994
 21
53.27154879312742
 31
0
 12
210.0749999999994
 22
52.43954879312743
 32
0
 13
210.0749999999994
 23
52.43954879312743
 33
0
  0
TEXT
  8
1
 62
2
 10
211.2906809201101
 20
53.85554879312742
 30
0
 40
3.2
  1
2-4.75XT.05
 41
0.9
  0
ENDBLK
  8
0
  0
BLOCK
  8
1
  2
*D4
 70
1
 10
0
 20
0
 30
0
  0
LINE
  8
1
 62
2
 10
233.0999999999995
 20
58.89385810855856
 30
0
 11
233.0999999999995
 21
65.29385810855857
 31
0
  0
LINE
  8
1
 62
2
 10
233.0999999999995
 20
65.29385810855857
 30
0
 11
233.0999999999995
 21
71.69385810855866
 31
0
  0
LINE
  8
1
 62
2
 10
233.0999999999995
 20
71.69385810855866
 30
0
 11
233.0999999999995
 21
86.02216641697839
 31
0
  0
LINE
  8
1
 62
2
 10
206.8749999999994
 20
65.29385810855857
 30
0
 11
234.0999999999995
 21
65.29385810855857
 31
0
  0
LINE
  8
1
 62
2
 10
212.4999999999994
 20
71.69385810855866
 30
0
 11
234.0999999999995
 21
71.69385810855866
 31
0
  0
SOLID
  8
1
 62
2
 10
233.0999999999995
 20
71.69385810855866
 30
0
 11
232.6839999999995
 21
74.89385810855866
 31
0
 12
233.5159999999995
 22
74.89385810855866
 32
0
 13
233.5159999999995
 23
74.89385810855866
 33
0
  0
SOLID
  8
1
 62
2
 10
233.0999999999995
 20
65.29385810855857
 30
0
 11
233.5159999999995
 21
62.09385810855856
 31
0
 12
232.6839999999995
 22
62.09385810855856
 32
0
 13
232.6839999999995
 23
62.09385810855856
 33
0
  0
TEXT
  8
1
 62
2
 10
231.9394460012201
 20
73.73416641697838
 30
0
 40
3.2
  1
6.4
 50
90
 41
0.9
  0
TEXT
  8
1
 62
2
 10
231.2994460012201
 20
81.1741664169784
 30
0
 40
1.92
  1
%%p0.5
 50
90
 41
0.9
  0
ENDBLK
  8
0
  0
BLOCK
  8
1
  2
*D5
 70
1
 10
0
 20
0
 30
0
  0
LINE
  8
1
 62
2
 10
165.8999999999994
 20
58.89385810855856
 30
0
 11
165.8999999999994
 21
65.29385810855857
 31
0
  0
LINE
  8
1
 62
2
 10
165.8999999999994
 20
65.29385810855857
 30
0
 11
165.8999999999994
 21
71.6438581085587
 31
0
  0
LINE
  8
1
 62
2
 10
165.8999999999994
 20
71.6438581085587
 30
0
 11
165.8999999999994
 21
89.37937419865241
 31
0
  0
LINE
  8
1
 62
2
 10
202.1249999999994
 20
65.29385810855857
 30
0
 11
164.8999999999994
 21
65.29385810855857
 31
0
  0
LINE
  8
1
 62
2
 10
200.7499999999994
 20
71.6438581085587
 30
0
 11
164.8999999999994
 21
71.6438581085587
 31
0
  0
SOLID
  8
1
 62
2
 10
165.8999999999994
 20
71.6438581085587
 30
0
 11
165.4839999999994
 21
74.84385810855871
 31
0
 12
166.3159999999994
 22
74.84385810855871
 32
0
 13
166.3159999999994
 23
74.84385810855871
 33
0
  0
SOLID
  8
1
 62
2
 10
165.8999999999994
 20
65.29385810855857
 30
0
 11
166.3159999999994
 21
62.09385810855856
 31
0
 12
165.4839999999994
 22
62.09385810855856
 32
0
 13
165.4839999999994
 23
62.09385810855856
 33
0
  0
TEXT
  8
1
 62
2
 10
164.8825174391801
 20
75.2193741986524
 30
0
 40
3.2
  1
2-6.35
 50
90
 41
0.9
  0
ENDBLK
  8
0
  0
BLOCK
  8
1
  2
*D6
 70
1
 10
0
 20
0
 30
0
  0
LINE
  8
1
 62
2
 10
175.8999999999995
 20
58.89385810855856
 30
0
 11
175.8999999999995
 21
65.29385810855857
 31
0
  0
LINE
  8
1
 62
2
 10
175.8999999999995
 20
65.29385810855857
 30
0
 11
175.8999999999995
 21
68.49385810855861
 31
0
  0
LINE
  8
1
 62
2
 10
175.8999999999995
 20
68.49385810855861
 30
0
 11
175.8999999999995
 21
86.57086545248839
 31
0
  0
LINE
  8
1
 62
2
 10
202.1249999999994
 20
65.29385810855857
 30
0
 11
174.8999999999995
 21
65.29385810855857
 31
0
  0
LINE
  8
1
 62
2
 10
202.6549999999996
 20
68.49385810855861
 30
0
 11
174.8999999999995
 21
68.49385810855861
 31
0
  0
SOLID
  8
1
 62
2
 10
175.8999999999995
 20
65.29385810855857
 30
0
 11
176.3159999999995
 21
62.09385810855856
 31
0
 12
175.4839999999995
 22
62.09385810855856
 32
0
 13
175.4839999999995
 23
62.09385810855856
 33
0
  0
SOLID
  8
1
 62
2
 10
175.8999999999995
 20
68.49385810855861
 30
0
 11
175.4839999999995
 21
71.69385810855862
 31
0
 12
176.3159999999995
 22
71.69385810855862
 32
0
 13
176.3159999999995
 23
71.69385810855862
 33
0
  0
TEXT
  8
1
 62
2
 10
174.8831582765301
 20
75.2908654524884
 30
0
 40
3.2
  1
2-3.2
 50
90
 41
0.9
  0
ENDBLK
  8
0
  0
BLOCK
  8
1
  2
*D7
 70
1
 10
0
 20
0
 30
0
  0
LINE
  8
1
 62
2
 10
159.0999999999998
 20
-3.600000000000101
 30
0
 11
159.0999999999998
 21
33.5999999999999
 31
0
  0
LINE
  8
1
 62
2
 10
121.3
 20
33.5999999999999
 30
0
 11
160.0999999999998
 21
33.5999999999999
 31
0
  0
LINE
  8
1
 62
2
 10
121.3
 20
-3.600000000000101
 30
0
 11
160.0999999999998
 21
-3.600000000000101
 31
0
  0
SOLID
  8
1
 62
2
 10
159.0999999999998
 20
33.5999999999999
 30
0
 11
159.5159999999998
 21
30.3999999999999
 31
0
 12
158.6839999999998
 22
30.3999999999999
 32
0
 13
158.6839999999998
 23
30.3999999999999
 33
0
  0
SOLID
  8
1
 62
2
 10
159.0999999999998
 20
-3.600000000000101
 30
0
 11
158.6839999999998
 21
-0.4000000000001003
 31
0
 12
159.5159999999998
 22
-0.4000000000001003
 32
0
 13
159.5159999999998
 23
-0.4000000000001003
 33
0
  0
TEXT
  8
1
 62
2
 10
157.2466666666664
 20
12.66352941176461
 30
0
 40
3.2
  1
37.2
 50
90
 41
0.9
  0
TEXT
  8
1
 62
2
 10
157.2466666666664
 20
8.616470588235195
 30
0
 40
3.2
  1
φ
 50
90
 41
0.9
  0
ENDBLK
  8
0
  0
BLOCK
  8
1
  2
*D8
 70
1
 10
0
 20
0
 30
0
  0
LINE
  8
1
 62
2
 10
127.5000000000001
 20
65
 30
0
 11
119.239732927358
 21
65
 31
0
  0
LINE
  8
1
 62
2
 10
127.5000000000001
 20
65
 30
0
 11
131.5000000000001
 21
65
 31
0
  0
LINE
  8
1
 62
2
 10
137.9000000000001
 20
65
 30
0
 11
131.5000000000001
 21
65
 31
0
  0
LINE
  8
1
 62
2
 10
131.5000000000001
 20
23.00000000000001
 30
0
 11
131.5000000000001
 21
66
 31
0
  0
LINE
  8
1
 62
2
 10
127.5000000000001
 20
29.50000000000001
 30
0
 11
127.5000000000001
 21
66
 31
0
  0
SOLID
  8
1
 62
2
 10
127.5000000000001
 20
65
 30
0
 11
124.3000000000001
 21
64.584
 31
0
 12
124.3000000000001
 22
65.416
 32
0
 13
124.3000000000001
 23
65.416
 33
0
  0
SOLID
  8
1
 62
2
 10
131.5000000000001
 20
65
 30
0
 11
134.7000000000001
 21
65.416
 31
0
 12
134.7000000000001
 22
64.584
 32
0
 13
134.7000000000001
 23
64.584
 33
0
  0
TEXT
  8
1
 62
2
 10
121.319732927358
 20
66
 30
0
 40
3.2
  1
4
 41
0.9
  0
TEXT
  8
1
 62
2
 10
119.239732927358
 20
66
 30
0
 40
3.2
  1
(
 41
0.9
  0
TEXT
  8
1
 62
2
 10
124.839732927358
 20
66
 30
0
 40
3.2
  1
)
 41
0.9
  0
ENDBLK
  8
0
  0
BLOCK
  8
1
  2
*D9
 70
1
 10
0
 20
0
 30
0
  0
LINE
  8
1
 62
2
 10
9.300000000000001
 20
75
 30
0
 11
23.3
 21
75
 31
0
  0
LINE
  8
1
 62
2
 10
23.3
 20
34.00000000000001
 30
0
 11
23.3
 21
76
 31
0
  0
LINE
  8
1
 62
2
 10
9.300000000000001
 20
33.50000000000001
 30
0
 11
9.300000000000001
 21
76
 31
0
  0
SOLID
  8
1
 62
2
 10
9.300000000000001
 20
75
 30
0
 11
12.5
 21
75.416
 31
0
 12
12.5
 22
74.584
 32
0
 13
12.5
 23
74.584
 33
0
  0
SOLID
  8
1
 62
2
 10
23.3
 20
75
 30
0
 11
20.10000000000001
 21
74.584
 31
0
 12
20.10000000000001
 22
75.416
 32
0
 13
20.10000000000001
 23
75.416
 33
0
  0
TEXT
  8
1
 62
2
 10
14.38
 20
76
 30
0
 40
3.2
  1
14
 41
0.9
  0
ENDBLK
  8
0
  0
BLOCK
  8
1
  2
*D10
 70
1
 10
0
 20
0
 30
0
  0
LINE
  8
1
 62
2
 10
44.3
 20
75
 30
0
 11
76.3
 21
75
 31
0
  0
LINE
  8
1
 62
2
 10
76.3
 20
56
 30
0
 11
76.3
 21
76
 31
0
  0
LINE
  8
1
 62
2
 10
44.3
 20
55.5
 30
0
 11
44.3
 21
76
 31
0
  0
SOLID
  8
1
 62
2
 10
44.3
 20
75
 30
0
 11
47.5
 21
75.416
 31
0
 12
47.5
 22
74.584
 32
0
 13
47.5
 23
74.584
 33
0
  0
SOLID
  8
1
 62
2
 10
76.3
 20
75
 30
0
 11
73.09999999999999
 21
74.584
 31
0
 12
73.09999999999999
 22
75.416
 32
0
 13
73.09999999999999
 23
75.416
 33
0
  0
TEXT
  8
1
 62
2
 10
57.9
 20
76
 30
0
 40
3.2
  1
32
 41
0.9
  0
ENDBLK
  8
0
  0
BLOCK
  8
1
  2
*D11
 70
1
 10
0
 20
0
 30
0
  0
LINE
  8
1
 62
2
 10
9.300000000000001
 20
85
 30
0
 11
44.3
 21
85
 31
0
  0
LINE
  8
1
 62
2
 10
44.3
 20
55.50000000000001
 30
0
 11
44.3
 21
86
 31
0
  0
LINE
  8
1
 62
2
 10
9.300000000000001
 20
33.50000000000001
 30
0
 11
9.300000000000001
 21
86
 31
0
  0
SOLID
  8
1
 62
2
 10
9.300000000000001
 20
85
 30
0
 11
12.5
 21
85.416
 31
0
 12
12.5
 22
84.584
 32
0
 13
12.5
 23
84.584
 33
0
  0
SOLID
  8
1
 62
2
 10
44.3
 20
85
 30
0
 11
41.09999999999999
 21
84.584
 31
0
 12
41.09999999999999
 22
85.416
 32
0
 13
41.09999999999999
 23
85.416
 33
0
  0
TEXT
  8
1
 62
2
 10
24.4
 20
86
 30
0
 40
3.2
  1
35
 41
0.9
  0
ENDBLK
  8
0
  0
BLOCK
  8
1
  2
*D12
 70
1
 10
0
 20
0
 30
0
  0
LINE
  8
1
 62
2
 10
-148.25
 20
75
 30
0
 11
-81.75
 21
75
 31
0
  0
LINE
  8
1
 62
2
 10
-81.75
 20
58.18016123378902
 30
0
 11
-81.75
 21
76
 31
0
  0
LINE
  8
1
 62
2
 10
-148.25
 20
59.25972660357525
 30
0
 11
-148.25
 21
76
 31
0
  0
SOLID
  8
1
 62
2
 10
-148.25
 20
75
 30
0
 11
-145.05
 21
75.416
 31
0
 12
-145.05
 22
74.584
 32
0
 13
-145.05
 23
74.584
 33
0
  0
SOLID
  8
1
 62
2
 10
-81.75
 20
75
 30
0
 11
-84.95
 21
74.584
 31
0
 12
-84.95
 22
75.416
 32
0
 13
-84.95
 23
75.416
 33
0
  0
TEXT
  8
1
 62
2
 10
-122.584
 20
76
 30
0
 40
3.2
  1
66.5
 41
0.9
  0
TEXT
  8
1
 62
2
 10
-112.264
 20
76.64
 30
0
 40
1.92
  1
%%p0.3
 41
0.9
  0
ENDBLK
  8
0
  0
BLOCK
  8
1
  2
*D13
 70
1
 10
0
 20
0
 30
0
  0
LINE
  8
1
 62
2
 10
-55
 20
-18.25
 30
0
 11
-55
 21
48.25
 31
0
  0
LINE
  8
1
 62
2
 10
-69.6607080266385
 20
48.25
 30
0
 11
-54
 21
48.25
 31
0
  0
LINE
  8
1
 62
2
 10
-70.7402733964247
 20
-18.25
 30
0
 11
-54
 21
-18.25
 31
0
  0
SOLID
  8
1
 62
2
 10
-55
 20
48.25
 30
0
 11
-54.584
 21
45.05
 31
0
 12
-55.416
 22
45.05
 32
0
 13
-55.416
 23
45.05
 33
0
  0
SOLID
  8
1
 62
2
 10
-55
 20
-18.25
 30
0
 11
-55.416
 21
-15.05
 31
0
 12
-54.584
 22
-15.05
 32
0
 13
-54.584
 23
-15.05
 33
0
  0
TEXT
  8
1
 62
2
 10
-56
 20
7.416
 30
0
 40
3.2
  1
66.5
 50
90
 41
0.9
  0
TEXT
  8
1
 62
2
 10
-56.64
 20
17.736
 30
0
 40
1.92
  1
%%p0.3
 50
90
 41
0.9
  0
ENDBLK
  8
0
  0
BLOCK
  8
1
  2
*D14
 70
1
 10
0
 20
0
 30
0
  0
LINE
  8
1
 62
2
 10
-65
 20
15
 30
0
 11
-65
 21
0.69206414587258
 31
0
  0
LINE
  8
1
 62
2
 10
-65
 20
15
 30
0
 11
-65
 21
30
 31
0
  0
LINE
  8
1
 62
2
 10
-94.0756664829762
 20
30
 30
0
 11
-64
 21
30
 31
0
  0
LINE
  8
1
 62
2
 10
-70.43145844853791
 20
15
 30
0
 11
-64
 21
15
 31
0
  0
SOLID
  8
1
 62
2
 10
-65
 20
15
 30
0
 11
-65.416
 21
18.2
 31
0
 12
-64.584
 22
18.2
 32
0
 13
-64.584
 23
18.2
 33
0
  0
SOLID
  8
1
 62
2
 10
-65
 20
30
 30
0
 11
-64.584
 21
26.8
 31
0
 12
-65.416
 22
26.8
 32
0
 13
-65.416
 23
26.8
 33
0
  0
TEXT
  8
1
 62
2
 10
-66
 20
0.69206414587258
 30
0
 40
3.2
  1
15
 50
90
 41
0.9
  0
TEXT
  8
1
 62
2
 10
-66.64
 20
6.13206414587258
 30
0
 40
1.92
  1
%%p0.5
 50
90
 41
0.9
  0
ENDBLK
  8
0
  0
BLOCK
  8
1
  2
*D15
 70
1
 10
0
 20
0
 30
0
  0
LINE
  8
1
 62
2
 10
-155
 20
85
 30
0
 11
-75
 21
85
 31
0
  0
LINE
  8
1
 62
2
 10
-75
 20
49.25000000000001
 30
0
 11
-75
 21
86
 31
0
  0
LINE
  8
1
 62
2
 10
-155
 20
49.25000000000001
 30
0
 11
-155
 21
86
 31
0
  0
SOLID
  8
1
 62
2
 10
-155
 20
85
 30
0
 11
-151.8
 21
85.416
 31
0
 12
-151.8
 22
84.584
 32
0
 13
-151.8
 23
84.584
 33
0
  0
SOLID
  8
1
 62
2
 10
-75
 20
85
 30
0
 11
-78.2
 21
84.584
 31
0
 12
-78.2
 22
85.416
 32
0
 13
-78.2
 23
85.416
 33
0
  0
TEXT
  8
1
 62
2
 10
-115.3111111111111
 20
87
 30
0
 40
3.2
  1
80
 41
0.9
  0
TEXT
  8
1
 62
2
 10
-119.4888888888889
 20
87
 30
0
 40
3.2
  1
□
 41
0.9
  0
ENDBLK
  8
0
  0
BLOCK
  8
1
  2
*D16
 70
1
 10
0
 20
0
 30
0
  0
LINE
  8
1
 62
2
 10
-10.7
 20
34
 30
0
 11
-10.7
 21
53.8988156871058
 31
0
  0
LINE
  8
1
 62
2
 10
-10.7
 20
26
 30
0
 11
-10.7
 21
34
 31
0
  0
LINE
  8
1
 62
2
 10
-10.7
 20
19.6
 30
0
 11
-10.7
 21
26
 31
0
  0
LINE
  8
1
 62
2
 10
25.30000000000001
 20
34
 30
0
 11
-11.7
 21
34
 31
0
  0
LINE
  8
1
 62
2
 10
8.299999999999999
 20
26
 30
0
 11
-11.7
 21
26
 31
0
  0
SOLID
  8
1
 62
2
 10
-10.7
 20
26
 30
0
 11
-10.284
 21
22.8
 31
0
 12
-11.116
 22
22.8
 32
0
 13
-11.116
 23
22.8
 33
0
  0
SOLID
  8
1
 62
2
 10
-10.7
 20
34
 30
0
 11
-11.116
 21
37.2
 31
0
 12
-10.284
 22
37.2
 32
0
 13
-10.284
 23
37.2
 33
0
  0
TEXT
  8
1
 62
2
 10
-12.5
 20
43.6108156871058
 30
0
 40
3.2
  1
8
 50
90
 41
0.9
  0
TEXT
  8
1
 62
2
 10
-14.58
 20
47.1308156871058
 30
0
 40
1.92
  1
 0
 50
90
 41
0.9
  0
TEXT
  8
1
 62
2
 10
-11.7
 20
47.1308156871058
 30
0
 40
1.92
  1
-0.02
 50
90
 41
0.9
  0
TEXT
  8
1
 62
2
 10
-12.5
 20
39.7708156871058
 30
0
 40
3.2
  1
%%c
 50
90
 41
0.9
  0
ENDBLK
  8
0
  0
BLOCK
  8
1
  2
*D17
 70
1
 10
0
 20
0
 30
0
  0
LINE
  8
1
 62
2
 10
-0.7000000000000028
 20
33
 30
0
 11
-0.7000000000000028
 21
48.184
 31
0
  0
LINE
  8
1
 62
2
 10
-0.7000000000000028
 20
26
 30
0
 11
-0.7000000000000028
 21
33
 31
0
  0
LINE
  8
1
 62
2
 10
-0.7000000000000028
 20
19.6
 30
0
 11
-0.7000000000000028
 21
26
 31
0
  0
LINE
  8
1
 62
2
 10
8.299999999999997
 20
33
 30
0
 11
-1.700000000000003
 21
33
 31
0
  0
LINE
  8
1
 62
2
 10
8.299999999999997
 20
26
 30
0
 11
-1.700000000000003
 21
26
 31
0
  0
SOLID
  8
1
 62
2
 10
-0.7000000000000028
 20
26
 30
0
 11
-0.2840000000000036
 21
22.8
 31
0
 12
-1.116000000000003
 22
22.8
 32
0
 13
-1.116000000000003
 23
22.8
 33
0
  0
SOLID
  8
1
 62
2
 10
-0.7000000000000028
 20
33
 30
0
 11
-1.116000000000004
 21
36.2
 31
0
 12
-0.2840000000000044
 22
36.2
 32
0
 13
-0.2840000000000044
 23
36.2
 33
0
  0
TEXT
  8
1
 62
2
 10
-1.700000000000003
 20
39.816
 30
0
 40
3.2
  1
7
 50
90
 41
0.9
  0
TEXT
  8
1
 62
2
 10
-2.340000000000003
 20
43.336
 30
0
 40
1.92
  1
%%p0.3
 50
90
 41
0.9
  0
ENDBLK
  8
0
  0
BLOCK
  8
1
  2
*D18
 70
1
 10
0
 20
0
 30
0
  0
LINE
  8
1
 62
2
 10
44.3
 20
75
 30
0
 11
50.7
 21
75
 31
0
  0
LINE
  8
1
 62
2
 10
39.3
 20
75
 30
0
 11
32.9
 21
75
 31
0
  0
LINE
  8
1
 62
2
 10
39.3
 20
75
 30
0
 11
44.3
 21
75
 31
0
  0
LINE
  8
1
 62
2
 10
44.3
 20
55.5
 30
0
 11
44.3
 21
76
 31
0
  0
LINE
  8
1
 62
2
 10
39.3
 20
44.63000000000005
 30
0
 11
39.3
 21
76
 31
0
  0
SOLID
  8
1
 62
2
 10
39.3
 20
75
 30
0
 11
36.09999999999999
 21
74.584
 31
0
 12
36.09999999999999
 22
75.416
 32
0
 13
36.09999999999999
 23
75.416
 33
0
  0
SOLID
  8
1
 62
2
 10
44.3
 20
75
 30
0
 11
47.5
 21
75.416
 31
0
 12
47.5
 22
74.584
 32
0
 13
47.5
 23
74.584
 33
0
  0
TEXT
  8
1
 62
2
 10
40.84
 20
76
 30
0
 40
3.2
  1
5
 41
0.9
  0
ENDBLK
  8
0
  0
BLOCK
  8
1
  2
*D19
 70
1
 10
0
 20
0
 30
0
  0
LINE
  8
1
 62
2
 10
44.29999999999999
 20
85
 30
0
 11
131.5000000000001
 21
85
 31
0
  0
LINE
  8
1
 62
2
 10
131.5000000000001
 20
23.00000000000001
 30
0
 11
131.5000000000001
 21
86
 31
0
  0
LINE
  8
1
 62
2
 10
44.29999999999999
 20
55.50000000000001
 30
0
 11
44.29999999999999
 21
86
 31
0
  0
SOLID
  8
1
 62
2
 10
44.29999999999999
 20
85
 30
0
 11
47.49999999999999
 21
85.416
 31
0
 12
47.49999999999999
 22
84.584
 32
0
 13
47.49999999999999
 23
84.584
 33
0
  0
SOLID
  8
1
 62
2
 10
131.5000000000001
 20
85
 30
0
 11
128.3000000000001
 21
84.584
 31
0
 12
128.3000000000001
 22
85.416
 32
0
 13
128.3000000000001
 23
85.416
 33
0
  0
TEXT
  8
1
 62
2
 10
83.54000000000006
 20
86
 30
0
 40
3.2
  1
87.2
 41
0.9
  0
ENDBLK
  8
0
  0
BLOCK
  8
1
  2
*D20
 70
1
 10
0
 20
0
 30
0
  0
LINE
  8
1
 62
2
 10
137.8999999999999
 20
85
 30
0
 11
144.2999999999999
 21
85
 31
0
  0
LINE
  8
1
 62
2
 10
131.5000000000001
 20
85
 30
0
 11
125.1000000000001
 21
85
 31
0
  0
LINE
  8
1
 62
2
 10
131.5000000000001
 20
85
 30
0
 11
137.8999999999999
 21
85
 31
0
  0
LINE
  8
1
 62
2
 10
137.8999999999999
 20
25.50000000000001
 30
0
 11
137.8999999999999
 21
86
 31
0
  0
LINE
  8
1
 62
2
 10
131.5000000000001
 20
23.00000000000001
 30
0
 11
131.5000000000001
 21
86
 31
0
  0
SOLID
  8
1
 62
2
 10
131.5000000000001
 20
85
 30
0
 11
128.3000000000001
 21
84.584
 31
0
 12
128.3000000000001
 22
85.416
 32
0
 13
128.3000000000001
 23
85.416
 33
0
  0
SOLID
  8
1
 62
2
 10
137.8999999999999
 20
85
 30
0
 11
141.0999999999999
 21
85.416
 31
0
 12
141.0999999999999
 22
84.584
 32
0
 13
141.0999999999999
 23
84.584
 33
0
  0
TEXT
  8
1
 62
2
 10
128.556
 20
86
 30
0
 40
3.2
  1
6.4
 41
0.9
  0
TEXT
  8
1
 62
2
 10
135.996
 20
86.64
 30
0
 40
1.92
  1
%%p0.5
 41
0.9
  0
ENDBLK
  8
0
  0
BLOCK
  8
1
  2
*D21
 70
1
 10
0
 20
0
 30
0
  0
LINE
  8
1
 62
2
 10
-132
 20
65
 30
0
 11
-98
 21
65
 31
0
  0
LINE
  8
1
 62
2
 10
-98
 20
31.00000000000001
 30
0
 11
-98
 21
66
 31
0
  0
LINE
  8
1
 62
2
 10
-132
 20
31.00000000000001
 30
0
 11
-132
 21
66
 31
0
  0
SOLID
  8
1
 62
2
 10
-98
 20
65
 30
0
 11
-101.2
 21
64.584
 31
0
 12
-101.2
 22
65.416
 32
0
 13
-101.2
 23
65.416
 33
0
  0
SOLID
  8
1
 62
2
 10
-132
 20
65
 30
0
 11
-128.8
 21
65.416
 31
0
 12
-128.8
 22
64.584
 32
0
 13
-128.8
 23
64.584
 33
0
  0
TEXT
  8
1
 62
2
 10
-115.48
 20
66
 30
0
 40
3.2
  1
34
 41
0.9
  0
TEXT
  8
1
 62
2
 10
-119.32
 20
66
 30
0
 40
3.2
  1
%%c
 41
0.9
  0
ENDBLK
  8
0
  0
BLOCK
  8
1
  2
*D22
 70
1
 10
0
 20
0
 30
0
  0
LINE
  8
1
 62
2
 10
204.1268607651255
 20
67.96162966944831
 30
0
 11
191.3066101648399
 21
49.67542085439292
 31
0
  0
LINE
  8
1
 62
2
 10
191.3066101648399
 20
49.67542085439292
 30
0
 11
166.6415696094601
 21
49.67542085439292
 31
0
  0
SOLID
  8
1
 62
2
 10
204.1268607651255
 20
67.96162966944831
 30
0
 11
202.6304938098542
 21
65.10261901273992
 31
0
 12
201.949241407793
 22
65.58023723337841
 32
0
 13
201.949241407793
 23
65.58023723337841
 33
0
  0
TEXT
  8
1
 62
2
 10
175.92156960946
 20
50.60910784744991
 30
0
 40
3.2
  1
1.3
 41
0.9
  0
TEXT
  8
1
 62
2
 10
166.64156960946
 20
50.60910784744991
 30
0
 40
3.2
  1
2-%%c
 41
0.9
  0
ENDBLK
  8
0
  0
ENDSEC
  0
SECTION
  2
ENTITIES
  0
LINE
  8
1
 62
7
 10
109.9649307842685
 20
95.18931355180801
 30
0
 11
149.9649307842685
 21
95.18931355180801
 31
0
  0
LINE
  8
1
 62
7
 10
149.9649307842685
 20
95.18931355180801
 30
0
 11
149.9649307842685
 21
100.189313551808
 31
0
  0
LINE
  8
1
 62
7
 10
149.9649307842685
 20
100.189313551808
 30
0
 11
109.9649307842685
 21
100.189313551808
 31
0
  0
LINE
  8
1
 62
7
 10
109.9649307842685
 20
100.189313551808
 30
0
 11
109.9649307842685
 21
95.18931355180801
 31
0
  0
LINE
  8
1
 62
4
 10
199.3451756726891
 20
26.79999999999999
 30
0
 11
200.6451756726881
 21
26.79999999999991
 31
0
  0
LINE
  8
1
 62
7
 10
207.2500000000001
 20
73.52170686718691
 30
0
 11
207.2500000000001
 21
71.6438581085587
 31
0
  0
LINE
  8
1
 62
4
 10
201.7500000000001
 20
73.5166911898971
 30
0
 11
201.7500000000001
 21
75.69385810855869
 31
0
  0
LINE
  8
1
 62
7
 10
217.28527221266
 20
75.69385810855869
 30
0
 11
217.28527221266
 21
78.69385810855869
 31
0
  0
LINE
  8
1
 62
4
 10
199.995175672689
 20
26.14999999999982
 30
0
 11
199.995175672689
 21
27.44999999999971
 31
0
  0
LINE
  8
1
 62
4
 10
208.3451756726891
 20
26.79999999999999
 30
0
 11
209.6451756726881
 21
26.79999999999991
 31
0
  0
LINE
  8
1
 62
4
 10
208.995175672689
 20
26.14999999999982
 30
0
 11
208.995175672689
 21
27.44999999999971
 31
0
  0
LINE
  8
1
 62
4
 10
208.3451756726891
 20
3.200000000000308
 30
0
 11
209.6451756726881
 21
3.199999999999712
 31
0
  0
LINE
  8
1
 62
4
 10
208.995175672689
 20
2.549999999999905
 30
0
 11
208.995175672689
 21
3.849999999999802
 31
0
  0
LINE
  8
1
 62
4
 10
203.8451756726891
 20
3.199999999999712
 30
0
 11
205.1451756726881
 21
3.199999999999712
 31
0
  0
LINE
  8
1
 62
3
 10
204.495175672689
 20
2.549999999999905
 30
0
 11
204.495175672689
 21
3.849999999999802
 31
0
  0
LINE
  8
1
 62
4
 10
204.495175672689
 20
2.549999999999905
 30
0
 11
204.495175672689
 21
3.849999999999802
 31
0
  0
LINE
  8
1
 62
4
 10
199.3451756726891
 20
3.200000000000308
 30
0
 11
200.6451756726881
 21
3.199999999999712
 31
0
  0
LINE
  8
1
 62
4
 10
199.995175672689
 20
2.549999999999905
 30
0
 11
199.995175672689
 21
3.849999999999802
 31
0
  0
LINE
  8
1
 62
3
 10
204.495175672689
 20
72.19385810855869
 30
0
 11
204.495175672689
 21
70.48179517726859
 31
0
  0
LINE
  8
1
 62
7
 10
200.495175672689
 20
74.1534383583973
 30
0
 11
200.495175672689
 21
75.69385810855869
 31
0
  0
LINE
  8
1
 62
7
 10
208.495175672689
 20
74.1534383583973
 30
0
 11
208.495175672689
 21
75.69385810855869
 31
0
  0
LINE
  8
1
 62
7
 10
107.349450959428
 20
1.274361025210091
 30
0
 11
87.34945095942798
 21
1.274361025210091
 31
0
  0
LINE
  8
1
 62
7
 10
124.5000000000001
 20
16.50000000000001
 30
0
 11
124.5000000000001
 21
32.00000000000001
 31
0
  0
LINE
  8
1
 62
7
 10
121.8999999999999
 20
16.50000000000001
 30
0
 11
124.5000000000001
 21
16.50000000000001
 31
0
  0
LINE
  8
1
 62
7
 10
121.8999999999999
 20
13.50000000000001
 30
0
 11
121.8999999999999
 21
16.50000000000001
 31
0
  0
LINE
  8
1
 62
7
 10
124.5000000000001
 20
13.50000000000001
 30
0
 11
121.8999999999999
 21
13.50000000000001
 31
0
  0
LINE
  8
1
 62
7
 10
127.5000000000001
 20
20.00000000000001
 30
0
 11
125.5000000000001
 21
20.00000000000001
 31
0
  0
LINE
  8
1
 62
7
 10
125.5000000000001
 20
20.00000000000001
 30
0
 11
125.5000000000001
 21
10.00000000000001
 31
0
  0
LINE
  8
1
 62
7
 10
125.5000000000001
 20
10.00000000000001
 30
0
 11
127.5000000000001
 21
10.00000000000001
 31
0
  0
LINE
  8
1
 62
7
 10
137.8999999999999
 20
6.000000000000007
 30
0
 11
127.5000000000001
 21
6.000000000000007
 31
0
  0
LINE
  8
1
 62
7
 10
137.8999999999999
 20
24.50000000000001
 30
0
 11
127.5000000000001
 21
24.50000000000001
 31
0
  0
LINE
  8
1
 62
7
 10
120.3
 20
-3.600000000000101
 30
0
 11
120.3
 21
-1.999999999999993
 31
0
  0
LINE
  8
1
 62
7
 10
120.3
 20
-1.999999999999993
 30
0
 11
124.5000000000001
 21
-1.999999999999993
 31
0
  0
LINE
  8
1
 62
7
 10
124.5000000000001
 20
-1.999999999999993
 30
0
 11
124.5000000000001
 21
13.50000000000001
 31
0
  0
LINE
  8
1
 62
7
 10
124.5000000000001
 20
32.00000000000001
 30
0
 11
120.3
 21
32.00000000000001
 31
0
  0
LINE
  8
1
 62
7
 10
120.3
 20
32.00000000000001
 30
0
 11
120.3
 21
33.59999999999989
 31
0
  0
LINE
  8
1
 62
7
 10
120.3
 20
-3.600000000000101
 30
0
 11
79.8
 21
-3.599999999999987
 31
0
  0
LINE
  8
1
 62
7
 10
127.5000000000001
 20
24.00000000000001
 30
0
 11
137.8999999999999
 21
24.00000000000001
 31
0
  0
LINE
  8
1
 62
7
 10
137.8999999999999
 20
24.00000000000001
 30
0
 11
137.8999999999999
 21
24.50000000000001
 31
0
  0
LINE
  8
1
 62
7
 10
127.5000000000001
 20
5.500000000000007
 30
0
 11
137.8999999999999
 21
5.500000000000007
 31
0
  0
LINE
  8
1
 62
7
 10
137.8999999999999
 20
5.500000000000007
 30
0
 11
137.8999999999999
 21
6.000000000000007
 31
0
  0
LINE
  8
1
 62
7
 10
124.5000000000001
 20
28.50000000000001
 30
0
 11
127.5000000000001
 21
28.50000000000001
 31
0
  0
LINE
  8
1
 62
7
 10
124.5000000000001
 20
1.500000000000007
 30
0
 11
127.5000000000001
 21
1.500000000000007
 31
0
  0
LINE
  8
1
 62
7
 10
131.5000000000001
 20
15.00000000000001
 30
0
 11
131.5000000000001
 21
8.000000000000007
 31
0
  0
LINE
  8
1
 62
7
 10
130.5000000000001
 20
7.000000000000007
 30
0
 11
127.5000000000001
 21
7.000000000000007
 31
0
  0
LINE
  8
1
 62
7
 10
131.5000000000001
 20
22.00000000000001
 30
0
 11
131.5000000000001
 21
15.00000000000001
 31
0
  0
LINE
  8
1
 62
7
 10
127.5000000000001
 20
22.9999999999999
 30
0
 11
130.5000000000001
 21
22.9999999999999
 31
0
  0
LINE
  8
1
 62
7
 10
124.5000000000001
 20
-0.3399288330810961
 30
0
 11
124.5000000000001
 21
2.660071166918904
 31
0
  0
LINE
  8
1
 62
3
 10
217.732345009006
 20
3.892696092064803
 30
0
 11
214.2352984325481
 21
6.827066584579804
 31
0
  0
LINE
  8
1
 62
3
 10
194.7550529128289
 20
6.827066584579804
 30
0
 11
191.258006336371
 21
3.892696092064803
 31
0
  0
LINE
  8
1
 62
3
 10
214.2352984325481
 20
23.1729334154199
 30
0
 11
217.732345009006
 21
26.10730390793482
 31
0
  0
LINE
  8
1
 62
3
 10
191.258006336371
 20
26.10730390793482
 30
0
 11
194.7550529128289
 21
23.1729334154199
 31
0
  0
LINE
  8
1
 62
3
 10
204.495175672689
 20
-2.472791896940286
 30
0
 11
204.495175672689
 21
4.527208103059714
 31
0
  0
LINE
  8
1
 62
7
 10
201.7500000000001
 20
71.69385810855869
 30
0
 11
197.5000000000001
 21
71.69385810855869
 31
0
  0
LINE
  8
1
 62
3
 10
204.5000000000001
 20
67.64885810855859
 30
0
 11
204.5000000000001
 21
67.84385810855861
 31
0
  0
LINE
  8
1
 62
3
 10
204.5000000000001
 20
69.3388581085587
 30
0
 11
204.5000000000001
 21
67.64885810855859
 31
0
  0
LINE
  8
1
 62
3
 10
205.3450000000001
 20
68.4938581085587
 30
0
 11
203.655
 21
68.4938581085587
 31
0
  0
LINE
  8
1
 62
3
 10
204.5000000000001
 20
67.84385810855861
 30
0
 11
204.5000000000001
 21
69.3388581085587
 31
0
  0
LINE
  8
1
 62
7
 10
206.8750000000001
 20
66.2938581085586
 30
0
 11
202.1250000000001
 21
66.2938581085586
 31
0
  0
LINE
  8
1
 62
7
 10
202.1250000000001
 20
66.2938581085586
 30
0
 11
203.1250000000001
 21
65.2938581085586
 31
0
  0
LINE
  8
1
 62
7
 10
205.8750000000001
 20
65.2938581085586
 30
0
 11
206.8750000000001
 21
66.2938581085586
 31
0
  0
LINE
  8
1
 62
7
 10
201.7500000000001
 20
75.69385810855869
 30
0
 11
207.2500000000001
 21
75.69385810855869
 31
0
  0
LINE
  8
1
 62
7
 10
201.7500000000001
 20
71.6438581085587
 30
0
 11
201.7500000000001
 21
73.5166911898971
 31
0
  0
LINE
  8
1
 62
7
 10
202.1250000000001
 20
71.6438581085587
 30
0
 11
201.7500000000001
 21
71.6438581085587
 31
0
  0
LINE
  8
1
 62
7
 10
202.1250000000001
 20
66.2938581085586
 30
0
 11
202.1250000000001
 21
71.6438581085587
 31
0
  0
LINE
  8
1
 62
7
 10
205.8750000000001
 20
65.2938581085586
 30
0
 11
203.1250000000001
 21
65.2938581085586
 31
0
  0
LINE
  8
1
 62
7
 10
206.8750000000001
 20
71.6438581085587
 30
0
 11
206.8750000000001
 21
66.2938581085586
 31
0
  0
LINE
  8
1
 62
7
 10
207.2500000000001
 20
71.6438581085587
 30
0
 11
206.8750000000001
 21
71.6438581085587
 31
0
  0
LINE
  8
1
 62
7
 10
207.2500000000001
 20
75.69385810855869
 30
0
 11
211.5000000000001
 21
75.69385810855869
 31
0
  0
LINE
  8
1
 62
4
 10
207.2500000000001
 20
75.69385810855869
 30
0
 11
207.2500000000001
 21
73.52170686718691
 31
0
  0
LINE
  8
1
 62
3
 10
210.128969246475
 20
24.27499999999982
 30
0
 11
199.128969246475
 21
24.27499999999982
 31
0
  0
LINE
  8
1
 62
3
 10
199.128969246475
 20
5.724999999999802
 30
0
 11
210.128969246475
 21
5.724999999999802
 31
0
  0
LINE
  8
1
 62
3
 10
204.495175672689
 20
16.9999999999999
 30
0
 11
204.495175672689
 21
22.9999999999999
 31
0
  0
LINE
  8
1
 62
7
 10
211.5000000000001
 20
71.69385810855869
 30
0
 11
207.2500000000001
 21
71.69385810855869
 31
0
  0
LINE
  8
1
 62
7
 10
196.5000000000001
 20
75.69385810855869
 30
0
 11
195.5000000000001
 21
75.69385810855869
 31
0
  0
LINE
  8
1
 62
7
 10
212.5000000000001
 20
75.69385810855869
 30
0
 11
213.4999999999989
 21
75.69385810855869
 31
0
  0
LINE
  8
1
 62
7
 10
223.1
 20
78.69385810855869
 30
0
 11
223.1
 21
75.69385810855869
 31
0
  0
LINE
  8
1
 62
7
 10
196.5000000000001
 20
75.69385810855869
 30
0
 11
197.5000000000001
 21
75.69385810855869
 31
0
  0
LINE
  8
1
 62
7
 10
196.5000000000001
 20
72.69385810855869
 30
0
 11
196.5000000000001
 21
75.69385810855869
 31
0
  0
LINE
  8
1
 62
7
 10
212.5000000000001
 20
75.69385810855869
 30
0
 11
212.5000000000001
 21
72.69385810855869
 31
0
  0
LINE
  8
1
 62
7
 10
185.8999999999999
 20
78.69385810855869
 30
0
 11
223.1
 21
78.69385810855869
 31
0
  0
LINE
  8
1
 62
7
 10
213.4999999999989
 20
78.69385810855869
 30
0
 11
213.4999999999989
 21
75.69385810855869
 31
0
  0
LINE
  8
1
 62
7
 10
213.4999999999989
 20
75.69385810855869
 30
0
 11
223.1
 21
75.69385810855869
 31
0
  0
LINE
  8
1
 62
7
 10
195.5000000000001
 20
78.69385810855869
 30
0
 11
195.5000000000001
 21
75.69385810855869
 31
0
  0
LINE
  8
1
 62
7
 10
195.5000000000001
 20
75.69385810855869
 30
0
 11
191.7050791327181
 21
75.69385810855869
 31
0
  0
LINE
  8
1
 62
7
 10
191.7050791327181
 20
78.69385810855869
 30
0
 11
191.7050791327181
 21
75.69385810855869
 31
0
  0
LINE
  8
1
 62
7
 10
191.7050791327181
 20
75.69385810855869
 30
0
 11
185.8999999999999
 21
75.69385810855869
 31
0
  0
LINE
  8
1
 62
7
 10
211.5000000000001
 20
75.69385810855869
 30
0
 11
211.5000000000001
 21
78.69385810855869
 31
0
  0
LINE
  8
1
 62
7
 10
211.5000000000001
 20
75.69385810855869
 30
0
 11
212.5000000000001
 21
75.69385810855869
 31
0
  0
LINE
  8
1
 62
7
 10
197.5000000000001
 20
75.69385810855869
 30
0
 11
197.5000000000001
 21
78.69385810855869
 31
0
  0
LINE
  8
1
 62
7
 10
197.5000000000001
 20
75.69385810855869
 30
0
 11
201.7500000000001
 21
75.69385810855869
 31
0
  0
LINE
  8
1
 62
7
 10
212.0000000000001
 20
82.8938581085587
 30
0
 11
207.0000000000001
 21
82.8938581085587
 31
0
  0
LINE
  8
1
 62
7
 10
202.0000000000001
 20
82.8938581085587
 30
0
 11
197.0000000000001
 21
82.8938581085587
 31
0
  0
LINE
  8
1
 62
7
 10
212.0000000000001
 20
82.8938581085587
 30
0
 11
212.0000000000001
 21
80.8938581085587
 31
0
  0
LINE
  8
1
 62
7
 10
212.0000000000001
 20
80.8938581085587
 30
0
 11
210.2857142857141
 21
80.69385810855869
 31
0
  0
LINE
  8
1
 62
7
 10
206.0000000000001
 20
80.19385810855869
 30
0
 11
203.0000000000001
 21
80.19385810855869
 31
0
  0
LINE
  8
1
 62
7
 10
203.0000000000001
 20
80.19385810855869
 30
0
 11
198.7142857142861
 21
80.69385810855869
 31
0
  0
LINE
  8
1
 62
7
 10
197.0000000000001
 20
80.8938581085587
 30
0
 11
197.0000000000001
 21
82.8938581085587
 31
0
  0
LINE
  8
1
 62
7
 10
210.2857142857141
 20
80.69385810855869
 30
0
 11
205.5000000000001
 21
80.6938581085586
 31
0
  0
LINE
  8
1
 62
7
 10
210.2857142857141
 20
80.69385810855869
 30
0
 11
206.0000000000001
 21
80.19385810855869
 31
0
  0
LINE
  8
1
 62
7
 10
198.7142857142861
 20
80.69385810855869
 30
0
 11
197.0000000000001
 21
80.8938581085587
 31
0
  0
LINE
  8
1
 62
7
 10
206.0000000000001
 20
79.6954998410196
 30
0
 11
206.0000000000001
 21
79.1954998410196
 31
0
  0
LINE
  8
1
 62
7
 10
203.0000000000001
 20
79.1954998410196
 30
0
 11
203.0000000000001
 21
79.6954998410196
 31
0
  0
LINE
  8
1
 62
7
 10
205.5000000000001
 20
80.6938581085586
 30
0
 11
205.5000000000001
 21
82.29886076289171
 31
0
  0
LINE
  8
1
 62
7
 10
205.5000000000001
 20
80.6938581085586
 30
0
 11
203.5000000000001
 21
80.6938581085586
 31
0
  0
LINE
  8
1
 62
7
 10
203.5000000000001
 20
80.6938581085586
 30
0
 11
203.5000000000001
 21
82.29886076289171
 31
0
  0
LINE
  8
1
 62
7
 10
203.5000000000001
 20
80.6938581085586
 30
0
 11
198.7142857142861
 21
80.69385810855869
 31
0
  0
LINE
  8
1
 62
7
 10
185.8999999999999
 20
78.69385810855869
 30
0
 11
185.8999999999999
 21
75.69385810855869
 31
0
  0
LINE
  8
1
 62
3
 10
204.495175672689
 20
3.849999999999802
 30
0
 11
204.495175672689
 21
16.9999999999999
 31
0
  0
LINE
  8
1
 62
4
 10
204.495175672689
 20
2.549999999999905
 30
0
 11
204.495175672689
 21
3.849999999999802
 31
0
  0
LINE
  8
1
 62
4
 10
204.495175672689
 20
26.14999999999982
 30
0
 11
204.495175672689
 21
27.44999999999971
 31
0
  0
LINE
  8
1
 62
3
 10
204.495175672689
 20
26.14999999999982
 30
0
 11
204.495175672689
 21
27.44999999999971
 31
0
  0
LINE
  8
1
 62
4
 10
203.8451756726891
 20
26.79999999999991
 30
0
 11
205.1451756726881
 21
26.79999999999991
 31
0
  0
LINE
  8
1
 62
7
 10
189.718166503036
 20
9.999999999999893
 30
0
 11
186.5798191314421
 21
9.999999999999893
 31
0
  0
LINE
  8
1
 62
7
 10
216.495175672689
 20
21.9999999999999
 30
0
 11
215.495175672689
 21
21.9999999999999
 31
0
  0
LINE
  8
1
 62
7
 10
219.272184842341
 20
9.999999999999893
 30
0
 11
220.324262822616
 21
9.999999999999893
 31
0
  0
LINE
  8
1
 62
7
 10
220.324262822616
 20
9.999999999999893
 30
0
 11
222.4105322139351
 21
9.999999999999893
 31
0
  0
LINE
  8
1
 62
7
 10
218.495175672689
 20
19.9999999999999
 30
0
 11
222.4105322139351
 21
19.9999999999999
 31
0
  0
LINE
  8
1
 62
7
 10
189.718166503036
 20
19.9999999999999
 30
0
 11
188.666088522761
 21
19.9999999999999
 31
0
  0
LINE
  8
1
 62
7
 10
188.666088522761
 20
19.9999999999999
 30
0
 11
186.5798191314421
 21
19.9999999999999
 31
0
  0
LINE
  8
1
 62
7
 10
190.495175672689
 20
9.999999999999893
 30
0
 11
189.718166503036
 21
9.999999999999893
 31
0
  0
LINE
  8
1
 62
3
 10
204.495175672689
 20
27.44999999999971
 30
0
 11
204.495175672689
 21
38.587411511263
 31
0
  0
LINE
  8
1
 62
7
 10
208.3681590188961
 20
21.9999999999999
 30
0
 11
210.1520299221809
 21
21.9999999999999
 31
0
  0
LINE
  8
1
 62
7
 10
200.622192326481
 20
7.999999999999893
 30
0
 11
198.8383214231961
 21
7.999999999999893
 31
0
  0
LINE
  8
1
 62
3
 10
204.495175672689
 20
22.9999999999999
 30
0
 11
204.495175672689
 21
26.14999999999982
 31
0
  0
LINE
  8
1
 62
3
 10
180.895175672689
 20
15.0000000000001
 30
0
 11
228.095175672688
 21
14.9999999999999
 31
0
  0
LINE
  8
1
 62
7
 10
195.495175672689
 20
1.499999999999893
 30
0
 11
195.495175672689
 21
3.999999999999893
 31
0
  0
LINE
  8
1
 62
7
 10
191.700254805407
 20
28.4999999999999
 30
0
 11
195.495175672689
 21
28.4999999999999
 31
0
  0
LINE
  8
1
 62
7
 10
191.700254805407
 20
1.499999999999893
 30
0
 11
195.495175672689
 21
1.499999999999893
 31
0
  0
LINE
  8
1
 62
7
 10
213.495175672689
 20
3.999999999999893
 30
0
 11
213.495175672689
 21
1.499999999999893
 31
0
  0
LINE
  8
1
 62
7
 10
195.495175672689
 20
3.999999999999893
 30
0
 11
198.495175672689
 21
3.999999999999893
 31
0
  0
LINE
  8
1
 62
7
 10
195.495175672689
 20
25.9999999999999
 30
0
 11
195.495175672689
 21
28.4999999999999
 31
0
  0
LINE
  8
1
 62
7
 10
208.995175672689
 20
23.9999999999999
 30
0
 11
208.995175672689
 21
24.54999999999991
 31
0
  0
LINE
  8
1
 62
7
 10
208.995175672689
 20
24.54999999999991
 30
0
 11
199.995175672689
 21
24.54999999999991
 31
0
  0
LINE
  8
1
 62
7
 10
199.995175672689
 20
24.54999999999991
 30
0
 11
199.995175672689
 21
23.9999999999999
 31
0
  0
LINE
  8
1
 62
7
 10
199.995175672689
 20
23.9999999999999
 30
0
 11
200.057675672689
 21
23.9999999999999
 31
0
  0
LINE
  8
1
 62
7
 10
200.057675672689
 20
23.9999999999999
 30
0
 11
208.932675672689
 21
23.9999999999999
 31
0
  0
LINE
  8
1
 62
7
 10
208.932675672689
 20
23.9999999999999
 30
0
 11
208.995175672689
 21
23.9999999999999
 31
0
  0
LINE
  8
1
 62
7
 10
208.995175672689
 20
5.449999999999712
 30
0
 11
208.995175672689
 21
5.999999999999893
 31
0
  0
LINE
  8
1
 62
7
 10
199.995175672689
 20
5.449999999999712
 30
0
 11
208.995175672689
 21
5.449999999999712
 31
0
  0
LINE
  8
1
 62
7
 10
199.995175672689
 20
5.999999999999893
 30
0
 11
199.995175672689
 21
5.449999999999712
 31
0
  0
LINE
  8
1
 62
7
 10
200.057675672689
 20
5.999999999999893
 30
0
 11
199.995175672689
 21
5.999999999999893
 31
0
  0
LINE
  8
1
 62
7
 10
208.932675672689
 20
5.999999999999893
 30
0
 11
200.057675672689
 21
5.999999999999893
 31
0
  0
LINE
  8
1
 62
7
 10
208.995175672689
 20
5.999999999999893
 30
0
 11
208.932675672689
 21
5.999999999999893
 31
0
  0
LINE
  8
1
 62
7
 10
189.4432654949069
 20
21.9999999999999
 30
0
 11
191.228676511267
 21
21.9999999999999
 31
0
  0
LINE
  8
1
 62
7
 10
219.547085850471
 20
7.999999999999893
 30
0
 11
217.76167483411
 21
7.999999999999893
 31
0
  0
LINE
  8
1
 62
7
 10
195.495175672689
 20
25.9999999999999
 30
0
 11
195.495175672689
 21
24.00000000000001
 31
0
  0
LINE
  8
1
 62
7
 10
213.495175672689
 20
26.00000000000001
 30
0
 11
210.495175672689
 21
25.9999999999999
 31
0
  0
LINE
  8
1
 62
7
 10
213.495175672689
 20
24.00000000000001
 30
0
 11
213.495175672689
 21
26.00000000000001
 31
0
  0
LINE
  8
1
 62
7
 10
198.495175672689
 20
21.9999999999999
 30
0
 11
198.8383214231961
 21
21.9999999999999
 31
0
  0
LINE
  8
1
 62
7
 10
198.495175672689
 20
25.9999999999999
 30
0
 11
195.495175672689
 21
25.9999999999999
 31
0
  0
LINE
  8
1
 62
7
 10
197.495175672689
 20
22.9999999999999
 30
0
 11
197.495175672689
 21
24.9999999999999
 31
0
  0
LINE
  8
1
 62
7
 10
197.495175672689
 20
6.999999999999893
 30
0
 11
197.495175672689
 21
4.999999999999893
 31
0
  0
LINE
  8
1
 62
7
 10
198.495175672689
 20
3.999999999999893
 30
0
 11
210.495175672689
 21
3.999999999999893
 31
0
  0
LINE
  8
1
 62
7
 10
195.495175672689
 20
3.999999999999893
 30
0
 11
195.495175672689
 21
6.000000000000007
 31
0
  0
LINE
  8
1
 62
7
 10
193.495175672689
 20
7.999999999999893
 30
0
 11
192.495175672689
 21
7.999999999999893
 31
0
  0
LINE
  8
1
 62
7
 10
213.495175672689
 20
3.999999999999893
 30
0
 11
213.495175672689
 21
6.000000000000007
 31
0
  0
LINE
  8
1
 62
7
 10
211.495175672689
 20
4.999999999999893
 30
0
 11
211.495175672689
 21
6.999999999999893
 31
0
  0
LINE
  8
1
 62
7
 10
210.495175672689
 20
3.999999999999893
 30
0
 11
213.495175672689
 21
3.999999999999893
 31
0
  0
LINE
  8
1
 62
7
 10
210.495175672689
 20
7.999999999999893
 30
0
 11
210.1520299221809
 21
7.999999999999893
 31
0
  0
LINE
  8
1
 62
7
 10
211.495175672689
 20
22.9999999999999
 30
0
 11
211.495175672689
 21
24.9999999999999
 31
0
  0
LINE
  8
1
 62
7
 10
210.495175672689
 20
25.9999999999999
 30
0
 11
198.495175672689
 21
25.9999999999999
 31
0
  0
LINE
  8
1
 62
7
 10
213.495175672689
 20
1.499999999999893
 30
0
 11
217.29009653997
 21
1.499999999999893
 31
0
  0
LINE
  8
1
 62
7
 10
213.495175672689
 20
28.4999999999999
 30
0
 11
217.29009653997
 21
28.4999999999999
 31
0
  0
LINE
  8
1
 62
7
 10
213.495175672689
 20
28.4999999999999
 30
0
 11
213.495175672689
 21
26.00000000000001
 31
0
  0
LINE
  8
1
 62
4
 10
198.045175672688
 20
2.799999999999905
 30
0
 11
197.445175672689
 21
2.799999999999905
 31
0
  0
LINE
  8
1
 62
4
 10
197.445175672689
 20
2.799999999999905
 30
0
 11
197.445175672689
 21
0.5999999999998025
 31
0
  0
LINE
  8
1
 62
4
 10
197.445175672689
 20
0.5999999999998025
 30
0
 11
198.045175672688
 21
0.5999999999998025
 31
0
  0
LINE
  8
1
 62
4
 10
198.045175672688
 20
0.5999999999998025
 30
0
 11
198.045175672688
 21
2.799999999999905
 31
0
  0
LINE
  8
1
 62
4
 10
210.945175672689
 20
27.19999999999971
 30
0
 11
211.5451756726891
 21
27.19999999999971
 31
0
  0
LINE
  8
1
 62
4
 10
211.5451756726891
 20
27.19999999999971
 30
0
 11
211.5451756726891
 21
29.39999999999982
 31
0
  0
LINE
  8
1
 62
4
 10
211.5451756726891
 20
29.39999999999982
 30
0
 11
210.945175672689
 21
29.39999999999982
 31
0
  0
LINE
  8
1
 62
4
 10
210.945175672689
 20
29.39999999999982
 30
0
 11
210.945175672689
 21
27.19999999999971
 31
0
  0
LINE
  8
1
 62
4
 10
203.3951756726881
 20
25.29999999999991
 30
0
 11
205.595175672688
 21
25.29999999999991
 31
0
  0
LINE
  8
1
 62
4
 10
203.3951756726881
 20
25.89999999999982
 30
0
 11
203.3951756726881
 21
25.84999999999981
 31
0
  0
LINE
  8
1
 62
4
 10
205.595175672688
 20
25.89999999999982
 30
0
 11
203.3951756726881
 21
25.89999999999982
 31
0
  0
LINE
  8
1
 62
4
 10
205.595175672688
 20
25.29999999999991
 30
0
 11
205.595175672688
 21
25.84999999999981
 31
0
  0
LINE
  8
1
 62
4
 10
203.3951756726881
 20
25.84999999999981
 30
0
 11
203.3951756726881
 21
25.29999999999991
 31
0
  0
LINE
  8
1
 62
4
 10
205.595175672688
 20
25.84999999999981
 30
0
 11
205.595175672688
 21
25.89999999999982
 31
0
  0
LINE
  8
1
 62
4
 10
205.595175672688
 20
4.699999999999712
 30
0
 11
203.3951756726881
 21
4.699999999999712
 31
0
  0
LINE
  8
1
 62
4
 10
203.3951756726881
 20
4.149999999999814
 30
0
 11
203.3951756726881
 21
4.099999999999802
 31
0
  0
LINE
  8
1
 62
4
 10
203.3951756726881
 20
4.099999999999802
 30
0
 11
205.595175672688
 21
4.099999999999802
 31
0
  0
LINE
  8
1
 62
4
 10
205.595175672688
 20
4.149999999999814
 30
0
 11
205.595175672688
 21
4.699999999999712
 31
0
  0
LINE
  8
1
 62
4
 10
203.3951756726881
 20
4.699999999999712
 30
0
 11
203.3951756726881
 21
4.149999999999814
 31
0
  0
LINE
  8
1
 62
4
 10
205.595175672688
 20
4.099999999999802
 30
0
 11
205.595175672688
 21
4.149999999999814
 31
0
  0
LINE
  8
1
 62
7
 10
198.8383214231961
 20
7.999999999999893
 30
0
 11
198.495175672689
 21
7.999999999999893
 31
0
  0
LINE
  8
1
 62
7
 10
198.8383214231961
 20
21.9999999999999
 30
0
 11
200.622192326481
 21
21.9999999999999
 31
0
  0
LINE
  8
1
 62
7
 10
210.1520299221809
 20
21.9999999999999
 30
0
 11
210.495175672689
 21
21.9999999999999
 31
0
  0
LINE
  8
1
 62
7
 10
210.1520299221809
 20
7.999999999999893
 30
0
 11
208.3681590188961
 21
7.999999999999893
 31
0
  0
LINE
  8
1
 62
7
 10
191.228676511267
 20
21.9999999999999
 30
0
 11
193.495175672689
 21
21.9999999999999
 31
0
  0
LINE
  8
1
 62
7
 10
217.76167483411
 20
7.999999999999893
 30
0
 11
215.495175672689
 21
7.999999999999893
 31
0
  0
LINE
  8
1
 62
3
 10
204.495175672689
 20
-8.587411511263404
 30
0
 11
204.495175672689
 21
2.549999999999905
 31
0
  0
LINE
  8
1
 62
4
 10
211.5451756726891
 20
2.799999999999905
 30
0
 11
210.945175672689
 21
2.799999999999905
 31
0
  0
LINE
  8
1
 62
4
 10
211.5451756726891
 20
0.5999999999998025
 30
0
 11
211.5451756726891
 21
2.799999999999905
 31
0
  0
LINE
  8
1
 62
4
 10
210.945175672689
 20
0.5999999999998025
 30
0
 11
211.5451756726891
 21
0.5999999999998025
 31
0
  0
LINE
  8
1
 62
4
 10
210.945175672689
 20
2.799999999999905
 30
0
 11
210.945175672689
 21
0.5999999999998025
 31
0
  0
LINE
  8
1
 62
4
 10
197.445175672689
 20
27.19999999999971
 30
0
 11
198.0451756726891
 21
27.19999999999971
 31
0
  0
LINE
  8
1
 62
4
 10
197.445175672689
 20
29.39999999999982
 30
0
 11
197.445175672689
 21
27.19999999999971
 31
0
  0
LINE
  8
1
 62
4
 10
198.0451756726891
 20
29.39999999999982
 30
0
 11
197.445175672689
 21
29.39999999999982
 31
0
  0
LINE
  8
1
 62
4
 10
198.0451756726891
 20
27.19999999999971
 30
0
 11
198.0451756726891
 21
29.39999999999982
 31
0
  0
LINE
  8
1
 62
7
 10
203.6451756726881
 20
31.9787367021219
 30
0
 11
203.6451756726881
 21
30.9999999999999
 31
0
  0
LINE
  8
1
 62
7
 10
205.345175672688
 20
31.9787367021219
 30
0
 11
205.345175672688
 21
30.9999999999999
 31
0
  0
LINE
  8
1
 62
7
 10
203.6451756726881
 20
30.9999999999999
 30
0
 11
205.345175672688
 21
30.9999999999999
 31
0
  0
LINE
  8
1
 62
7
 10
203.6451756726881
 20
-1.978736702122312
 30
0
 11
203.6451756726881
 21
-1.000000000000107
 31
0
  0
LINE
  8
1
 62
7
 10
205.345175672688
 20
-1.978736702122312
 30
0
 11
205.345175672688
 21
-1.000000000000107
 31
0
  0
LINE
  8
1
 62
7
 10
203.6451756726881
 20
-1.000000000000107
 30
0
 11
205.345175672688
 21
-1.000000000000107
 31
0
  0
LINE
  8
1
 62
7
 10
203.8106860693341
 20
-0.6955304154772009
 30
0
 11
198.7376322292089
 21
-2.061056676248306
 31
0
  0
LINE
  8
1
 62
7
 10
203.8106860693341
 20
-0.6955304154772009
 30
0
 11
198.7376322292089
 21
-2.061056676248306
 31
0
  0
LINE
  8
1
 62
7
 10
210.252719116169
 20
-2.061056676248306
 30
0
 11
205.179665276045
 21
-0.6955304154772009
 31
0
  0
LINE
  8
1
 62
7
 10
203.342873268857
 20
0.8654084278838994
 30
0
 11
198.61141675192
 21
-0.3719602834852012
 31
0
  0
LINE
  8
1
 62
7
 10
203.342873268857
 20
0.8654084278838994
 30
0
 11
198.61141675192
 21
-0.3719602834852012
 31
0
  0
LINE
  8
1
 62
7
 10
210.378934593457
 20
-0.3719602834852012
 30
0
 11
205.6474780765209
 21
0.8654084278838994
 31
0
  0
LINE
  8
1
 62
7
 10
210.378934593457
 20
-0.3719602834852012
 30
0
 11
205.6474780765209
 21
0.8654084278838994
 31
0
  0
LINE
  8
1
 62
7
 10
205.6474780765209
 20
29.13459157211569
 30
0
 11
210.378934593457
 21
30.37196028348479
 31
0
  0
LINE
  8
1
 62
4
 10
211.5451756726891
 20
29.39999999999982
 30
0
 11
210.945175672689
 21
29.39999999999982
 31
0
  0
LINE
  8
1
 62
7
 10
205.6474780765209
 20
29.13459157211569
 30
0
 11
210.378934593457
 21
30.37196028348479
 31
0
  0
LINE
  8
1
 62
7
 10
198.61141675192
 20
30.37196028348479
 30
0
 11
203.342873268857
 21
29.13459157211569
 31
0
  0
LINE
  8
1
 62
7
 10
198.7376322292089
 20
32.06105667624789
 30
0
 11
203.8106860693341
 21
30.69553041547679
 31
0
  0
LINE
  8
1
 62
7
 10
198.7376322292089
 20
32.06105667624789
 30
0
 11
203.8106860693341
 21
30.69553041547679
 31
0
  0
LINE
  8
1
 62
7
 10
198.7376322292089
 20
32.06105667624789
 30
0
 11
203.8106860693341
 21
30.69553041547679
 31
0
  0
LINE
  8
1
 62
7
 10
205.179665276045
 20
30.69553041547679
 30
0
 11
210.252719116169
 21
32.06105667624789
 31
0
  0
LINE
  8
1
 62
7
 10
205.179665276045
 20
30.69553041547679
 30
0
 11
210.252719116169
 21
32.06105667624789
 31
0
  0
LINE
  8
1
 62
7
 10
201.995175672689
 20
31.81517172079991
 30
0
 11
201.995175672689
 21
33.41851966605982
 31
0
  0
LINE
  8
1
 62
7
 10
206.995175672689
 20
31.81517172079991
 30
0
 11
206.995175672689
 21
33.41851966605982
 31
0
  0
LINE
  8
1
 62
7
 10
201.995175672689
 20
-1.815171720800286
 30
0
 11
201.995175672689
 21
-3.418519666060199
 31
0
  0
LINE
  8
1
 62
7
 10
206.995175672689
 20
-1.815171720800286
 30
0
 11
206.995175672689
 21
-3.418519666060199
 31
0
  0
LINE
  8
1
 62
7
 10
190.59517567269
 20
13.39999999999982
 30
0
 11
190.59517567269
 21
12.84999999999981
 31
0
  0
LINE
  8
1
 62
4
 10
195.09517567269
 20
13.39999999999982
 30
0
 11
190.59517567269
 21
13.39999999999982
 31
0
  0
LINE
  8
1
 62
7
 10
195.09517567269
 20
12.84999999999981
 30
0
 11
195.09517567269
 21
13.39999999999982
 31
0
  0
LINE
  8
1
 62
7
 10
190.59517567269
 20
12.84999999999981
 30
0
 11
195.09517567269
 21
12.84999999999981
 31
0
  0
LINE
  8
1
 62
7
 10
190.59517567269
 20
17.14999999999982
 30
0
 11
190.59517567269
 21
16.59999999999981
 31
0
  0
LINE
  8
1
 62
7
 10
195.09517567269
 20
17.14999999999982
 30
0
 11
190.59517567269
 21
17.14999999999982
 31
0
  0
LINE
  8
1
 62
7
 10
195.09517567269
 20
16.59999999999981
 30
0
 11
195.09517567269
 21
17.14999999999982
 31
0
  0
LINE
  8
1
 62
4
 10
190.59517567269
 20
16.59999999999981
 30
0
 11
195.09517567269
 21
16.59999999999981
 31
0
  0
LINE
  8
1
 62
7
 10
190.59517567269
 20
12.89999999999982
 30
0
 11
190.59517567269
 21
14.09999999999981
 31
0
  0
LINE
  8
1
 62
7
 10
191.09517567269
 20
14.59999999999981
 30
0
 11
194.59517567269
 21
14.59999999999981
 31
0
  0
LINE
  8
1
 62
7
 10
195.09517567269
 20
14.09999999999981
 30
0
 11
195.09517567269
 21
12.89999999999982
 31
0
  0
LINE
  8
1
 62
7
 10
190.59517567269
 20
13.39999999999982
 30
0
 11
190.59517567269
 21
12.84999999999981
 31
0
  0
LINE
  8
1
 62
7
 10
190.59517567269
 20
12.84999999999981
 30
0
 11
195.09517567269
 21
12.84999999999981
 31
0
  0
LINE
  8
1
 62
7
 10
195.09517567269
 20
12.84999999999981
 30
0
 11
195.09517567269
 21
13.39999999999982
 31
0
  0
LINE
  8
1
 62
7
 10
191.09517567269
 20
15.39999999999982
 30
0
 11
194.59517567269
 21
15.39999999999982
 31
0
  0
LINE
  8
1
 62
7
 10
190.59517567269
 20
17.09999999999981
 30
0
 11
190.59517567269
 21
15.89999999999982
 31
0
  0
LINE
  8
1
 62
7
 10
195.09517567269
 20
17.14999999999982
 30
0
 11
190.59517567269
 21
17.14999999999982
 31
0
  0
LINE
  8
1
 62
7
 10
190.59517567269
 20
17.14999999999982
 30
0
 11
190.59517567269
 21
16.59999999999981
 31
0
  0
LINE
  8
1
 62
7
 10
195.09517567269
 20
15.89999999999982
 30
0
 11
195.09517567269
 21
17.09999999999981
 31
0
  0
LINE
  8
1
 62
7
 10
218.395175672689
 20
12.84999999999981
 30
0
 11
218.395175672689
 21
13.39999999999982
 31
0
  0
LINE
  8
1
 62
7
 10
218.39517567269
 20
16.59999999999981
 30
0
 11
218.395175672689
 21
17.14999999999982
 31
0
  0
LINE
  8
1
 62
7
 10
218.395175672689
 20
12.84999999999981
 30
0
 11
218.395175672689
 21
13.39999999999982
 31
0
  0
LINE
  8
1
 62
4
 10
218.395175672689
 20
13.39999999999982
 30
0
 11
213.89517567269
 21
13.39999999999982
 31
0
  0
LINE
  8
1
 62
7
 10
213.89517567269
 20
13.39999999999982
 30
0
 11
213.895175672689
 21
12.84999999999981
 31
0
  0
LINE
  8
1
 62
7
 10
213.895175672689
 20
12.84999999999981
 30
0
 11
218.395175672689
 21
12.84999999999981
 31
0
  0
LINE
  8
1
 62
7
 10
218.39517567269
 20
16.59999999999981
 30
0
 11
218.395175672689
 21
17.14999999999982
 31
0
  0
LINE
  8
1
 62
7
 10
218.395175672689
 20
17.14999999999982
 30
0
 11
213.895175672689
 21
17.14999999999982
 31
0
  0
LINE
  8
1
 62
7
 10
213.895175672689
 20
17.14999999999982
 30
0
 11
213.895175672689
 21
16.59999999999981
 31
0
  0
LINE
  8
1
 62
4
 10
213.895175672689
 20
16.59999999999981
 30
0
 11
218.39517567269
 21
16.59999999999981
 31
0
  0
LINE
  8
1
 62
7
 10
218.395175672689
 20
14.09999999999981
 30
0
 11
218.39517567269
 21
12.89999999999982
 31
0
  0
LINE
  8
1
 62
7
 10
214.395175672689
 20
14.59999999999981
 30
0
 11
217.895175672689
 21
14.59999999999981
 31
0
  0
LINE
  8
1
 62
7
 10
213.895175672689
 20
12.89999999999982
 30
0
 11
213.895175672689
 21
14.09999999999981
 31
0
  0
LINE
  8
1
 62
7
 10
218.395175672689
 20
12.84999999999981
 30
0
 11
218.395175672689
 21
13.39999999999982
 31
0
  0
LINE
  8
1
 62
7
 10
213.895175672689
 20
12.84999999999981
 30
0
 11
218.395175672689
 21
12.84999999999981
 31
0
  0
LINE
  8
1
 62
7
 10
213.89517567269
 20
13.39999999999982
 30
0
 11
213.895175672689
 21
12.84999999999981
 31
0
  0
LINE
  8
1
 62
7
 10
214.395175672689
 20
15.39999999999982
 30
0
 11
217.8951756726881
 21
15.39999999999982
 31
0
  0
LINE
  8
1
 62
7
 10
218.3951756726881
 20
15.89999999999982
 30
0
 11
218.39517567269
 21
17.09999999999981
 31
0
  0
LINE
  8
1
 62
7
 10
218.395175672689
 20
17.14999999999982
 30
0
 11
213.895175672689
 21
17.14999999999982
 31
0
  0
LINE
  8
1
 62
7
 10
218.39517567269
 20
16.59999999999981
 30
0
 11
218.395175672689
 21
17.14999999999982
 31
0
  0
LINE
  8
1
 62
7
 10
213.895175672689
 20
17.09999999999981
 30
0
 11
213.895175672689
 21
15.89999999999982
 31
0
  0
LINE
  8
1
 62
7
 10
79.8
 20
33.59999999999999
 30
0
 11
120.3
 21
33.59999999999989
 31
0
  0
LINE
  8
1
 62
3
 10
204.495175672689
 20
94.04314228182059
 30
0
 11
204.495175672689
 21
61.59168878378359
 31
0
  0
LINE
  8
1
 62
7
 10
185.8999999999999
 20
78.69385810855869
 30
0
 11
185.8999999999999
 21
91.4040072697828
 31
0
  0
LINE
  8
1
 62
7
 10
223.1
 20
88.9944915864007
 30
0
 11
223.1
 21
78.69385810855869
 31
0
  0
LINE
  8
1
 62
7
 10
87.34945095942798
 20
28.72563897479001
 30
0
 11
107.349450959428
 21
28.72563897479001
 31
0
  0
LINE
  8
1
 62
7
 10
87.34945095942798
 20
28.72563897479001
 30
0
 11
87.34945095942798
 21
1.274361025210091
 31
0
  0
LINE
  8
1
 62
7
 10
107.349450959428
 20
1.274361025210091
 30
0
 11
107.349450959428
 21
28.72563897479001
 31
0
  0
LINE
  8
1
 62
7
 10
127.5000000000001
 20
1.500000000000007
 30
0
 11
127.5000000000001
 21
28.50000000000001
 31
0
  0
LINE
  8
1
 62
7
 10
77.8
 20
31.6
 30
0
 11
77.8
 21
-1.599999999999987
 31
0
  0
LINE
  8
1
 62
7
 10
-117.3
 20
-17.29999999999995
 30
0
 11
-117.3
 21
-16.7000000000001
 31
0
  0
LINE
  8
1
 62
7
 10
-116.6
 20
-17.39999999999998
 30
0
 11
-117.2
 21
-17.39999999999998
 31
0
  0
LINE
  8
1
 62
7
 10
-115.4
 20
-19.19999999999999
 30
0
 11
-115.4
 21
-18.59999999999997
 31
0
  0
LINE
  8
1
 62
7
 10
-114.7
 20
-19.29999999999995
 30
0
 11
-115.3
 21
-19.29999999999995
 31
0
  0
LINE
  8
1
 62
7
 10
-114.6
 20
-18.59999999999997
 30
0
 11
-114.6
 21
-19.19999999999999
 31
0
  0
LINE
  8
1
 62
7
 10
-113.4
 20
-17.39999999999998
 30
0
 11
-112.8
 21
-17.39999999999998
 31
0
  0
LINE
  8
1
 62
7
 10
-112.7
 20
-16.7000000000001
 30
0
 11
-112.7
 21
-17.29999999999995
 31
0
  0
LINE
  8
1
 62
7
 10
-113.4
 20
-16.59999999999997
 30
0
 11
-112.8
 21
-16.59999999999997
 31
0
  0
LINE
  8
1
 62
7
 10
-114.6
 20
-14.79999999999995
 30
0
 11
-114.6
 21
-15.40000000000009
 31
0
  0
LINE
  8
1
 62
7
 10
-115.3
 20
-14.69999999999999
 30
0
 11
-114.7
 21
-14.69999999999999
 31
0
  0
LINE
  8
1
 62
7
 10
-115.4
 20
-15.40000000000009
 30
0
 11
-115.4
 21
-14.79999999999995
 31
0
  0
LINE
  8
1
 62
7
 10
-117.2
 20
-16.59999999999997
 30
0
 11
-116.6
 21
-16.59999999999997
 31
0
  0
LINE
  8
1
 62
7
 10
-89.80000000000001
 20
30.70000000000005
 30
0
 11
-89.80000000000001
 21
31.2999999999999
 31
0
  0
LINE
  8
1
 62
7
 10
-89.10000000000002
 20
30.60000000000002
 30
0
 11
-89.70000000000002
 21
30.60000000000002
 31
0
  0
LINE
  8
1
 62
7
 10
-87.90000000000001
 20
28.80000000000001
 30
0
 11
-87.90000000000001
 21
29.40000000000003
 31
0
  0
LINE
  8
1
 62
7
 10
-87.20000000000002
 20
28.70000000000005
 30
0
 11
-87.80000000000001
 21
28.70000000000005
 31
0
  0
LINE
  8
1
 62
7
 10
-87.10000000000002
 20
29.40000000000003
 30
0
 11
-87.10000000000002
 21
28.80000000000001
 31
0
  0
LINE
  8
1
 62
7
 10
-85.90000000000001
 20
30.60000000000002
 30
0
 11
-85.30000000000001
 21
30.60000000000002
 31
0
  0
LINE
  8
1
 62
7
 10
-85.20000000000002
 20
31.2999999999999
 30
0
 11
-85.20000000000002
 21
30.70000000000005
 31
0
  0
LINE
  8
1
 62
7
 10
-85.90000000000001
 20
31.40000000000003
 30
0
 11
-85.30000000000001
 21
31.40000000000003
 31
0
  0
LINE
  8
1
 62
7
 10
-87.10000000000002
 20
33.20000000000005
 30
0
 11
-87.10000000000002
 21
32.59999999999991
 31
0
  0
LINE
  8
1
 62
7
 10
-87.80000000000001
 20
33.30000000000001
 30
0
 11
-87.20000000000002
 21
33.30000000000001
 31
0
  0
LINE
  8
1
 62
7
 10
-87.90000000000001
 20
32.59999999999991
 30
0
 11
-87.90000000000001
 21
33.20000000000005
 31
0
  0
LINE
  8
1
 62
7
 10
-89.70000000000002
 20
31.40000000000003
 30
0
 11
-89.10000000000002
 21
31.40000000000003
 31
0
  0
LINE
  8
1
 62
7
 10
-144.8
 20
30.70000000000005
 30
0
 11
-144.8
 21
31.2999999999999
 31
0
  0
LINE
  8
1
 62
7
 10
-144.1
 20
30.60000000000002
 30
0
 11
-144.7
 21
30.60000000000002
 31
0
  0
LINE
  8
1
 62
7
 10
-142.9
 20
28.80000000000001
 30
0
 11
-142.9
 21
29.40000000000003
 31
0
  0
LINE
  8
1
 62
7
 10
-142.2
 20
28.70000000000005
 30
0
 11
-142.8
 21
28.70000000000005
 31
0
  0
LINE
  8
1
 62
7
 10
-142.1
 20
29.40000000000003
 30
0
 11
-142.1
 21
28.80000000000001
 31
0
  0
LINE
  8
1
 62
7
 10
-140.9
 20
30.60000000000002
 30
0
 11
-140.3
 21
30.60000000000002
 31
0
  0
LINE
  8
1
 62
7
 10
-140.2
 20
31.2999999999999
 30
0
 11
-140.2
 21
30.70000000000005
 31
0
  0
LINE
  8
1
 62
7
 10
-140.9
 20
31.40000000000003
 30
0
 11
-140.3
 21
31.40000000000003
 31
0
  0
LINE
  8
1
 62
7
 10
-142.1
 20
33.20000000000005
 30
0
 11
-142.1
 21
32.59999999999991
 31
0
  0
LINE
  8
1
 62
7
 10
-142.8
 20
33.30000000000001
 30
0
 11
-142.2
 21
33.30000000000001
 31
0
  0
LINE
  8
1
 62
7
 10
-142.9
 20
32.59999999999991
 30
0
 11
-142.9
 21
33.20000000000005
 31
0
  0
LINE
  8
1
 62
7
 10
-144.7
 20
31.40000000000003
 30
0
 11
-144.1
 21
31.40000000000003
 31
0
  0
LINE
  8
1
 62
7
 10
-155
 20
48.25
 30
0
 11
-155
 21
-18.25
 31
0
  0
LINE
  8
1
 62
3
 10
-160.3880126182964
 20
15
 30
0
 11
-71.43145844853791
 21
15
 31
0
  0
LINE
  8
1
 62
3
 10
-135.1824934984065
 20
30
 30
0
 11
-132
 21
30
 31
0
  0
LINE
  8
1
 62
7
 10
-77.75
 20
-18.25
 30
0
 11
-77.75
 21
-15.94059892324145
 31
0
  0
LINE
  8
1
 62
3
 10
-77.75
 20
-18.25
 30
0
 11
-71.7402733964247
 21
-18.25
 31
0
  0
LINE
  8
1
 62
7
 10
-77.75
 20
-20.55940107675849
 30
0
 11
-77.75
 21
-18.25
 31
0
  0
LINE
  8
1
 62
7
 10
-81.75
 20
-22.86880215351709
 30
0
 11
-77.75
 21
-20.55940107675849
 31
0
  0
LINE
  8
1
 62
3
 10
-81.75
 20
-22.86880215351709
 30
0
 11
-81.75
 21
-28.25972660357519
 31
0
  0
LINE
  8
1
 62
7
 10
-85.75
 20
-20.55940107675849
 30
0
 11
-81.75
 21
-22.86880215351709
 31
0
  0
LINE
  8
1
 62
7
 10
-85.75
 20
-15.94059892324145
 30
0
 11
-85.75
 21
-20.55940107675849
 31
0
  0
LINE
  8
1
 62
7
 10
-81.75
 20
-13.63119784648296
 30
0
 11
-85.75
 21
-15.94059892324145
 31
0
  0
LINE
  8
1
 62
3
 10
-81.75
 20
-13.63119784648296
 30
0
 11
-81.75
 21
-22.86880215351709
 31
0
  0
LINE
  8
1
 62
7
 10
-77.75
 20
-15.94059892324145
 30
0
 11
-81.75
 21
-13.63119784648296
 31
0
  0
LINE
  8
1
 62
3
 10
-148.2500000000001
 20
-22.25000000000006
 30
0
 11
-148.2500000000001
 21
-20.75000000000006
 31
0
  0
LINE
  8
1
 62
7
 10
-144.2500000000001
 20
-20.55940107675855
 30
0
 11
-144.2500000000001
 21
-15.94059892324157
 31
0
  0
LINE
  8
1
 62
7
 10
-148.2500000000001
 20
-22.86880215351687
 30
0
 11
-144.2500000000001
 21
-20.55940107675855
 31
0
  0
LINE
  8
1
 62
3
 10
-152.8688021535169
 20
-18.25
 30
0
 11
-152.25
 21
-18.25
 31
0
  0
LINE
  8
1
 62
7
 10
-152.2500000000001
 20
-20.55940107675855
 30
0
 11
-148.2500000000001
 21
-22.86880215351687
 31
0
  0
LINE
  8
1
 62
7
 10
-152.2500000000001
 20
-15.94059892324157
 30
0
 11
-152.2500000000001
 21
-20.55940107675855
 31
0
  0
LINE
  8
1
 62
7
 10
-148.2500000000001
 20
-13.63119784648308
 30
0
 11
-152.2500000000001
 21
-15.94059892324157
 31
0
  0
LINE
  8
1
 62
3
 10
-152.25
 20
-18.25
 30
0
 11
-137.7479845776375
 21
-18.25
 31
0
  0
LINE
  8
1
 62
7
 10
-144.2500000000001
 20
-15.94059892324157
 30
0
 11
-148.2500000000001
 21
-13.63119784648308
 31
0
  0
LINE
  8
1
 62
7
 10
-77.75
 20
48.25
 30
0
 11
-77.75
 21
50.55940107675855
 31
0
  0
LINE
  8
1
 62
3
 10
-77.75
 20
48.25
 30
0
 11
-70.6607080266385
 21
48.25
 31
0
  0
LINE
  8
1
 62
7
 10
-77.75
 20
45.94059892324151
 30
0
 11
-77.75
 21
48.25
 31
0
  0
LINE
  8
1
 62
7
 10
-81.75
 20
43.63119784648291
 30
0
 11
-77.75
 21
45.94059892324151
 31
0
  0
LINE
  8
1
 62
3
 10
-81.75
 20
43.63119784648291
 30
0
 11
-81.75
 21
38.82754994742385
 31
0
  0
LINE
  8
1
 62
7
 10
-85.75
 20
45.94059892324151
 30
0
 11
-81.75
 21
43.63119784648291
 31
0
  0
LINE
  8
1
 62
7
 10
-85.75
 20
50.55940107675855
 30
0
 11
-85.75
 21
45.94059892324151
 31
0
  0
LINE
  8
1
 62
7
 10
-81.75
 20
52.86880215351704
 30
0
 11
-85.75
 21
50.55940107675855
 31
0
  0
LINE
  8
1
 62
3
 10
-81.75
 20
52.86880215351704
 30
0
 11
-81.75
 21
43.63119784648291
 31
0
  0
LINE
  8
1
 62
7
 10
-77.75
 20
50.55940107675855
 30
0
 11
-81.75
 21
52.86880215351704
 31
0
  0
LINE
  8
1
 62
7
 10
-152.25
 20
48.25
 30
0
 11
-152.25
 21
45.94059892324151
 31
0
  0
LINE
  8
1
 62
3
 10
-152.25
 20
48.25
 30
0
 11
-150.75
 21
48.25
 31
0
  0
LINE
  8
1
 62
7
 10
-144.25
 20
45.94059892324151
 30
0
 11
-144.25
 21
50.55940107675855
 31
0
  0
LINE
  8
1
 62
7
 10
-148.25
 20
43.63119784648291
 30
0
 11
-144.25
 21
45.94059892324151
 31
0
  0
LINE
  8
1
 62
3
 10
-148.25
 20
43.63119784648291
 30
0
 11
-148.25
 21
37.1310900806169
 31
0
  0
LINE
  8
1
 62
7
 10
-152.25
 20
45.94059892324151
 30
0
 11
-148.25
 21
43.63119784648291
 31
0
  0
LINE
  8
1
 62
7
 10
-152.25
 20
50.55940107675855
 30
0
 11
-152.25
 21
48.25
 31
0
  0
LINE
  8
1
 62
7
 10
-148.25
 20
52.86880215351704
 30
0
 11
-152.25
 21
50.55940107675855
 31
0
  0
LINE
  8
1
 62
3
 10
-148.25
 20
52.86880215351704
 30
0
 11
-148.25
 21
43.63119784648291
 31
0
  0
LINE
  8
1
 62
7
 10
-144.25
 20
50.55940107675855
 30
0
 11
-148.25
 21
52.86880215351704
 31
0
  0
LINE
  8
1
 62
3
 10
-148.2500000000001
 20
-20.75000000000006
 30
0
 11
-148.2500000000001
 21
-20.25000000000006
 31
0
  0
LINE
  8
1
 62
3
 10
-148.2500000000001
 20
-20.25000000000006
 30
0
 11
-148.2500000000001
 21
-13.63119784648308
 31
0
  0
LINE
  8
1
 62
3
 10
-79.25
 20
-18.25
 30
0
 11
-77.75
 21
-18.25
 31
0
  0
LINE
  8
1
 62
3
 10
-79.75
 20
-18.25
 30
0
 11
-79.25
 21
-18.25
 31
0
  0
LINE
  8
1
 62
3
 10
-79.25
 20
48.25
 30
0
 11
-77.75
 21
48.25
 31
0
  0
LINE
  8
1
 62
3
 10
-79.75
 20
48.25
 30
0
 11
-79.25
 21
48.25
 31
0
  0
LINE
  8
1
 62
3
 10
-150.75
 20
48.25
 30
0
 11
-150.25
 21
48.25
 31
0
  0
LINE
  8
1
 62
3
 10
-150.25
 20
48.25
 30
0
 11
-137.7479845776375
 21
48.25
 31
0
  0
LINE
  8
1
 62
3
 10
-91.32667367683141
 20
-18.25
 30
0
 11
-79.75
 21
-18.25
 31
0
  0
LINE
  8
1
 62
3
 10
-115
 20
60.2069588778388
 30
0
 11
-115
 21
-31.5483958279014
 31
0
  0
LINE
  8
1
 62
3
 10
-121
 20
-17
 30
0
 11
-109
 21
-17
 31
0
  0
LINE
  8
1
 62
3
 10
-148.5
 20
31
 30
0
 11
-136.5
 21
31
 31
0
  0
LINE
  8
1
 62
3
 10
-142.5
 20
37
 30
0
 11
-142.5
 21
25
 31
0
  0
LINE
  8
1
 62
3
 10
-93.5
 20
31
 30
0
 11
-81.5
 21
31
 31
0
  0
LINE
  8
1
 62
3
 10
-87.5
 20
37
 30
0
 11
-87.5
 21
25
 31
0
  0
LINE
  8
1
 62
7
 10
-81.75
 20
-25
 30
0
 11
-148.25
 21
-25
 31
0
  0
LINE
  8
1
 62
3
 10
-148.25
 20
58.25972660357525
 30
0
 11
-148.25
 21
52.86880215351704
 31
0
  0
LINE
  8
1
 62
3
 10
-158.8766211005959
 20
48.25
 30
0
 11
-152.25
 21
48.25
 31
0
  0
LINE
  8
1
 62
3
 10
-81.75
 20
57.18016123378902
 30
0
 11
-81.75
 21
52.86880215351704
 31
0
  0
LINE
  8
1
 62
3
 10
-91.48089730108652
 20
48.25
 30
0
 11
-79.75
 21
48.25
 31
0
  0
LINE
  8
1
 62
3
 10
-81.75
 20
-8.210655450403067
 30
0
 11
-81.75
 21
-13.63119784648296
 31
0
  0
LINE
  8
1
 62
3
 10
-148.25
 20
-8.673326323168567
 30
0
 11
-148.25
 21
-29.03084472485097
 31
0
  0
LINE
  8
1
 62
3
 10
-158.4139502278303
 20
-18.25
 30
0
 11
-152.8688021535169
 21
-18.25
 31
0
  0
LINE
  8
1
 62
7
 10
-75
 20
48.25
 30
0
 11
-75
 21
-18.25
 31
0
  0
LINE
  8
1
 62
7
 10
-148.25
 20
55
 30
0
 11
-81.75
 21
55
 31
0
  0
LINE
  8
1
 62
3
 10
-111
 20
30
 30
0
 11
-132
 21
30
 31
0
  0
LINE
  8
1
 62
3
 10
-111
 20
30
 30
0
 11
-95.0756664829762
 21
30
 31
0
  0
LINE
  8
1
 62
7
 10
-117.6457513110646
 20
33
 30
0
 11
-112.3542486889354
 21
33
 31
0
  0
LINE
  8
1
 62
7
 10
9.299999999999997
 20
32.5
 30
0
 11
9.299999999999997
 21
26
 31
0
  0
LINE
  8
1
 62
7
 10
44.3
 20
53.25
 30
0
 11
44.3
 21
43.25
 31
0
  0
LINE
  8
1
 62
7
 10
44.3
 20
53.25
 30
0
 11
44.3
 21
54.5
 31
0
  0
LINE
  8
1
 62
7
 10
39.3
 20
34
 30
0
 11
26.3
 21
34
 31
0
  0
LINE
  8
1
 62
7
 10
9.299999999999997
 20
32.5
 30
0
 11
9.299999999999997
 21
33
 31
0
  0
LINE
  8
1
 62
7
 10
9.299999999999997
 20
33
 30
0
 11
23.3
 21
33
 31
0
  0
LINE
  8
1
 62
7
 10
39.3
 20
43.63000000000005
 30
0
 11
39.3
 21
34
 31
0
  0
LINE
  8
1
 62
7
 10
38.60000000000007
 20
45.75
 30
0
 11
38.60000000000007
 21
44.78499999999991
 31
0
  0
LINE
  8
1
 62
7
 10
26.8
 20
45.75
 30
0
 11
38.60000000000007
 21
45.75
 31
0
  0
LINE
  8
1
 62
7
 10
43.3
 20
44.78499999999991
 30
0
 11
43.3
 21
51.71500000000003
 31
0
  0
LINE
  8
1
 62
7
 10
40.94999999999997
 20
45.94
 30
0
 11
42.99657640951908
 21
45.94
 31
0
  0
LINE
  8
1
 62
7
 10
40.94999999999997
 20
50.56
 30
0
 11
42.99657640951908
 21
50.56
 31
0
  0
LINE
  8
1
 62
7
 10
40.94999999999997
 20
52.87
 30
0
 11
42.99657640951908
 21
52.87
 31
0
  0
LINE
  8
1
 62
7
 10
40.94999999999997
 20
43.63000000000005
 30
0
 11
42.99657640951908
 21
43.63000000000005
 31
0
  0
LINE
  8
1
 62
7
 10
38.60000000000007
 20
51.71500000000003
 30
0
 11
38.60000000000007
 21
45.75
 31
0
  0
LINE
  8
1
 62
7
 10
38.90342359048087
 20
45.94
 30
0
 11
40.94999999999997
 21
45.94
 31
0
  0
LINE
  8
1
 62
7
 10
38.90342359048087
 20
50.56
 30
0
 11
40.94999999999997
 21
50.56
 31
0
  0
LINE
  8
1
 62
7
 10
38.90342359048087
 20
52.87
 30
0
 11
40.94999999999997
 21
52.87
 31
0
  0
LINE
  8
1
 62
7
 10
38.90342359048087
 20
43.63000000000005
 30
0
 11
40.94999999999997
 21
43.63000000000005
 31
0
  0
LINE
  8
1
 62
7
 10
44.3
 20
44.78499999999991
 30
0
 11
44.3
 21
51.71500000000003
 31
0
  0
LINE
  8
1
 62
7
 10
43.3
 20
43.25
 30
0
 11
44.3
 21
43.25
 31
0
  0
LINE
  8
1
 62
7
 10
43.3
 20
53.25
 30
0
 11
43.3
 21
43.25
 31
0
  0
LINE
  8
1
 62
7
 10
44.3
 20
53.25
 30
0
 11
43.3
 21
53.25
 31
0
  0
LINE
  8
1
 62
7
 10
44.3
 20
43.25
 30
0
 11
44.3
 21
53.25
 31
0
  0
LINE
  8
1
 62
7
 10
39.3
 20
26
 30
0
 11
39.3
 21
13
 31
0
  0
LINE
  8
1
 62
7
 10
39.3
 20
26
 30
0
 11
9.299999999999997
 21
26
 31
0
  0
LINE
  8
1
 62
7
 10
39.3
 20
34
 30
0
 11
39.3
 21
26
 31
0
  0
LINE
  8
1
 62
7
 10
26.3
 20
-16.25
 30
0
 11
26.3
 21
-20.25
 31
0
  0
LINE
  8
1
 62
7
 10
26.8
 20
-15.75
 30
0
 11
26.8
 21
-20.75
 31
0
  0
LINE
  8
1
 62
7
 10
26.3
 20
-20.25
 30
0
 11
26.8
 21
-20.75
 31
0
  0
LINE
  8
1
 62
7
 10
26.8
 20
-15.75
 30
0
 11
26.3
 21
-16.25
 31
0
  0
LINE
  8
1
 62
7
 10
38.60000000000007
 20
-15.75
 30
0
 11
38.60000000000007
 21
-16.25
 31
0
  0
LINE
  8
1
 62
7
 10
26.8
 20
-15.75
 30
0
 11
38.60000000000007
 21
-15.75
 31
0
  0
LINE
  8
1
 62
7
 10
38.60000000000007
 20
-20.75
 30
0
 11
38.60000000000007
 21
-21.71500000000009
 31
0
  0
LINE
  8
1
 62
7
 10
26.8
 20
-20.75
 30
0
 11
38.60000000000007
 21
-20.75
 31
0
  0
LINE
  8
1
 62
7
 10
38.60000000000007
 20
-20.25
 30
0
 11
38.60000000000007
 21
-20.75
 31
0
  0
LINE
  8
1
 62
3
 10
26.3
 20
-20.25
 30
0
 11
38.60000000000007
 21
-20.25
 31
0
  0
LINE
  8
1
 62
7
 10
38.60000000000007
 20
-16.25
 30
0
 11
38.60000000000007
 21
-20.25
 31
0
  0
LINE
  8
1
 62
3
 10
26.3
 20
-16.25
 30
0
 11
38.60000000000007
 21
-16.25
 31
0
  0
LINE
  8
1
 62
7
 10
43.3
 20
-21.71500000000009
 30
0
 11
43.3
 21
-14.78499999999997
 31
0
  0
LINE
  8
1
 62
7
 10
40.94999999999997
 20
-20.56
 30
0
 11
42.99657640951908
 21
-20.56
 31
0
  0
LINE
  8
1
 62
7
 10
40.94999999999997
 20
-15.94
 30
0
 11
42.99657640951908
 21
-15.94
 31
0
  0
LINE
  8
1
 62
7
 10
40.94999999999997
 20
-13.63
 30
0
 11
42.99657640951908
 21
-13.63
 31
0
  0
LINE
  8
1
 62
7
 10
40.94999999999997
 20
-22.86999999999995
 30
0
 11
42.99657640951908
 21
-22.86999999999995
 31
0
  0
LINE
  8
1
 62
7
 10
38.60000000000007
 20
-14.78499999999997
 30
0
 11
38.60000000000007
 21
-15.75
 31
0
  0
LINE
  8
1
 62
7
 10
38.90342359048087
 20
-20.56
 30
0
 11
40.94999999999997
 21
-20.56
 31
0
  0
LINE
  8
1
 62
7
 10
38.90342359048087
 20
-15.94
 30
0
 11
40.94999999999997
 21
-15.94
 31
0
  0
LINE
  8
1
 62
7
 10
38.90342359048087
 20
-13.63
 30
0
 11
40.94999999999997
 21
-13.63
 31
0
  0
LINE
  8
1
 62
7
 10
38.90342359048087
 20
-22.86999999999995
 30
0
 11
40.94999999999997
 21
-22.86999999999995
 31
0
  0
LINE
  8
1
 62
7
 10
43.3
 20
-23.25
 30
0
 11
44.3
 21
-23.25
 31
0
  0
LINE
  8
1
 62
7
 10
43.3
 20
-13.25
 30
0
 11
43.3
 21
-23.25
 31
0
  0
LINE
  8
1
 62
7
 10
44.3
 20
-13.25
 30
0
 11
43.3
 21
-13.25
 31
0
  0
LINE
  8
1
 62
7
 10
44.3
 20
-13.25
 30
0
 11
44.3
 21
-12
 31
0
  0
LINE
  8
1
 62
7
 10
44.3
 20
-23.25
 30
0
 11
44.3
 21
-13.25
 31
0
  0
LINE
  8
1
 62
7
 10
44.3
 20
-23.25
 30
0
 11
44.3
 21
-13.25
 31
0
  0
LINE
  8
1
 62
7
 10
26.8
 20
45.75
 30
0
 11
26.3
 21
46.25
 31
0
  0
LINE
  8
1
 62
7
 10
26.8
 20
50.75
 30
0
 11
26.3
 21
50.25
 31
0
  0
LINE
  8
1
 62
7
 10
26.8
 20
50.75
 30
0
 11
26.8
 21
45.75
 31
0
  0
LINE
  8
1
 62
7
 10
26.3
 20
50.25
 30
0
 11
26.3
 21
46.25
 31
0
  0
LINE
  8
1
 62
3
 10
26.3
 20
46.25
 30
0
 11
38.60000000000007
 21
46.25
 31
0
  0
LINE
  8
1
 62
3
 10
26.3
 20
50.25
 30
0
 11
38.60000000000007
 21
50.25
 31
0
  0
LINE
  8
1
 62
7
 10
26.8
 20
50.75
 30
0
 11
38.60000000000007
 21
50.75
 31
0
  0
LINE
  8
1
 62
7
 10
44.3
 20
43.25
 30
0
 11
44.3
 21
53.25
 31
0
  0
LINE
  8
1
 62
7
 10
44.3
 20
43.25
 30
0
 11
44.3
 21
53.25
 31
0
  0
LINE
  8
1
 62
3
 10
5.939836598217582
 20
30
 30
0
 11
48.78169702335411
 21
30
 31
0
  0
LINE
  8
1
 62
7
 10
44.8
 20
13
 30
0
 11
44.8
 21
-17.0295
 31
0
  0
LINE
  8
1
 62
7
 10
39.3
 20
13
 30
0
 11
44.8
 21
13
 31
0
  0
LINE
  8
1
 62
7
 10
50.35051833583996
 20
55.73955815186582
 30
0
 11
68.35051833583995
 21
55.73955815186582
 31
0
  0
LINE
  8
1
 62
7
 10
44.3
 20
-24.5
 30
0
 11
44.3
 21
-23.25
 31
0
  0
LINE
  8
1
 62
7
 10
44.3
 20
42
 30
0
 11
44.3
 21
43.25
 31
0
  0
LINE
  8
1
 62
7
 10
44.8
 20
55
 30
0
 11
74.3
 21
55
 31
0
  0
LINE
  8
1
 62
7
 10
74.3
 20
-25
 30
0
 11
44.8
 21
-25
 31
0
  0
LINE
  8
1
 62
7
 10
74.3
 20
-15
 30
0
 11
74.3
 21
45
 31
0
  0
LINE
  8
1
 62
7
 10
74.3
 20
55
 30
0
 11
74.3
 21
45
 31
0
  0
LINE
  8
1
 62
7
 10
74.3
 20
-15
 30
0
 11
74.3
 21
-25
 31
0
  0
LINE
  8
1
 62
3
 10
24.11058957809898
 20
48.25
 30
0
 11
81.33734209887471
 21
48.25
 31
0
  0
LINE
  8
1
 62
3
 10
24.06397429139211
 20
-18.25
 30
0
 11
81.33734209887471
 21
-18.25
 31
0
  0
LINE
  8
1
 62
7
 10
77.63360848093679
 20
-13.77368243524995
 30
0
 11
76.40871557427481
 21
-13.72809648644846
 31
0
  0
LINE
  8
1
 62
7
 10
77.63360848093679
 20
-22.70441405119846
 30
0
 11
76.40871557427481
 21
-22.75
 31
0
  0
LINE
  8
1
 62
7
 10
77.63360848093679
 20
52.72631756475005
 30
0
 11
76.40871557427481
 21
52.77190351355142
 31
0
  0
LINE
  8
1
 62
7
 10
77.63360848093679
 20
43.79558594880143
 30
0
 11
76.40871557427481
 21
43.75
 31
0
  0
LINE
  8
1
 62
7
 10
77.8
 20
35.25
 30
0
 11
77.8
 21
-5.25
 31
0
  0
LINE
  8
1
 62
7
 10
76.3
 20
36.25
 30
0
 11
76.3
 21
55
 31
0
  0
LINE
  8
1
 62
7
 10
76.3
 20
36.25
 30
0
 11
76.3
 21
-6.215893349960993
 31
0
  0
LINE
  8
1
 62
7
 10
76.3
 20
-6.25
 30
0
 11
76.3
 21
-25
 31
0
  0
LINE
  8
1
 62
7
 10
76.3
 20
-6.25
 30
0
 11
76.3
 21
-6.215893349960993
 31
0
  0
LINE
  8
1
 62
7
 10
76.3
 20
55
 30
0
 11
74.3
 21
55
 31
0
  0
LINE
  8
1
 62
7
 10
74.3
 20
-25
 30
0
 11
76.3
 21
-25
 31
0
  0
LINE
  8
1
 62
7
 10
77.8
 20
34
 30
0
 11
77.8
 21
-4
 31
0
  0
LINE
  8
1
 62
3
 10
36.6217166263336
 20
15
 30
0
 11
137.7191561798811
 21
15
 31
0
  0
LINE
  8
1
 62
7
 10
76.8
 20
35.75
 30
0
 11
77.3
 21
35.75
 31
0
  0
LINE
  8
1
 62
7
 10
76.8
 20
-5.75
 30
0
 11
77.3
 21
-5.75
 31
0
  0
LINE
  8
1
 62
7
 10
44.8
 20
47.0295
 30
0
 11
44.8
 21
13
 31
0
  0
ARC
  8
1
 62
3
 10
204.495175672689
 20
15.00000000000001
 30
0
 40
14.99999999999944
 50
310.1709933307054
 51
329.971633270455
  0
ARC
  8
1
 62
3
 10
204.495175672689
 20
15.00000000000001
 30
0
 40
14.99999999999981
 50
210.0283667295431
 51
229.8290066692918
  0
ARC
  8
1
 62
3
 10
204.495175672689
 20
15.00000000000001
 30
0
 40
14.9999999999988
 50
30.028366729544
 51
49.82900666929351
  0
ARC
  8
1
 62
3
 10
204.495175672689
 20
15.00000000000001
 30
0
 40
14.99999999999973
 50
130.1709933307093
 51
149.9716332704579
  0
ARC
  8
1
 62
7
 10
204.5000000000001
 20
87.00814382286168
 30
0
 40
4.81428571430074
 50
281.9884867451955
 51
301.2844929143108
  0
ARC
  8
1
 62
7
 10
204.5000000000001
 20
87.00814382286168
 30
0
 40
4.81428571430074
 50
258.0115132548045
 51
281.9884867451955
  0
ARC
  8
1
 62
7
 10
204.5000000000001
 20
87.00814382286168
 30
0
 40
4.81428571430047
 50
238.7155070856893
 51
258.0115132548045
  0
ARC
  8
1
 62
7
 10
204.495175672689
 20
15.00000000000001
 30
0
 40
15.59999999999939
 50
341.3060590766758
 51
18.69394092332346
  0
ARC
  8
1
 62
7
 10
204.495175672689
 20
15.00000000000001
 30
0
 40
15.60000000000023
 50
161.3060590766777
 51
198.6939409233231
  0
ARC
  8
1
 62
7
 10
204.495175672689
 20
15.00000000000001
 30
0
 40
16.99999999999967
 50
81.54348066472933
 51
86.29003410793645
  0
ARC
  8
1
 62
7
 10
204.495175672689
 20
15.00000000000001
 30
0
 40
16.60000000000059
 50
335.058875241072
 51
342.4700182669261
  0
ARC
  8
1
 62
7
 10
218.495175672689
 20
21.9999999999999
 30
0
 40
2
 50
180
 51
270
  0
ARC
  8
1
 62
7
 10
204.495175672689
 20
15.00000000000001
 30
0
 40
18.60000000000013
 50
133.464023498339
 51
164.4061042595312
  0
ARC
  8
1
 62
7
 10
204.495175672689
 20
15.00000000000001
 30
0
 40
16.60000000000055
 50
155.0588752410728
 51
162.4700182669279
  0
ARC
  8
1
 62
7
 10
204.495175672689
 20
15.00000000000001
 30
0
 40
18.59999999999991
 50
164.4061042595312
 51
195.5938957404695
  0
ARC
  8
1
 62
7
 10
190.495175672689
 20
7.999999999999893
 30
0
 40
2
 50
0
 51
90
  0
ARC
  8
1
 62
7
 10
204.495175672689
 20
15.00000000000001
 30
0
 40
15.00000000000029
 50
152.1818607153471
 51
199.4712206344898
  0
ARC
  8
1
 62
7
 10
204.495175672689
 20
15.00000000000001
 30
0
 40
17.00000000000006
 50
261.5434806647295
 51
266.6277133165661
  0
ARC
  8
1
 62
7
 10
204.495175672689
 20
15.00000000000001
 30
0
 40
17.00000000000028
 50
296.7051315194622
 51
307.4280055430426
  0
ARC
  8
1
 62
7
 10
204.495175672689
 20
15.00000000000001
 30
0
 40
18.59999999999963
 50
313.4640234983364
 51
46.53597650166314
  0
ARC
  8
1
 62
7
 10
204.495175672689
 20
15.00000000000001
 30
0
 40
18.59999999999997
 50
195.5938957404695
 51
226.5359765016615
  0
ARC
  8
1
 62
7
 10
204.495175672689
 20
15.00000000000001
 30
0
 40
17.00000000000054
 50
116.7051315194654
 51
127.4280055430429
  0
ARC
  8
1
 62
7
 10
204.495175672689
 20
15.00000000000001
 30
0
 40
9.000000000000229
 50
128.9424412689843
 51
231.0575587310166
  0
ARC
  8
1
 62
7
 10
204.495175672689
 20
15.00000000000001
 30
0
 40
8.999999999999799
 50
308.9424412689786
 51
51.05755873102049
  0
ARC
  8
1
 62
7
 10
204.495175672689
 20
15.00000000000001
 30
0
 40
16.99999999999948
 50
92.8659839826019
 51
93.70996589206986
  0
ARC
  8
1
 62
7
 10
204.495175672689
 20
15.00000000000001
 30
0
 40
16.99999999999962
 50
86.29003410793645
 51
87.13401601740441
  0
ARC
  8
1
 62
7
 10
204.495175672689
 20
15.00000000000001
 30
0
 40
16.99999999999997
 50
266.6277133165661
 51
267.1340160173982
  0
ARC
  8
1
 62
7
 10
204.495175672689
 20
15.00000000000001
 30
0
 40
16.99999999999982
 50
272.8659839825955
 51
273.3722866834339
  0
ARC
  8
1
 62
7
 10
204.495175672689
 20
15.00000000000001
 30
0
 40
16.99999999999948
 50
232.5719944569604
 51
243.2948684805349
  0
ARC
  8
1
 62
7
 10
204.495175672689
 20
15.00000000000001
 30
0
 40
18.60000000000029
 50
226.5359765016615
 51
245.2248645654895
  0
ARC
  8
1
 62
7
 10
204.495175672689
 20
15.00000000000001
 30
0
 40
18.58741151126339
 50
277.7296870108225
 51
293.8513695232647
  0
ARC
  8
1
 62
7
 10
204.495175672689
 20
15.00000000000001
 30
0
 40
18.59999999999947
 50
294.7751354345078
 51
313.4640234983364
  0
ARC
  8
1
 62
7
 10
204.495175672689
 20
15.00000000000001
 30
0
 40
17.00000000000013
 50
232.5719944569575
 51
243.2948684805349
  0
ARC
  8
1
 62
7
 10
204.495175672689
 20
15.00000000000001
 30
0
 40
17.00000000000006
 50
278.4565193352705
 51
283.1631328694728
  0
ARC
  8
1
 62
7
 10
204.495175672689
 20
15.00000000000001
 30
0
 40
18.587411511263
 50
97.72968701082269
 51
113.8513695232677
  0
ARC
  8
1
 62
7
 10
204.495175672689
 20
15.00000000000001
 30
0
 40
18.59999999999951
 50
114.775135434511
 51
133.464023498339
  0
ARC
  8
1
 62
7
 10
204.495175672689
 20
15.00000000000001
 30
0
 40
18.59999999999946
 50
46.53597650166314
 51
65.2248645654917
  0
ARC
  8
1
 62
7
 10
204.495175672689
 20
15.00000000000001
 30
0
 40
16.99999999999967
 50
98.45651933527067
 51
103.1631328694756
  0
ARC
  8
1
 62
7
 10
204.495175672689
 20
15.00000000000001
 30
0
 40
16.99999999999944
 50
52.57199445695934
 51
63.29486848053751
  0
ARC
  8
1
 62
7
 10
204.495175672689
 20
15.00000000000001
 30
0
 40
16.99999999999939
 50
87.13401601740441
 51
93.70996589206986
  0
ARC
  8
1
 62
7
 10
204.495175672689
 20
15.00000000000001
 30
0
 40
16.99999999999992
 50
267.1340160173982
 51
272.8659839825955
  0
ARC
  8
1
 62
7
 10
204.495175672689
 20
15.00000000000001
 30
0
 40
18.587411511263
 50
82.27031298917731
 51
97.72968701082269
  0
ARC
  8
1
 62
7
 10
204.495175672689
 20
15.00000000000001
 30
0
 40
16.99999999999974
 50
93.70996589206986
 51
98.45651933527067
  0
ARC
  8
1
 62
7
 10
204.495175672689
 20
15.00000000000001
 30
0
 40
16.99999999999958
 50
76.83686713052332
 51
81.54348066472933
  0
ARC
  8
1
 62
7
 10
204.495175672689
 20
15.00000000000001
 30
0
 40
18.58741151126254
 50
66.14863047673502
 51
82.27031298917731
  0
ARC
  8
1
 62
7
 10
204.495175672689
 20
15.00000000000001
 30
0
 40
16.99999999999987
 50
256.836867130524
 51
261.5434806647295
  0
ARC
  8
1
 62
7
 10
204.495175672689
 20
15.00000000000001
 30
0
 40
18.58741151126314
 50
246.1486304767326
 51
262.2703129891775
  0
ARC
  8
1
 62
7
 10
204.495175672689
 20
15.00000000000001
 30
0
 40
18.58741151126339
 50
262.2703129891775
 51
277.7296870108225
  0
ARC
  8
1
 62
7
 10
204.495175672689
 20
15.00000000000001
 30
0
 40
16.99999999999997
 50
273.3722866834339
 51
278.4565193352705
  0
ARC
  8
1
 62
7
 10
204.495175672689
 20
15.00000000000001
 30
0
 40
14.99999999999955
 50
332.1818607153447
 51
19.47122063449135
  0
ARC
  8
1
 62
7
 10
23.3
 20
38
 30
0
 40
5
 50
270
 51
306.8698976458441
  0
ARC
  8
1
 62
7
 10
-81.75
 20
48.25
 30
0
 40
6.75
 50
90
 51
0
  0
ARC
  8
1
 62
7
 10
-148.25
 20
-18.25
 30
0
 40
6.75
 50
270
 51
180
  0
ARC
  8
1
 62
7
 10
-148.25
 20
48.25
 30
0
 40
6.75
 50
90
 51
180
  0
ARC
  8
1
 62
7
 10
-81.75
 20
-18.25
 30
0
 40
6.75
 50
270
 51
0
  0
ARC
  8
1
 62
7
 10
-148.25
 20
48.25
 30
0
 40
6.75
 50
180
 51
90
  0
ARC
  8
1
 62
7
 10
-81.75
 20
48.25
 30
0
 40
6.75
 50
0
 51
90
  0
ARC
  8
1
 62
7
 10
-81.75
 20
-18.25
 30
0
 40
6.75
 50
0
 51
270
  0
ARC
  8
1
 62
7
 10
-148.25
 20
-18.25
 30
0
 40
6.75
 50
180
 51
270
  0
ARC
  8
1
 62
7
 10
-115
 20
30
 30
0
 40
4.000000000000006
 50
48.59037789072904
 51
131.409622109271
  0
ARC
  8
1
 62
7
 10
-115
 20
30
 30
0
 40
4.000000000000006
 50
131.409622109271
 51
0
  0
ARC
  8
1
 62
7
 10
-115
 20
30
 30
0
 40
4
 50
0
 51
48.59037789072904
  0
ARC
  8
1
 62
7
 10
34.35513538572131
 20
48.25
 30
0
 40
8.944864614278689
 50
345.0338261958171
 51
14.96617380418287
  0
ARC
  8
1
 62
7
 10
40.94999999999997
 20
44.78499999999991
 30
0
 40
2.34999999999996
 50
330.5614799140785
 51
29.43852008592639
  0
ARC
  8
1
 62
7
 10
40.94999999999997
 20
51.71500000000003
 30
0
 40
2.350000000000044
 50
330.5614799140748
 51
29.43852008592383
  0
ARC
  8
1
 62
7
 10
47.54486461427881
 20
48.25
 30
0
 40
8.944864614278853
 50
165.0338261958174
 51
194.9661738041826
  0
ARC
  8
1
 62
7
 10
40.94999999999997
 20
44.78499999999991
 30
0
 40
2.35000000000006
 50
150.5614799140735
 51
209.4385200859217
  0
ARC
  8
1
 62
7
 10
40.94999999999997
 20
51.71500000000003
 30
0
 40
2.35
 50
150.561479914076
 51
209.4385200859254
  0
ARC
  8
1
 62
7
 10
34.35513538572131
 20
-18.25
 30
0
 40
8.944864614278687
 50
345.0338261958172
 51
14.96617380418286
  0
ARC
  8
1
 62
7
 10
40.94999999999997
 20
-21.71500000000009
 30
0
 40
2.349999999999962
 50
330.5614799140784
 51
29.43852008592647
  0
ARC
  8
1
 62
7
 10
40.94999999999997
 20
-14.78499999999997
 30
0
 40
2.350000000000044
 50
330.5614799140748
 51
29.43852008592391
  0
ARC
  8
1
 62
7
 10
47.54486461427881
 20
-18.25
 30
0
 40
8.944864614278853
 50
165.0338261958174
 51
194.9661738041826
  0
ARC
  8
1
 62
7
 10
40.94999999999997
 20
-21.71500000000009
 30
0
 40
2.350000000000061
 50
150.5614799140734
 51
209.4385200859218
  0
ARC
  8
1
 62
7
 10
40.94999999999997
 20
-14.78499999999997
 30
0
 40
2.350000000000002
 50
150.5614799140759
 51
209.4385200859254
  0
ARC
  8
1
 62
7
 10
80.38929794868157
 20
-18.25
 30
0
 40
0.7517523941143566
 50
156.4800993873254
 51
203.5199006126704
  0
ARC
  8
1
 62
7
 10
77.6384374160488
 20
-15.4443076734114
 30
0
 40
1.670632217155009
 50
32.36499987074348
 51
90.16561274461856
  0
ARC
  8
1
 62
7
 10
70.45104111881237
 20
-17.9572006206476
 30
0
 40
9.248961684147945
 50
0.04460665194093673
 51
21.6161962149058
  0
ARC
  8
1
 62
7
 10
77.5163620342821
 20
-20.77838608834656
 30
0
 40
1.929593336156761
 50
273.483566724868
 51
322.6139950970404
  0
ARC
  8
1
 62
7
 10
71.40895377245788
 20
-18.72605781338245
 30
0
 40
8.292915283595633
 50
337.1227217188453
 51
1.216475414306366
  0
ARC
  8
1
 62
7
 10
80.38929794868157
 20
48.25
 30
0
 40
0.7517523941143566
 50
156.4800993873254
 51
203.5199006126701
  0
ARC
  8
1
 62
7
 10
77.6384374160488
 20
51.05569232658854
 30
0
 40
1.670632217155042
 50
32.36499987074523
 51
90.16561274461856
  0
ARC
  8
1
 62
7
 10
70.45104111881237
 20
48.54279937935235
 30
0
 40
9.248961684147945
 50
0.04460665194122284
 51
21.61619621490607
  0
ARC
  8
1
 62
7
 10
77.5163620342821
 20
45.72161391165344
 30
0
 40
1.929593336156875
 50
273.4835667248677
 51
322.6139950970403
  0
ARC
  8
1
 62
7
 10
71.40895377245788
 20
47.77394218661743
 30
0
 40
8.292915283595587
 50
337.122721718846
 51
1.2164754143072
  0
CIRCLE
  8
1
 62
4
 10
199.995175672689
 20
3.199999999999399
 30
0
 40
0.5
  0
CIRCLE
  8
1
 62
4
 10
204.495175672689
 20
3.199999999999712
 30
0
 40
0.5
  0
CIRCLE
  8
1
 62
4
 10
208.995175672689
 20
26.79999999999991
 30
0
 40
0.5
  0
CIRCLE
  8
1
 62
4
 10
204.495175672689
 20
26.79999999999991
 30
0
 40
0.5
  0
CIRCLE
  8
1
 62
4
 10
208.995175672689
 20
3.199999999999996
 30
0
 40
0.5
  0
CIRCLE
  8
1
 62
7
 10
204.5000000000001
 20
68.4938581085587
 30
0
 40
0.650000000000091
  0
CIRCLE
  8
1
 62
7
 10
204.495175672689
 20
15.00000000000001
 30
0
 40
1.99999999999989
  0
CIRCLE
  8
1
 62
7
 10
218.495175672689
 20
21.9999999999999
 30
0
 40
0.8500000000000796
  0
CIRCLE
  8
1
 62
7
 10
190.495175672689
 20
7.999999999999893
 30
0
 40
0.8499999999999091
  0
CIRCLE
  8
1
 62
7
 10
193.0045090259039
 20
5.358185854701908
 30
0
 40
1.25
  0
CIRCLE
  8
1
 62
7
 10
193.0045090259039
 20
24.64181414529791
 30
0
 40
1.25
  0
CIRCLE
  8
1
 62
7
 10
215.9858423194731
 20
5.358185854701908
 30
0
 40
1.5
  0
CIRCLE
  8
1
 62
7
 10
215.9858423194731
 20
5.358185854701908
 30
0
 40
1.25
  0
CIRCLE
  8
1
 62
7
 10
215.9858423194731
 20
24.64181414529791
 30
0
 40
1.5
  0
CIRCLE
  8
1
 62
7
 10
215.9858423194731
 20
24.64181414529791
 30
0
 40
1.25
  0
CIRCLE
  8
1
 62
7
 10
193.0045090259039
 20
5.358185854701908
 30
0
 40
1.5
  0
CIRCLE
  8
1
 62
7
 10
193.0045090259039
 20
24.64181414529791
 30
0
 40
1.5
  0
CIRCLE
  8
1
 62
7
 10
204.495175672689
 20
15.00000000000001
 30
0
 40
7.99999999999989
  0
CIRCLE
  8
1
 62
7
 10
204.495175672689
 20
15.00000000000001
 30
0
 40
3.74999999999989
  0
CIRCLE
  8
1
 62
4
 10
199.995175672689
 20
26.79999999999991
 30
0
 40
0.5
  0
CIRCLE
  8
1
 62
4
 10
212.9249861031249
 20
22.24850539156879
 30
0
 40
1
  0
CIRCLE
  8
1
 62
4
 10
196.0653652422509
 20
7.751494608430797
 30
0
 40
1
  0
CIRCLE
  8
1
 62
7
 10
-115
 20
30
 30
0
 40
17
  0
CIRCLE
  8
1
 62
7
 10
-81.75
 20
-18.25
 30
0
 40
4
  0
CIRCLE
  8
1
 62
7
 10
-148.25
 20
-18.25
 30
0
 40
4.00000000000006
  0
CIRCLE
  8
1
 62
7
 10
-81.75
 20
48.25
 30
0
 40
4
  0
CIRCLE
  8
1
 62
7
 10
-148.25
 20
48.25
 30
0
 40
4
  0
CIRCLE
  8
1
 62
7
 10
-148.25
 20
-18.25
 30
0
 40
2.50000000000006
  0
CIRCLE
  8
1
 62
2
 10
-148.25
 20
-18.25
 30
0
 40
2.00000000000006
  0
CIRCLE
  8
1
 62
7
 10
-81.75
 20
-18.25
 30
0
 40
2.5
  0
CIRCLE
  8
1
 62
2
 10
-81.75
 20
-18.25
 30
0
 40
2
  0
CIRCLE
  8
1
 62
7
 10
-81.75
 20
48.25
 30
0
 40
2.5
  0
CIRCLE
  8
1
 62
2
 10
-81.75
 20
48.25
 30
0
 40
2
  0
CIRCLE
  8
1
 62
7
 10
-148.25
 20
48.25
 30
0
 40
2.5
  0
CIRCLE
  8
1
 62
2
 10
-148.25
 20
48.25
 30
0
 40
2
  0
CIRCLE
  8
1
 62
7
 10
-115
 20
30
 30
0
 40
9.75
  0
CIRCLE
  8
1
 62
7
 10
-142.5
 20
31
 30
0
 40
3.5
  0
CIRCLE
  8
1
 62
7
 10
-87.5
 20
31
 30
0
 40
3.5
  0
CIRCLE
  8
1
 62
7
 10
-115
 20
-17
 30
0
 40
3.5
  0
CIRCLE
  8
1
 62
7
 10
-142.5
 20
31
 30
0
 40
4
  0
CIRCLE
  8
1
 62
7
 10
-87.5
 20
31
 30
0
 40
4
  0
CIRCLE
  8
1
 62
7
 10
-115
 20
-17
 30
0
 40
4
  0
POLYLINE
  8
1
 62
7
 66
1
  0
VERTEX
  8
1
 10
200.7404434584139
 20
73.8584733016184
 30
0
 42
-0.04341380924520732
  0
VERTEX
  8
1
 10
201.27667127905
 20
73.72304005862034
 30
0
 42
-0.03586910706859138
  0
VERTEX
  8
1
 10
201.7493949103707
 20
73.51700668588623
 30
0
 42
-0.02357268601569748
  0
VERTEX
  8
1
 10
202.1762938712654
 20
73.26552354008952
 30
0
 42
-0.008885461588942123
  0
VERTEX
  8
1
 10
202.5750476806234
 20
72.99374097790368
 30
0
 42
0.007087923818138767
  0
VERTEX
  8
1
 10
202.963335857334
 20
72.72680935600212
 30
0
 42
0.02416084751425597
  0
VERTEX
  8
1
 10
203.3588379202868
 20
72.48987903105837
 30
0
 42
0.04127268643166267
  0
VERTEX
  8
1
 10
203.7792333883709
 20
72.30810035974579
 30
0
 42
0.05439822759861059
  0
VERTEX
  8
1
 10
204.2422017804758
 20
72.20662369873791
 30
0
  0
VERTEX
  8
1
 10
204.495175672689
 20
72.19385810855869
 30
0
  0
SEQEND
  8
1
  0
POLYLINE
  8
1
 62
7
 66
1
  0
VERTEX
  8
1
 10
208.249907886964
 20
73.8584733016184
 30
0
 42
0.04341380924520441
  0
VERTEX
  8
1
 10
207.713680066328
 20
73.72304005862034
 30
0
 42
0.03586910706858301
  0
VERTEX
  8
1
 10
207.2409564350072
 20
73.51700668588623
 30
0
 42
0.02357268601569748
  0
VERTEX
  8
1
 10
206.8140574741125
 20
73.26552354008952
 30
0
 42
0.008885461589044481
  0
VERTEX
  8
1
 10
206.4153036647544
 20
72.99374097790367
 30
0
 42
-0.007087923818265568
  0
VERTEX
  8
1
 10
206.0270154880435
 20
72.72680935600212
 30
0
 42
-0.02416084751432594
  0
VERTEX
  8
1
 10
205.6315134250908
 20
72.48987903105837
 30
0
 42
-0.04127268643152569
  0
VERTEX
  8
1
 10
205.2111179570067
 20
72.30810035974579
 30
0
 42
-0.05439822759874435
  0
VERTEX
  8
1
 10
204.748149564902
 20
72.20662369873793
 30
0
  0
VERTEX
  8
1
 10
204.495175672689
 20
72.19385810855869
 30
0
  0
SEQEND
  8
1
  0
POLYLINE
  8
1
 62
2
 66
1
  0
VERTEX
  8
1
 10
223.1
 20
88.9944915864007
 30
0
 42
0.05831236789116612
  0
VERTEX
  8
1
 10
219.7093757571177
 20
90.39259552434385
 30
0
 42
0.05241242701579262
  0
VERTEX
  8
1
 10
216.2994388478322
 20
90.95140116546152
 30
0
 42
0.03924392284170458
  0
VERTEX
  8
1
 10
212.8772138983489
 20
90.87207080485318
 30
0
 42
0.02405152169742396
  0
VERTEX
  8
1
 10
209.449725534873
 20
90.35576673761825
 30
0
 42
0.00951097024497949
  0
VERTEX
  8
1
 10
206.0239983836101
 20
89.60365125885619
 30
0
 42
-0.004375860255042553
  0
VERTEX
  8
1
 10
202.6070570707652
 20
88.81688666366642
 30
0
 42
-0.01865443781718345
  0
VERTEX
  8
1
 10
199.2059262225438
 20
88.19663524714844
 30
0
 42
-0.03412685018229265
  0
VERTEX
  8
1
 10
195.8276304651513
 20
87.94405930440163
 30
0
 42
-0.04977840459140835
  0
VERTEX
  8
1
 10
192.4791944247929
 20
88.26032113052546
 30
0
 42
-0.06107461418712028
  0
VERTEX
  8
1
 10
189.167642727674
 20
89.34658302061936
 30
0
 42
-0.0623001376868158
  0
VERTEX
  8
1
 10
185.8999999999999
 20
91.4040072697828
 30
0
  0
SEQEND
  8
1
  0
ARC
  8
1
 62
7
 10
200.7951756726891
 20
74.1534383583973
 30
0
 40
0.3000000000001251
 50
180
 51
259.4880431033453
  0
ARC
  8
1
 62
7
 10
208.195175672689
 20
74.1534383583973
 30
0
 40
0.3000000000000312
 50
280.5119568966119
 51
0
  0
ARC
  8
1
 62
7
 10
130.5000000000001
 20
8.000000000000007
 30
0
 40
1
 50
270
 51
0
  0
ARC
  8
1
 62
7
 10
130.5000000000001
 20
21.9999999999999
 30
0
 40
1
 50
6.310220488023617e-012
 51
90
  0
ARC
  8
1
 62
7
 10
197.5000000000001
 20
72.69385810855869
 30
0
 40
1
 50
180
 51
270
  0
ARC
  8
1
 62
7
 10
211.5000000000001
 20
72.69385810855869
 30
0
 40
1
 50
270
 51
0
  0
ARC
  8
1
 62
7
 10
79.8
 20
-1.599999999999987
 30
0
 40
2
 50
180
 51
270
  0
ARC
  8
1
 62
7
 10
79.8
 20
31.6
 30
0
 40
1.999999999999986
 50
90
 51
180
  0
ARC
  8
1
 62
7
 10
193.495175672689
 20
24.00000000000001
 30
0
 40
2.00000000000011
 50
270
 51
0
  0
ARC
  8
1
 62
7
 10
193.495175672689
 20
6.000000000000007
 30
0
 40
2
 50
0
 51
90
  0
ARC
  8
1
 62
7
 10
198.495175672689
 20
22.9999999999999
 30
0
 40
1
 50
180
 51
270
  0
ARC
  8
1
 62
7
 10
198.495175672689
 20
24.9999999999999
 30
0
 40
1
 50
90
 51
180
  0
ARC
  8
1
 62
7
 10
198.495175672689
 20
4.999999999999893
 30
0
 40
1
 50
180
 51
270
  0
ARC
  8
1
 62
7
 10
198.495175672689
 20
6.999999999999893
 30
0
 40
1
 50
90
 51
180
  0
ARC
  8
1
 62
7
 10
215.495175672689
 20
6.000000000000007
 30
0
 40
1.999999999999886
 50
90
 51
180
  0
ARC
  8
1
 62
7
 10
215.495175672689
 20
24.00000000000001
 30
0
 40
2
 50
180
 51
270
  0
ARC
  8
1
 62
7
 10
210.495175672689
 20
4.999999999999893
 30
0
 40
1
 50
270
 51
0
  0
ARC
  8
1
 62
7
 10
210.495175672689
 20
6.999999999999893
 30
0
 40
1
 50
0
 51
90
  0
ARC
  8
1
 62
7
 10
210.495175672689
 20
22.9999999999999
 30
0
 40
1
 50
270
 51
0
  0
ARC
  8
1
 62
7
 10
210.495175672689
 20
24.9999999999999
 30
0
 40
1
 50
0
 51
90
  0
ARC
  8
1
 62
7
 10
197.978890044193
 20
2.046698428282902
 30
0
 40
2.500000000000987
 50
243.2948684805115
 51
284.6557406973737
  0
ARC
  8
1
 62
7
 10
197.957869373548
 20
0.8358330159798086
 30
0
 40
3.00000000000026
 50
250.957649536914
 51
285.0653717628101
  0
ARC
  8
1
 62
7
 10
204.495175672689
 20
-3.100000000000186
 30
0
 40
2.499999999999722
 50
74.10973297715053
 51
105.8902670228244
  0
ARC
  8
1
 62
7
 10
204.495175672689
 20
-3.100000000000186
 30
0
 40
2.499999999999722
 50
74.10973297715053
 51
105.8902670228244
  0
ARC
  8
1
 62
7
 10
211.032481971829
 20
0.8358330159798086
 30
0
 40
3.000000000000752
 50
254.9346282372071
 51
289.0423504630865
  0
ARC
  8
1
 62
7
 10
211.032481971829
 20
0.8358330159798086
 30
0
 40
3.000000000000269
 50
289.0423504630865
 51
294.7751354345049
  0
ARC
  8
1
 62
7
 10
204.495175672689
 20
-4.000000000000107
 30
0
 40
5.000000000000155
 50
76.6758163180703
 51
103.3241836819303
  0
ARC
  8
1
 62
7
 10
204.495175672689
 20
-4.000000000000107
 30
0
 40
5.000000000000155
 50
76.6758163180703
 51
103.3241836819303
  0
ARC
  8
1
 62
7
 10
211.0114613011861
 20
2.046698428282902
 30
0
 40
2.500000000000474
 50
255.3442593025791
 51
296.7051315194454
  0
ARC
  8
1
 62
7
 10
211.0114613011861
 20
27.95330157171672
 30
0
 40
2.50000000000022
 50
63.29486848055657
 51
104.6557406974211
  0
ARC
  8
1
 62
7
 10
204.495175672689
 20
33.9999999999999
 30
0
 40
5.000000000000369
 50
256.6758163180702
 51
283.3241836819291
  0
ARC
  8
1
 62
7
 10
197.978890044193
 20
27.95330157171672
 30
0
 40
2.4999999999999
 50
75.34425930262613
 51
116.7051315194865
  0
ARC
  8
1
 62
7
 10
197.957869373548
 20
29.16416698401981
 30
0
 40
3.000000000000958
 50
74.93462823718964
 51
109.0423504630849
  0
ARC
  8
1
 62
7
 10
204.495175672689
 20
33.09999999999981
 30
0
 40
2.499999999999445
 50
254.1097329771758
 51
285.8902670228492
  0
ARC
  8
1
 62
7
 10
204.495175672689
 20
33.09999999999981
 30
0
 40
2.499999999999445
 50
254.1097329771758
 51
285.8902670228492
  0
ARC
  8
1
 62
7
 10
211.032481971829
 20
29.16416698401981
 30
0
 40
3.000000000000433
 50
70.95764953691457
 51
105.0653717627931
  0
ARC
  8
1
 62
7
 10
194.59517567269
 20
14.09999999999981
 30
0
 40
0.5
 50
0
 51
90
  0
ARC
  8
1
 62
7
 10
191.09517567269
 20
14.09999999999981
 30
0
 40
0.5
 50
90
 51
180
  0
ARC
  8
1
 62
7
 10
191.09517567269
 20
15.89999999999982
 30
0
 40
0.5
 50
180
 51
270
  0
ARC
  8
1
 62
7
 10
194.59517567269
 20
15.89999999999982
 30
0
 40
0.5
 50
270
 51
0
  0
ARC
  8
1
 62
7
 10
214.395175672689
 20
14.09999999999981
 30
0
 40
0.5
 50
90
 51
180
  0
ARC
  8
1
 62
7
 10
217.895175672689
 20
14.09999999999981
 30
0
 40
0.5
 50
0
 51
90
  0
ARC
  8
1
 62
7
 10
217.895175672689
 20
15.89999999999982
 30
0
 40
0.5
 50
270
 51
0
  0
ARC
  8
1
 62
7
 10
214.395175672689
 20
15.89999999999982
 30
0
 40
0.5
 50
180
 51
270
  0
ARC
  8
1
 62
7
 10
-112.8
 20
-16.7000000000001
 30
0
 40
0.09999999999999432
 50
0
 51
90
  0
ARC
  8
1
 62
7
 10
-112.8
 20
-17.29999999999995
 30
0
 40
0.1000000000000298
 50
270
 51
0
  0
ARC
  8
1
 62
7
 10
-114.7
 20
-19.19999999999999
 30
0
 40
0.09999999999996234
 50
270
 51
0
  0
ARC
  8
1
 62
7
 10
-115.3
 20
-19.19999999999999
 30
0
 40
0.1000000000000085
 50
180
 51
270
  0
ARC
  8
1
 62
7
 10
-117.2
 20
-17.29999999999995
 30
0
 40
0.09999999999999432
 50
180
 51
270
  0
ARC
  8
1
 62
7
 10
-117.2
 20
-16.7000000000001
 30
0
 40
0.1000000000001293
 50
90
 51
180
  0
ARC
  8
1
 62
7
 10
-114.7
 20
-14.79999999999995
 30
0
 40
0.1000000000000085
 50
0
 51
90
  0
ARC
  8
1
 62
7
 10
-115.3
 20
-14.79999999999995
 30
0
 40
0.09999999999995879
 50
90
 51
180
  0
ARC
  8
1
 62
7
 10
-113.4
 20
-18.59999999999997
 30
0
 40
1.199999999999989
 50
90
 51
180
  0
ARC
  8
1
 62
7
 10
-116.6
 20
-18.59999999999997
 30
0
 40
1.199999999999989
 50
0
 51
90
  0
ARC
  8
1
 62
7
 10
-113.4
 20
-15.40000000000009
 30
0
 40
1.199999999999989
 50
180
 51
270
  0
ARC
  8
1
 62
7
 10
-116.6
 20
-15.40000000000009
 30
0
 40
1.19999999999988
 50
270
 51
0
  0
ARC
  8
1
 62
7
 10
-85.30000000000001
 20
31.2999999999999
 30
0
 40
0.09999999999999432
 50
0
 51
90
  0
ARC
  8
1
 62
7
 10
-85.30000000000001
 20
30.70000000000005
 30
0
 40
0.1000000000000298
 50
270
 51
0
  0
ARC
  8
1
 62
7
 10
-87.20000000000002
 20
28.80000000000001
 30
0
 40
0.09999999999996234
 50
270
 51
0
  0
ARC
  8
1
 62
7
 10
-87.80000000000001
 20
28.80000000000001
 30
0
 40
0.09999999999999432
 50
180
 51
270
  0
ARC
  8
1
 62
7
 10
-89.70000000000002
 20
30.70000000000005
 30
0
 40
0.09999999999999432
 50
180
 51
270
  0
ARC
  8
1
 62
7
 10
-89.70000000000002
 20
31.2999999999999
 30
0
 40
0.1000000000001293
 50
90
 51
180
  0
ARC
  8
1
 62
7
 10
-87.20000000000002
 20
33.20000000000005
 30
0
 40
0.09999999999999432
 50
0
 51
90
  0
ARC
  8
1
 62
7
 10
-87.80000000000001
 20
33.20000000000005
 30
0
 40
0.09999999999995879
 50
90
 51
180
  0
ARC
  8
1
 62
7
 10
-85.90000000000001
 20
29.40000000000003
 30
0
 40
1.199999999999989
 50
90
 51
180
  0
ARC
  8
1
 62
7
 10
-89.10000000000002
 20
29.40000000000003
 30
0
 40
1.200000000000017
 50
0
 51
90
  0
ARC
  8
1
 62
7
 10
-85.90000000000001
 20
32.59999999999991
 30
0
 40
1.200000000000017
 50
180
 51
270
  0
ARC
  8
1
 62
7
 10
-89.10000000000002
 20
32.59999999999991
 30
0
 40
1.199999999999879
 50
270
 51
0
  0
ARC
  8
1
 62
7
 10
-140.3
 20
31.2999999999999
 30
0
 40
0.1000000000000227
 50
0
 51
90
  0
ARC
  8
1
 62
7
 10
-140.3
 20
30.70000000000005
 30
0
 40
0.1000000000000298
 50
270
 51
0
  0
ARC
  8
1
 62
7
 10
-142.2
 20
28.80000000000001
 30
0
 40
0.09999999999996234
 50
270
 51
0
  0
ARC
  8
1
 62
7
 10
-142.8
 20
28.80000000000001
 30
0
 40
0.09999999999999432
 50
180
 51
270
  0
ARC
  8
1
 62
7
 10
-144.7
 20
30.70000000000005
 30
0
 40
0.1000000000000227
 50
180
 51
270
  0
ARC
  8
1
 62
7
 10
-144.7
 20
31.2999999999999
 30
0
 40
0.1000000000001293
 50
90
 51
180
  0
ARC
  8
1
 62
7
 10
-142.2
 20
33.20000000000005
 30
0
 40
0.09999999999999432
 50
0
 51
90
  0
ARC
  8
1
 62
7
 10
-142.8
 20
33.20000000000005
 30
0
 40
0.09999999999995879
 50
90
 51
180
  0
ARC
  8
1
 62
7
 10
-140.9
 20
29.40000000000003
 30
0
 40
1.199999999999989
 50
90
 51
180
  0
ARC
  8
1
 62
7
 10
-144.1
 20
29.40000000000003
 30
0
 40
1.199999999999989
 50
0
 51
90
  0
ARC
  8
1
 62
7
 10
-140.9
 20
32.59999999999991
 30
0
 40
1.199999999999989
 50
180
 51
270
  0
ARC
  8
1
 62
7
 10
-144.1
 20
32.59999999999991
 30
0
 40
1.199999999999879
 50
270
 51
0
  0
ARC
  8
1
 62
7
 10
44.8
 20
-24.5
 30
0
 40
0.5
 50
180
 51
270
  0
ARC
  8
1
 62
7
 10
44.8
 20
-12
 30
0
 40
0.5
 50
90
 51
180
  0
ARC
  8
1
 62
7
 10
44.8
 20
42
 30
0
 40
0.5
 50
180
 51
270
  0
ARC
  8
1
 62
7
 10
44.8
 20
54.5
 30
0
 40
0.5
 50
90
 51
180
  0
ARC
  8
1
 62
7
 10
76.39999999999996
 20
-22.65038053019077
 30
0
 40
0.09999999999996589
 50
180
 51
275.0000000000424
  0
ARC
  8
1
 62
7
 10
76.39999999999996
 20
-13.82771595625769
 30
0
 40
0.1000000000000624
 50
84.99999999995757
 51
180
  0
ARC
  8
1
 62
7
 10
76.39999999999996
 20
43.84961946980911
 30
0
 40
0.09999999999996589
 50
180
 51
275.0000000000483
  0
ARC
  8
1
 62
7
 10
76.39999999999996
 20
52.67228404374225
 30
0
 40
0.1000000000000023
 50
84.99999999995455
 51
180
  0
ARC
  8
1
 62
7
 10
76.8
 20
36.25
 30
0
 40
0.5
 50
180
 51
270
  0
ARC
  8
1
 62
7
 10
77.3
 20
35.25
 30
0
 40
0.5
 50
0
 51
90
  0
ARC
  8
1
 62
7
 10
76.8
 20
-6.25
 30
0
 40
0.5
 50
90
 51
180
  0
ARC
  8
1
 62
7
 10
77.3
 20
-5.25
 30
0
 40
0.5
 50
270
 51
0
  0
LINE
  8
1
 62
2
 10
240.873779583505
 20
-7.9653565412465
 30
0
 11
222.4105322139351
 21
-7.9653565412465
 31
0
  0
LINE
  8
1
 62
2
 10
222.4105322139351
 20
-7.9653565412465
 30
0
 11
208.995175672689
 21
5.449999999999712
 31
0
  0
SOLID
  8
1
 62
2
 10
211.7958727151566
 20
3.300949574161461
 30
0
 11
211.1442260985272
 21
2.649302957532112
 31
0
 12
208.995175672689
 22
5.449999999999712
 32
0
 13
208.995175672689
 23
5.449999999999712
 33
0
  0
LINE
  8
1
 62
2
 10
170.1179768547441
 20
35.96395144837498
 30
0
 11
188.581224224314
 21
35.96395144837498
 31
0
  0
LINE
  8
1
 62
2
 10
188.581224224314
 20
35.96395144837498
 30
0
 11
199.995175672689
 21
24.54999999999991
 31
0
  0
SOLID
  8
1
 62
2
 10
197.1944786302214
 20
26.69905042583816
 30
0
 11
197.8461252468508
 21
27.35069704246751
 31
0
 12
199.995175672689
 22
24.54999999999991
 32
0
 13
199.995175672689
 23
24.54999999999991
 33
0
  0
LINE
  8
1
 62
2
 10
108.887862594611
 20
43.59999999999999
 30
0
 11
86.36060609144499
 21
43.60000000000019
 31
0
  0
LINE
  8
1
 62
2
 10
86.36060609144499
 20
43.60000000000019
 30
0
 11
101.2349671166552
 21
28.72563897479001
 31
0
  0
SOLID
  8
1
 62
2
 10
98.43427007418761
 20
30.87468940062825
 30
0
 11
99.08591669081696
 21
31.5263360172576
 31
0
 12
101.2349671166552
 22
28.72563897479001
 32
0
 13
101.2349671166552
 23
28.72563897479001
 33
0
  0
LINE
  8
1
 62
2
 10
72.36090909789243
 20
65
 30
0
 11
49.35295172508942
 21
65
 31
0
  0
LINE
  8
1
 62
2
 10
49.35295172508942
 20
65
 30
0
 11
58.6133935732236
 21
55.73955815186582
 31
0
  0
SOLID
  8
1
 62
2
 10
55.81269653075601
 20
57.88860857770406
 30
0
 11
56.46434314738536
 21
58.54025519433341
 31
0
 12
58.6133935732236
 22
55.73955815186582
 32
0
 13
58.6133935732236
 23
55.73955815186582
 33
0
  0
LINE
  8
1
 62
2
 10
-11.69119432207521
 20
-37.53407567543469
 30
0
 11
16.18801439350298
 21
-37.53407567543469
 31
0
  0
LINE
  8
1
 62
2
 10
16.18801439350298
 20
-37.53407567543469
 30
0
 11
32.97209006893767
 21
-20.75
 31
0
  0
SOLID
  8
1
 62
2
 10
30.82303964309943
 20
-23.55069704246759
 30
0
 11
30.17139302647007
 21
-22.89905042583824
 31
0
 12
32.97209006893767
 22
-20.75
 32
0
 13
32.97209006893767
 23
-20.75
 33
0
  0
TEXT
  8
1
 62
7
 10
152.9649307842685
 20
95.68931355180801
 30
0
 40
4
  1
２段、3段　１／３～１／１８０
 41
0.9
 73
2
 11
152.9649307842685
 21
97.68931355180801
 31
0
  0
TEXT
  8
1
 62
7
 10
101.1649307842685
 20
95.68931355180801
 30
0
 40
4
  1
ＤＭＥ３７Ｂ８Ｈ
 41
0.9
 72
1
 73
2
 11
129.9649307842685
 21
97.68931355180801
 31
0
  0
TEXT
  8
1
 62
4
 10
213.921664546997
 20
21.17066370655179
 30
0
 40
2
  1
+
 50
90
 41
0.9
  7
COMPLEX
 72
1
 73
2
 11
212.921664546997
 21
22.07066370655179
 31
0
  0
TEXT
  8
1
 62
4
 10
197.41868679838
 20
6.679336293448911
 30
0
 40
2
  1
-
 50
90
 41
0.9
  7
COMPLEX
 72
1
 73
2
 11
196.41868679838
 21
7.579336293448911
 31
0
  0
TEXT
  8
1
 62
2
 10
165.21746745157
 20
37.14313040960221
 30
0
 40
3.5
  1
(-)タンシ
 41
0.9
 72
1
 73
2
 11
179.39246745157
 21
38.89313040960221
 31
0
  0
TEXT
  8
1
 62
2
 10
217.510022810761
 20
-7.627411195118292
 30
0
 40
3.5
  1
(+)タンシ
 41
0.9
 72
1
 73
2
 11
231.685022810761
 21
-5.877411195118292
 31
0
  0
TEXT
  8
1
 62
2
 10
180.72209829044
 20
51.08205106992489
 30
0
 40
2
  1
±0.05
 41
0.9
 72
1
 73
2
 11
186.12209829044
 21
52.08205106992489
 31
0
  0
TEXT
  8
1
 62
2
 10
77.340789047209
 20
43.86610382999972
 30
0
 40
3.5
  1
ネームプレート
 41
0.8100000000000001
 72
1
 73
2
 11
97.185789047209
 21
45.61610382999972
 31
0
  0
TEXT
  8
1
 62
2
 10
-10.38838792465216
 20
-36.25565337559863
 30
0
 40
3.5
  1
4-M5X50
 41
0.9
 72
1
 73
2
 11
0.636612075347835
 21
-34.50565337559863
 31
0
  0
TEXT
  8
1
 62
2
 10
38.78643582776545
 20
66.00069366131481
 30
0
 40
3.5
  1
ネームプレート
 41
0.9
 72
1
 73
2
 11
60.83643582776544
 21
67.75069366131481
 31
0
  0
DIMENSION
  8
1
  6
CONTINUOUS
 62
2
  2
*D0
  3
DMST_1
 10
233.0951756726889
 20
5.724999999999833
 30
0
 11
230.495175672689
 21
14.99999999999981
 31
0
 12
0
 22
0
 32
0
 70
0
  1
18.6
 13
210.128969246475
 23
24.27499999999982
 33
0
 14
210.128969246475
 24
5.724999999999802
 34
0
 50
90
 53
0
  0
DIMENSION
  8
1
  6
CONTINUOUS
 62
2
  2
*D1
  3
DMST_2
 10
147.8999999999998
 20
23.00000000000001
 30
0
 11
144.8733333333331
 21
15.00000000000001
 31
0
 12
0
 22
0
 32
0
 70
0
  1
φ<>
 13
130.5000000000001
 23
7.000000000000007
 33
0
 14
130.5000000000001
 24
22.9999999999999
 34
0
 50
90
 53
0
  0
DIMENSION
  8
1
  6
CONTINUOUS
 62
2
  2
*D2
  3
DMST_2
 10
207.2499999999994
 20
43.90760699128541
 30
0
 11
216.9701682502301
 21
46.50760699128541
 31
0
 12
0
 22
0
 32
0
 70
0
  1
2-5.5
 13
201.7500000000001
 23
71.69385810855869
 33
0
 14
207.2500000000001
 24
71.6438581085587
 34
0
 53
0
  0
DIMENSION
  8
1
  6
CONTINUOUS
 62
2
  2
*D3
  3
DMST_2
 10
206.8749999999994
 20
52.85554879312743
 30
0
 11
224.9706809201101
 21
55.45554879312742
 31
0
 12
0
 22
0
 32
0
 70
0
  1
2-4.75XT.05
 13
202.1250000000001
 23
66.2938581085586
 33
0
 14
206.8750000000001
 24
66.2938581085586
 34
0
 53
0
  0
DIMENSION
  8
1
  6
CONTINUOUS
 62
2
  2
*D4
  3
DMST_3
 10
233.0999999999995
 20
71.69385810855866
 30
0
 11
230.3394460012201
 21
79.87816641697839
 31
0
 12
0
 22
0
 32
0
 70
0
 13
205.8750000000001
 23
65.2938581085586
 33
0
 14
211.5000000000001
 24
71.69385810855869
 34
0
 50
90
 53
0
  0
DIMENSION
  8
1
  6
CONTINUOUS
 62
2
  2
*D5
  3
DMST_2
 10
165.8999999999994
 20
71.6438581085587
 30
0
 11
163.2825174391801
 21
82.2993741986524
 31
0
 12
0
 22
0
 32
0
 70
0
  1
2-6.35
 13
203.1250000000001
 23
65.2938581085586
 33
0
 14
201.7500000000001
 24
71.6438581085587
 34
0
 50
90
 53
0
  0
DIMENSION
  8
1
  6
CONTINUOUS
 62
2
  2
*D6
  3
DMST_2
 10
175.8999999999995
 20
68.49385810855861
 30
0
 11
173.2831582765301
 21
80.93086545248841
 31
0
 12
0
 22
0
 32
0
 70
0
  1
2-3.2
 13
203.1250000000001
 23
65.2938581085586
 33
0
 14
203.655
 24
68.4938581085587
 34
0
 50
90
 53
0
  0
DIMENSION
  8
1
  6
CONTINUOUS
 62
2
  2
*D7
  3
DMST_2
 10
159.0999999999998
 20
33.59999999999989
 30
0
 11
156.0733333333331
 21
14.9999999999999
 31
0
 12
0
 22
0
 32
0
 70
0
  1
φ<>
 13
120.3
 23
-3.600000000000101
 33
0
 14
120.3
 24
33.59999999999989
 34
0
 50
90
 53
0
  0
DIMENSION
  8
1
  6
CONTINUOUS
 62
2
  2
*D8
  3
DMST_1
 10
127.5000000000001
 20
65
 30
0
 11
122.279732927358
 21
67.59999999999999
 31
0
 12
0
 22
0
 32
0
 70
0
  1
(<>
 13
131.5000000000001
 23
22.00000000000001
 33
0
 14
127.5000000000001
 24
28.50000000000001
 34
0
 53
0
  0
DIMENSION
  8
1
  6
CONTINUOUS
 62
2
  2
*D9
  3
DMST_2
 10
9.300000000000001
 20
75
 30
0
 11
16.3
 21
77.59999999999999
 31
0
 12
0
 22
0
 32
0
 70
0
 13
23.3
 23
33
 33
0
 14
9.299999999999997
 24
32.5
 34
0
 53
0
  0
DIMENSION
  8
1
  6
CONTINUOUS
 62
2
  2
*D10
  3
DMST_2
 10
76.3
 20
75
 30
0
 11
60.3
 21
77.59999999999999
 31
0
 12
0
 22
0
 32
0
 70
0
  1
32
 13
44.3
 23
54.5
 33
0
 14
76.3
 24
55
 34
0
 53
0
  0
DIMENSION
  8
1
  6
CONTINUOUS
 62
2
  2
*D11
  3
DMST_2
 10
44.3
 20
85
 30
0
 11
26.8
 21
87.59999999999999
 31
0
 12
0
 22
0
 32
0
 70
0
 13
9.299999999999997
 23
32.5
 33
0
 14
44.3
 24
54.5
 34
0
 53
0
  0
DIMENSION
  8
1
  6
CONTINUOUS
 62
2
  2
*D12
  3
DMST_4
 10
-81.75
 20
75
 30
0
 11
-115
 21
77.59999999999999
 31
0
 12
0
 22
0
 32
0
 70
0
 13
-148.25
 23
58.25972660357525
 33
0
 14
-81.75
 24
57.18016123378902
 34
0
 53
0
  0
DIMENSION
  8
1
  6
CONTINUOUS
 62
2
  2
*D13
  3
DMST_4
 10
-55
 20
48.25
 30
0
 11
-57.6
 21
15
 31
0
 12
0
 22
0
 32
0
 70
0
 13
-71.7402733964247
 23
-18.25
 33
0
 14
-70.6607080266385
 24
48.25
 34
0
 50
90
 53
0
  0
DIMENSION
  8
1
  6
CONTINUOUS
 62
2
  2
*D14
  3
DMST_3
 10
-65
 20
15
 30
0
 11
-67.59999999999999
 21
5.83606414587258
 31
0
 12
0
 22
0
 32
0
 70
0
 13
-95.0756664829762
 23
30
 33
0
 14
-71.43145844853791
 24
15
 34
0
 50
90
 53
0
  0
DIMENSION
  8
1
  6
CONTINUOUS
 62
2
  2
*D15
  3
DMST_2
 10
-75
 20
85
 30
0
 11
-115
 21
88.59999999999999
 31
0
 12
0
 22
0
 32
0
 70
0
  1
□<>
 13
-155
 23
48.25
 33
0
 14
-75
 24
48.25
 34
0
 53
0
  0
DIMENSION
  8
1
  6
CONTINUOUS
 62
2
  2
*D16
  3
DMST_5
 10
-10.7
 20
34
 30
0
 11
-14.1
 21
46.8348156871058
 31
0
 12
0
 22
0
 32
0
 70
0
  1
%%c<>
 13
9.299999999999997
 23
26
 33
0
 14
26.3
 24
34
 34
0
 50
90
 53
0
  0
DIMENSION
  8
1
  6
CONTINUOUS
 62
2
  2
*D17
  3
DMST_4
 10
-0.7000000000000028
 20
33
 30
0
 11
-3.300000000000003
 21
44
 31
0
 12
0
 22
0
 32
0
 70
0
 13
9.299999999999997
 23
26
 33
0
 14
9.299999999999997
 24
33
 34
0
 50
90
 53
0
  0
DIMENSION
  8
1
  6
CONTINUOUS
 62
2
  2
*D18
  3
DMST_2
 10
44.3
 20
75
 30
0
 11
41.8
 21
77.59999999999999
 31
0
 12
0
 22
0
 32
0
 70
0
 13
39.3
 23
43.63000000000005
 33
0
 14
44.3
 24
54.5
 34
0
 53
0
  0
DIMENSION
  8
1
  6
CONTINUOUS
 62
2
  2
*D19
  3
DMST_2
 10
131.5000000000001
 20
85
 30
0
 11
87.90000000000006
 21
87.59999999999999
 31
0
 12
0
 22
0
 32
0
 70
0
 13
44.3
 23
54.5
 33
0
 14
131.5000000000001
 24
22.00000000000001
 34
0
 53
0
  0
DIMENSION
  8
1
  6
CONTINUOUS
 62
2
  2
*D20
  3
DMST_3
 10
131.5000000000001
 20
85
 30
0
 11
134.7
 21
87.59999999999999
 31
0
 12
0
 22
0
 32
0
 70
0
 13
137.8999999999999
 23
24.50000000000001
 33
0
 14
131.5000000000001
 24
22.00000000000001
 34
0
 53
0
  0
DIMENSION
  8
1
  6
CONTINUOUS
 62
2
  2
*D21
  3
DMST_2
 10
-98
 20
65
 30
0
 11
-115
 21
67.59999999999999
 31
0
 12
0
 22
0
 32
0
 70
0
  1
%%c<>
 13
-132
 23
30
 33
0
 14
-98
 24
30
 34
0
 53
0
  0
DIMENSION
  8
1
  6
CONTINUOUS
 62
2
  2
*D22
  3
DMST_6
 10
204.8731392348735
 20
69.02608654766939
 30
0
 11
173.72156960946
 21
52.20910784744991
 31
0
 12
0
 22
0
 32
0
 70
3
  1
1.3
 15
204.1268607651258
 25
67.96162966944867
 35
0
 40
0
 53
0
  0
ENDSEC
  0
EOF
